  0
SECTION
  2
HEADER
  9
$ACADVER
  1
AC1009
  9
$INSBASE
 10
0
 20
0
  9
$EXTMIN
 10
0.45
 20
2.940000000000003
  9
$EXTMAX
 10
8.39386471725428
 20
11.6318921997956
  9
$LIMMIN
 10
0.45
 20
2.940000000000003
  9
$LIMMAX
 10
8.39386471725428
 20
11.6318921997956
  9
$VIEWCTR
 10
10
 20
10
  9
$VIEWSIZE
 40
10
  9
$SNAPMODE
 70
0
  9
$SNAPUNIT
 10
1
 20
1
  9
$SNAPBASE
 10
0
 20
0
  9
$SNAPANG
 50
0
  9
$SNAPSTYLE
 70
0
  9
$SNAPISOPAIR
 70
0
  9
$GRIDMODE
 70
0
  9
$GRIDUNIT
 10
0
 20
0
  9
$ORTHOMODE
 70
0
  9
$REGENMODE
 70
1
  9
$FILLMODE
 70
1
  9
$QTEXTMODE
 70
0
  9
$DRAGMODE
 70
2
  9
$LTSCALE
 40
1
  9
$OSMODE
 70
0
  9
$ATTMODE
 70
1
  9
$TEXTSIZE
 40
3.5
  9
$TRACEWID
 40
0.5
  9
$TEXTSTYLE
  7
STANDARD
  9
$CLAYER
  8
0
  9
$CELTYPE
  6
BYLAYER
  9
$CECOLOR
 62
256
  9
$DIMSCALE
 40
1
  9
$DIMASZ
 40
0.18
  9
$DIMEXO
 40
0.0625
  9
$DIMDLI
 40
0.38
  9
$DIMRND
 40
0
  9
$DIMDLE
 40
0
  9
$DIMEXE
 40
0.18
  9
$DIMTP
 40
0
  9
$DIMTM
 40
0
  9
$DIMTXT
 40
0.18
  9
$DIMCEN
 40
0.09
  9
$DIMTSZ
 40
0
  9
$DIMTOL
 70
0
  9
$DIMLIM
 70
0
  9
$DIMTIH
 70
1
  9
$DIMTOH
 70
1
  9
$DIMSE1
 70
0
  9
$DIMSE2
 70
0
  9
$DIMTAD
 70
0
  9
$DIMZIN
 70
0
  9
$DIMBLK
  1

  9
$DIMASO
 70
1
  9
$DIMSHO
 70
1
  9
$DIMPOST
  1

  9
$DIMAPOST
  1

  9
$DIMALT
 70
0
  9
$DIMALTD
 70
2
  9
$DIMALTF
 40
25.4
  9
$DIMLFAC
 40
1
  9
$DIMTOFL
 70
0
  9
$DIMTVP
 40
0
  9
$DIMTIX
 70
0
  9
$DIMSOXD
 70
0
  9
$DIMSAH
 70
0
  9
$DIMBLK1
  1

  9
$DIMBLK2
  1

  9
$DIMSTYLE
  2
*UNNAMED
  9
$DIMCLRD
 70
0
  9
$DIMCLRE
 70
0
  9
$DIMCLRT
 70
0
  9
$DIMTFAC
 40
1
  9
$DIMGAP
 40
0.09
  9
$LUNITS
 70
2
  9
$LUPREC
 70
4
  9
$AXISMODE
 70
0
  9
$AXISUNIT
 10
0
 20
0
  9
$SKETCHINC
 40
0.1
  9
$FILLETRAD
 40
2
  9
$AUNITS
 70
0
  9
$AUPREC
 70
0
  9
$MENU
  1
ACAD
  9
$ELEVATION
 40
0
  9
$THICKNESS
 40
0
  9
$VIEWDIR
 10
0
 20
0
 30
1
  9
$LIMCHECK
 70
0
  9
$BLIPMODE
 70
1
  9
$CHAMFERA
 40
0
  9
$CHAMFERB
 40
0
  9
$FASTZOOM
 70
1
  9
$SKPOLY
 70
0
  9
$ANGBASE
 50
0
  9
$ANGDIR
 70
0
  9
$PDMODE
 70
0
  9
$PDSIZE
 40
0
  9
$PLINEWID
 40
0
  9
$COORDS
 70
2
  0
ENDSEC
  0
SECTION
  2
TABLES
  0
TABLE
  2
DIMSTYLE
 70
2
  0
DIMSTYLE
  2
DMST_1
 70
0
  3

  4

  5

  6

  7

 40
1
 41
0.1
 42
0
 43
0.7
 44
0.2
 45
0
 46
0
 47
0
 48
0
140
0.1
141
0
142
0.1
143
25.4
144
1
145
0
146
1
147
0.25
 71
0
 72
0
 73
0
 74
0
 75
0
 76
0
 77
0
 78
9
170
0
171
2
172
0
173
0
174
0
175
0
176
7
177
7
178
7
  0
DIMSTYLE
  2
DMST_2
 70
0
  3

  4

  5

  6

  7

 40
1
 41
0.1
 42
0
 43
0.7
 44
0.2
 45
0
 46
0
 47
0
 48
0
140
0.1
141
0
142
0.1
143
25.4
144
1
145
0
146
1
147
0.2
 71
0
 72
0
 73
0
 74
0
 75
0
 76
0
 77
0
 78
9
170
0
171
2
172
0
173
0
174
0
175
0
176
7
177
7
178
7
  0
ENDTAB
  0
TABLE
  2
LTYPE
 70
9
  0
LTYPE
  2
CONTINUOUS
 70
64
  3
Solid line
 72
65
 73
0
 40
0
  0
LTYPE
  2
BORDER
 70
64
  3
__ __ . __ __ .
 72
65
 73
6
 40
0.400284509201113
 49
0.1143670026288894
 49
-0.05718350131444471
 49
0.1143670026288894
 49
-0.05718350131444471
 49
0
 49
-0.05718350131444471
  0
LTYPE
  2
CENTER
 70
64
  3
____ _ ____ _
 72
65
 73
4
 40
0.4574680105155577
 49
0.2859175065722235
 49
-0.05718350131444471
 49
0.05718350131444471
 49
-0.05718350131444471
  0
LTYPE
  2
DASHDOT
 70
64
  3
__ . __ . __ .
 72
65
 73
4
 40
0.2287340052577788
 49
0.1143670026288894
 49
-0.05718350131444471
 49
0
 49
-0.05718350131444471
  0
LTYPE
  2
DASHED
 70
64
  3
__ __ __ __ __
 72
65
 73
2
 40
0.1715505039433341
 49
0.1143670026288894
 49
-0.05718350131444471
  0
LTYPE
  2
DIVIDE
 70
64
  3
__ . . __ . . 
 72
65
 73
6
 40
0.2859175065722235
 49
0.1143670026288894
 49
-0.05718350131444471
 49
0
 49
-0.05718350131444471
 49
0
 49
-0.05718350131444471
  0
LTYPE
  2
DOT
 70
64
  3
..............
 72
65
 73
4
 40
0.1143670026288894
 49
0
 49
-0.05718350131444471
 49
0
 49
-0.05718350131444471
  0
LTYPE
  2
HIDDEN
 70
64
  3
_ _ _ _ _ _ _
 72
65
 73
2
 40
0.08577525197166706
 49
0.05718350131444471
 49
-0.02859175065722236
  0
LTYPE
  2
PHANTOM
 70
64
  3
_____ _ _ _____ _ _ 
 72
65
 73
6
 40
0.5718350131444471
 49
0.2859175065722235
 49
-0.05718350131444471
 49
0.05718350131444471
 49
-0.05718350131444471
 49
0.05718350131444471
 49
-0.05718350131444471
  0
ENDTAB
  0
TABLE
  2
LAYER
 70
2
  0
LAYER
  2
0
 70
0
 62
7
  6
CONTINUOUS
  0
ENDTAB
  0
TABLE
  2
STYLE
 70
4
  0
STYLE
  2
STANDARD
 70
0
 40
0
 41
1
 50
0
 71
0
 42
3.5
  3
txt
  4

  0
STYLE
  2
SIMPLEX
 70
0
 40
0
 41
1
 50
0
 71
0
 42
3.5
  3
simplex
  4

  0
STYLE
  2
COMPLEX
 70
0
 40
0
 41
1
 50
0
 71
0
 42
3.5
  3
complex
  4

  0
STYLE
  2
ITALIC
 70
0
 40
0
 41
1
 50
0
 71
0
 42
3.5
  3
italic
  4

  0
ENDTAB
  0
TABLE
  2
VIEW
 70
0
  0
ENDTAB
  0
ENDSEC
  0
SECTION
  2
BLOCKS
  0
BLOCK
  8
0
  2
*X0
 70
1
 10
0
 20
0
 30
0
  0
LINE
  8
0
 62
7
  6
DASHED
 10
0.5
 20
8.242819253992694
 30
0
 11
0.5571807460073028
 21
8.299999999999997
 31
0
  0
LINE
  8
0
 62
7
  6
DASHED
 10
0.5693127803632669
 20
8.099999999999996
 30
0
 11
0.7399999999999998
 21
8.270687219636729
 31
0
  0
LINE
  8
0
 62
7
 10
0.4999999999999991
 20
8.136753236814712
 30
0
 11
0.6632467631852856
 21
8.299999999999997
 31
0
  0
LINE
  8
0
 62
7
 10
0.6753787975412489
 20
8.099999999999998
 30
0
 11
0.7399999999999989
 21
8.164621202458747
 31
0
  0
ENDBLK
  8
0
  0
BLOCK
  8
0
  2
*X1
 70
1
 10
0
 20
0
 30
0
  0
LINE
  8
0
 62
7
  6
DASHED
 10
0.4999999999999991
 20
11.00053570062023
 30
0
 11
0.5494642993797729
 21
11.05
 31
0
  0
LINE
  8
0
 62
7
  6
DASHED
 10
0.5615963337357357
 20
10.85
 30
0
 11
0.7399999999999993
 21
11.02840366626426
 31
0
  0
LINE
  8
0
 62
7
 10
0.5000000000000009
 20
10.89446968344225
 30
0
 11
0.655530316557754
 21
11.05
 31
0
  0
LINE
  8
0
 62
7
 10
0.6676623509137176
 20
10.85
 30
0
 11
0.7400000000000002
 21
10.92233764908628
 31
0
  0
ENDBLK
  8
0
  0
BLOCK
  8
0
  2
*X2
 70
1
 10
0
 20
0
 30
0
  0
LINE
  8
0
 62
7
  6
DASHED
 10
2.090000000000002
 20
10.89347942577252
 30
0
 11
2.246520574227487
 21
11.05
 31
0
  0
LINE
  8
0
 62
7
  6
DASHED
 10
2.258652608583449
 20
10.85
 30
0
 11
2.390000000000003
 21
10.98134739141655
 31
0
  0
LINE
  8
0
 62
7
 10
2.090000000000003
 20
10.9995454429505
 30
0
 11
2.140454557049504
 21
11.05
 31
0
  0
LINE
  8
0
 62
7
 10
2.152586591405468
 20
10.85
 30
0
 11
2.352586591405468
 21
11.05
 31
0
  0
LINE
  8
0
 62
7
 10
2.364718625761432
 20
10.85
 30
0
 11
2.390000000000004
 21
10.87528137423857
 31
0
  0
ENDBLK
  8
0
  0
BLOCK
  8
0
  2
*X3
 70
1
 10
0
 20
0
 30
0
  0
LINE
  8
0
 62
7
  6
DASHED
 10
2.090000000000003
 20
8.135762979144983
 30
0
 11
2.254237020855017
 21
8.299999999999997
 31
0
  0
LINE
  8
0
 62
7
  6
DASHED
 10
2.26636905521098
 20
8.099999999999996
 30
0
 11
2.390000000000004
 21
8.22363094478902
 31
0
  0
LINE
  8
0
 62
7
 10
2.090000000000003
 20
8.241828996322965
 30
0
 11
2.148171003677036
 21
8.299999999999997
 31
0
  0
LINE
  8
0
 62
7
 10
2.160303038032999
 20
8.099999999999998
 30
0
 11
2.360303038033
 21
8.299999999999997
 31
0
  0
LINE
  8
0
 62
7
 10
2.372435072388963
 20
8.099999999999998
 30
0
 11
2.390000000000005
 21
8.117564927611038
 31
0
  0
ENDBLK
  8
0
  0
BLOCK
  8
0
  2
*X4
 70
1
 10
0
 20
0
 30
0
  0
LINE
  8
0
 62
7
 10
0.549464299379772
 20
11.05
 30
0
 11
0.6994642993797706
 21
11.2
 31
0
  0
LINE
  8
0
 62
7
 10
0.5
 20
11.10660171779821
 30
0
 11
0.5933982822017896
 21
11.2
 31
0
  0
LINE
  8
0
 62
7
 10
0.655530316557754
 20
11.05
 30
0
 11
0.7400000000000002
 21
11.13446968344225
 31
0
  0
ENDBLK
  8
0
  0
BLOCK
  8
0
  2
*X5
 70
1
 10
0
 20
0
 30
0
  0
LINE
  8
0
 62
7
 10
0.5000000000000004
 20
10.78840366626426
 30
0
 11
0.5615963337357339
 21
10.85
 31
0
  0
LINE
  8
0
 62
7
 10
0.5000000000000004
 20
10.5762716319083
 30
0
 11
0.7400000000000002
 21
10.8162716319083
 31
0
  0
LINE
  8
0
 62
7
 10
0.5000000000000004
 20
10.36413959755233
 30
0
 11
0.7400000000000002
 21
10.60413959755233
 31
0
  0
LINE
  8
0
 62
7
 10
0.5000000000000004
 20
10.15200756319637
 30
0
 11
0.7400000000000002
 21
10.39200756319637
 31
0
  0
LINE
  8
0
 62
7
 10
0.5000000000000004
 20
9.939875528840407
 30
0
 11
0.7400000000000002
 21
10.17987552884041
 31
0
  0
LINE
  8
0
 62
7
 10
0.5000000000000004
 20
9.727743494484443
 30
0
 11
0.7400000000000002
 21
9.967743494484441
 31
0
  0
LINE
  8
0
 62
7
 10
0.5000000000000004
 20
9.515611460128479
 30
0
 11
0.7400000000000002
 21
9.755611460128478
 31
0
  0
LINE
  8
0
 62
7
 10
0.5000000000000004
 20
9.303479425772515
 30
0
 11
0.7400000000000002
 21
9.543479425772514
 31
0
  0
LINE
  8
0
 62
7
 10
0.5000000000000004
 20
9.091347391416551
 30
0
 11
0.7400000000000002
 21
9.33134739141655
 31
0
  0
LINE
  8
0
 62
7
 10
0.5000000000000004
 20
8.879215357060588
 30
0
 11
0.7400000000000002
 21
9.119215357060586
 31
0
  0
LINE
  8
0
 62
7
 10
0.5000000000000004
 20
8.667083322704624
 30
0
 11
0.7400000000000002
 21
8.907083322704622
 31
0
  0
LINE
  8
0
 62
7
 10
0.5000000000000004
 20
8.45495128834866
 30
0
 11
0.7400000000000002
 21
8.694951288348658
 31
0
  0
LINE
  8
0
 62
7
 10
0.5571807460073028
 20
8.299999999999997
 30
0
 11
0.7400000000000002
 21
8.482819253992695
 31
0
  0
LINE
  8
0
 62
7
 10
0.5
 20
10.68233764908628
 30
0
 11
0.6676623509137176
 21
10.85
 31
0
  0
LINE
  8
0
 62
7
 10
0.5
 20
10.47020561473031
 30
0
 11
0.7400000000000007
 21
10.71020561473031
 31
0
  0
LINE
  8
0
 62
7
 10
0.5
 20
10.25807358037435
 30
0
 11
0.7400000000000007
 21
10.49807358037435
 31
0
  0
LINE
  8
0
 62
7
 10
0.5
 20
10.04594154601839
 30
0
 11
0.7400000000000007
 21
10.28594154601839
 31
0
  0
LINE
  8
0
 62
7
 10
0.5
 20
9.833809511662423
 30
0
 11
0.7400000000000007
 21
10.07380951166242
 31
0
  0
LINE
  8
0
 62
7
 10
0.5
 20
9.621677477306459
 30
0
 11
0.7400000000000007
 21
9.861677477306458
 31
0
  0
LINE
  8
0
 62
7
 10
0.5
 20
9.409545442950495
 30
0
 11
0.7400000000000007
 21
9.649545442950494
 31
0
  0
LINE
  8
0
 62
7
 10
0.5
 20
9.197413408594532
 30
0
 11
0.7400000000000007
 21
9.43741340859453
 31
0
  0
LINE
  8
0
 62
7
 10
0.5
 20
8.985281374238568
 30
0
 11
0.7400000000000007
 21
9.225281374238566
 31
0
  0
LINE
  8
0
 62
7
 10
0.5
 20
8.773149339882604
 30
0
 11
0.7400000000000007
 21
9.013149339882602
 31
0
  0
LINE
  8
0
 62
7
 10
0.5
 20
8.56101730552664
 30
0
 11
0.7400000000000007
 21
8.801017305526639
 31
0
  0
LINE
  8
0
 62
7
 10
0.5
 20
8.348885271170676
 30
0
 11
0.7400000000000007
 21
8.588885271170675
 31
0
  0
LINE
  8
0
 62
7
 10
0.6632467631852861
 20
8.299999999999997
 30
0
 11
0.7400000000000007
 21
8.376753236814711
 31
0
  0
ENDBLK
  8
0
  0
BLOCK
  8
0
  2
*X6
 70
1
 10
0
 20
0
 30
0
  0
LINE
  8
0
 62
7
 10
0.5
 20
8.03068721963673
 30
0
 11
0.5693127803632656
 21
8.099999999999996
 31
0
  0
LINE
  8
0
 62
7
 10
0.6314448147192331
 20
7.949999999999998
 30
0
 11
0.7399999999999998
 21
8.058555185280765
 31
0
  0
LINE
  8
0
 62
7
 10
0.5253787975412521
 20
7.949999999999999
 30
0
 11
0.6753787975412489
 21
8.099999999999998
 31
0
  0
LINE
  8
0
 62
7
 10
0.7375108318972163
 20
7.949999999999999
 30
0
 11
0.7400000000000002
 21
7.952489168102783
 31
0
  0
ENDBLK
  8
0
  0
BLOCK
  8
0
  2
*X7
 70
1
 10
0
 20
0
 30
0
  0
LINE
  8
0
 62
7
  6
DASHED
 10
3.840000000000003
 20
10.9464231509248
 30
0
 11
3.943576849075207
 21
11.05
 31
0
  0
LINE
  8
0
 62
7
  6
DASHED
 10
3.955708883431171
 20
10.85
 30
0
 11
4.155708883431172
 21
11.05
 31
0
  0
LINE
  8
0
 62
7
  6
DASHED
 10
4.167840917787135
 20
10.85
 30
0
 11
4.367840917787135
 21
11.05
 31
0
  0
LINE
  8
0
 62
7
  6
DASHED
 10
4.379972952143099
 20
10.85
 30
0
 11
4.579972952143099
 21
11.05
 31
0
  0
LINE
  8
0
 62
7
  6
DASHED
 10
4.592104986499063
 20
10.85
 30
0
 11
4.792104986499063
 21
11.05
 31
0
  0
LINE
  8
0
 62
7
  6
DASHED
 10
4.804237020855027
 20
10.85
 30
0
 11
5.004237020855027
 21
11.05
 31
0
  0
LINE
  8
0
 62
7
  6
DASHED
 10
5.016369055210991
 20
10.85
 30
0
 11
5.216369055210991
 21
11.05
 31
0
  0
LINE
  8
0
 62
7
  6
DASHED
 10
5.228501089566954
 20
10.85
 30
0
 11
5.428501089566955
 21
11.05
 31
0
  0
LINE
  8
0
 62
7
  6
DASHED
 10
5.440633123922918
 20
10.85
 30
0
 11
5.640633123922918
 21
11.05
 31
0
  0
LINE
  8
0
 62
7
  6
DASHED
 10
5.652765158278882
 20
10.85
 30
0
 11
5.852765158278882
 21
11.05
 31
0
  0
LINE
  8
0
 62
7
  6
DASHED
 10
5.864897192634846
 20
10.85
 30
0
 11
6.064897192634846
 21
11.05
 31
0
  0
LINE
  8
0
 62
7
  6
DASHED
 10
6.07702922699081
 20
10.85
 30
0
 11
6.27702922699081
 21
11.05
 31
0
  0
LINE
  8
0
 62
7
  6
DASHED
 10
6.289161261346774
 20
10.85
 30
0
 11
6.489161261346774
 21
11.05
 31
0
  0
LINE
  8
0
 62
7
  6
DASHED
 10
6.501293295702737
 20
10.85
 30
0
 11
6.701293295702738
 21
11.05
 31
0
  0
LINE
  8
0
 62
7
  6
DASHED
 10
6.713425330058701
 20
10.85
 30
0
 11
6.913425330058701
 21
11.05
 31
0
  0
LINE
  8
0
 62
7
  6
DASHED
 10
6.925557364414665
 20
10.85
 30
0
 11
7.125557364414665
 21
11.05
 31
0
  0
LINE
  8
0
 62
7
  6
DASHED
 10
7.137689398770629
 20
10.85
 30
0
 11
7.337689398770629
 21
11.05
 31
0
  0
LINE
  8
0
 62
7
  6
DASHED
 10
7.349821433126593
 20
10.85
 30
0
 11
7.549821433126593
 21
11.05
 31
0
  0
LINE
  8
0
 62
7
  6
DASHED
 10
7.561953467482557
 20
10.85
 30
0
 11
7.750000000000004
 21
11.03804653251745
 31
0
  0
LINE
  8
0
 62
7
 10
3.849642866253188
 20
10.85
 30
0
 11
4.049642866253189
 21
11.05
 31
0
  0
LINE
  8
0
 62
7
 10
4.061774900609152
 20
10.85
 30
0
 11
4.261774900609153
 21
11.05
 31
0
  0
LINE
  8
0
 62
7
 10
4.273906934965116
 20
10.85
 30
0
 11
4.473906934965116
 21
11.05
 31
0
  0
LINE
  8
0
 62
7
 10
4.48603896932108
 20
10.85
 30
0
 11
4.68603896932108
 21
11.05
 31
0
  0
LINE
  8
0
 62
7
 10
4.698171003677044
 20
10.85
 30
0
 11
4.898171003677044
 21
11.05
 31
0
  0
LINE
  8
0
 62
7
 10
4.910303038033008
 20
10.85
 30
0
 11
5.110303038033008
 21
11.05
 31
0
  0
LINE
  8
0
 62
7
 10
5.122435072388972
 20
10.85
 30
0
 11
5.322435072388972
 21
11.05
 31
0
  0
LINE
  8
0
 62
7
 10
5.334567106744935
 20
10.85
 30
0
 11
5.534567106744936
 21
11.05
 31
0
  0
LINE
  8
0
 62
7
 10
5.546699141100899
 20
10.85
 30
0
 11
5.746699141100899
 21
11.05
 31
0
  0
LINE
  8
0
 62
7
 10
5.758831175456863
 20
10.85
 30
0
 11
5.958831175456863
 21
11.05
 31
0
  0
LINE
  8
0
 62
7
 10
5.970963209812827
 20
10.85
 30
0
 11
6.170963209812827
 21
11.05
 31
0
  0
LINE
  8
0
 62
7
 10
6.183095244168791
 20
10.85
 30
0
 11
6.383095244168791
 21
11.05
 31
0
  0
LINE
  8
0
 62
7
 10
6.395227278524755
 20
10.85
 30
0
 11
6.595227278524755
 21
11.05
 31
0
  0
LINE
  8
0
 62
7
 10
6.607359312880718
 20
10.85
 30
0
 11
6.807359312880719
 21
11.05
 31
0
  0
LINE
  8
0
 62
7
 10
6.819491347236682
 20
10.85
 30
0
 11
7.019491347236682
 21
11.05
 31
0
  0
LINE
  8
0
 62
7
 10
7.031623381592646
 20
10.85
 30
0
 11
7.231623381592646
 21
11.05
 31
0
  0
LINE
  8
0
 62
7
 10
7.24375541594861
 20
10.85
 30
0
 11
7.44375541594861
 21
11.05
 31
0
  0
LINE
  8
0
 62
7
 10
7.455887450304574
 20
10.85
 30
0
 11
7.655887450304574
 21
11.05
 31
0
  0
LINE
  8
0
 62
7
 10
7.668019484660538
 20
10.85
 30
0
 11
7.750000000000003
 21
10.93198051533947
 31
0
  0
ENDBLK
  8
0
  0
BLOCK
  8
0
  2
*X8
 70
1
 10
0
 20
0
 30
0
  0
LINE
  8
0
 62
7
  6
DASHED
 10
3.840000000000003
 20
8.188706704297269
 30
0
 11
3.951293295702737
 21
8.299999999999995
 31
0
  0
LINE
  8
0
 62
7
  6
DASHED
 10
3.963425330058701
 20
8.099999999999996
 30
0
 11
4.163425330058701
 21
8.299999999999995
 31
0
  0
LINE
  8
0
 62
7
  6
DASHED
 10
4.175557364414665
 20
8.099999999999996
 30
0
 11
4.375557364414665
 21
8.299999999999995
 31
0
  0
LINE
  8
0
 62
7
  6
DASHED
 10
4.387689398770629
 20
8.099999999999996
 30
0
 11
4.587689398770629
 21
8.299999999999995
 31
0
  0
LINE
  8
0
 62
7
  6
DASHED
 10
4.599821433126593
 20
8.099999999999996
 30
0
 11
4.799821433126593
 21
8.299999999999995
 31
0
  0
LINE
  8
0
 62
7
  6
DASHED
 10
4.811953467482557
 20
8.099999999999996
 30
0
 11
5.011953467482557
 21
8.299999999999995
 31
0
  0
LINE
  8
0
 62
7
  6
DASHED
 10
5.02408550183852
 20
8.099999999999996
 30
0
 11
5.224085501838521
 21
8.299999999999995
 31
0
  0
LINE
  8
0
 62
7
  6
DASHED
 10
5.236217536194484
 20
8.099999999999996
 30
0
 11
5.436217536194484
 21
8.299999999999995
 31
0
  0
LINE
  8
0
 62
7
  6
DASHED
 10
5.448349570550448
 20
8.099999999999996
 30
0
 11
5.648349570550448
 21
8.299999999999995
 31
0
  0
LINE
  8
0
 62
7
  6
DASHED
 10
5.660481604906412
 20
8.099999999999996
 30
0
 11
5.860481604906412
 21
8.299999999999995
 31
0
  0
LINE
  8
0
 62
7
  6
DASHED
 10
5.872613639262376
 20
8.099999999999996
 30
0
 11
6.072613639262376
 21
8.299999999999995
 31
0
  0
LINE
  8
0
 62
7
  6
DASHED
 10
6.08474567361834
 20
8.099999999999996
 30
0
 11
6.28474567361834
 21
8.299999999999995
 31
0
  0
LINE
  8
0
 62
7
  6
DASHED
 10
6.296877707974303
 20
8.099999999999996
 30
0
 11
6.496877707974304
 21
8.299999999999995
 31
0
  0
LINE
  8
0
 62
7
  6
DASHED
 10
6.509009742330267
 20
8.099999999999996
 30
0
 11
6.709009742330267
 21
8.299999999999995
 31
0
  0
LINE
  8
0
 62
7
  6
DASHED
 10
6.721141776686231
 20
8.099999999999996
 30
0
 11
6.921141776686231
 21
8.299999999999995
 31
0
  0
LINE
  8
0
 62
7
  6
DASHED
 10
6.933273811042195
 20
8.099999999999996
 30
0
 11
7.133273811042195
 21
8.299999999999995
 31
0
  0
LINE
  8
0
 62
7
  6
DASHED
 10
7.145405845398159
 20
8.099999999999996
 30
0
 11
7.345405845398159
 21
8.299999999999995
 31
0
  0
LINE
  8
0
 62
7
  6
DASHED
 10
7.357537879754123
 20
8.099999999999996
 30
0
 11
7.557537879754123
 21
8.299999999999995
 31
0
  0
LINE
  8
0
 62
7
  6
DASHED
 10
7.569669914110086
 20
8.099999999999996
 30
0
 11
7.750000000000002
 21
8.280330085889913
 31
0
  0
LINE
  8
0
 62
7
 10
3.840000000000004
 20
8.294772721475251
 30
0
 11
3.845227278524756
 21
8.299999999999997
 31
0
  0
LINE
  8
0
 62
7
 10
3.857359312880721
 20
8.099999999999996
 30
0
 11
4.05735931288072
 21
8.299999999999997
 31
0
  0
LINE
  8
0
 62
7
 10
4.069491347236685
 20
8.099999999999996
 30
0
 11
4.269491347236684
 21
8.299999999999997
 31
0
  0
LINE
  8
0
 62
7
 10
4.281623381592649
 20
8.099999999999996
 30
0
 11
4.481623381592648
 21
8.299999999999997
 31
0
  0
LINE
  8
0
 62
7
 10
4.493755415948613
 20
8.099999999999996
 30
0
 11
4.693755415948612
 21
8.299999999999997
 31
0
  0
LINE
  8
0
 62
7
 10
4.705887450304576
 20
8.099999999999996
 30
0
 11
4.905887450304576
 21
8.299999999999997
 31
0
  0
LINE
  8
0
 62
7
 10
4.91801948466054
 20
8.099999999999996
 30
0
 11
5.11801948466054
 21
8.299999999999997
 31
0
  0
LINE
  8
0
 62
7
 10
5.130151519016504
 20
8.099999999999996
 30
0
 11
5.330151519016503
 21
8.299999999999997
 31
0
  0
LINE
  8
0
 62
7
 10
5.342283553372468
 20
8.099999999999996
 30
0
 11
5.542283553372467
 21
8.299999999999997
 31
0
  0
LINE
  8
0
 62
7
 10
5.554415587728432
 20
8.099999999999996
 30
0
 11
5.754415587728431
 21
8.299999999999997
 31
0
  0
LINE
  8
0
 62
7
 10
5.766547622084396
 20
8.099999999999996
 30
0
 11
5.966547622084395
 21
8.299999999999997
 31
0
  0
LINE
  8
0
 62
7
 10
5.978679656440359
 20
8.099999999999996
 30
0
 11
6.178679656440359
 21
8.299999999999997
 31
0
  0
LINE
  8
0
 62
7
 10
6.190811690796323
 20
8.099999999999996
 30
0
 11
6.390811690796323
 21
8.299999999999997
 31
0
  0
LINE
  8
0
 62
7
 10
6.402943725152287
 20
8.099999999999996
 30
0
 11
6.602943725152286
 21
8.299999999999997
 31
0
  0
LINE
  8
0
 62
7
 10
6.615075759508251
 20
8.099999999999996
 30
0
 11
6.81507575950825
 21
8.299999999999997
 31
0
  0
LINE
  8
0
 62
7
 10
6.827207793864215
 20
8.099999999999996
 30
0
 11
7.027207793864214
 21
8.299999999999997
 31
0
  0
LINE
  8
0
 62
7
 10
7.039339828220179
 20
8.099999999999996
 30
0
 11
7.239339828220178
 21
8.299999999999997
 31
0
  0
LINE
  8
0
 62
7
 10
7.251471862576143
 20
8.099999999999996
 30
0
 11
7.451471862576142
 21
8.299999999999997
 31
0
  0
LINE
  8
0
 62
7
 10
7.463603896932106
 20
8.099999999999996
 30
0
 11
7.663603896932106
 21
8.299999999999997
 31
0
  0
LINE
  8
0
 62
7
 10
7.67573593128807
 20
8.099999999999996
 30
0
 11
7.750000000000004
 21
8.174264068711931
 31
0
  0
ENDBLK
  8
0
  0
BLOCK
  8
0
  2
*X9
 70
1
 10
0
 20
0
 30
0
  0
LINE
  8
0
 62
7
 10
3.990000000000005
 20
11.09642315092481
 30
0
 11
4.093576849075196
 21
11.2
 31
0
  0
LINE
  8
0
 62
7
 10
4.155708883431164
 20
11.05
 30
0
 11
4.165000000000004
 21
11.05929111656884
 31
0
  0
LINE
  8
0
 62
7
 10
4.049642866253182
 20
11.05
 30
0
 11
4.165000000000003
 21
11.16535713374682
 31
0
  0
ENDBLK
  8
0
  0
BLOCK
  8
0
  2
*X10
 70
1
 10
0
 20
0
 30
0
  0
LINE
  8
0
 62
7
 10
3.990000000000005
 20
10.67215908221287
 30
0
 11
4.165000000000004
 21
10.84715908221287
 31
0
  0
LINE
  8
0
 62
7
 10
3.990000000000005
 20
10.46002704785691
 30
0
 11
4.165000000000004
 21
10.63502704785691
 31
0
  0
LINE
  8
0
 62
7
 10
3.990000000000005
 20
10.24789501350095
 30
0
 11
4.165000000000004
 21
10.42289501350094
 31
0
  0
LINE
  8
0
 62
7
 10
3.990000000000005
 20
10.03576297914498
 30
0
 11
4.165000000000004
 21
10.21076297914498
 31
0
  0
LINE
  8
0
 62
7
 10
3.990000000000005
 20
9.823630944789018
 30
0
 11
4.165000000000004
 21
9.998630944789015
 31
0
  0
LINE
  8
0
 62
7
 10
3.990000000000005
 20
9.611498910433054
 30
0
 11
4.165000000000004
 21
9.786498910433052
 31
0
  0
LINE
  8
0
 62
7
 10
3.990000000000005
 20
9.399366876077091
 30
0
 11
4.165000000000004
 21
9.574366876077088
 31
0
  0
LINE
  8
0
 62
7
 10
3.990000000000005
 20
9.187234841721127
 30
0
 11
4.165000000000004
 21
9.362234841721124
 31
0
  0
LINE
  8
0
 62
7
 10
3.990000000000005
 20
8.975102807365163
 30
0
 11
4.165000000000004
 21
9.15010280736516
 31
0
  0
LINE
  8
0
 62
7
 10
3.990000000000005
 20
8.762970773009199
 30
0
 11
4.165000000000004
 21
8.937970773009196
 31
0
  0
LINE
  8
0
 62
7
 10
3.990000000000005
 20
8.550838738653235
 30
0
 11
4.165000000000004
 21
8.725838738653232
 31
0
  0
LINE
  8
0
 62
7
 10
3.990000000000005
 20
8.338706704297271
 30
0
 11
4.165000000000004
 21
8.513706704297269
 31
0
  0
LINE
  8
0
 62
7
 10
4.163425330058696
 20
8.299999999999997
 30
0
 11
4.165000000000004
 21
8.301574669941305
 31
0
  0
LINE
  8
0
 62
7
 10
3.990000000000005
 20
10.77822509939086
 30
0
 11
4.061774900609144
 21
10.85
 31
0
  0
LINE
  8
0
 62
7
 10
3.990000000000005
 20
10.56609306503489
 30
0
 11
4.165000000000004
 21
10.74109306503489
 31
0
  0
LINE
  8
0
 62
7
 10
3.990000000000005
 20
10.35396103067893
 30
0
 11
4.165000000000004
 21
10.52896103067893
 31
0
  0
LINE
  8
0
 62
7
 10
3.990000000000005
 20
10.14182899632296
 30
0
 11
4.165000000000004
 21
10.31682899632296
 31
0
  0
LINE
  8
0
 62
7
 10
3.990000000000005
 20
9.929696961967
 30
0
 11
4.165000000000004
 21
10.104696961967
 31
0
  0
LINE
  8
0
 62
7
 10
3.990000000000005
 20
9.717564927611036
 30
0
 11
4.165000000000004
 21
9.892564927611035
 31
0
  0
LINE
  8
0
 62
7
 10
3.990000000000005
 20
9.505432893255072
 30
0
 11
4.165000000000004
 21
9.680432893255071
 31
0
  0
LINE
  8
0
 62
7
 10
3.990000000000005
 20
9.293300858899109
 30
0
 11
4.165000000000004
 21
9.468300858899108
 31
0
  0
LINE
  8
0
 62
7
 10
3.990000000000005
 20
9.081168824543145
 30
0
 11
4.165000000000004
 21
9.256168824543144
 31
0
  0
LINE
  8
0
 62
7
 10
3.990000000000005
 20
8.869036790187181
 30
0
 11
4.165000000000004
 21
9.04403679018718
 31
0
  0
LINE
  8
0
 62
7
 10
3.990000000000005
 20
8.656904755831217
 30
0
 11
4.165000000000004
 21
8.831904755831216
 31
0
  0
LINE
  8
0
 62
7
 10
3.990000000000005
 20
8.444772721475253
 30
0
 11
4.165000000000004
 21
8.619772721475252
 31
0
  0
LINE
  8
0
 62
7
 10
4.057359312880714
 20
8.299999999999997
 30
0
 11
4.165000000000004
 21
8.407640687119288
 31
0
  0
ENDBLK
  8
0
  0
BLOCK
  8
0
  2
*X11
 70
1
 10
0
 20
0
 30
0
  0
LINE
  8
0
 62
7
 10
4.025557364414662
 20
7.949999999999999
 30
0
 11
4.165000000000004
 21
8.089442635585343
 31
0
  0
LINE
  8
0
 62
7
 10
3.990000000000005
 20
8.020508652763324
 30
0
 11
4.069491347236677
 21
8.099999999999996
 31
0
  0
LINE
  8
0
 62
7
 10
4.131623381592644
 20
7.949999999999999
 30
0
 11
4.165000000000004
 21
7.983376618407359
 31
0
  0
ENDBLK
  8
0
  0
BLOCK
  8
0
  2
*X12
 70
1
 10
0
 20
0
 30
0
  0
LINE
  8
0
 62
7
 10
7.425000000000005
 20
11.13731060122938
 30
0
 11
7.487689398770626
 21
11.2
 31
0
  0
LINE
  8
0
 62
7
 10
7.549821433126593
 20
11.05
 30
0
 11
7.600000000000004
 21
11.10017856687341
 31
0
  0
LINE
  8
0
 62
7
 10
7.44375541594861
 20
11.05
 30
0
 11
7.593755415948609
 21
11.2
 31
0
  0
ENDBLK
  8
0
  0
BLOCK
  8
0
  2
*X13
 70
1
 10
0
 20
0
 30
0
  0
LINE
  8
0
 62
7
 10
7.425000000000005
 20
10.71304653251745
 30
0
 11
7.561953467482555
 21
10.85
 31
0
  0
LINE
  8
0
 62
7
 10
7.425000000000005
 20
10.50091449816148
 30
0
 11
7.600000000000006
 21
10.67591449816148
 31
0
  0
LINE
  8
0
 62
7
 10
7.425000000000005
 20
10.28878246380552
 30
0
 11
7.600000000000006
 21
10.46378246380552
 31
0
  0
LINE
  8
0
 62
7
 10
7.425000000000005
 20
10.07665042944955
 30
0
 11
7.600000000000006
 21
10.25165042944955
 31
0
  0
LINE
  8
0
 62
7
 10
7.425000000000005
 20
9.86451839509359
 30
0
 11
7.600000000000006
 21
10.03951839509359
 31
0
  0
LINE
  8
0
 62
7
 10
7.425000000000005
 20
9.652386360737626
 30
0
 11
7.600000000000006
 21
9.827386360737625
 31
0
  0
LINE
  8
0
 62
7
 10
7.425000000000005
 20
9.440254326381663
 30
0
 11
7.600000000000006
 21
9.615254326381661
 31
0
  0
LINE
  8
0
 62
7
 10
7.425000000000005
 20
9.228122292025699
 30
0
 11
7.600000000000006
 21
9.403122292025698
 31
0
  0
LINE
  8
0
 62
7
 10
7.425000000000005
 20
9.015990257669735
 30
0
 11
7.600000000000006
 21
9.190990257669734
 31
0
  0
LINE
  8
0
 62
7
 10
7.425000000000005
 20
8.803858223313771
 30
0
 11
7.600000000000006
 21
8.97885822331377
 31
0
  0
LINE
  8
0
 62
7
 10
7.425000000000005
 20
8.591726188957807
 30
0
 11
7.600000000000006
 21
8.766726188957806
 31
0
  0
LINE
  8
0
 62
7
 10
7.425000000000005
 20
8.379594154601843
 30
0
 11
7.600000000000006
 21
8.554594154601842
 31
0
  0
LINE
  8
0
 62
7
 10
7.557537879754124
 20
8.299999999999997
 30
0
 11
7.600000000000006
 21
8.342462120245878
 31
0
  0
LINE
  8
0
 62
7
 10
7.425000000000005
 20
10.81911254969543
 30
0
 11
7.455887450304573
 21
10.85
 31
0
  0
LINE
  8
0
 62
7
 10
7.425000000000005
 20
10.60698051533946
 30
0
 11
7.600000000000004
 21
10.78198051533946
 31
0
  0
LINE
  8
0
 62
7
 10
7.425000000000005
 20
10.3948484809835
 30
0
 11
7.600000000000004
 21
10.5698484809835
 31
0
  0
LINE
  8
0
 62
7
 10
7.425000000000005
 20
10.18271644662754
 30
0
 11
7.600000000000004
 21
10.35771644662753
 31
0
  0
LINE
  8
0
 62
7
 10
7.425000000000005
 20
9.970584412271572
 30
0
 11
7.600000000000004
 21
10.14558441227157
 31
0
  0
LINE
  8
0
 62
7
 10
7.425000000000005
 20
9.758452377915608
 30
0
 11
7.600000000000004
 21
9.933452377915605
 31
0
  0
LINE
  8
0
 62
7
 10
7.425000000000005
 20
9.546320343559644
 30
0
 11
7.600000000000004
 21
9.721320343559642
 31
0
  0
LINE
  8
0
 62
7
 10
7.425000000000005
 20
9.334188309203681
 30
0
 11
7.600000000000004
 21
9.509188309203678
 31
0
  0
LINE
  8
0
 62
7
 10
7.425000000000005
 20
9.122056274847717
 30
0
 11
7.600000000000004
 21
9.297056274847714
 31
0
  0
LINE
  8
0
 62
7
 10
7.425000000000005
 20
8.909924240491753
 30
0
 11
7.600000000000004
 21
9.08492424049175
 31
0
  0
LINE
  8
0
 62
7
 10
7.425000000000005
 20
8.697792206135789
 30
0
 11
7.600000000000004
 21
8.872792206135786
 31
0
  0
LINE
  8
0
 62
7
 10
7.425000000000005
 20
8.485660171779825
 30
0
 11
7.600000000000004
 21
8.660660171779822
 31
0
  0
LINE
  8
0
 62
7
 10
7.451471862576141
 20
8.299999999999997
 30
0
 11
7.600000000000004
 21
8.448528137423859
 31
0
  0
ENDBLK
  8
0
  0
BLOCK
  8
0
  2
*X14
 70
1
 10
0
 20
0
 30
0
  0
LINE
  8
0
 62
7
 10
7.425000000000004
 20
7.955330085889913
 30
0
 11
7.569669914110086
 21
8.099999999999996
 31
0
  0
LINE
  8
0
 62
7
 10
7.425000000000004
 20
8.061396103067896
 30
0
 11
7.463603896932104
 21
8.099999999999994
 31
0
  0
LINE
  8
0
 62
7
 10
7.525735931288072
 20
7.949999999999999
 30
0
 11
7.600000000000005
 21
8.024264068711933
 31
0
  0
ENDBLK
  8
0
  0
BLOCK
  8
0
  2
*X15
 70
1
 10
0
 20
0
 30
0
  0
LINE
  8
0
 62
7
 10
3.990000000000004
 20
5.368858223313771
 30
0
 11
4.041141776686231
 21
5.419999999999999
 31
0
  0
LINE
  8
0
 62
7
 10
3.840000000000003
 20
5.218858223313771
 30
0
 11
3.89114177668623
 21
5.269999999999998
 31
0
  0
LINE
  8
0
 62
7
 10
3.863273811042205
 20
5.030000000000001
 30
0
 11
4.165000000000004
 21
5.331726188957807
 31
0
  0
LINE
  8
0
 62
7
 10
4.075405845398169
 20
5.030000000000001
 30
0
 11
4.315405845398165
 21
5.269999999999998
 31
0
  0
LINE
  8
0
 62
7
 10
4.287537879754133
 20
5.030000000000001
 30
0
 11
4.527537879754129
 21
5.269999999999998
 31
0
  0
LINE
  8
0
 62
7
 10
4.499669914110097
 20
5.030000000000001
 30
0
 11
4.739669914110093
 21
5.269999999999998
 31
0
  0
LINE
  8
0
 62
7
 10
4.711801948466061
 20
5.030000000000001
 30
0
 11
4.951801948466056
 21
5.269999999999998
 31
0
  0
LINE
  8
0
 62
7
 10
4.923933982822025
 20
5.030000000000001
 30
0
 11
5.16393398282202
 21
5.269999999999998
 31
0
  0
LINE
  8
0
 62
7
 10
5.136066017177988
 20
5.030000000000001
 30
0
 11
5.376066017177984
 21
5.269999999999998
 31
0
  0
LINE
  8
0
 62
7
 10
5.348198051533952
 20
5.030000000000001
 30
0
 11
5.588198051533948
 21
5.269999999999998
 31
0
  0
LINE
  8
0
 62
7
 10
5.560330085889916
 20
5.030000000000001
 30
0
 11
5.800330085889912
 21
5.269999999999998
 31
0
  0
LINE
  8
0
 62
7
 10
5.77246212024588
 20
5.030000000000001
 30
0
 11
6.012462120245876
 21
5.269999999999998
 31
0
  0
LINE
  8
0
 62
7
 10
5.984594154601844
 20
5.030000000000001
 30
0
 11
6.22459415460184
 21
5.269999999999998
 31
0
  0
LINE
  8
0
 62
7
 10
6.196726188957808
 20
5.030000000000001
 30
0
 11
6.436726188957803
 21
5.269999999999998
 31
0
  0
LINE
  8
0
 62
7
 10
6.408858223313771
 20
5.030000000000001
 30
0
 11
6.648858223313767
 21
5.269999999999998
 31
0
  0
LINE
  8
0
 62
7
 10
6.620990257669735
 20
5.030000000000001
 30
0
 11
6.860990257669731
 21
5.269999999999998
 31
0
  0
LINE
  8
0
 62
7
 10
6.833122292025699
 20
5.030000000000001
 30
0
 11
7.073122292025695
 21
5.269999999999998
 31
0
  0
LINE
  8
0
 62
7
 10
7.425000000000004
 20
5.409745673618342
 30
0
 11
7.43525432638166
 21
5.419999999999999
 31
0
  0
LINE
  8
0
 62
7
 10
7.045254326381663
 20
5.030000000000001
 30
0
 11
7.285254326381659
 21
5.269999999999998
 31
0
  0
LINE
  8
0
 62
7
 10
7.257386360737627
 20
5.030000000000001
 30
0
 11
7.600000000000004
 21
5.372613639262379
 31
0
  0
LINE
  8
0
 62
7
 10
7.469518395093591
 20
5.030000000000001
 30
0
 11
7.709518395093586
 21
5.269999999999998
 31
0
  0
LINE
  8
0
 62
7
 10
7.681650429449554
 20
5.030000000000001
 30
0
 11
7.765000000000006
 21
5.113349570550451
 31
0
  0
LINE
  8
0
 62
7
 10
3.840000000000003
 20
5.112792206135788
 30
0
 11
4.147207793864214
 21
5.42
 31
0
  0
LINE
  8
0
 62
7
 10
3.969339828220187
 20
5.03
 30
0
 11
4.209339828220184
 21
5.269999999999999
 31
0
  0
LINE
  8
0
 62
7
 10
4.181471862576151
 20
5.03
 30
0
 11
4.421471862576148
 21
5.269999999999999
 31
0
  0
LINE
  8
0
 62
7
 10
4.393603896932115
 20
5.03
 30
0
 11
4.633603896932112
 21
5.269999999999999
 31
0
  0
LINE
  8
0
 62
7
 10
4.605735931288079
 20
5.03
 30
0
 11
4.845735931288075
 21
5.269999999999999
 31
0
  0
LINE
  8
0
 62
7
 10
4.817867965644043
 20
5.03
 30
0
 11
5.057867965644039
 21
5.269999999999999
 31
0
  0
LINE
  8
0
 62
7
 10
5.030000000000006
 20
5.03
 30
0
 11
5.270000000000003
 21
5.269999999999999
 31
0
  0
LINE
  8
0
 62
7
 10
5.24213203435597
 20
5.03
 30
0
 11
5.482132034355967
 21
5.269999999999999
 31
0
  0
LINE
  8
0
 62
7
 10
5.454264068711934
 20
5.03
 30
0
 11
5.694264068711931
 21
5.269999999999999
 31
0
  0
LINE
  8
0
 62
7
 10
5.666396103067898
 20
5.03
 30
0
 11
5.906396103067895
 21
5.269999999999999
 31
0
  0
LINE
  8
0
 62
7
 10
5.878528137423862
 20
5.03
 30
0
 11
6.118528137423858
 21
5.269999999999999
 31
0
  0
LINE
  8
0
 62
7
 10
6.090660171779826
 20
5.03
 30
0
 11
6.330660171779822
 21
5.269999999999999
 31
0
  0
LINE
  8
0
 62
7
 10
6.302792206135789
 20
5.03
 30
0
 11
6.542792206135786
 21
5.269999999999999
 31
0
  0
LINE
  8
0
 62
7
 10
6.514924240491753
 20
5.03
 30
0
 11
6.75492424049175
 21
5.269999999999999
 31
0
  0
LINE
  8
0
 62
7
 10
6.727056274847717
 20
5.03
 30
0
 11
6.967056274847714
 21
5.269999999999999
 31
0
  0
LINE
  8
0
 62
7
 10
6.939188309203681
 20
5.03
 30
0
 11
7.179188309203678
 21
5.269999999999999
 31
0
  0
LINE
  8
0
 62
7
 10
7.425000000000004
 20
5.303679656440361
 30
0
 11
7.541320343559643
 21
5.42
 31
0
  0
LINE
  8
0
 62
7
 10
7.151320343559645
 20
5.03
 30
0
 11
7.391320343559642
 21
5.269999999999999
 31
0
  0
LINE
  8
0
 62
7
 10
7.363452377915609
 20
5.03
 30
0
 11
7.603452377915606
 21
5.27
 31
0
  0
LINE
  8
0
 62
7
 10
7.575584412271573
 20
5.03
 30
0
 11
7.765000000000004
 21
5.219415587728433
 31
0
  0
ENDBLK
  8
0
  0
BLOCK
  8
0
  2
*X16
 70
1
 10
0
 20
0
 30
0
  0
LINE
  8
0
 62
7
 10
3.840000000000003
 20
4.794594154601842
 30
0
 11
4.035405845398168
 21
4.99
 31
0
  0
LINE
  8
0
 62
7
 10
3.990000000000005
 20
4.732462120245878
 30
0
 11
4.247537879754132
 21
4.99
 31
0
  0
LINE
  8
0
 62
7
 10
4.219669914110096
 20
4.75
 30
0
 11
4.459669914110096
 21
4.99
 31
0
  0
LINE
  8
0
 62
7
 10
3.990000000000005
 20
4.520330085889914
 30
0
 11
4.165000000000004
 21
4.695330085889913
 31
0
  0
LINE
  8
0
 62
7
 10
4.43180194846606
 20
4.75
 30
0
 11
4.67180194846606
 21
4.99
 31
0
  0
LINE
  8
0
 62
7
 10
3.990000000000005
 20
4.30819805153395
 30
0
 11
4.165000000000004
 21
4.483198051533949
 31
0
  0
LINE
  8
0
 62
7
 10
4.643933982822023
 20
4.75
 30
0
 11
4.883933982822024
 21
4.99
 31
0
  0
LINE
  8
0
 62
7
 10
3.990000000000005
 20
4.096066017177987
 30
0
 11
4.165000000000004
 21
4.271066017177986
 31
0
  0
LINE
  8
0
 62
7
 10
4.856066017177987
 20
4.75
 30
0
 11
5.096066017177987
 21
4.99
 31
0
  0
LINE
  8
0
 62
7
 10
3.990000000000005
 20
3.883933982822023
 30
0
 11
4.165000000000004
 21
4.058933982822022
 31
0
  0
LINE
  8
0
 62
7
 10
5.068198051533951
 20
4.75
 30
0
 11
5.308198051533951
 21
4.99
 31
0
  0
LINE
  8
0
 62
7
 10
3.990000000000005
 20
3.671801948466058
 30
0
 11
4.165000000000004
 21
3.846801948466057
 31
0
  0
LINE
  8
0
 62
7
 10
5.280330085889915
 20
4.75
 30
0
 11
5.520330085889915
 21
4.99
 31
0
  0
LINE
  8
0
 62
7
 10
3.990000000000005
 20
3.459669914110094
 30
0
 11
4.165000000000004
 21
3.634669914110093
 31
0
  0
LINE
  8
0
 62
7
 10
5.492462120245879
 20
4.75
 30
0
 11
5.732462120245879
 21
4.99
 31
0
  0
LINE
  8
0
 62
7
 10
4.042462120245876
 20
3.300000000000001
 30
0
 11
4.165000000000004
 21
3.422537879754127
 31
0
  0
LINE
  8
0
 62
7
 10
5.704594154601843
 20
4.75
 30
0
 11
5.944594154601843
 21
4.99
 31
0
  0
LINE
  8
0
 62
7
 10
5.916726188957806
 20
4.75
 30
0
 11
6.156726188957807
 21
4.99
 31
0
  0
LINE
  8
0
 62
7
 10
6.12885822331377
 20
4.75
 30
0
 11
6.36885822331377
 21
4.99
 31
0
  0
LINE
  8
0
 62
7
 10
6.340990257669734
 20
4.75
 30
0
 11
6.580990257669734
 21
4.99
 31
0
  0
LINE
  8
0
 62
7
 10
6.553122292025698
 20
4.75
 30
0
 11
6.793122292025698
 21
4.99
 31
0
  0
LINE
  8
0
 62
7
 10
6.765254326381662
 20
4.75
 30
0
 11
7.005254326381662
 21
4.99
 31
0
  0
LINE
  8
0
 62
7
 10
6.977386360737626
 20
4.75
 30
0
 11
7.217386360737626
 21
4.99
 31
0
  0
LINE
  8
0
 62
7
 10
7.189518395093589
 20
4.75
 30
0
 11
7.42951839509359
 21
4.99
 31
0
  0
LINE
  8
0
 62
7
 10
7.401650429449553
 20
4.75
 30
0
 11
7.641650429449554
 21
4.99
 31
0
  0
LINE
  8
0
 62
7
 10
7.613782463805517
 20
4.749999999999999
 30
0
 11
7.765000000000004
 21
4.901217536194486
 31
0
  0
LINE
  8
0
 62
7
 10
7.425000000000004
 20
4.561217536194485
 30
0
 11
7.600000000000005
 21
4.736217536194486
 31
0
  0
LINE
  8
0
 62
7
 10
7.425000000000004
 20
4.349085501838521
 30
0
 11
7.600000000000005
 21
4.524085501838522
 31
0
  0
LINE
  8
0
 62
7
 10
7.425000000000004
 20
4.136953467482558
 30
0
 11
7.600000000000005
 21
4.311953467482558
 31
0
  0
LINE
  8
0
 62
7
 10
7.425000000000004
 20
3.924821433126594
 30
0
 11
7.600000000000005
 21
4.099821433126595
 31
0
  0
LINE
  8
0
 62
7
 10
7.425000000000004
 20
3.71268939877063
 30
0
 11
7.600000000000005
 21
3.88768939877063
 31
0
  0
LINE
  8
0
 62
7
 10
7.425000000000004
 20
3.500557364414665
 30
0
 11
7.600000000000005
 21
3.675557364414666
 31
0
  0
LINE
  8
0
 62
7
 10
7.536574669941303
 20
3.4
 30
0
 11
7.600000000000005
 21
3.463425330058702
 31
0
  0
LINE
  8
0
 62
7
 10
3.840000000000003
 20
4.900660171779824
 30
0
 11
3.929339828220188
 21
4.990000000000001
 31
0
  0
LINE
  8
0
 62
7
 10
3.901471862576142
 20
4.75
 30
0
 11
4.141471862576152
 21
4.990000000000001
 31
0
  0
LINE
  8
0
 62
7
 10
3.990000000000004
 20
4.626396103067896
 30
0
 11
4.353603896932116
 21
4.990000000000001
 31
0
  0
LINE
  8
0
 62
7
 10
4.325735931288078
 20
4.75
 30
0
 11
4.56573593128808
 21
4.990000000000001
 31
0
  0
LINE
  8
0
 62
7
 10
3.990000000000004
 20
4.414264068711932
 30
0
 11
4.165000000000003
 21
4.58926406871193
 31
0
  0
LINE
  8
0
 62
7
 10
4.537867965644041
 20
4.75
 30
0
 11
4.777867965644043
 21
4.990000000000001
 31
0
  0
LINE
  8
0
 62
7
 10
3.990000000000004
 20
4.202132034355968
 30
0
 11
4.165000000000003
 21
4.377132034355967
 31
0
  0
LINE
  8
0
 62
7
 10
4.750000000000005
 20
4.75
 30
0
 11
4.990000000000007
 21
4.990000000000001
 31
0
  0
LINE
  8
0
 62
7
 10
3.990000000000004
 20
3.990000000000004
 30
0
 11
4.165000000000003
 21
4.165000000000003
 31
0
  0
LINE
  8
0
 62
7
 10
4.962132034355969
 20
4.75
 30
0
 11
5.202132034355971
 21
4.990000000000001
 31
0
  0
LINE
  8
0
 62
7
 10
3.990000000000004
 20
3.77786796564404
 30
0
 11
4.165000000000003
 21
3.952867965644039
 31
0
  0
LINE
  8
0
 62
7
 10
5.174264068711933
 20
4.75
 30
0
 11
5.414264068711935
 21
4.990000000000001
 31
0
  0
LINE
  8
0
 62
7
 10
3.990000000000004
 20
3.565735931288076
 30
0
 11
4.165000000000003
 21
3.740735931288075
 31
0
  0
LINE
  8
0
 62
7
 10
5.386396103067897
 20
4.75
 30
0
 11
5.626396103067899
 21
4.990000000000001
 31
0
  0
LINE
  8
0
 62
7
 10
3.990000000000004
 20
3.353603896932111
 30
0
 11
4.165000000000003
 21
3.52860389693211
 31
0
  0
LINE
  8
0
 62
7
 10
5.598528137423861
 20
4.75
 30
0
 11
5.838528137423863
 21
4.990000000000001
 31
0
  0
LINE
  8
0
 62
7
 10
4.148528137423858
 20
3.3
 30
0
 11
4.165000000000004
 21
3.316471862576146
 31
0
  0
LINE
  8
0
 62
7
 10
5.810660171779825
 20
4.75
 30
0
 11
6.050660171779827
 21
4.990000000000001
 31
0
  0
LINE
  8
0
 62
7
 10
6.022792206135788
 20
4.75
 30
0
 11
6.26279220613579
 21
4.990000000000001
 31
0
  0
LINE
  8
0
 62
7
 10
6.234924240491752
 20
4.75
 30
0
 11
6.474924240491754
 21
4.990000000000001
 31
0
  0
LINE
  8
0
 62
7
 10
6.447056274847716
 20
4.75
 30
0
 11
6.687056274847718
 21
4.990000000000001
 31
0
  0
LINE
  8
0
 62
7
 10
6.65918830920368
 20
4.75
 30
0
 11
6.899188309203682
 21
4.990000000000001
 31
0
  0
LINE
  8
0
 62
7
 10
6.871320343559644
 20
4.75
 30
0
 11
7.111320343559646
 21
4.990000000000001
 31
0
  0
LINE
  8
0
 62
7
 10
7.083452377915608
 20
4.75
 30
0
 11
7.32345237791561
 21
4.990000000000001
 31
0
  0
LINE
  8
0
 62
7
 10
7.295584412271571
 20
4.75
 30
0
 11
7.535584412271573
 21
4.990000000000001
 31
0
  0
LINE
  8
0
 62
7
 10
7.425000000000004
 20
4.667283553372467
 30
0
 11
7.747716446627537
 21
4.990000000000001
 31
0
  0
LINE
  8
0
 62
7
 10
7.7198484809835
 20
4.75
 30
0
 11
7.765000000000004
 21
4.795151519016504
 31
0
  0
LINE
  8
0
 62
7
 10
7.425000000000004
 20
4.455151519016503
 30
0
 11
7.600000000000005
 21
4.630151519016504
 31
0
  0
LINE
  8
0
 62
7
 10
7.425000000000004
 20
4.24301948466054
 30
0
 11
7.600000000000005
 21
4.41801948466054
 31
0
  0
LINE
  8
0
 62
7
 10
7.425000000000004
 20
4.030887450304576
 30
0
 11
7.600000000000005
 21
4.205887450304576
 31
0
  0
LINE
  8
0
 62
7
 10
7.425000000000004
 20
3.818755415948611
 30
0
 11
7.600000000000005
 21
3.993755415948612
 31
0
  0
LINE
  8
0
 62
7
 10
7.425000000000004
 20
3.606623381592647
 30
0
 11
7.600000000000005
 21
3.781623381592648
 31
0
  0
LINE
  8
0
 62
7
 10
7.430508652763322
 20
3.4
 30
0
 11
7.600000000000005
 21
3.569491347236684
 31
0
  0
ENDBLK
  8
0
  0
BLOCK
  8
0
  2
*D0
 70
1
 10
0
 20
0
 30
0
  0
LINE
  8
0
 62
7
 10
8.054023051439261
 20
4.488355193039241
 30
0
 11
8.054023051439261
 21
4.75
 31
0
  0
LINE
  8
0
 62
7
 10
8.054023051439261
 20
3.4
 30
0
 11
8.054023051439261
 21
3.74335519303924
 31
0
  0
LINE
  8
0
 62
7
 10
7.600000000000005
 20
4.75
 30
0
 11
8.104023051439261
 21
4.75
 31
0
  0
LINE
  8
0
 62
7
 10
7.600000000000005
 20
3.4
 30
0
 11
8.104023051439261
 21
3.4
 31
0
  0
LINE
  8
0
 62
7
 10
8.089378390498588
 20
4.714644660940673
 30
0
 11
8.018667712379933
 21
4.785355339059327
 31
0
  0
LINE
  8
0
 62
7
 10
8.018667712379933
 20
3.435355339059327
 30
0
 11
8.089378390498588
 21
3.364644660940673
 31
0
  0
TEXT
  8
0
 62
7
 10
8.099023051439261
 20
3.99335519303924
 30
0
 40
0.1
  1
1,35
 50
90
 41
0.9
  0
ENDBLK
  8
0
  0
BLOCK
  8
0
  2
*D1
 70
1
 10
0
 20
0
 30
0
  0
LINE
  8
0
 62
7
 10
6.19155407908929
 20
5.66635194600579
 30
0
 11
7.425000000000004
 21
5.66635194600579
 31
0
  0
LINE
  8
0
 62
7
 10
4.165000000000004
 20
5.66635194600579
 30
0
 11
5.416554079089289
 21
5.66635194600579
 31
0
  0
LINE
  8
0
 62
7
 10
7.425000000000004
 20
5.269999999999998
 30
0
 11
7.425000000000004
 21
5.71635194600579
 31
0
  0
LINE
  8
0
 62
7
 10
4.165000000000004
 20
5.269999999999998
 30
0
 11
4.165000000000004
 21
5.71635194600579
 31
0
  0
LINE
  8
0
 62
7
 10
4.200355339059331
 20
5.701707285065117
 30
0
 11
4.129644660940676
 21
5.630996606946463
 31
0
  0
LINE
  8
0
 62
7
 10
7.389644660940677
 20
5.630996606946463
 30
0
 11
7.460355339059332
 21
5.701707285065117
 31
0
  0
TEXT
  8
0
 62
7
 10
5.666554079089289
 20
5.62135194600579
 30
0
 40
0.1
  1
3,26
 41
0.9
  0
ENDBLK
  8
0
  0
BLOCK
  8
0
  2
*D2
 70
1
 10
0
 20
0
 30
0
  0
LINE
  8
0
 62
7
 10
3.68232168029294
 20
4.38343436013172
 30
0
 11
3.68232168029294
 21
4.75
 31
0
  0
LINE
  8
0
 62
7
 10
3.68232168029294
 20
3.3
 30
0
 11
3.68232168029294
 21
3.63843436013172
 31
0
  0
LINE
  8
0
 62
7
 10
3.990000000000004
 20
4.75
 30
0
 11
3.63232168029294
 21
4.75
 31
0
  0
LINE
  8
0
 62
7
 10
3.990000000000004
 20
3.3
 30
0
 11
3.63232168029294
 21
3.3
 31
0
  0
LINE
  8
0
 62
7
 10
3.646966341233613
 20
3.335355339059327
 30
0
 11
3.717677019352267
 21
3.264644660940673
 31
0
  0
LINE
  8
0
 62
7
 10
3.717677019352267
 20
4.714644660940673
 30
0
 11
3.646966341233613
 21
4.785355339059327
 31
0
  0
TEXT
  8
0
 62
7
 10
3.72732168029294
 20
3.88843436013172
 30
0
 40
0.1
  1
1,45
 50
90
 41
0.9
  0
ENDBLK
  8
0
  0
BLOCK
  8
0
  2
*D3
 70
1
 10
0
 20
0
 30
0
  0
LINE
  8
0
 62
7
 10
6.129896208766231
 20
11.5768921997956
 30
0
 11
7.425000000000005
 21
11.5768921997956
 31
0
  0
LINE
  8
0
 62
7
 10
4.165000000000004
 20
11.5768921997956
 30
0
 11
5.454896208766231
 21
11.5768921997956
 31
0
  0
LINE
  8
0
 62
7
 10
7.425000000000005
 20
11.2
 30
0
 11
7.425000000000005
 21
11.6268921997956
 31
0
  0
LINE
  8
0
 62
7
 10
4.165000000000004
 20
11.2
 30
0
 11
4.165000000000004
 21
11.6268921997956
 31
0
  0
LINE
  8
0
 62
7
 10
7.389644660940678
 20
11.54153686073627
 30
0
 11
7.460355339059332
 21
11.61224753885493
 31
0
  0
LINE
  8
0
 62
7
 10
4.200355339059332
 20
11.61224753885493
 30
0
 11
4.129644660940677
 21
11.54153686073627
 31
0
  0
TEXT
  8
0
 62
7
 10
5.654896208766231
 20
11.5318921997956
 30
0
 40
0.1
  1
3,26
 41
0.9
  0
ENDBLK
  8
0
  0
BLOCK
  8
0
  2
*D4
 70
1
 10
0
 20
0
 30
0
  0
LINE
  8
0
 62
7
 10
8.263864717254281
 20
10.27494868875263
 30
0
 11
8.263864717254281
 21
11.05
 31
0
  0
LINE
  8
0
 62
7
 10
8.263864717254281
 20
8.299999999999997
 30
0
 11
8.263864717254281
 21
9.19494868875263
 31
0
  0
LINE
  8
0
 62
7
 10
7.750000000000004
 20
11.05
 30
0
 11
8.313864717254281
 21
11.05
 31
0
  0
LINE
  8
0
 62
7
 10
7.750000000000004
 20
8.299999999999997
 30
0
 11
8.313864717254281
 21
8.299999999999997
 31
0
  0
LINE
  8
0
 62
7
 10
8.228509378194953
 20
8.335355339059324
 30
0
 11
8.299220056313608
 21
8.26464466094067
 31
0
  0
LINE
  8
0
 62
7
 10
8.299220056313608
 20
11.01464466094068
 30
0
 11
8.228509378194953
 21
11.08535533905933
 31
0
  0
TEXT
  8
0
 62
7
 10
8.233864717254281
 20
9.597448688752632
 30
0
 40
0.1
  1
2,75
 50
90
 41
0.9
  0
TEXT
  8
0
 62
7
 10
8.393864717254282
 20
9.394948688752631
 30
0
 40
0.1
  1
(260-280)
 50
90
 41
0.9
  0
ENDBLK
  8
0
  0
ENDSEC
  0
SECTION
  2
ENTITIES
  0
INSERT
  8
0
  2
*X0
 10
0
 20
0
 30
0
  0
INSERT
  8
0
  2
*X1
 10
0
 20
0
 30
0
  0
INSERT
  8
0
  2
*X2
 10
0
 20
0
 30
0
  0
INSERT
  8
0
  2
*X3
 10
0
 20
0
 30
0
  0
INSERT
  8
0
  2
*X4
 10
0
 20
0
 30
0
  0
INSERT
  8
0
  2
*X5
 10
0
 20
0
 30
0
  0
INSERT
  8
0
  2
*X6
 10
0
 20
0
 30
0
  0
INSERT
  8
0
  2
*X7
 10
0
 20
0
 30
0
  0
INSERT
  8
0
  2
*X8
 10
0
 20
0
 30
0
  0
INSERT
  8
0
  2
*X9
 10
0
 20
0
 30
0
  0
INSERT
  8
0
  2
*X10
 10
0
 20
0
 30
0
  0
INSERT
  8
0
  2
*X11
 10
0
 20
0
 30
0
  0
INSERT
  8
0
  2
*X12
 10
0
 20
0
 30
0
  0
INSERT
  8
0
  2
*X13
 10
0
 20
0
 30
0
  0
INSERT
  8
0
  2
*X14
 10
0
 20
0
 30
0
  0
INSERT
  8
0
  2
*X15
 10
0
 20
0
 30
0
  0
INSERT
  8
0
  2
*X16
 10
0
 20
0
 30
0
  0
LINE
  8
0
 62
7
 10
6.420000000000005
 20
3.698981833730008
 30
0
 11
6.420000000000005
 21
3.5513159102595
 31
0
  0
LINE
  8
0
 62
7
 10
6.353662123948461
 20
3.745000000000001
 30
0
 11
6.420000000000005
 21
3.698981833730008
 31
0
  0
LINE
  8
0
 62
7
 10
6.139111953652634
 20
3.745000000000001
 30
0
 11
6.248376814261324
 21
3.745000000000001
 31
0
  0
LINE
  8
0
 62
7
 10
6.139111953652634
 20
3.745000000000001
 30
0
 11
6.353662123948461
 21
3.745000000000001
 31
0
  0
LINE
  8
0
 62
7
 10
5.170000000000004
 20
3.703025278773466
 30
0
 11
5.241047966626803
 21
3.745267413805892
 31
0
  0
LINE
  8
0
 62
7
 10
5.170000000000004
 20
3.56
 30
0
 11
5.170000000000004
 21
3.65
 31
0
  0
LINE
  8
0
 62
7
 10
5.170000000000004
 20
3.56
 30
0
 11
5.170000000000004
 21
3.703025278773466
 31
0
  0
LINE
  8
0
 62
7
 10
4.220000000000004
 20
3.65
 30
0
 11
4.220000000000004
 21
3.300000000000002
 31
0
  0
LINE
  8
0
 62
7
 10
5.170000000000004
 20
3.300000000000002
 30
0
 11
5.170000000000004
 21
3.56
 31
0
  0
LINE
  8
0
 62
7
 10
4.220000000000004
 20
3.300000000000002
 30
0
 11
5.170000000000004
 21
3.300000000000002
 31
0
  0
LINE
  8
0
 62
7
 10
4.220000000000004
 20
4.03030166437755
 30
0
 11
4.220000000000004
 21
3.56
 31
0
  0
LINE
  8
0
 62
7
 10
4.220000000000004
 20
3.56
 30
0
 11
5.170000000000004
 21
3.56
 31
0
  0
LINE
  8
0
 62
7
 10
4.220000000000004
 20
4.49917566050886
 30
0
 11
4.220000000000004
 21
3.93695373955747
 31
0
  0
LINE
  8
0
 62
7
 10
5.138278470555594
 20
3.684164990522511
 30
0
 11
5.170000000000004
 21
3.703025278773466
 31
0
  0
LINE
  8
0
 62
7
 10
4.220000000000004
 20
3.93695373955747
 30
0
 11
5.138278470555594
 21
3.684164990522511
 31
0
  0
LINE
  8
0
 62
7
 10
4.220000000000004
 20
4.695
 30
0
 11
4.220000000000004
 21
4.392604349546821
 31
0
  0
LINE
  8
0
 62
7
 10
4.661810551861223
 20
4.695
 30
0
 11
4.220000000000004
 21
4.695
 31
0
  0
LINE
  8
0
 62
7
 10
5.241206959637221
 20
3.745000000000001
 30
0
 11
5.473589301486133
 21
3.745000000000001
 31
0
  0
LINE
  8
0
 62
7
 10
4.220000000000004
 20
4.392604349546821
 30
0
 11
5.241206959637221
 21
3.745000000000001
 31
0
  0
LINE
  8
0
 62
7
 10
5.081479442109945
 20
4.695
 30
0
 11
4.543427978554653
 21
4.695
 31
0
  0
LINE
  8
0
 62
7
 10
5.355206728179564
 20
3.745000000000001
 30
0
 11
5.579895403460164
 21
3.745000000000001
 31
0
  0
LINE
  8
0
 62
7
 10
4.543427978554653
 20
4.695
 30
0
 11
5.355206728179564
 21
3.745000000000001
 31
0
  0
LINE
  8
0
 62
7
 10
5.440951613750794
 20
4.695
 30
0
 11
4.979844935290213
 21
4.695
 31
0
  0
LINE
  8
0
 62
7
 10
5.478260896640432
 20
3.745000000000001
 30
0
 11
5.695065452777972
 21
3.745000000000001
 31
0
  0
LINE
  8
0
 62
7
 10
4.979844935290213
 20
4.695
 30
0
 11
5.478260896640432
 21
3.745000000000001
 31
0
  0
LINE
  8
0
 62
7
 10
5.808124999367214
 20
4.69499999999993
 30
0
 11
5.347787485920072
 21
4.695
 31
0
  0
LINE
  8
0
 62
7
 10
5.601901324947253
 20
3.745000000000001
 30
0
 11
5.812518469355073
 21
3.74499999999993
 31
0
  0
LINE
  8
0
 62
7
 10
5.347787485920072
 20
4.695
 30
0
 11
5.601901324947253
 21
3.745000000000001
 31
0
  0
LINE
  8
0
 62
7
 10
6.123273233838873
 20
4.695
 30
0
 11
5.718124036916912
 21
4.695
 31
0
  0
LINE
  8
0
 62
7
 10
5.72251750690478
 20
3.745000000000001
 30
0
 11
6.004437175592663
 21
3.745000000000001
 31
0
  0
LINE
  8
0
 62
7
 10
5.718124036916912
 20
4.695
 30
0
 11
5.72251750690478
 21
3.745000000000001
 31
0
  0
LINE
  8
0
 62
7
 10
6.504469682011704
 20
4.695
 30
0
 11
6.032571822568613
 21
4.695
 31
0
  0
LINE
  8
0
 62
7
 10
5.913735764322401
 20
3.745000000000001
 30
0
 11
6.125366748810162
 21
3.745000000000001
 31
0
  0
LINE
  8
0
 62
7
 10
6.032571822568613
 20
4.695
 30
0
 11
5.913735764322401
 21
3.745000000000001
 31
0
  0
LINE
  8
0
 62
7
 10
6.902379288287654
 20
4.695
 30
0
 11
6.407568246095352
 21
4.695
 31
0
  0
LINE
  8
0
 62
7
 10
6.028465312893813
 20
3.745000000000001
 30
0
 11
6.139111953652634
 21
3.745000000000001
 31
0
  0
LINE
  8
0
 62
7
 10
6.407568246095352
 20
4.695
 30
0
 11
6.028465312893813
 21
3.745000000000001
 31
0
  0
LINE
  8
0
 62
7
 10
7.370000000000005
 20
4.695
 30
0
 11
6.793114427678953
 21
4.695
 31
0
  0
LINE
  8
0
 62
7
 10
7.370000000000005
 20
4.569191850745731
 30
0
 11
7.370000000000005
 21
4.695
 31
0
  0
LINE
  8
0
 62
7
 10
6.793114427678953
 20
4.695
 30
0
 11
6.139111953652634
 21
3.745000000000001
 31
0
  0
LINE
  8
0
 62
7
 10
7.370000000000005
 20
4.072627260931561
 30
0
 11
7.370000000000005
 21
4.68562034201204
 31
0
  0
LINE
  8
0
 62
7
 10
6.283321074874522
 20
3.79379514215039
 30
0
 11
6.353662123948461
 21
3.745000000000001
 31
0
  0
LINE
  8
0
 62
7
 10
7.370000000000005
 20
4.68562034201204
 30
0
 11
6.283321074874522
 21
3.79379514215039
 31
0
  0
LINE
  8
0
 62
7
 10
7.370000000000005
 20
3.672874659697969
 30
0
 11
7.370000000000005
 21
4.170928601783872
 31
0
  0
LINE
  8
0
 62
7
 10
6.420000000000005
 20
3.753596372454549
 30
0
 11
6.420000000000005
 21
3.698981833730008
 31
0
  0
LINE
  8
0
 62
7
 10
7.370000000000005
 20
4.170928601783872
 30
0
 11
6.420000000000005
 21
3.753596372454549
 31
0
  0
LINE
  8
0
 62
7
 10
7.370000000000005
 20
3.44
 30
0
 11
7.370000000000005
 21
3.763608448201222
 31
0
  0
LINE
  8
0
 62
7
 10
6.420000000000005
 20
3.642049698762739
 30
0
 11
6.420000000000005
 21
3.44
 31
0
  0
LINE
  8
0
 62
7
 10
7.370000000000005
 20
3.763608448201222
 30
0
 11
6.420000000000005
 21
3.642049698762739
 31
0
  0
LINE
  8
0
 62
7
 10
6.950251607627172
 20
3.74499999998991
 30
0
 11
6.950251607627172
 21
3.45
 31
0
  0
LINE
  8
0
 62
7
 10
7.055906706888873
 20
3.511
 30
0
 11
6.950251607627172
 21
3.45
 31
0
  0
LINE
  8
0
 62
7
 10
6.844596508365473
 20
3.511
 30
0
 11
7.055906706888873
 21
3.511
 31
0
  0
LINE
  8
0
 62
7
 10
6.950251607627172
 20
3.45
 30
0
 11
6.844596508365473
 21
3.511
 31
0
  0
LINE
  8
0
 62
7
 10
5.170000000010092
 20
4.275251607627172
 30
0
 11
6.420000000059773
 21
4.275251607627172
 31
0
  0
LINE
  8
0
 62
7
 10
4.639748392372829
 20
3.300000000000002
 30
0
 11
4.639748392372829
 21
3.745000000016521
 31
0
  0
LINE
  8
0
 62
7
 10
1.839999730000003
 20
8.583333226666666
 30
0
 11
2.189999730000003
 21
8.583333226666666
 31
0
  0
LINE
  8
0
 62
7
 10
2.189999730000003
 20
8.583333226666666
 30
0
 11
2.189999730000003
 21
8.518333226666664
 31
0
  0
LINE
  8
0
 62
7
 10
1.839999730000003
 20
8.518333226666664
 30
0
 11
1.839999730000003
 21
8.583333226666666
 31
0
  0
LINE
  8
0
 62
7
 10
2.189999730000003
 20
8.518333226666664
 30
0
 11
1.839999730000003
 21
8.518333226666664
 31
0
  0
LINE
  8
0
 62
7
 10
1.459698260000001
 20
8.766666566666663
 30
0
 11
1.929999770000002
 21
8.766666566666663
 31
0
  0
LINE
  8
0
 62
7
 10
1.929999770000002
 20
8.701666566666661
 30
0
 11
1.459698260000001
 21
8.701666566666661
 31
0
  0
LINE
  8
0
 62
7
 10
1.929999770000002
 20
8.766666566666663
 30
0
 11
1.929999770000002
 21
8.701666566666661
 31
0
  0
LINE
  8
0
 62
7
 10
1.459698260000001
 20
8.701666566666661
 30
0
 11
1.459698260000001
 21
8.766666566666663
 31
0
  0
LINE
  8
0
 62
7
 10
1.805834730000003
 20
8.884999906666662
 30
0
 11
0.9908241300000009
 21
8.884999906666662
 31
0
  0
LINE
  8
0
 62
7
 10
0.9908241300000009
 20
8.949999906666664
 30
0
 11
1.805834730000003
 21
8.949999906666664
 31
0
  0
LINE
  8
0
 62
7
 10
1.805834730000003
 20
8.949999906666664
 30
0
 11
1.805834730000003
 21
8.884999906666662
 31
0
  0
LINE
  8
0
 62
7
 10
0.9908241300000009
 20
8.884999906666662
 30
0
 11
0.9908241300000009
 21
8.949999906666664
 31
0
  0
LINE
  8
0
 62
7
 10
0.7949996900000007
 20
9.133333226666663
 30
0
 11
1.744999850000002
 21
9.133333226666663
 31
0
  0
LINE
  8
0
 62
7
 10
1.744999850000002
 20
9.068333226666665
 30
0
 11
0.7949996900000007
 21
9.068333226666665
 31
0
  0
LINE
  8
0
 62
7
 10
1.744999850000002
 20
9.133333226666663
 30
0
 11
1.744999850000002
 21
9.068333226666665
 31
0
  0
LINE
  8
0
 62
7
 10
0.7949996900000007
 20
9.068333226666665
 30
0
 11
0.7949996900000007
 21
9.133333226666663
 31
0
  0
LINE
  8
0
 62
7
 10
0.7949996900000007
 20
9.316666586666662
 30
0
 11
1.744999770000002
 21
9.316666586666662
 31
0
  0
LINE
  8
0
 62
7
 10
1.744999770000002
 20
9.316666586666662
 30
0
 11
1.744999770000002
 21
9.251666586666662
 31
0
  0
LINE
  8
0
 62
7
 10
0.7949996900000007
 20
9.251666586666662
 30
0
 11
0.7949996900000007
 21
9.316666586666662
 31
0
  0
LINE
  8
0
 62
7
 10
1.744999770000002
 20
9.251666586666662
 30
0
 11
0.7949996900000007
 21
9.251666586666662
 31
0
  0
LINE
  8
0
 62
7
 10
0.7949995400000007
 20
9.499999946666664
 30
0
 11
1.745000000000004
 21
9.499999946666664
 31
0
  0
LINE
  8
0
 62
7
 10
1.745000000000004
 20
9.499999946666664
 30
0
 11
1.745000000000004
 21
9.434999946666663
 31
0
  0
LINE
  8
0
 62
7
 10
0.7949995400000007
 20
9.434999946666663
 30
0
 11
0.7949995400000007
 21
9.499999946666664
 31
0
  0
LINE
  8
0
 62
7
 10
1.745000000000004
 20
9.434999946666663
 30
0
 11
0.7949995400000007
 21
9.434999946666663
 31
0
  0
LINE
  8
0
 62
7
 10
0.794999390000001
 20
9.683333226666662
 30
0
 11
1.744999850000002
 21
9.683333226666662
 31
0
  0
LINE
  8
0
 62
7
 10
1.744999850000002
 20
9.683333226666662
 30
0
 11
1.744999850000002
 21
9.618333226666664
 31
0
  0
LINE
  8
0
 62
7
 10
0.794999390000001
 20
9.618333226666664
 30
0
 11
0.794999390000001
 21
9.683333226666662
 31
0
  0
LINE
  8
0
 62
7
 10
1.744999850000002
 20
9.618333226666664
 30
0
 11
0.794999390000001
 21
9.618333226666664
 31
0
  0
LINE
  8
0
 62
7
 10
0.7949996900000007
 20
9.866666666666664
 30
0
 11
1.74499992
 21
9.866666666666664
 31
0
  0
LINE
  8
0
 62
7
 10
1.74499992
 20
9.866666666666664
 30
0
 11
1.74499992
 21
9.801666666666662
 31
0
  0
LINE
  8
0
 62
7
 10
0.7949996900000007
 20
9.801666666666662
 30
0
 11
0.7949996900000007
 21
9.866666666666664
 31
0
  0
LINE
  8
0
 62
7
 10
1.74499992
 20
9.801666666666662
 30
0
 11
0.7949996900000007
 21
9.801666666666662
 31
0
  0
LINE
  8
0
 62
7
 10
0.7949998500000004
 20
10.04999994666666
 30
0
 11
1.744999620000002
 21
10.04999994666666
 31
0
  0
LINE
  8
0
 62
7
 10
1.744999620000002
 20
10.04999994666666
 30
0
 11
1.744999620000002
 21
9.984999946666663
 31
0
  0
LINE
  8
0
 62
7
 10
0.7949998500000004
 20
9.984999946666663
 30
0
 11
0.7949998500000004
 21
10.04999994666666
 31
0
  0
LINE
  8
0
 62
7
 10
1.744999620000002
 20
9.984999946666663
 30
0
 11
0.7949998500000004
 21
9.984999946666663
 31
0
  0
LINE
  8
0
 62
7
 10
0.795
 20
10.23333322666666
 30
0
 11
1.74499992
 21
10.23333322666666
 31
0
  0
LINE
  8
0
 62
7
 10
1.74499992
 20
10.23333322666666
 30
0
 11
1.74499992
 21
10.16833322666666
 31
0
  0
LINE
  8
0
 62
7
 10
0.795
 20
10.16833322666666
 30
0
 11
0.795
 21
10.23333322666666
 31
0
  0
LINE
  8
0
 62
7
 10
1.74499992
 20
10.16833322666666
 30
0
 11
0.795
 21
10.16833322666666
 31
0
  0
LINE
  8
0
 62
7
 10
0.7949998500000004
 20
10.41666666666666
 30
0
 11
1.745000080000002
 21
10.41666666666666
 31
0
  0
LINE
  8
0
 62
7
 10
1.745000080000002
 20
10.35166666666666
 30
0
 11
0.7949998500000004
 21
10.35166666666666
 31
0
  0
LINE
  8
0
 62
7
 10
1.745000080000002
 20
10.41666666666666
 30
0
 11
1.745000080000002
 21
10.35166666666666
 31
0
  0
LINE
  8
0
 62
7
 10
0.7949998500000004
 20
10.35166666666666
 30
0
 11
0.7949998500000004
 21
10.41666666666666
 31
0
  0
LINE
  8
0
 62
7
 10
1.817766110000002
 20
10.53499994666666
 30
0
 11
0.8043794200000014
 21
10.53499994666666
 31
0
  0
LINE
  8
0
 62
7
 10
0.8043794200000014
 20
10.59999994666666
 30
0
 11
1.817766110000002
 21
10.59999994666666
 31
0
  0
LINE
  8
0
 62
7
 10
1.817766110000002
 20
10.59999994666666
 30
0
 11
1.817766110000002
 21
10.53499994666666
 31
0
  0
LINE
  8
0
 62
7
 10
0.8043794200000014
 20
10.53499994666666
 30
0
 11
0.8043794200000014
 21
10.59999994666666
 31
0
  0
LINE
  8
0
 62
7
 10
1.938684080000001
 20
10.71833322666666
 30
0
 11
1.319070820000001
 21
10.71833322666666
 31
0
  0
LINE
  8
0
 62
7
 10
1.319070820000001
 20
10.78333322666666
 30
0
 11
1.938684080000001
 21
10.78333322666666
 31
0
  0
LINE
  8
0
 62
7
 10
1.938684080000001
 20
10.78333322666666
 30
0
 11
1.938684080000001
 21
10.71833322666666
 31
0
  0
LINE
  8
0
 62
7
 10
1.319070820000001
 20
10.71833322666666
 30
0
 11
1.319070820000001
 21
10.78333322666666
 31
0
  0
LINE
  8
0
 62
7
 10
1.726390990000002
 20
10.96666666666666
 30
0
 11
2.050000800000003
 21
10.96666666666666
 31
0
  0
LINE
  8
0
 62
7
 10
2.050000800000003
 20
10.90166666666666
 30
0
 11
1.726390990000002
 21
10.90166666666666
 31
0
  0
LINE
  8
0
 62
7
 10
2.050000800000003
 20
10.96666666666666
 30
0
 11
2.050000800000003
 21
10.90166666666666
 31
0
  0
LINE
  8
0
 62
7
 10
1.726390990000002
 20
10.90166666666666
 30
0
 11
1.726390990000002
 21
10.96666666666666
 31
0
  0
LINE
  8
0
 62
7
 10
5.601901390000002
 20
9.683333226666662
 30
0
 11
5.808125000000004
 21
9.683333226666662
 31
0
  0
LINE
  8
0
 62
7
 10
4.219999650000002
 20
8.583333226666666
 30
0
 11
5.170000000000004
 21
8.583333226666666
 31
0
  0
LINE
  8
0
 62
7
 10
4.219999650000002
 20
8.518333226666664
 30
0
 11
4.219999650000002
 21
8.583333226666666
 31
0
  0
LINE
  8
0
 62
7
 10
5.170000000000004
 20
8.583333226666666
 30
0
 11
5.170000000000004
 21
8.518333226666664
 31
0
  0
LINE
  8
0
 62
7
 10
5.170000000000004
 20
8.518333226666664
 30
0
 11
4.219999650000002
 21
8.518333226666664
 31
0
  0
LINE
  8
0
 62
7
 10
4.219999650000002
 20
8.766666566666663
 30
0
 11
5.170000070000002
 21
8.766666566666663
 31
0
  0
LINE
  8
0
 62
7
 10
4.219999650000002
 20
8.701666566666661
 30
0
 11
4.219999650000002
 21
8.766666566666663
 31
0
  0
LINE
  8
0
 62
7
 10
5.170000070000002
 20
8.766666566666663
 30
0
 11
5.170000070000002
 21
8.701666566666661
 31
0
  0
LINE
  8
0
 62
7
 10
5.170000070000002
 20
8.701666566666661
 30
0
 11
4.219999650000002
 21
8.701666566666661
 31
0
  0
LINE
  8
0
 62
7
 10
4.219999880000001
 20
8.949999906666664
 30
0
 11
5.327646330000004
 21
8.949999906666664
 31
0
  0
LINE
  8
0
 62
7
 10
5.327646330000004
 20
8.884999906666662
 30
0
 11
4.219999880000001
 21
8.884999906666662
 31
0
  0
LINE
  8
0
 62
7
 10
4.219999880000001
 20
8.884999906666662
 30
0
 11
4.219999880000001
 21
8.949999906666664
 31
0
  0
LINE
  8
0
 62
7
 10
5.327646330000004
 20
8.949999906666664
 30
0
 11
5.327646330000004
 21
8.884999906666662
 31
0
  0
LINE
  8
0
 62
7
 10
5.473589170000001
 20
9.068333226666665
 30
0
 11
4.21999984
 21
9.068333226666665
 31
0
  0
LINE
  8
0
 62
7
 10
4.21999984
 20
9.133333226666663
 30
0
 11
5.473589170000001
 21
9.133333226666663
 31
0
  0
LINE
  8
0
 62
7
 10
4.21999984
 20
9.068333226666665
 30
0
 11
4.21999984
 21
9.133333226666663
 31
0
  0
LINE
  8
0
 62
7
 10
5.473589170000001
 20
9.133333226666663
 30
0
 11
5.473589170000001
 21
9.068333226666665
 31
0
  0
LINE
  8
0
 62
7
 10
5.579895320000002
 20
9.251666586666662
 30
0
 11
4.543427880000003
 21
9.251666586666662
 31
0
  0
LINE
  8
0
 62
7
 10
4.543427880000003
 20
9.316666586666662
 30
0
 11
5.579895320000002
 21
9.316666586666662
 31
0
  0
LINE
  8
0
 62
7
 10
4.543427880000003
 20
9.251666586666662
 30
0
 11
4.543427880000003
 21
9.316666586666662
 31
0
  0
LINE
  8
0
 62
7
 10
5.579895320000002
 20
9.316666586666662
 30
0
 11
5.579895320000002
 21
9.251666586666662
 31
0
  0
LINE
  8
0
 62
7
 10
5.695065460000002
 20
9.434999946666663
 30
0
 11
4.979844810000003
 21
9.434999946666663
 31
0
  0
LINE
  8
0
 62
7
 10
4.979844810000003
 20
9.499999946666664
 30
0
 11
5.695065460000002
 21
9.499999946666664
 31
0
  0
LINE
  8
0
 62
7
 10
4.979844810000003
 20
9.434999946666663
 30
0
 11
4.979844810000003
 21
9.499999946666664
 31
0
  0
LINE
  8
0
 62
7
 10
5.695065460000002
 20
9.499999946666664
 30
0
 11
5.695065460000002
 21
9.434999946666663
 31
0
  0
LINE
  8
0
 62
7
 10
5.812518150000002
 20
9.618333226666664
 30
0
 11
5.347787320000004
 21
9.618333226666664
 31
0
  0
LINE
  8
0
 62
7
 10
5.347787320000004
 20
9.683333226666662
 30
0
 11
5.601901390000002
 21
9.683333226666662
 31
0
  0
LINE
  8
0
 62
7
 10
5.347787320000004
 20
9.618333226666664
 30
0
 11
5.347787320000004
 21
9.683333226666662
 31
0
  0
LINE
  8
0
 62
7
 10
5.808125000000004
 20
9.683333226666662
 30
0
 11
5.812518150000002
 21
9.683333226666662
 31
0
  0
LINE
  8
0
 62
7
 10
5.812518150000002
 20
9.683333226666662
 30
0
 11
5.812518150000002
 21
9.618333226666664
 31
0
  0
LINE
  8
0
 62
7
 10
6.123273010000002
 20
9.801666666666662
 30
0
 11
5.718123930000002
 21
9.801666666666662
 31
0
  0
LINE
  8
0
 62
7
 10
5.718123930000002
 20
9.866666666666664
 30
0
 11
6.123273010000002
 21
9.866666666666664
 31
0
  0
LINE
  8
0
 62
7
 10
5.718123930000002
 20
9.801666666666662
 30
0
 11
5.718123930000002
 21
9.866666666666664
 31
0
  0
LINE
  8
0
 62
7
 10
6.123273010000002
 20
9.866666666666664
 30
0
 11
6.123273010000002
 21
9.801666666666662
 31
0
  0
LINE
  8
0
 62
7
 10
6.504469600000002
 20
9.984999946666663
 30
0
 11
5.913735800000004
 21
9.984999946666663
 31
0
  0
LINE
  8
0
 62
7
 10
5.913735800000004
 20
10.04999994666666
 30
0
 11
6.504469600000002
 21
10.04999994666666
 31
0
  0
LINE
  8
0
 62
7
 10
5.913735800000004
 20
9.984999946666663
 30
0
 11
5.913735800000004
 21
10.04999994666666
 31
0
  0
LINE
  8
0
 62
7
 10
6.504469600000002
 20
10.04999994666666
 30
0
 11
6.504469600000002
 21
9.984999946666663
 31
0
  0
LINE
  8
0
 62
7
 10
6.902379150000003
 20
10.16833322666666
 30
0
 11
6.028465420000003
 21
10.16833322666666
 31
0
  0
LINE
  8
0
 62
7
 10
6.028465420000003
 20
10.23333322666666
 30
0
 11
6.902379150000003
 21
10.23333322666666
 31
0
  0
LINE
  8
0
 62
7
 10
6.028465420000003
 20
10.16833322666666
 30
0
 11
6.028465420000003
 21
10.23333322666666
 31
0
  0
LINE
  8
0
 62
7
 10
6.902379150000003
 20
10.23333322666666
 30
0
 11
6.902379150000003
 21
10.16833322666666
 31
0
  0
LINE
  8
0
 62
7
 10
7.370000000000005
 20
10.35166666666666
 30
0
 11
6.139111780000002
 21
10.35166666666666
 31
0
  0
LINE
  8
0
 62
7
 10
6.139111780000002
 20
10.41666666666666
 30
0
 11
7.370000000000005
 21
10.41666666666666
 31
0
  0
LINE
  8
0
 62
7
 10
6.139111780000002
 20
10.35166666666666
 30
0
 11
6.139111780000002
 21
10.41666666666666
 31
0
  0
LINE
  8
0
 62
7
 10
7.370000000000005
 20
10.41666666666666
 30
0
 11
7.370000000000005
 21
10.35166666666666
 31
0
  0
LINE
  8
0
 62
7
 10
6.283321070000002
 20
10.59999994666666
 30
0
 11
7.370000300000003
 21
10.59999994666666
 31
0
  0
LINE
  8
0
 62
7
 10
7.370000300000003
 20
10.53499994666666
 30
0
 11
6.283321070000002
 21
10.53499994666666
 31
0
  0
LINE
  8
0
 62
7
 10
6.283321070000002
 20
10.53499994666666
 30
0
 11
6.283321070000002
 21
10.59999994666666
 31
0
  0
LINE
  8
0
 62
7
 10
7.370000300000003
 20
10.59999994666666
 30
0
 11
7.370000300000003
 21
10.53499994666666
 31
0
  0
LINE
  8
0
 62
7
 10
6.420000000000005
 20
10.78333322666666
 30
0
 11
7.370000000000005
 21
10.78333322666666
 31
0
  0
LINE
  8
0
 62
7
 10
6.420000000000005
 20
10.71833322666666
 30
0
 11
6.420000000000005
 21
10.78333322666666
 31
0
  0
LINE
  8
0
 62
7
 10
7.370000000000005
 20
10.78333322666666
 30
0
 11
7.370000000000005
 21
10.71833322666666
 31
0
  0
LINE
  8
0
 62
7
 10
7.370000000000005
 20
10.71833322666666
 30
0
 11
6.420000000000005
 21
10.71833322666666
 31
0
  0
LINE
  8
0
 62
7
  6
DASHED
 10
6.419999690000004
 20
10.96666666666666
 30
0
 11
7.370000000000005
 21
10.96666666666666
 31
0
  0
LINE
  8
0
 62
7
  6
DASHED
 10
6.419999690000004
 20
10.90166666666666
 30
0
 11
6.419999690000004
 21
10.96666666666666
 31
0
  0
LINE
  8
0
 62
7
  6
DASHED
 10
7.370000000000005
 20
10.96666666666666
 30
0
 11
7.370000000000005
 21
10.90166666666666
 31
0
  0
LINE
  8
0
 62
7
  6
DASHED
 10
7.370000000000005
 20
10.90166666666666
 30
0
 11
6.419999690000004
 21
10.90166666666666
 31
0
  0
LINE
  8
0
 62
7
  6
DASHDOT
 10
7.425000000000004
 20
5.419999999999999
 30
0
 11
7.600000000000005
 21
5.419999999999999
 31
0
  0
LINE
  8
0
 62
7
  6
DASHDOT
 10
7.600000000000005
 20
5.419999999999999
 30
0
 11
7.650000000000005
 21
5.419999999999998
 31
0
  0
LINE
  8
0
 62
7
  6
DASHDOT
 10
3.840000000000004
 20
4.99
 30
0
 11
3.840000000000004
 21
4.75
 31
0
  0
LINE
  8
0
 62
7
  6
DASHDOT
 10
7.765000000000005
 20
4.99
 30
0
 11
7.765000000000005
 21
4.75
 31
0
  0
LINE
  8
0
 62
7
  6
DASHDOT
 10
3.840000000000004
 20
5.030000000000001
 30
0
 11
3.840000000000004
 21
4.99
 31
0
  0
LINE
  8
0
 62
7
  6
DASHDOT
 10
7.765000000000005
 20
5.030000000000001
 30
0
 11
7.765000000000005
 21
4.99
 31
0
  0
LINE
  8
0
 62
7
  6
DASHDOT
 10
3.840000000000004
 20
4.75
 30
0
 11
3.840000000000004
 21
4.7
 31
0
  0
LINE
  8
0
 62
7
  6
DASHDOT
 10
3.840000000000004
 20
5.269999999999999
 30
0
 11
3.840000000000004
 21
5.030000000000001
 31
0
  0
LINE
  8
0
 62
7
  6
DASHDOT
 10
4.165000000000004
 20
5.419999999999999
 30
0
 11
4.215000000000003
 21
5.419999999999998
 31
0
  0
LINE
  8
0
 62
7
  6
DASHDOT
 10
3.990000000000004
 20
5.419999999999999
 30
0
 11
4.165000000000004
 21
5.419999999999999
 31
0
  0
LINE
  8
0
 62
7
  6
DASHDOT
 10
7.765000000000005
 20
4.75
 30
0
 11
7.765000000000005
 21
4.7
 31
0
  0
LINE
  8
0
 62
7
  6
DASHDOT
 10
7.765000000000005
 20
5.269999999999999
 30
0
 11
7.765000000000005
 21
5.030000000000001
 31
0
  0
LINE
  8
0
 62
7
  6
DASHDOT
 10
7.765000000000005
 20
5.319999999999999
 30
0
 11
7.765000000000005
 21
5.269999999999999
 31
0
  0
LINE
  8
0
 62
7
  6
DASHDOT
 10
3.840000000000004
 20
5.319999999999999
 30
0
 11
3.840000000000004
 21
5.269999999999999
 31
0
  0
LINE
  8
0
 62
7
  6
DASHDOT
 10
7.375000000000004
 20
5.419999999999998
 30
0
 11
7.425000000000004
 21
5.419999999999999
 31
0
  0
LINE
  8
0
 62
7
  6
DASHDOT
 10
3.940000000000004
 20
5.419999999999998
 30
0
 11
3.990000000000004
 21
5.419999999999999
 31
0
  0
LINE
  8
0
 62
7
 10
4.165000000000004
 20
3.4
 30
0
 11
4.165000000000004
 21
3.450000000000001
 31
0
  0
LINE
  8
0
 62
7
  6
DASHDOT
 10
7.425000000000004
 20
3.4
 30
0
 11
4.165000000000004
 21
3.4
 31
0
  0
LINE
  8
0
 62
7
 10
7.425000000000004
 20
3.45
 30
0
 11
7.425000000000004
 21
3.4
 31
0
  0
LINE
  8
0
 62
7
 10
4.165000000000004
 20
3.450000000000001
 30
0
 11
4.165000000000004
 21
4.75
 31
0
  0
LINE
  8
0
 62
7
 10
7.425000000000004
 20
3.45
 30
0
 11
4.165000000000004
 21
3.450000000000001
 31
0
  0
LINE
  8
0
 62
7
 10
7.425000000000004
 20
3.4
 30
0
 11
7.600000000000005
 21
3.4
 31
0
  0
LINE
  8
0
 62
7
 10
7.600000000000005
 20
4.75
 30
0
 11
7.765000000000005
 21
4.75
 31
0
  0
LINE
  8
0
 62
7
 10
7.600000000000005
 20
3.4
 30
0
 11
7.600000000000005
 21
4.75
 31
0
  0
LINE
  8
0
 62
7
 10
7.425000000000004
 20
4.75
 30
0
 11
7.425000000000004
 21
3.45
 31
0
  0
LINE
  8
0
 62
7
 10
4.165000000000004
 20
4.75
 30
0
 11
7.425000000000004
 21
4.75
 31
0
  0
LINE
  8
0
 62
7
 10
3.990000000000004
 20
4.75
 30
0
 11
3.990000000000004
 21
3.3
 31
0
  0
LINE
  8
0
 62
7
 10
3.990000000000004
 20
3.3
 30
0
 11
4.165000000000004
 21
3.3
 31
0
  0
LINE
  8
0
 62
7
 10
4.165000000000004
 20
3.3
 30
0
 11
4.165000000000004
 21
3.4
 31
0
  0
LINE
  8
0
 62
7
 10
3.840000000000004
 20
4.75
 30
0
 11
3.990000000000004
 21
4.75
 31
0
  0
LINE
  8
0
 62
7
 10
3.840000000000004
 20
4.99
 30
0
 11
7.765000000000005
 21
4.99
 31
0
  0
LINE
  8
0
 62
7
 10
3.840000000000004
 20
5.030000000000001
 30
0
 11
7.765000000000005
 21
5.030000000000001
 31
0
  0
LINE
  8
0
 62
7
 10
7.600000000000005
 20
5.269999999999999
 30
0
 11
7.765000000000005
 21
5.269999999999999
 31
0
  0
LINE
  8
0
 62
7
 10
7.600000000000005
 20
5.419999999999999
 30
0
 11
7.600000000000005
 21
5.269999999999999
 31
0
  0
LINE
  8
0
 62
7
 10
7.425000000000004
 20
5.269999999999999
 30
0
 11
7.425000000000004
 21
5.419999999999999
 31
0
  0
LINE
  8
0
 62
7
 10
4.165000000000004
 20
5.269999999999999
 30
0
 11
7.425000000000004
 21
5.269999999999999
 31
0
  0
LINE
  8
0
 62
7
 10
4.165000000000004
 20
5.419999999999999
 30
0
 11
4.165000000000004
 21
5.269999999999999
 31
0
  0
LINE
  8
0
 62
7
 10
3.990000000000004
 20
5.269999999999999
 30
0
 11
3.990000000000004
 21
5.419999999999999
 31
0
  0
LINE
  8
0
 62
7
 10
3.840000000000004
 20
5.269999999999999
 30
0
 11
3.990000000000004
 21
5.269999999999999
 31
0
  0
LINE
  8
0
 62
7
  6
DASHED
 10
0.7400000000000001
 20
8.099999999999996
 30
0
 11
2.090000000000004
 21
8.099999999999996
 31
0
  0
LINE
  8
0
 62
7
  6
DASHED
 10
0.7400000000000001
 20
8.299999999999997
 30
0
 11
2.090000000000004
 21
8.299999999999997
 31
0
  0
LINE
  8
0
 62
7
  6
DASHED
 10
0.7400000000000001
 20
10.85
 30
0
 11
2.090000000000004
 21
10.85
 31
0
  0
LINE
  8
0
 62
7
  6
DASHED
 10
0.7400000000000001
 20
11.05
 30
0
 11
2.090000000000004
 21
11.05
 31
0
  0
LINE
  8
0
 62
7
  6
DASHDOT
 10
2.390000000000004
 20
11.05
 30
0
 11
2.390000000000004
 21
10.85
 31
0
  0
LINE
  8
0
 62
7
  6
DASHDOT
 10
2.390000000000004
 20
10.85
 30
0
 11
2.390000000000004
 21
10.8
 31
0
  0
LINE
  8
0
 62
7
  6
DASHDOT
 10
0.5
 20
11.2
 30
0
 11
0.7400000000000001
 21
11.2
 31
0
  0
LINE
  8
0
 62
7
  6
DASHDOT
 10
0.7400000000000001
 20
11.2
 30
0
 11
0.79
 21
11.2
 31
0
  0
LINE
  8
0
 62
7
  6
DASHDOT
 10
0.7400000000000001
 20
7.949999999999998
 30
0
 11
0.79
 21
7.949999999999998
 31
0
  0
LINE
  8
0
 62
7
  6
DASHDOT
 10
0.5
 20
7.949999999999998
 30
0
 11
0.7400000000000001
 21
7.949999999999998
 31
0
  0
LINE
  8
0
 62
7
  6
DASHDOT
 10
2.390000000000004
 20
8.099999999999996
 30
0
 11
2.390000000000004
 21
8.299999999999997
 31
0
  0
LINE
  8
0
 62
7
  6
DASHDOT
 10
2.390000000000004
 20
8.299999999999997
 30
0
 11
2.390000000000004
 21
8.399999999999997
 31
0
  0
LINE
  8
0
 62
7
  6
DASHDOT
 10
2.390000000000004
 20
11.15
 30
0
 11
2.390000000000004
 21
11.05
 31
0
  0
LINE
  8
0
 62
7
 10
2.090000000000004
 20
11.15
 30
0
 11
2.390000000000004
 21
11.15
 31
0
  0
LINE
  8
0
 62
7
  6
DASHDOT
 10
2.390000000000004
 20
8.399999999999997
 30
0
 11
2.390000000000004
 21
8.449999999999998
 31
0
  0
LINE
  8
0
 62
7
 10
2.090000000000004
 20
8.399999999999997
 30
0
 11
2.390000000000004
 21
8.399999999999997
 31
0
  0
LINE
  8
0
 62
7
  6
DASHDOT
 10
0.45
 20
7.949999999999998
 30
0
 11
0.5
 21
7.949999999999998
 31
0
  0
LINE
  8
0
 62
7
  6
DASHDOT
 10
2.390000000000004
 20
8.049999999999995
 30
0
 11
2.390000000000004
 21
8.099999999999996
 31
0
  0
LINE
  8
0
 62
7
  6
DASHDOT
 10
2.390000000000004
 20
11.2
 30
0
 11
2.390000000000004
 21
11.15
 31
0
  0
LINE
  8
0
 62
7
  6
DASHDOT
 10
0.45
 20
11.2
 30
0
 11
0.5
 21
11.2
 31
0
  0
LINE
  8
0
 62
7
 10
2.090000000000004
 20
8.099999999999996
 30
0
 11
2.390000000000004
 21
8.099999999999996
 31
0
  0
LINE
  8
0
 62
7
 10
2.090000000000004
 20
8.299999999999997
 30
0
 11
2.090000000000004
 21
8.099999999999996
 31
0
  0
LINE
  8
0
 62
7
 10
2.090000000000004
 20
8.299999999999997
 30
0
 11
2.390000000000004
 21
8.299999999999997
 31
0
  0
LINE
  8
0
 62
7
 10
2.090000000000004
 20
11.05
 30
0
 11
2.390000000000004
 21
11.05
 31
0
  0
LINE
  8
0
 62
7
 10
2.090000000000004
 20
10.85
 30
0
 11
2.390000000000004
 21
10.85
 31
0
  0
LINE
  8
0
 62
7
 10
2.090000000000004
 20
11.05
 30
0
 11
2.090000000000004
 21
10.85
 31
0
  0
LINE
  8
0
 62
7
 10
0.7400000000000001
 20
8.099999999999996
 30
0
 11
0.7400000000000001
 21
7.949999999999998
 31
0
  0
LINE
  8
0
 62
7
 10
0.5
 20
8.099999999999996
 30
0
 11
0.5
 21
8.299999999999997
 31
0
  0
LINE
  8
0
 62
7
 10
0.5
 20
8.099999999999996
 30
0
 11
0.7400000000000001
 21
8.099999999999996
 31
0
  0
LINE
  8
0
 62
7
 10
0.7400000000000001
 20
8.299999999999997
 30
0
 11
0.7400000000000001
 21
8.099999999999996
 31
0
  0
LINE
  8
0
 62
7
 10
0.5
 20
8.299999999999997
 30
0
 11
0.5
 21
10.85
 31
0
  0
LINE
  8
0
 62
7
 10
0.5
 20
8.299999999999997
 30
0
 11
0.7400000000000001
 21
8.299999999999997
 31
0
  0
LINE
  8
0
 62
7
 10
0.7400000000000001
 20
10.85
 30
0
 11
0.7400000000000001
 21
8.299999999999997
 31
0
  0
LINE
  8
0
 62
7
 10
0.5
 20
10.85
 30
0
 11
0.5
 21
11.05
 31
0
  0
LINE
  8
0
 62
7
 10
0.5
 20
10.85
 30
0
 11
0.7400000000000001
 21
10.85
 31
0
  0
LINE
  8
0
 62
7
 10
0.7400000000000001
 20
11.05
 30
0
 11
0.7400000000000001
 21
10.85
 31
0
  0
LINE
  8
0
 62
7
 10
0.5
 20
11.05
 30
0
 11
0.5
 21
11.2
 31
0
  0
LINE
  8
0
 62
7
 10
0.5
 20
11.05
 30
0
 11
0.7400000000000001
 21
11.05
 31
0
  0
LINE
  8
0
 62
7
 10
0.7400000000000001
 20
11.2
 30
0
 11
0.7400000000000001
 21
11.05
 31
0
  0
LINE
  8
0
 62
7
 10
0.5
 20
7.949999999999998
 30
0
 11
0.5
 21
8.099999999999996
 31
0
  0
LINE
  8
0
 62
7
  6
DASHDOT
 10
3.940000000000004
 20
11.2
 30
0
 11
3.990000000000004
 21
11.2
 31
0
  0
LINE
  8
0
 62
7
  6
DASHDOT
 10
3.990000000000004
 20
11.2
 30
0
 11
4.165000000000004
 21
11.2
 31
0
  0
LINE
  8
0
 62
7
  6
DASHDOT
 10
3.840000000000004
 20
11.15
 30
0
 11
3.840000000000004
 21
11.05
 31
0
  0
LINE
  8
0
 62
7
  6
DASHDOT
 10
3.840000000000004
 20
11.05
 30
0
 11
3.840000000000004
 21
10.85
 31
0
  0
LINE
  8
0
 62
7
  6
DASHDOT
 10
7.375000000000004
 20
11.2
 30
0
 11
7.425000000000004
 21
11.2
 31
0
  0
LINE
  8
0
 62
7
  6
DASHDOT
 10
7.425000000000004
 20
11.2
 30
0
 11
7.600000000000005
 21
11.2
 31
0
  0
LINE
  8
0
 62
7
  6
DASHDOT
 10
7.750000000000004
 20
11.15
 30
0
 11
7.750000000000004
 21
11.05
 31
0
  0
LINE
  8
0
 62
7
  6
DASHDOT
 10
7.750000000000004
 20
11.05
 30
0
 11
7.750000000000004
 21
10.85
 31
0
  0
LINE
  8
0
 62
7
  6
DASHDOT
 10
7.375000000000004
 20
7.949999999999998
 30
0
 11
7.425000000000004
 21
7.949999999999998
 31
0
  0
LINE
  8
0
 62
7
  6
DASHDOT
 10
7.425000000000004
 20
7.949999999999998
 30
0
 11
7.600000000000005
 21
7.949999999999998
 31
0
  0
LINE
  8
0
 62
7
  6
DASHDOT
 10
7.750000000000004
 20
8.399999999999997
 30
0
 11
7.750000000000004
 21
8.299999999999997
 31
0
  0
LINE
  8
0
 62
7
  6
DASHDOT
 10
7.750000000000004
 20
8.299999999999997
 30
0
 11
7.750000000000004
 21
8.099999999999996
 31
0
  0
LINE
  8
0
 62
7
  6
DASHDOT
 10
3.940000000000004
 20
7.949999999999998
 30
0
 11
3.990000000000004
 21
7.949999999999998
 31
0
  0
LINE
  8
0
 62
7
  6
DASHDOT
 10
3.990000000000004
 20
7.949999999999998
 30
0
 11
4.165000000000004
 21
7.949999999999998
 31
0
  0
LINE
  8
0
 62
7
  6
DASHDOT
 10
3.840000000000004
 20
8.399999999999997
 30
0
 11
3.840000000000004
 21
8.299999999999997
 31
0
  0
LINE
  8
0
 62
7
  6
DASHDOT
 10
3.840000000000004
 20
8.299999999999997
 30
0
 11
3.840000000000004
 21
8.099999999999996
 31
0
  0
LINE
  8
0
 62
7
  6
DASHDOT
 10
3.840000000000004
 20
11.2
 30
0
 11
3.840000000000004
 21
11.15
 31
0
  0
LINE
  8
0
 62
7
 10
3.990000000000004
 20
11.2
 30
0
 11
3.990000000000004
 21
11.15
 31
0
  0
LINE
  8
0
 62
7
 10
3.840000000000004
 20
11.15
 30
0
 11
3.990000000000004
 21
11.15
 31
0
  0
LINE
  8
0
 62
7
 10
4.165000000000004
 20
11.2
 30
0
 11
4.165000000000004
 21
11.15
 31
0
  0
LINE
  8
0
 62
7
 10
7.425000000000004
 20
11.2
 30
0
 11
7.425000000000004
 21
11.15
 31
0
  0
LINE
  8
0
 62
7
 10
4.165000000000004
 20
11.15
 30
0
 11
7.425000000000004
 21
11.15
 31
0
  0
LINE
  8
0
 62
7
  6
DASHDOT
 10
7.750000000000004
 20
11.2
 30
0
 11
7.750000000000004
 21
11.15
 31
0
  0
LINE
  8
0
 62
7
 10
7.600000000000005
 20
11.2
 30
0
 11
7.600000000000005
 21
11.15
 31
0
  0
LINE
  8
0
 62
7
 10
7.600000000000005
 20
11.15
 30
0
 11
7.750000000000004
 21
11.15
 31
0
  0
LINE
  8
0
 62
7
  6
DASHDOT
 10
3.840000000000004
 20
8.449999999999998
 30
0
 11
3.840000000000004
 21
8.399999999999997
 31
0
  0
LINE
  8
0
 62
7
 10
3.990000000000004
 20
10.85
 30
0
 11
3.990000000000004
 21
8.399999999999997
 31
0
  0
LINE
  8
0
 62
7
 10
3.840000000000004
 20
8.399999999999997
 30
0
 11
3.990000000000004
 21
8.399999999999997
 31
0
  0
LINE
  8
0
 62
7
 10
4.165000000000004
 20
10.85
 30
0
 11
4.165000000000004
 21
8.399999999999997
 31
0
  0
LINE
  8
0
 62
7
 10
7.425000000000004
 20
10.85
 30
0
 11
7.425000000000004
 21
8.399999999999997
 31
0
  0
LINE
  8
0
 62
7
 10
4.165000000000004
 20
8.399999999999997
 30
0
 11
7.425000000000004
 21
8.399999999999997
 31
0
  0
LINE
  8
0
 62
7
  6
DASHDOT
 10
7.750000000000004
 20
8.449999999999998
 30
0
 11
7.750000000000004
 21
8.399999999999997
 31
0
  0
LINE
  8
0
 62
7
 10
7.600000000000005
 20
10.85
 30
0
 11
7.600000000000005
 21
8.399999999999997
 31
0
  0
LINE
  8
0
 62
7
 10
7.600000000000005
 20
8.399999999999997
 30
0
 11
7.750000000000004
 21
8.399999999999997
 31
0
  0
LINE
  8
0
 62
7
  6
DASHDOT
 10
4.165000000000004
 20
7.949999999999998
 30
0
 11
4.215000000000003
 21
7.949999999999998
 31
0
  0
LINE
  8
0
 62
7
  6
DASHDOT
 10
4.165000000000004
 20
11.2
 30
0
 11
4.215000000000003
 21
11.2
 31
0
  0
LINE
  8
0
 62
7
  6
DASHDOT
 10
7.600000000000005
 20
7.949999999999998
 30
0
 11
7.650000000000005
 21
7.949999999999998
 31
0
  0
LINE
  8
0
 62
7
  6
DASHDOT
 10
7.600000000000005
 20
11.2
 30
0
 11
7.650000000000005
 21
11.2
 31
0
  0
LINE
  8
0
 62
7
  6
DASHDOT
 10
3.840000000000004
 20
10.85
 30
0
 11
3.840000000000004
 21
10.8
 31
0
  0
LINE
  8
0
 62
7
  6
DASHDOT
 10
3.840000000000004
 20
8.099999999999996
 30
0
 11
3.840000000000004
 21
8.049999999999995
 31
0
  0
LINE
  8
0
 62
7
  6
DASHDOT
 10
7.750000000000004
 20
10.85
 30
0
 11
7.750000000000004
 21
10.8
 31
0
  0
LINE
  8
0
 62
7
  6
DASHDOT
 10
7.750000000000004
 20
8.099999999999996
 30
0
 11
7.750000000000004
 21
8.049999999999995
 31
0
  0
LINE
  8
0
 62
7
 10
3.840000000000004
 20
11.05
 30
0
 11
3.990000000000004
 21
11.05
 31
0
  0
LINE
  8
0
 62
7
 10
3.990000000000004
 20
11.15
 30
0
 11
3.990000000000004
 21
11.05
 31
0
  0
LINE
  8
0
 62
7
 10
3.840000000000004
 20
10.85
 30
0
 11
3.990000000000004
 21
10.85
 31
0
  0
LINE
  8
0
 62
7
 10
3.840000000000004
 20
8.299999999999997
 30
0
 11
3.990000000000004
 21
8.299999999999997
 31
0
  0
LINE
  8
0
 62
7
 10
3.990000000000004
 20
8.399999999999997
 30
0
 11
3.990000000000004
 21
8.299999999999997
 31
0
  0
LINE
  8
0
 62
7
 10
3.840000000000004
 20
8.099999999999996
 30
0
 11
3.990000000000004
 21
8.099999999999996
 31
0
  0
LINE
  8
0
 62
7
 10
3.990000000000004
 20
8.099999999999996
 30
0
 11
3.990000000000004
 21
7.949999999999998
 31
0
  0
LINE
  8
0
 62
7
 10
3.990000000000004
 20
11.05
 30
0
 11
4.165000000000004
 21
11.05
 31
0
  0
LINE
  8
0
 62
7
 10
4.165000000000004
 20
11.15
 30
0
 11
4.165000000000004
 21
11.05
 31
0
  0
LINE
  8
0
 62
7
 10
3.990000000000004
 20
10.85
 30
0
 11
4.165000000000004
 21
10.85
 31
0
  0
LINE
  8
0
 62
7
 10
3.990000000000004
 20
8.299999999999997
 30
0
 11
4.165000000000004
 21
8.299999999999997
 31
0
  0
LINE
  8
0
 62
7
 10
4.165000000000004
 20
8.399999999999997
 30
0
 11
4.165000000000004
 21
8.299999999999997
 31
0
  0
LINE
  8
0
 62
7
 10
3.990000000000004
 20
8.099999999999996
 30
0
 11
4.165000000000004
 21
8.099999999999996
 31
0
  0
LINE
  8
0
 62
7
 10
4.165000000000004
 20
8.099999999999996
 30
0
 11
4.165000000000004
 21
7.949999999999998
 31
0
  0
LINE
  8
0
 62
7
 10
4.165000000000004
 20
11.05
 30
0
 11
7.425000000000004
 21
11.05
 31
0
  0
LINE
  8
0
 62
7
 10
7.425000000000004
 20
11.15
 30
0
 11
7.425000000000004
 21
11.05
 31
0
  0
LINE
  8
0
 62
7
 10
4.165000000000004
 20
10.85
 30
0
 11
7.425000000000004
 21
10.85
 31
0
  0
LINE
  8
0
 62
7
 10
4.165000000000004
 20
8.299999999999997
 30
0
 11
7.425000000000004
 21
8.299999999999997
 31
0
  0
LINE
  8
0
 62
7
 10
7.425000000000004
 20
8.399999999999997
 30
0
 11
7.425000000000004
 21
8.299999999999997
 31
0
  0
LINE
  8
0
 62
7
 10
4.165000000000004
 20
8.099999999999996
 30
0
 11
7.425000000000004
 21
8.099999999999996
 31
0
  0
LINE
  8
0
 62
7
 10
7.425000000000004
 20
8.099999999999996
 30
0
 11
7.425000000000004
 21
7.949999999999998
 31
0
  0
LINE
  8
0
 62
7
 10
7.425000000000004
 20
11.05
 30
0
 11
7.600000000000005
 21
11.05
 31
0
  0
LINE
  8
0
 62
7
 10
7.600000000000005
 20
11.15
 30
0
 11
7.600000000000005
 21
11.05
 31
0
  0
LINE
  8
0
 62
7
 10
7.425000000000004
 20
10.85
 30
0
 11
7.600000000000005
 21
10.85
 31
0
  0
LINE
  8
0
 62
7
 10
7.425000000000004
 20
8.299999999999997
 30
0
 11
7.600000000000005
 21
8.299999999999997
 31
0
  0
LINE
  8
0
 62
7
 10
7.600000000000005
 20
8.399999999999997
 30
0
 11
7.600000000000005
 21
8.299999999999997
 31
0
  0
LINE
  8
0
 62
7
 10
7.425000000000004
 20
8.099999999999996
 30
0
 11
7.600000000000005
 21
8.099999999999996
 31
0
  0
LINE
  8
0
 62
7
 10
7.600000000000005
 20
8.099999999999996
 30
0
 11
7.600000000000005
 21
7.949999999999998
 31
0
  0
LINE
  8
0
 62
7
 10
7.600000000000005
 20
11.05
 30
0
 11
7.750000000000004
 21
11.05
 31
0
  0
LINE
  8
0
 62
7
 10
7.600000000000005
 20
10.85
 30
0
 11
7.750000000000004
 21
10.85
 31
0
  0
LINE
  8
0
 62
7
 10
7.600000000000005
 20
8.299999999999997
 30
0
 11
7.750000000000004
 21
8.299999999999997
 31
0
  0
LINE
  8
0
 62
7
 10
7.600000000000005
 20
8.099999999999996
 30
0
 11
7.750000000000004
 21
8.099999999999996
 31
0
  0
LINE
  8
0
 62
7
 10
4.97301095738943
 20
4.436217216828481
 30
0
 11
4.97301095738943
 21
4.55621721682848
 31
0
  0
LINE
  8
0
 62
7
 10
5.048610957389431
 20
4.55621721682848
 30
0
 11
4.994610957389431
 21
4.496217216828479
 31
0
  0
LINE
  8
0
 62
7
 10
4.994610957389431
 20
4.496217216828479
 30
0
 11
5.048610957389431
 21
4.436217216828481
 31
0
  0
LINE
  8
0
 62
7
 10
4.994610957389431
 20
4.496217216828479
 30
0
 11
4.97301095738943
 21
4.47221721682848
 31
0
  0
LINE
  8
0
 62
7
 10
5.156610957389431
 20
4.55621721682848
 30
0
 11
5.08101095738943
 21
4.55621721682848
 31
0
  0
LINE
  8
0
 62
7
 10
5.08101095738943
 20
4.55621721682848
 30
0
 11
5.08101095738943
 21
4.496217216828479
 31
0
  0
LINE
  8
0
 62
7
 10
5.08101095738943
 20
4.436217216828481
 30
0
 11
5.156610957389431
 21
4.436217216828481
 31
0
  0
LINE
  8
0
 62
7
 10
5.14581095738943
 20
4.496217216828479
 30
0
 11
5.08101095738943
 21
4.496217216828479
 31
0
  0
LINE
  8
0
 62
7
 10
5.08101095738943
 20
4.496217216828479
 30
0
 11
5.08101095738943
 21
4.436217216828481
 31
0
  0
LINE
  8
0
 62
7
 10
5.189010957389431
 20
4.436217216828481
 30
0
 11
5.189010957389431
 21
4.55621721682848
 31
0
  0
LINE
  8
0
 62
7
 10
5.189010957389431
 20
4.55621721682848
 30
0
 11
5.264610957389431
 21
4.436217216828481
 31
0
  0
LINE
  8
0
 62
7
 10
5.264610957389431
 20
4.436217216828481
 30
0
 11
5.264610957389431
 21
4.55621721682848
 31
0
  0
LINE
  8
0
 62
7
 10
5.29701095738943
 20
4.436217216828481
 30
0
 11
5.29701095738943
 21
4.55621721682848
 31
0
  0
LINE
  8
0
 62
7
 10
5.29701095738943
 20
4.55621721682848
 30
0
 11
5.37261095738943
 21
4.436217216828481
 31
0
  0
LINE
  8
0
 62
7
 10
5.37261095738943
 20
4.436217216828481
 30
0
 11
5.37261095738943
 21
4.55621721682848
 31
0
  0
LINE
  8
0
 62
7
 10
5.48061095738943
 20
4.52021721682848
 30
0
 11
5.47791095738943
 21
4.53221721682848
 31
0
  0
LINE
  8
0
 62
7
 10
5.47791095738943
 20
4.53221721682848
 30
0
 11
5.472510957389431
 21
4.54121721682848
 31
0
  0
LINE
  8
0
 62
7
 10
5.472510957389431
 20
4.54121721682848
 30
0
 11
5.467110957389432
 21
4.54721721682848
 31
0
  0
LINE
  8
0
 62
7
 10
5.467110957389432
 20
4.54721721682848
 30
0
 11
5.45901095738943
 21
4.553217216828481
 31
0
  0
LINE
  8
0
 62
7
 10
5.45901095738943
 20
4.553217216828481
 30
0
 11
5.450910957389429
 21
4.55621721682848
 31
0
  0
LINE
  8
0
 62
7
 10
5.450910957389429
 20
4.55621721682848
 30
0
 11
5.43471095738943
 21
4.55621721682848
 31
0
  0
LINE
  8
0
 62
7
 10
5.43471095738943
 20
4.55621721682848
 30
0
 11
5.426610957389431
 21
4.553217216828481
 31
0
  0
LINE
  8
0
 62
7
 10
5.426610957389431
 20
4.553217216828481
 30
0
 11
5.418510957389429
 21
4.54721721682848
 31
0
  0
LINE
  8
0
 62
7
 10
5.418510957389429
 20
4.54721721682848
 30
0
 11
5.41311095738943
 21
4.54121721682848
 31
0
  0
LINE
  8
0
 62
7
 10
5.41311095738943
 20
4.54121721682848
 30
0
 11
5.407710957389431
 21
4.53221721682848
 31
0
  0
LINE
  8
0
 62
7
 10
5.407710957389431
 20
4.53221721682848
 30
0
 11
5.405010957389431
 21
4.52021721682848
 31
0
  0
LINE
  8
0
 62
7
 10
5.405010957389431
 20
4.52021721682848
 30
0
 11
5.405010957389431
 21
4.47221721682848
 31
0
  0
LINE
  8
0
 62
7
 10
5.405010957389431
 20
4.47221721682848
 30
0
 11
5.407710957389431
 21
4.46021721682848
 31
0
  0
LINE
  8
0
 62
7
 10
5.407710957389431
 20
4.46021721682848
 30
0
 11
5.41311095738943
 21
4.45121721682848
 31
0
  0
LINE
  8
0
 62
7
 10
5.41311095738943
 20
4.45121721682848
 30
0
 11
5.418510957389429
 21
4.44521721682848
 31
0
  0
LINE
  8
0
 62
7
 10
5.418510957389429
 20
4.44521721682848
 30
0
 11
5.426610957389431
 21
4.43921721682848
 31
0
  0
LINE
  8
0
 62
7
 10
5.426610957389431
 20
4.43921721682848
 30
0
 11
5.43471095738943
 21
4.436217216828481
 31
0
  0
LINE
  8
0
 62
7
 10
5.43471095738943
 20
4.436217216828481
 30
0
 11
5.450910957389429
 21
4.436217216828481
 31
0
  0
LINE
  8
0
 62
7
 10
5.450910957389429
 20
4.436217216828481
 30
0
 11
5.45901095738943
 21
4.43921721682848
 31
0
  0
LINE
  8
0
 62
7
 10
5.45901095738943
 20
4.43921721682848
 30
0
 11
5.467110957389432
 21
4.44521721682848
 31
0
  0
LINE
  8
0
 62
7
 10
5.467110957389432
 20
4.44521721682848
 30
0
 11
5.472510957389431
 21
4.45121721682848
 31
0
  0
LINE
  8
0
 62
7
 10
5.472510957389431
 20
4.45121721682848
 30
0
 11
5.47791095738943
 21
4.46021721682848
 31
0
  0
LINE
  8
0
 62
7
 10
5.47791095738943
 20
4.46021721682848
 30
0
 11
5.48061095738943
 21
4.47221721682848
 31
0
  0
LINE
  8
0
 62
7
 10
5.48061095738943
 20
4.47221721682848
 30
0
 11
5.48061095738943
 21
4.496217216828479
 31
0
  0
LINE
  8
0
 62
7
 10
5.48061095738943
 20
4.496217216828479
 30
0
 11
5.44821095738943
 21
4.496217216828479
 31
0
  0
LINE
  8
0
 62
7
 10
5.558910957389429
 20
4.55621721682848
 30
0
 11
5.542710957389431
 21
4.55621721682848
 31
0
  0
LINE
  8
0
 62
7
 10
5.542710957389431
 20
4.55621721682848
 30
0
 11
5.534610957389432
 21
4.553217216828481
 31
0
  0
LINE
  8
0
 62
7
 10
5.534610957389432
 20
4.553217216828481
 30
0
 11
5.52651095738943
 21
4.54721721682848
 31
0
  0
LINE
  8
0
 62
7
 10
5.52651095738943
 20
4.54721721682848
 30
0
 11
5.521110957389431
 21
4.54121721682848
 31
0
  0
LINE
  8
0
 62
7
 10
5.521110957389431
 20
4.54121721682848
 30
0
 11
5.51571095738943
 21
4.53221721682848
 31
0
  0
LINE
  8
0
 62
7
 10
5.51571095738943
 20
4.53221721682848
 30
0
 11
5.513010957389429
 21
4.52021721682848
 31
0
  0
LINE
  8
0
 62
7
 10
5.513010957389429
 20
4.52021721682848
 30
0
 11
5.513010957389429
 21
4.47221721682848
 31
0
  0
LINE
  8
0
 62
7
 10
5.513010957389429
 20
4.47221721682848
 30
0
 11
5.51571095738943
 21
4.46021721682848
 31
0
  0
LINE
  8
0
 62
7
 10
5.51571095738943
 20
4.46021721682848
 30
0
 11
5.521110957389431
 21
4.45121721682848
 31
0
  0
LINE
  8
0
 62
7
 10
5.521110957389431
 20
4.45121721682848
 30
0
 11
5.52651095738943
 21
4.44521721682848
 31
0
  0
LINE
  8
0
 62
7
 10
5.52651095738943
 20
4.44521721682848
 30
0
 11
5.534610957389432
 21
4.43921721682848
 31
0
  0
LINE
  8
0
 62
7
 10
5.534610957389432
 20
4.43921721682848
 30
0
 11
5.542710957389431
 21
4.436217216828481
 31
0
  0
LINE
  8
0
 62
7
 10
5.542710957389431
 20
4.436217216828481
 30
0
 11
5.558910957389429
 21
4.436217216828481
 31
0
  0
LINE
  8
0
 62
7
 10
5.558910957389429
 20
4.436217216828481
 30
0
 11
5.567010957389431
 21
4.43921721682848
 31
0
  0
LINE
  8
0
 62
7
 10
5.567010957389431
 20
4.43921721682848
 30
0
 11
5.57511095738943
 21
4.44521721682848
 31
0
  0
LINE
  8
0
 62
7
 10
5.57511095738943
 20
4.44521721682848
 30
0
 11
5.58051095738943
 21
4.45121721682848
 31
0
  0
LINE
  8
0
 62
7
 10
5.58051095738943
 20
4.45121721682848
 30
0
 11
5.58591095738943
 21
4.46021721682848
 31
0
  0
LINE
  8
0
 62
7
 10
5.58591095738943
 20
4.46021721682848
 30
0
 11
5.588610957389431
 21
4.47221721682848
 31
0
  0
LINE
  8
0
 62
7
 10
5.588610957389431
 20
4.47221721682848
 30
0
 11
5.588610957389431
 21
4.52021721682848
 31
0
  0
LINE
  8
0
 62
7
 10
5.588610957389431
 20
4.52021721682848
 30
0
 11
5.58591095738943
 21
4.53221721682848
 31
0
  0
LINE
  8
0
 62
7
 10
5.58591095738943
 20
4.53221721682848
 30
0
 11
5.58051095738943
 21
4.54121721682848
 31
0
  0
LINE
  8
0
 62
7
 10
5.58051095738943
 20
4.54121721682848
 30
0
 11
5.57511095738943
 21
4.54721721682848
 31
0
  0
LINE
  8
0
 62
7
 10
5.57511095738943
 20
4.54721721682848
 30
0
 11
5.567010957389431
 21
4.553217216828481
 31
0
  0
LINE
  8
0
 62
7
 10
5.567010957389431
 20
4.553217216828481
 30
0
 11
5.558910957389429
 21
4.55621721682848
 31
0
  0
LINE
  8
0
 62
7
 10
5.61021095738943
 20
4.55621721682848
 30
0
 11
5.648010957389432
 21
4.55621721682848
 31
0
  0
LINE
  8
0
 62
7
 10
5.648010957389432
 20
4.55621721682848
 30
0
 11
5.648010957389432
 21
4.436217216828481
 31
0
  0
LINE
  8
0
 62
7
 10
5.648010957389432
 20
4.55621721682848
 30
0
 11
5.685810957389432
 21
4.55621721682848
 31
0
  0
LINE
  8
0
 62
7
 10
5.718210957389431
 20
4.55621721682848
 30
0
 11
5.756010957389432
 21
4.55621721682848
 31
0
  0
LINE
  8
0
 62
7
 10
5.756010957389432
 20
4.55621721682848
 30
0
 11
5.756010957389432
 21
4.436217216828481
 31
0
  0
LINE
  8
0
 62
7
 10
5.756010957389432
 20
4.55621721682848
 30
0
 11
5.793810957389432
 21
4.55621721682848
 31
0
  0
LINE
  8
0
 62
7
 10
5.912610957389431
 20
4.478217216828481
 30
0
 11
5.966610957389431
 21
4.478217216828481
 31
0
  0
LINE
  8
0
 62
7
 10
6.074610957389432
 20
4.55621721682848
 30
0
 11
6.112410957389431
 21
4.55621721682848
 31
0
  0
LINE
  8
0
 62
7
 10
6.112410957389431
 20
4.55621721682848
 30
0
 11
6.112410957389431
 21
4.436217216828481
 31
0
  0
LINE
  8
0
 62
7
 10
6.112410957389431
 20
4.55621721682848
 30
0
 11
6.150210957389432
 21
4.55621721682848
 31
0
  0
LINE
  8
0
 62
7
 10
6.18261095738943
 20
4.436217216828481
 30
0
 11
6.18261095738943
 21
4.55621721682848
 31
0
  0
LINE
  8
0
 62
7
 10
6.18261095738943
 20
4.55621721682848
 30
0
 11
6.233910957389431
 21
4.55621721682848
 31
0
  0
LINE
  8
0
 62
7
 10
6.233910957389431
 20
4.55621721682848
 30
0
 11
6.24471095738943
 21
4.553217216828481
 31
0
  0
LINE
  8
0
 62
7
 10
6.24471095738943
 20
4.553217216828481
 30
0
 11
6.25281095738943
 21
4.54721721682848
 31
0
  0
LINE
  8
0
 62
7
 10
6.25281095738943
 20
4.54721721682848
 30
0
 11
6.25551095738943
 21
4.54121721682848
 31
0
  0
LINE
  8
0
 62
7
 10
6.25551095738943
 20
4.54121721682848
 30
0
 11
6.258210957389431
 21
4.53221721682848
 31
0
  0
LINE
  8
0
 62
7
 10
6.258210957389431
 20
4.53221721682848
 30
0
 11
6.258210957389431
 21
4.52021721682848
 31
0
  0
LINE
  8
0
 62
7
 10
6.258210957389431
 20
4.52021721682848
 30
0
 11
6.25551095738943
 21
4.51121721682848
 31
0
  0
LINE
  8
0
 62
7
 10
6.25551095738943
 20
4.51121721682848
 30
0
 11
6.25281095738943
 21
4.50521721682848
 31
0
  0
LINE
  8
0
 62
7
 10
6.25281095738943
 20
4.50521721682848
 30
0
 11
6.24471095738943
 21
4.499217216828479
 31
0
  0
LINE
  8
0
 62
7
 10
6.24471095738943
 20
4.499217216828479
 30
0
 11
6.233910957389431
 21
4.496217216828479
 31
0
  0
LINE
  8
0
 62
7
 10
6.233910957389431
 20
4.496217216828479
 30
0
 11
6.225810957389431
 21
4.496217216828479
 31
0
  0
LINE
  8
0
 62
7
 10
6.225810957389431
 20
4.496217216828479
 30
0
 11
6.258210957389431
 21
4.436217216828481
 31
0
  0
LINE
  8
0
 62
7
 10
6.225810957389431
 20
4.496217216828479
 30
0
 11
6.18261095738943
 21
4.496217216828479
 31
0
  0
LINE
  8
0
 62
7
 10
6.355410957389432
 20
4.55621721682848
 30
0
 11
6.279810957389432
 21
4.55621721682848
 31
0
  0
LINE
  8
0
 62
7
 10
6.279810957389432
 20
4.55621721682848
 30
0
 11
6.279810957389432
 21
4.496217216828479
 31
0
  0
LINE
  8
0
 62
7
 10
6.279810957389432
 20
4.436217216828481
 30
0
 11
6.355410957389432
 21
4.436217216828481
 31
0
  0
LINE
  8
0
 62
7
 10
6.344610957389432
 20
4.496217216828479
 30
0
 11
6.279810957389432
 21
4.496217216828479
 31
0
  0
LINE
  8
0
 62
7
 10
6.279810957389432
 20
4.496217216828479
 30
0
 11
6.279810957389432
 21
4.436217216828481
 31
0
  0
LINE
  8
0
 62
7
 10
6.387810957389431
 20
4.436217216828481
 30
0
 11
6.387810957389431
 21
4.496217216828479
 31
0
  0
LINE
  8
0
 62
7
 10
6.387810957389431
 20
4.55621721682848
 30
0
 11
6.439110957389431
 21
4.55621721682848
 31
0
  0
LINE
  8
0
 62
7
 10
6.439110957389431
 20
4.55621721682848
 30
0
 11
6.449910957389432
 21
4.553217216828481
 31
0
  0
LINE
  8
0
 62
7
 10
6.449910957389432
 20
4.553217216828481
 30
0
 11
6.458010957389432
 21
4.54721721682848
 31
0
  0
LINE
  8
0
 62
7
 10
6.458010957389432
 20
4.54721721682848
 30
0
 11
6.460710957389431
 21
4.54121721682848
 31
0
  0
LINE
  8
0
 62
7
 10
6.460710957389431
 20
4.54121721682848
 30
0
 11
6.463410957389432
 21
4.53221721682848
 31
0
  0
LINE
  8
0
 62
7
 10
6.463410957389432
 20
4.53221721682848
 30
0
 11
6.463410957389432
 21
4.52021721682848
 31
0
  0
LINE
  8
0
 62
7
 10
6.463410957389432
 20
4.52021721682848
 30
0
 11
6.460710957389431
 21
4.51121721682848
 31
0
  0
LINE
  8
0
 62
7
 10
6.460710957389431
 20
4.51121721682848
 30
0
 11
6.458010957389432
 21
4.50521721682848
 31
0
  0
LINE
  8
0
 62
7
 10
6.458010957389432
 20
4.50521721682848
 30
0
 11
6.449910957389432
 21
4.499217216828479
 31
0
  0
LINE
  8
0
 62
7
 10
6.449910957389432
 20
4.499217216828479
 30
0
 11
6.439110957389431
 21
4.496217216828479
 31
0
  0
LINE
  8
0
 62
7
 10
6.439110957389431
 20
4.496217216828479
 30
0
 11
6.387810957389431
 21
4.496217216828479
 31
0
  0
LINE
  8
0
 62
7
 10
6.387810957389431
 20
4.496217216828479
 30
0
 11
6.387810957389431
 21
4.55621721682848
 31
0
  0
LINE
  8
0
 62
7
 10
6.485010957389432
 20
4.436217216828481
 30
0
 11
6.485010957389432
 21
4.496217216828479
 31
0
  0
LINE
  8
0
 62
7
 10
6.485010957389432
 20
4.55621721682848
 30
0
 11
6.536310957389432
 21
4.55621721682848
 31
0
  0
LINE
  8
0
 62
7
 10
6.536310957389432
 20
4.55621721682848
 30
0
 11
6.547110957389433
 21
4.553217216828481
 31
0
  0
LINE
  8
0
 62
7
 10
6.547110957389433
 20
4.553217216828481
 30
0
 11
6.555210957389431
 21
4.54721721682848
 31
0
  0
LINE
  8
0
 62
7
 10
6.555210957389431
 20
4.54721721682848
 30
0
 11
6.557910957389431
 21
4.54121721682848
 31
0
  0
LINE
  8
0
 62
7
 10
6.557910957389431
 20
4.54121721682848
 30
0
 11
6.560610957389432
 21
4.53221721682848
 31
0
  0
LINE
  8
0
 62
7
 10
6.560610957389432
 20
4.53221721682848
 30
0
 11
6.560610957389432
 21
4.52021721682848
 31
0
  0
LINE
  8
0
 62
7
 10
6.560610957389432
 20
4.52021721682848
 30
0
 11
6.557910957389431
 21
4.51121721682848
 31
0
  0
LINE
  8
0
 62
7
 10
6.557910957389431
 20
4.51121721682848
 30
0
 11
6.555210957389431
 21
4.50521721682848
 31
0
  0
LINE
  8
0
 62
7
 10
6.555210957389431
 20
4.50521721682848
 30
0
 11
6.547110957389433
 21
4.499217216828479
 31
0
  0
LINE
  8
0
 62
7
 10
6.547110957389433
 20
4.499217216828479
 30
0
 11
6.536310957389432
 21
4.496217216828479
 31
0
  0
LINE
  8
0
 62
7
 10
6.536310957389432
 20
4.496217216828479
 30
0
 11
6.485010957389432
 21
4.496217216828479
 31
0
  0
LINE
  8
0
 62
7
 10
6.485010957389432
 20
4.496217216828479
 30
0
 11
6.485010957389432
 21
4.55621721682848
 31
0
  0
LINE
  8
0
 62
7
 10
6.657810957389431
 20
4.55621721682848
 30
0
 11
6.582210957389432
 21
4.55621721682848
 31
0
  0
LINE
  8
0
 62
7
 10
6.582210957389432
 20
4.55621721682848
 30
0
 11
6.582210957389432
 21
4.496217216828479
 31
0
  0
LINE
  8
0
 62
7
 10
6.582210957389432
 20
4.436217216828481
 30
0
 11
6.657810957389431
 21
4.436217216828481
 31
0
  0
LINE
  8
0
 62
7
 10
6.647010957389431
 20
4.496217216828479
 30
0
 11
6.582210957389432
 21
4.496217216828479
 31
0
  0
LINE
  8
0
 62
7
 10
6.582210957389432
 20
4.496217216828479
 30
0
 11
6.582210957389432
 21
4.436217216828481
 31
0
  0
LINE
  8
0
 62
7
 10
4.675000000000003
 20
3.060000000000002
 30
0
 11
4.750600000000005
 21
3.060000000000002
 31
0
  0
LINE
  8
0
 62
7
 10
4.750600000000005
 20
3.060000000000002
 30
0
 11
4.675000000000003
 21
2.940000000000003
 31
0
  0
LINE
  8
0
 62
7
 10
4.675000000000003
 20
2.940000000000003
 30
0
 11
4.750600000000005
 21
2.940000000000003
 31
0
  0
LINE
  8
0
 62
7
 10
4.783000000000004
 20
3.042000000000002
 30
0
 11
4.788400000000004
 21
3.051000000000004
 31
0
  0
LINE
  8
0
 62
7
 10
4.788400000000004
 20
3.051000000000004
 30
0
 11
4.796500000000004
 21
3.057000000000002
 31
0
  0
LINE
  8
0
 62
7
 10
4.796500000000004
 20
3.057000000000002
 30
0
 11
4.807300000000004
 21
3.060000000000002
 31
0
  0
LINE
  8
0
 62
7
 10
4.807300000000004
 20
3.060000000000002
 30
0
 11
4.823500000000005
 21
3.060000000000002
 31
0
  0
LINE
  8
0
 62
7
 10
4.823500000000005
 20
3.060000000000002
 30
0
 11
4.834300000000004
 21
3.057000000000002
 31
0
  0
LINE
  8
0
 62
7
 10
4.834300000000004
 20
3.057000000000002
 30
0
 11
4.842400000000005
 21
3.051000000000004
 31
0
  0
LINE
  8
0
 62
7
 10
4.842400000000005
 20
3.051000000000004
 30
0
 11
4.847800000000006
 21
3.042000000000002
 31
0
  0
LINE
  8
0
 62
7
 10
4.847800000000006
 20
3.042000000000002
 30
0
 11
4.847800000000006
 21
3.030000000000002
 31
0
  0
LINE
  8
0
 62
7
 10
4.847800000000006
 20
3.030000000000002
 30
0
 11
4.842400000000005
 21
3.018000000000002
 31
0
  0
LINE
  8
0
 62
7
 10
4.842400000000005
 20
3.018000000000002
 30
0
 11
4.783000000000004
 21
2.940000000000003
 31
0
  0
LINE
  8
0
 62
7
 10
4.783000000000004
 20
2.940000000000003
 30
0
 11
4.847800000000006
 21
2.940000000000003
 31
0
  0
LINE
  8
0
 62
7
 10
4.880200000000004
 20
3.060000000000002
 30
0
 11
4.918000000000004
 21
2.940000000000003
 31
0
  0
LINE
  8
0
 62
7
 10
4.918000000000004
 20
2.940000000000003
 30
0
 11
4.955800000000004
 21
3.060000000000002
 31
0
  0
LINE
  8
0
 62
7
 10
4.988200000000005
 20
3.042000000000002
 30
0
 11
4.993600000000004
 21
3.051000000000004
 31
0
  0
LINE
  8
0
 62
7
 10
4.993600000000004
 20
3.051000000000004
 30
0
 11
5.001700000000005
 21
3.057000000000002
 31
0
  0
LINE
  8
0
 62
7
 10
5.001700000000005
 20
3.057000000000002
 30
0
 11
5.012500000000004
 21
3.060000000000002
 31
0
  0
LINE
  8
0
 62
7
 10
5.012500000000004
 20
3.060000000000002
 30
0
 11
5.028700000000003
 21
3.060000000000002
 31
0
  0
LINE
  8
0
 62
7
 10
5.028700000000003
 20
3.060000000000002
 30
0
 11
5.036800000000004
 21
3.057000000000002
 31
0
  0
LINE
  8
0
 62
7
 10
5.036800000000004
 20
3.057000000000002
 30
0
 11
5.044900000000005
 21
3.051000000000004
 31
0
  0
LINE
  8
0
 62
7
 10
5.044900000000005
 20
3.051000000000004
 30
0
 11
5.050300000000005
 21
3.042000000000002
 31
0
  0
LINE
  8
0
 62
7
 10
5.050300000000005
 20
3.042000000000002
 30
0
 11
5.053000000000004
 21
3.030000000000002
 31
0
  0
LINE
  8
0
 62
7
 10
5.053000000000004
 20
3.030000000000002
 30
0
 11
5.053000000000004
 21
3.021000000000003
 31
0
  0
LINE
  8
0
 62
7
 10
5.053000000000004
 20
3.021000000000003
 30
0
 11
5.050300000000005
 21
3.012000000000002
 31
0
  0
LINE
  8
0
 62
7
 10
5.050300000000005
 20
3.012000000000002
 30
0
 11
5.044900000000005
 21
3.006000000000003
 31
0
  0
LINE
  8
0
 62
7
 10
5.044900000000005
 20
3.006000000000003
 30
0
 11
5.031400000000004
 21
3.000000000000003
 31
0
  0
LINE
  8
0
 62
7
 10
5.012500000000004
 20
3.000000000000003
 30
0
 11
5.031400000000004
 21
3.000000000000003
 31
0
  0
LINE
  8
0
 62
7
 10
5.031400000000004
 20
3.000000000000003
 30
0
 11
5.044900000000005
 21
2.994000000000003
 31
0
  0
LINE
  8
0
 62
7
 10
5.044900000000005
 20
2.994000000000003
 30
0
 11
5.050300000000005
 21
2.988000000000002
 31
0
  0
LINE
  8
0
 62
7
 10
5.050300000000005
 20
2.988000000000002
 30
0
 11
5.053000000000004
 21
2.979000000000003
 31
0
  0
LINE
  8
0
 62
7
 10
5.053000000000004
 20
2.979000000000003
 30
0
 11
5.053000000000004
 21
2.970000000000002
 31
0
  0
LINE
  8
0
 62
7
 10
5.053000000000004
 20
2.970000000000002
 30
0
 11
5.050300000000005
 21
2.958000000000002
 31
0
  0
LINE
  8
0
 62
7
 10
5.050300000000005
 20
2.958000000000002
 30
0
 11
5.044900000000005
 21
2.949000000000003
 31
0
  0
LINE
  8
0
 62
7
 10
5.044900000000005
 20
2.949000000000003
 30
0
 11
5.036800000000004
 21
2.943000000000002
 31
0
  0
LINE
  8
0
 62
7
 10
5.036800000000004
 20
2.943000000000002
 30
0
 11
5.028700000000003
 21
2.940000000000003
 31
0
  0
LINE
  8
0
 62
7
 10
5.028700000000003
 20
2.940000000000003
 30
0
 11
5.012500000000004
 21
2.940000000000003
 31
0
  0
LINE
  8
0
 62
7
 10
5.012500000000004
 20
2.940000000000003
 30
0
 11
5.001700000000005
 21
2.943000000000002
 31
0
  0
LINE
  8
0
 62
7
 10
5.001700000000005
 20
2.943000000000002
 30
0
 11
4.993600000000004
 21
2.949000000000003
 31
0
  0
LINE
  8
0
 62
7
 10
4.993600000000004
 20
2.949000000000003
 30
0
 11
4.988200000000005
 21
2.958000000000002
 31
0
  0
LINE
  8
0
 62
7
 10
5.085400000000004
 20
3.042000000000002
 30
0
 11
5.090800000000003
 21
3.051000000000004
 31
0
  0
LINE
  8
0
 62
7
 10
5.090800000000003
 20
3.051000000000004
 30
0
 11
5.098900000000004
 21
3.057000000000002
 31
0
  0
LINE
  8
0
 62
7
 10
5.098900000000004
 20
3.057000000000002
 30
0
 11
5.109700000000005
 21
3.060000000000002
 31
0
  0
LINE
  8
0
 62
7
 10
5.109700000000005
 20
3.060000000000002
 30
0
 11
5.125900000000004
 21
3.060000000000002
 31
0
  0
LINE
  8
0
 62
7
 10
5.125900000000004
 20
3.060000000000002
 30
0
 11
5.136700000000005
 21
3.057000000000002
 31
0
  0
LINE
  8
0
 62
7
 10
5.136700000000005
 20
3.057000000000002
 30
0
 11
5.144800000000004
 21
3.051000000000004
 31
0
  0
LINE
  8
0
 62
7
 10
5.144800000000004
 20
3.051000000000004
 30
0
 11
5.150200000000004
 21
3.042000000000002
 31
0
  0
LINE
  8
0
 62
7
 10
5.150200000000004
 20
3.042000000000002
 30
0
 11
5.150200000000004
 21
3.030000000000002
 31
0
  0
LINE
  8
0
 62
7
 10
5.150200000000004
 20
3.030000000000002
 30
0
 11
5.144800000000004
 21
3.018000000000002
 31
0
  0
LINE
  8
0
 62
7
 10
5.144800000000004
 20
3.018000000000002
 30
0
 11
5.085400000000004
 21
2.940000000000003
 31
0
  0
LINE
  8
0
 62
7
 10
5.085400000000004
 20
2.940000000000003
 30
0
 11
5.150200000000004
 21
2.940000000000003
 31
0
  0
LINE
  8
0
 62
7
 10
5.182600000000004
 20
2.988000000000002
 30
0
 11
5.185300000000005
 21
3.000000000000003
 31
0
  0
LINE
  8
0
 62
7
 10
5.185300000000005
 20
3.000000000000003
 30
0
 11
5.190700000000006
 21
3.009000000000003
 31
0
  0
LINE
  8
0
 62
7
 10
5.190700000000006
 20
3.009000000000003
 30
0
 11
5.198800000000006
 21
3.015000000000002
 31
0
  0
LINE
  8
0
 62
7
 10
5.198800000000006
 20
3.015000000000002
 30
0
 11
5.206900000000005
 21
3.018000000000002
 31
0
  0
LINE
  8
0
 62
7
 10
5.206900000000005
 20
3.018000000000002
 30
0
 11
5.223100000000005
 21
3.018000000000002
 31
0
  0
LINE
  8
0
 62
7
 10
5.223100000000005
 20
3.018000000000002
 30
0
 11
5.231200000000005
 21
3.015000000000002
 31
0
  0
LINE
  8
0
 62
7
 10
5.231200000000005
 20
3.015000000000002
 30
0
 11
5.239300000000004
 21
3.009000000000003
 31
0
  0
LINE
  8
0
 62
7
 10
5.239300000000004
 20
3.009000000000003
 30
0
 11
5.244700000000005
 21
3.000000000000003
 31
0
  0
LINE
  8
0
 62
7
 10
5.244700000000005
 20
3.000000000000003
 30
0
 11
5.247400000000006
 21
2.988000000000002
 31
0
  0
LINE
  8
0
 62
7
 10
5.247400000000006
 20
2.988000000000002
 30
0
 11
5.247400000000006
 21
2.970000000000002
 31
0
  0
LINE
  8
0
 62
7
 10
5.247400000000006
 20
2.970000000000002
 30
0
 11
5.244700000000005
 21
2.958000000000002
 31
0
  0
LINE
  8
0
 62
7
 10
5.244700000000005
 20
2.958000000000002
 30
0
 11
5.239300000000004
 21
2.949000000000003
 31
0
  0
LINE
  8
0
 62
7
 10
5.239300000000004
 20
2.949000000000003
 30
0
 11
5.231200000000005
 21
2.943000000000002
 31
0
  0
LINE
  8
0
 62
7
 10
5.231200000000005
 20
2.943000000000002
 30
0
 11
5.223100000000005
 21
2.940000000000003
 31
0
  0
LINE
  8
0
 62
7
 10
5.223100000000005
 20
2.940000000000003
 30
0
 11
5.206900000000005
 21
2.940000000000003
 31
0
  0
LINE
  8
0
 62
7
 10
5.206900000000005
 20
2.940000000000003
 30
0
 11
5.198800000000006
 21
2.943000000000002
 31
0
  0
LINE
  8
0
 62
7
 10
5.198800000000006
 20
2.943000000000002
 30
0
 11
5.190700000000006
 21
2.949000000000003
 31
0
  0
LINE
  8
0
 62
7
 10
5.190700000000006
 20
2.949000000000003
 30
0
 11
5.185300000000005
 21
2.958000000000002
 31
0
  0
LINE
  8
0
 62
7
 10
5.185300000000005
 20
2.958000000000002
 30
0
 11
5.182600000000004
 21
2.970000000000002
 31
0
  0
LINE
  8
0
 62
7
 10
5.182600000000004
 20
2.970000000000002
 30
0
 11
5.182600000000004
 21
2.988000000000002
 31
0
  0
LINE
  8
0
 62
7
 10
5.182600000000004
 20
3.030000000000002
 30
0
 11
5.185300000000005
 21
3.042000000000002
 31
0
  0
LINE
  8
0
 62
7
 10
5.185300000000005
 20
3.042000000000002
 30
0
 11
5.190700000000006
 21
3.051000000000004
 31
0
  0
LINE
  8
0
 62
7
 10
5.190700000000006
 20
3.051000000000004
 30
0
 11
5.198800000000006
 21
3.057000000000002
 31
0
  0
LINE
  8
0
 62
7
 10
5.198800000000006
 20
3.057000000000002
 30
0
 11
5.206900000000005
 21
3.060000000000002
 31
0
  0
LINE
  8
0
 62
7
 10
5.206900000000005
 20
3.060000000000002
 30
0
 11
5.223100000000005
 21
3.060000000000002
 31
0
  0
LINE
  8
0
 62
7
 10
5.223100000000005
 20
3.060000000000002
 30
0
 11
5.231200000000005
 21
3.057000000000002
 31
0
  0
LINE
  8
0
 62
7
 10
5.231200000000005
 20
3.057000000000002
 30
0
 11
5.239300000000004
 21
3.051000000000004
 31
0
  0
LINE
  8
0
 62
7
 10
5.239300000000004
 20
3.051000000000004
 30
0
 11
5.244700000000005
 21
3.042000000000002
 31
0
  0
LINE
  8
0
 62
7
 10
5.182600000000004
 20
2.988000000000002
 30
0
 11
5.182600000000004
 21
3.030000000000002
 31
0
  0
LINE
  8
0
 62
7
 10
5.279800000000004
 20
2.940000000000003
 30
0
 11
5.279800000000004
 21
3.060000000000002
 31
0
  0
LINE
  8
0
 62
7
 10
5.279800000000004
 20
3.060000000000002
 30
0
 11
5.331100000000006
 21
3.060000000000002
 31
0
  0
LINE
  8
0
 62
7
 10
5.331100000000006
 20
3.060000000000002
 30
0
 11
5.341900000000004
 21
3.057000000000002
 31
0
  0
LINE
  8
0
 62
7
 10
5.341900000000004
 20
3.057000000000002
 30
0
 11
5.350000000000004
 21
3.051000000000004
 31
0
  0
LINE
  8
0
 62
7
 10
5.350000000000004
 20
3.051000000000004
 30
0
 11
5.352700000000004
 21
3.045000000000003
 31
0
  0
LINE
  8
0
 62
7
 10
5.352700000000004
 20
3.045000000000003
 30
0
 11
5.355400000000005
 21
3.036000000000003
 31
0
  0
LINE
  8
0
 62
7
 10
5.355400000000005
 20
3.036000000000003
 30
0
 11
5.355400000000005
 21
3.024000000000004
 31
0
  0
LINE
  8
0
 62
7
 10
5.355400000000005
 20
3.024000000000004
 30
0
 11
5.352700000000004
 21
3.015000000000002
 31
0
  0
LINE
  8
0
 62
7
 10
5.352700000000004
 20
3.015000000000002
 30
0
 11
5.350000000000004
 21
3.009000000000003
 31
0
  0
LINE
  8
0
 62
7
 10
5.350000000000004
 20
3.009000000000003
 30
0
 11
5.341900000000004
 21
3.003000000000002
 31
0
  0
LINE
  8
0
 62
7
 10
5.341900000000004
 20
3.003000000000002
 30
0
 11
5.331100000000006
 21
3.000000000000003
 31
0
  0
LINE
  8
0
 62
7
 10
5.331100000000006
 20
3.000000000000003
 30
0
 11
5.323000000000004
 21
3.000000000000003
 31
0
  0
LINE
  8
0
 62
7
 10
5.323000000000004
 20
3.000000000000003
 30
0
 11
5.355400000000005
 21
2.940000000000003
 31
0
  0
LINE
  8
0
 62
7
 10
5.323000000000004
 20
3.000000000000003
 30
0
 11
5.279800000000004
 21
3.000000000000003
 31
0
  0
LINE
  8
0
 62
7
 10
5.377000000000004
 20
2.988000000000002
 30
0
 11
5.379700000000003
 21
3.000000000000003
 31
0
  0
LINE
  8
0
 62
7
 10
5.379700000000003
 20
3.000000000000003
 30
0
 11
5.385100000000005
 21
3.009000000000003
 31
0
  0
LINE
  8
0
 62
7
 10
5.385100000000005
 20
3.009000000000003
 30
0
 11
5.393200000000005
 21
3.015000000000002
 31
0
  0
LINE
  8
0
 62
7
 10
5.393200000000005
 20
3.015000000000002
 30
0
 11
5.401300000000005
 21
3.018000000000002
 31
0
  0
LINE
  8
0
 62
7
 10
5.401300000000005
 20
3.018000000000002
 30
0
 11
5.417500000000004
 21
3.018000000000002
 31
0
  0
LINE
  8
0
 62
7
 10
5.417500000000004
 20
3.018000000000002
 30
0
 11
5.425600000000005
 21
3.015000000000002
 31
0
  0
LINE
  8
0
 62
7
 10
5.425600000000005
 20
3.015000000000002
 30
0
 11
5.433700000000004
 21
3.009000000000003
 31
0
  0
LINE
  8
0
 62
7
 10
5.433700000000004
 20
3.009000000000003
 30
0
 11
5.439100000000004
 21
3.000000000000003
 31
0
  0
LINE
  8
0
 62
7
 10
5.439100000000004
 20
3.000000000000003
 30
0
 11
5.441800000000004
 21
2.988000000000002
 31
0
  0
LINE
  8
0
 62
7
 10
5.441800000000004
 20
2.988000000000002
 30
0
 11
5.441800000000004
 21
2.970000000000002
 31
0
  0
LINE
  8
0
 62
7
 10
5.441800000000004
 20
2.970000000000002
 30
0
 11
5.439100000000004
 21
2.958000000000002
 31
0
  0
LINE
  8
0
 62
7
 10
5.439100000000004
 20
2.958000000000002
 30
0
 11
5.433700000000004
 21
2.949000000000003
 31
0
  0
LINE
  8
0
 62
7
 10
5.433700000000004
 20
2.949000000000003
 30
0
 11
5.425600000000005
 21
2.943000000000002
 31
0
  0
LINE
  8
0
 62
7
 10
5.425600000000005
 20
2.943000000000002
 30
0
 11
5.417500000000004
 21
2.940000000000003
 31
0
  0
LINE
  8
0
 62
7
 10
5.417500000000004
 20
2.940000000000003
 30
0
 11
5.401300000000005
 21
2.940000000000003
 31
0
  0
LINE
  8
0
 62
7
 10
5.401300000000005
 20
2.940000000000003
 30
0
 11
5.393200000000005
 21
2.943000000000002
 31
0
  0
LINE
  8
0
 62
7
 10
5.393200000000005
 20
2.943000000000002
 30
0
 11
5.385100000000005
 21
2.949000000000003
 31
0
  0
LINE
  8
0
 62
7
 10
5.385100000000005
 20
2.949000000000003
 30
0
 11
5.379700000000003
 21
2.958000000000002
 31
0
  0
LINE
  8
0
 62
7
 10
5.379700000000003
 20
2.958000000000002
 30
0
 11
5.377000000000004
 21
2.970000000000002
 31
0
  0
LINE
  8
0
 62
7
 10
5.377000000000004
 20
2.970000000000002
 30
0
 11
5.377000000000004
 21
2.988000000000002
 31
0
  0
LINE
  8
0
 62
7
 10
5.377000000000004
 20
3.030000000000002
 30
0
 11
5.379700000000003
 21
3.042000000000002
 31
0
  0
LINE
  8
0
 62
7
 10
5.379700000000003
 20
3.042000000000002
 30
0
 11
5.385100000000005
 21
3.051000000000004
 31
0
  0
LINE
  8
0
 62
7
 10
5.385100000000005
 20
3.051000000000004
 30
0
 11
5.393200000000005
 21
3.057000000000002
 31
0
  0
LINE
  8
0
 62
7
 10
5.393200000000005
 20
3.057000000000002
 30
0
 11
5.401300000000005
 21
3.060000000000002
 31
0
  0
LINE
  8
0
 62
7
 10
5.401300000000005
 20
3.060000000000002
 30
0
 11
5.417500000000004
 21
3.060000000000002
 31
0
  0
LINE
  8
0
 62
7
 10
5.417500000000004
 20
3.060000000000002
 30
0
 11
5.425600000000005
 21
3.057000000000002
 31
0
  0
LINE
  8
0
 62
7
 10
5.425600000000005
 20
3.057000000000002
 30
0
 11
5.433700000000004
 21
3.051000000000004
 31
0
  0
LINE
  8
0
 62
7
 10
5.433700000000004
 20
3.051000000000004
 30
0
 11
5.439100000000004
 21
3.042000000000002
 31
0
  0
LINE
  8
0
 62
7
 10
5.377000000000004
 20
2.988000000000002
 30
0
 11
5.377000000000004
 21
3.030000000000002
 31
0
  0
LINE
  8
0
 62
7
 10
7.175000000000004
 20
2.940000000000003
 30
0
 11
7.175000000000004
 21
3.040000000000003
 31
0
  0
LINE
  8
0
 62
7
 10
7.175000000000004
 20
3.040000000000003
 30
0
 11
7.238000000000004
 21
2.940000000000003
 31
0
  0
LINE
  8
0
 62
7
 10
7.238000000000004
 20
2.940000000000003
 30
0
 11
7.238000000000004
 21
3.040000000000003
 31
0
  0
LINE
  8
0
 62
7
 10
7.319000000000004
 20
2.940000000000003
 30
0
 11
7.265000000000005
 21
2.940000000000003
 31
0
  0
LINE
  8
0
 62
7
 10
7.265000000000005
 20
2.940000000000003
 30
0
 11
7.265000000000005
 21
3.040000000000003
 31
0
  0
LINE
  8
0
 62
7
 10
7.346000000000004
 20
2.990000000000002
 30
0
 11
7.382000000000004
 21
2.990000000000002
 31
0
  0
LINE
  8
0
 62
7
 10
7.382000000000004
 20
2.990000000000002
 30
0
 11
7.386500000000005
 21
2.990000000000002
 31
0
  0
LINE
  8
0
 62
7
 10
7.386500000000005
 20
2.990000000000002
 30
0
 11
7.395500000000005
 21
2.985000000000003
 31
0
  0
LINE
  8
0
 62
7
 10
7.395500000000005
 20
2.985000000000003
 30
0
 11
7.400000000000005
 21
2.980000000000002
 31
0
  0
LINE
  8
0
 62
7
 10
7.400000000000005
 20
2.980000000000002
 30
0
 11
7.404500000000005
 21
2.970000000000002
 31
0
  0
LINE
  8
0
 62
7
 10
7.404500000000005
 20
2.970000000000002
 30
0
 11
7.404500000000005
 21
2.960000000000003
 31
0
  0
LINE
  8
0
 62
7
 10
7.404500000000005
 20
2.960000000000003
 30
0
 11
7.400000000000005
 21
2.950000000000003
 31
0
  0
LINE
  8
0
 62
7
 10
7.400000000000005
 20
2.950000000000003
 30
0
 11
7.395500000000005
 21
2.945000000000003
 31
0
  0
LINE
  8
0
 62
7
 10
7.395500000000005
 20
2.945000000000003
 30
0
 11
7.386500000000005
 21
2.940000000000003
 31
0
  0
LINE
  8
0
 62
7
 10
7.386500000000005
 20
2.940000000000003
 30
0
 11
7.346000000000004
 21
2.940000000000003
 31
0
  0
LINE
  8
0
 62
7
 10
7.346000000000004
 20
2.940000000000003
 30
0
 11
7.346000000000004
 21
2.990000000000002
 31
0
  0
LINE
  8
0
 62
7
 10
7.346000000000004
 20
3.040000000000003
 30
0
 11
7.379750000000005
 21
3.040000000000003
 31
0
  0
LINE
  8
0
 62
7
 10
7.379750000000005
 20
3.040000000000003
 30
0
 11
7.391000000000004
 21
3.037500000000003
 31
0
  0
LINE
  8
0
 62
7
 10
7.391000000000004
 20
3.037500000000003
 30
0
 11
7.397750000000006
 21
3.030000000000002
 31
0
  0
LINE
  8
0
 62
7
 10
7.397750000000006
 20
3.030000000000002
 30
0
 11
7.400000000000005
 21
3.020000000000003
 31
0
  0
LINE
  8
0
 62
7
 10
7.400000000000005
 20
3.020000000000003
 30
0
 11
7.400000000000005
 21
3.010000000000002
 31
0
  0
LINE
  8
0
 62
7
 10
7.400000000000005
 20
3.010000000000002
 30
0
 11
7.395500000000005
 21
3.000000000000003
 31
0
  0
LINE
  8
0
 62
7
 10
7.395500000000005
 20
3.000000000000003
 30
0
 11
7.388750000000005
 21
2.992500000000002
 31
0
  0
LINE
  8
0
 62
7
 10
7.388750000000005
 20
2.992500000000002
 30
0
 11
7.382000000000004
 21
2.990000000000002
 31
0
  0
LINE
  8
0
 62
7
 10
7.346000000000004
 20
2.990000000000002
 30
0
 11
7.346000000000004
 21
3.040000000000003
 31
0
  0
LINE
  8
0
 62
7
 10
7.546250000000005
 20
2.992500000000002
 30
0
 11
7.539500000000004
 21
3.002500000000003
 31
0
  0
LINE
  8
0
 62
7
 10
7.539500000000004
 20
3.002500000000003
 30
0
 11
7.532750000000004
 21
3.007500000000003
 31
0
  0
LINE
  8
0
 62
7
 10
7.532750000000004
 20
3.007500000000003
 30
0
 11
7.526000000000003
 21
3.010000000000002
 31
0
  0
LINE
  8
0
 62
7
 10
7.526000000000003
 20
3.010000000000002
 30
0
 11
7.517000000000005
 21
3.010000000000002
 31
0
  0
LINE
  8
0
 62
7
 10
7.517000000000005
 20
3.010000000000002
 30
0
 11
7.510250000000005
 21
3.007500000000003
 31
0
  0
LINE
  8
0
 62
7
 10
7.510250000000005
 20
3.007500000000003
 30
0
 11
7.503500000000004
 21
3.002500000000003
 31
0
  0
LINE
  8
0
 62
7
 10
7.503500000000004
 20
3.002500000000003
 30
0
 11
7.496750000000005
 21
2.992500000000002
 31
0
  0
LINE
  8
0
 62
7
 10
7.496750000000005
 20
2.992500000000002
 30
0
 11
7.494500000000004
 21
2.985000000000003
 31
0
  0
LINE
  8
0
 62
7
 10
7.494500000000004
 20
2.985000000000003
 30
0
 11
7.494500000000004
 21
2.965000000000003
 31
0
  0
LINE
  8
0
 62
7
 10
7.494500000000004
 20
2.965000000000003
 30
0
 11
7.496750000000005
 21
2.957500000000003
 31
0
  0
LINE
  8
0
 62
7
 10
7.496750000000005
 20
2.957500000000003
 30
0
 11
7.503500000000004
 21
2.947500000000002
 31
0
  0
LINE
  8
0
 62
7
 10
7.503500000000004
 20
2.947500000000002
 30
0
 11
7.510250000000005
 21
2.942500000000003
 31
0
  0
LINE
  8
0
 62
7
 10
7.510250000000005
 20
2.942500000000003
 30
0
 11
7.517000000000005
 21
2.940000000000003
 31
0
  0
LINE
  8
0
 62
7
 10
7.517000000000005
 20
2.940000000000003
 30
0
 11
7.526000000000003
 21
2.940000000000003
 31
0
  0
LINE
  8
0
 62
7
 10
7.526000000000003
 20
2.940000000000003
 30
0
 11
7.532750000000004
 21
2.942500000000003
 31
0
  0
LINE
  8
0
 62
7
 10
7.532750000000004
 20
2.942500000000003
 30
0
 11
7.539500000000004
 21
2.947500000000002
 31
0
  0
LINE
  8
0
 62
7
 10
7.539500000000004
 20
2.947500000000002
 30
0
 11
7.546250000000005
 21
2.957500000000003
 31
0
  0
LINE
  8
0
 62
7
 10
7.618250000000003
 20
2.985000000000003
 30
0
 11
7.616000000000004
 21
2.992500000000002
 31
0
  0
LINE
  8
0
 62
7
 10
7.616000000000004
 20
2.992500000000002
 30
0
 11
7.609250000000005
 21
3.002500000000003
 31
0
  0
LINE
  8
0
 62
7
 10
7.609250000000005
 20
3.002500000000003
 30
0
 11
7.602500000000005
 21
3.007500000000003
 31
0
  0
LINE
  8
0
 62
7
 10
7.602500000000005
 20
3.007500000000003
 30
0
 11
7.595750000000004
 21
3.010000000000002
 31
0
  0
LINE
  8
0
 62
7
 10
7.595750000000004
 20
3.010000000000002
 30
0
 11
7.586750000000004
 21
3.010000000000002
 31
0
  0
LINE
  8
0
 62
7
 10
7.586750000000004
 20
3.010000000000002
 30
0
 11
7.580000000000005
 21
3.007500000000003
 31
0
  0
LINE
  8
0
 62
7
 10
7.580000000000005
 20
3.007500000000003
 30
0
 11
7.573250000000005
 21
3.002500000000003
 31
0
  0
LINE
  8
0
 62
7
 10
7.573250000000005
 20
3.002500000000003
 30
0
 11
7.566500000000005
 21
2.992500000000002
 31
0
  0
LINE
  8
0
 62
7
 10
7.566500000000005
 20
2.992500000000002
 30
0
 11
7.564250000000005
 21
2.985000000000003
 31
0
  0
LINE
  8
0
 62
7
 10
7.564250000000005
 20
2.985000000000003
 30
0
 11
7.564250000000005
 21
2.965000000000003
 31
0
  0
LINE
  8
0
 62
7
 10
7.564250000000005
 20
2.965000000000003
 30
0
 11
7.566500000000005
 21
2.957500000000003
 31
0
  0
LINE
  8
0
 62
7
 10
7.566500000000005
 20
2.957500000000003
 30
0
 11
7.573250000000005
 21
2.947500000000002
 31
0
  0
LINE
  8
0
 62
7
 10
7.573250000000005
 20
2.947500000000002
 30
0
 11
7.580000000000005
 21
2.942500000000003
 31
0
  0
LINE
  8
0
 62
7
 10
7.580000000000005
 20
2.942500000000003
 30
0
 11
7.586750000000004
 21
2.940000000000003
 31
0
  0
LINE
  8
0
 62
7
 10
7.586750000000004
 20
2.940000000000003
 30
0
 11
7.595750000000004
 21
2.940000000000003
 31
0
  0
LINE
  8
0
 62
7
 10
7.595750000000004
 20
2.940000000000003
 30
0
 11
7.602500000000005
 21
2.942500000000003
 31
0
  0
LINE
  8
0
 62
7
 10
7.602500000000005
 20
2.942500000000003
 30
0
 11
7.609250000000005
 21
2.947500000000002
 31
0
  0
LINE
  8
0
 62
7
 10
7.609250000000005
 20
2.947500000000002
 30
0
 11
7.616000000000004
 21
2.957500000000003
 31
0
  0
LINE
  8
0
 62
7
 10
7.616000000000004
 20
2.957500000000003
 30
0
 11
7.618250000000003
 21
2.965000000000003
 31
0
  0
LINE
  8
0
 62
7
 10
7.618250000000003
 20
3.010000000000002
 30
0
 11
7.618250000000003
 21
2.985000000000003
 31
0
  0
LINE
  8
0
 62
7
 10
7.618250000000003
 20
2.942500000000003
 30
0
 11
7.620500000000004
 21
2.940000000000003
 31
0
  0
LINE
  8
0
 62
7
 10
7.620500000000004
 20
2.940000000000003
 30
0
 11
7.622750000000005
 21
2.940000000000003
 31
0
  0
LINE
  8
0
 62
7
 10
7.618250000000003
 20
2.965000000000003
 30
0
 11
7.618250000000003
 21
2.942500000000003
 31
0
  0
LINE
  8
0
 62
7
 10
7.618250000000003
 20
2.985000000000003
 30
0
 11
7.618250000000003
 21
2.965000000000003
 31
0
  0
LINE
  8
0
 62
7
 10
7.640750000000004
 20
2.940000000000003
 30
0
 11
7.640750000000004
 21
2.942500000000003
 31
0
  0
LINE
  8
0
 62
7
 10
7.640750000000004
 20
2.942500000000003
 30
0
 11
7.643000000000004
 21
2.942500000000003
 31
0
  0
LINE
  8
0
 62
7
 10
7.643000000000004
 20
2.942500000000003
 30
0
 11
7.643000000000004
 21
2.940000000000003
 31
0
  0
LINE
  8
0
 62
7
 10
7.643000000000004
 20
2.940000000000003
 30
0
 11
7.640750000000004
 21
2.940000000000003
 31
0
  0
LINE
  8
0
 62
7
 10
7.766750000000004
 20
3.040000000000003
 30
0
 11
7.775750000000004
 21
3.040000000000003
 31
0
  0
LINE
  8
0
 62
7
 10
7.775750000000004
 20
3.040000000000003
 30
0
 11
7.782500000000005
 21
3.037500000000003
 31
0
  0
LINE
  8
0
 62
7
 10
7.782500000000005
 20
3.037500000000003
 30
0
 11
7.787000000000003
 21
3.032500000000002
 31
0
  0
LINE
  8
0
 62
7
 10
7.787000000000003
 20
3.032500000000002
 30
0
 11
7.791500000000005
 21
3.025000000000003
 31
0
  0
LINE
  8
0
 62
7
 10
7.791500000000005
 20
3.025000000000003
 30
0
 11
7.791500000000005
 21
3.015000000000002
 31
0
  0
LINE
  8
0
 62
7
 10
7.791500000000005
 20
3.015000000000002
 30
0
 11
7.789250000000004
 21
3.010000000000002
 31
0
  0
LINE
  8
0
 62
7
 10
7.789250000000004
 20
3.010000000000002
 30
0
 11
7.782500000000005
 21
3.002500000000003
 31
0
  0
LINE
  8
0
 62
7
 10
7.782500000000005
 20
3.002500000000003
 30
0
 11
7.775750000000004
 21
3.000000000000003
 31
0
  0
LINE
  8
0
 62
7
 10
7.775750000000004
 20
3.000000000000003
 30
0
 11
7.766750000000004
 21
3.000000000000003
 31
0
  0
LINE
  8
0
 62
7
 10
7.766750000000004
 20
3.000000000000003
 30
0
 11
7.760000000000005
 21
3.002500000000003
 31
0
  0
LINE
  8
0
 62
7
 10
7.760000000000005
 20
3.002500000000003
 30
0
 11
7.753250000000005
 21
3.010000000000002
 31
0
  0
LINE
  8
0
 62
7
 10
7.753250000000005
 20
3.010000000000002
 30
0
 11
7.751000000000004
 21
3.015000000000002
 31
0
  0
LINE
  8
0
 62
7
 10
7.751000000000004
 20
3.015000000000002
 30
0
 11
7.751000000000004
 21
3.025000000000003
 31
0
  0
LINE
  8
0
 62
7
 10
7.751000000000004
 20
3.025000000000003
 30
0
 11
7.755500000000004
 21
3.032500000000002
 31
0
  0
LINE
  8
0
 62
7
 10
7.755500000000004
 20
3.032500000000002
 30
0
 11
7.760000000000005
 21
3.037500000000003
 31
0
  0
LINE
  8
0
 62
7
 10
7.760000000000005
 20
3.037500000000003
 30
0
 11
7.766750000000004
 21
3.040000000000003
 31
0
  0
LINE
  8
0
 62
7
 10
7.766750000000004
 20
3.000000000000003
 30
0
 11
7.755500000000004
 21
2.995000000000003
 31
0
  0
LINE
  8
0
 62
7
 10
7.755500000000004
 20
2.995000000000003
 30
0
 11
7.748750000000006
 21
2.987500000000002
 31
0
  0
LINE
  8
0
 62
7
 10
7.748750000000006
 20
2.987500000000002
 30
0
 11
7.744250000000005
 21
2.977500000000003
 31
0
  0
LINE
  8
0
 62
7
 10
7.744250000000005
 20
2.977500000000003
 30
0
 11
7.744250000000005
 21
2.962500000000003
 31
0
  0
LINE
  8
0
 62
7
 10
7.744250000000005
 20
2.962500000000003
 30
0
 11
7.748750000000006
 21
2.952500000000002
 31
0
  0
LINE
  8
0
 62
7
 10
7.748750000000006
 20
2.952500000000002
 30
0
 11
7.755500000000004
 21
2.945000000000003
 31
0
  0
LINE
  8
0
 62
7
 10
7.755500000000004
 20
2.945000000000003
 30
0
 11
7.764500000000004
 21
2.940000000000003
 31
0
  0
LINE
  8
0
 62
7
 10
7.764500000000004
 20
2.940000000000003
 30
0
 11
7.778000000000005
 21
2.940000000000003
 31
0
  0
LINE
  8
0
 62
7
 10
7.778000000000005
 20
2.940000000000003
 30
0
 11
7.787000000000003
 21
2.945000000000003
 31
0
  0
LINE
  8
0
 62
7
 10
7.787000000000003
 20
2.945000000000003
 30
0
 11
7.793750000000005
 21
2.952500000000002
 31
0
  0
LINE
  8
0
 62
7
 10
7.793750000000005
 20
2.952500000000002
 30
0
 11
7.798250000000005
 21
2.962500000000003
 31
0
  0
LINE
  8
0
 62
7
 10
7.798250000000005
 20
2.962500000000003
 30
0
 11
7.798250000000005
 21
2.977500000000003
 31
0
  0
LINE
  8
0
 62
7
 10
7.798250000000005
 20
2.977500000000003
 30
0
 11
7.793750000000005
 21
2.987500000000002
 31
0
  0
LINE
  8
0
 62
7
 10
7.793750000000005
 20
2.987500000000002
 30
0
 11
7.787000000000003
 21
2.995000000000003
 31
0
  0
LINE
  8
0
 62
7
 10
7.787000000000003
 20
2.995000000000003
 30
0
 11
7.775750000000004
 21
3.000000000000003
 31
0
  0
LINE
  8
0
 62
7
 10
7.888250000000004
 20
3.000000000000003
 30
0
 11
7.886000000000005
 21
2.990000000000002
 31
0
  0
LINE
  8
0
 62
7
 10
7.886000000000005
 20
2.990000000000002
 30
0
 11
7.881500000000004
 21
2.982500000000003
 31
0
  0
LINE
  8
0
 62
7
 10
7.881500000000004
 20
2.982500000000003
 30
0
 11
7.874750000000005
 21
2.977500000000003
 31
0
  0
LINE
  8
0
 62
7
 10
7.874750000000005
 20
2.977500000000003
 30
0
 11
7.868000000000004
 21
2.975000000000003
 31
0
  0
LINE
  8
0
 62
7
 10
7.868000000000004
 20
2.975000000000003
 30
0
 11
7.854500000000005
 21
2.975000000000003
 31
0
  0
LINE
  8
0
 62
7
 10
7.854500000000005
 20
2.975000000000003
 30
0
 11
7.847750000000005
 21
2.977500000000003
 31
0
  0
LINE
  8
0
 62
7
 10
7.847750000000005
 20
2.977500000000003
 30
0
 11
7.841000000000005
 21
2.982500000000003
 31
0
  0
LINE
  8
0
 62
7
 10
7.841000000000005
 20
2.982500000000003
 30
0
 11
7.836500000000005
 21
2.990000000000002
 31
0
  0
LINE
  8
0
 62
7
 10
7.836500000000005
 20
2.990000000000002
 30
0
 11
7.834250000000004
 21
3.000000000000003
 31
0
  0
LINE
  8
0
 62
7
 10
7.834250000000004
 20
3.000000000000003
 30
0
 11
7.834250000000004
 21
3.015000000000002
 31
0
  0
LINE
  8
0
 62
7
 10
7.834250000000004
 20
3.015000000000002
 30
0
 11
7.836500000000005
 21
3.025000000000003
 31
0
  0
LINE
  8
0
 62
7
 10
7.836500000000005
 20
3.025000000000003
 30
0
 11
7.841000000000005
 21
3.032500000000002
 31
0
  0
LINE
  8
0
 62
7
 10
7.841000000000005
 20
3.032500000000002
 30
0
 11
7.847750000000005
 21
3.037500000000003
 31
0
  0
LINE
  8
0
 62
7
 10
7.847750000000005
 20
3.037500000000003
 30
0
 11
7.854500000000005
 21
3.040000000000003
 31
0
  0
LINE
  8
0
 62
7
 10
7.854500000000005
 20
3.040000000000003
 30
0
 11
7.868000000000004
 21
3.040000000000003
 31
0
  0
LINE
  8
0
 62
7
 10
7.868000000000004
 20
3.040000000000003
 30
0
 11
7.874750000000005
 21
3.037500000000003
 31
0
  0
LINE
  8
0
 62
7
 10
7.874750000000005
 20
3.037500000000003
 30
0
 11
7.881500000000004
 21
3.032500000000002
 31
0
  0
LINE
  8
0
 62
7
 10
7.881500000000004
 20
3.032500000000002
 30
0
 11
7.886000000000005
 21
3.025000000000003
 31
0
  0
LINE
  8
0
 62
7
 10
7.886000000000005
 20
3.025000000000003
 30
0
 11
7.888250000000004
 21
3.015000000000002
 31
0
  0
LINE
  8
0
 62
7
 10
7.888250000000004
 20
3.015000000000002
 30
0
 11
7.888250000000004
 21
3.000000000000003
 31
0
  0
LINE
  8
0
 62
7
 10
7.888250000000004
 20
2.965000000000003
 30
0
 11
7.886000000000005
 21
2.955000000000002
 31
0
  0
LINE
  8
0
 62
7
 10
7.886000000000005
 20
2.955000000000002
 30
0
 11
7.881500000000004
 21
2.947500000000002
 31
0
  0
LINE
  8
0
 62
7
 10
7.881500000000004
 20
2.947500000000002
 30
0
 11
7.874750000000005
 21
2.942500000000003
 31
0
  0
LINE
  8
0
 62
7
 10
7.874750000000005
 20
2.942500000000003
 30
0
 11
7.868000000000004
 21
2.940000000000003
 31
0
  0
LINE
  8
0
 62
7
 10
7.868000000000004
 20
2.940000000000003
 30
0
 11
7.854500000000005
 21
2.940000000000003
 31
0
  0
LINE
  8
0
 62
7
 10
7.854500000000005
 20
2.940000000000003
 30
0
 11
7.847750000000005
 21
2.942500000000003
 31
0
  0
LINE
  8
0
 62
7
 10
7.847750000000005
 20
2.942500000000003
 30
0
 11
7.841000000000005
 21
2.947500000000002
 31
0
  0
LINE
  8
0
 62
7
 10
7.841000000000005
 20
2.947500000000002
 30
0
 11
7.836500000000005
 21
2.955000000000002
 31
0
  0
LINE
  8
0
 62
7
 10
7.888250000000004
 20
3.000000000000003
 30
0
 11
7.888250000000004
 21
2.965000000000003
 31
0
  0
LINE
  8
0
 62
7
 10
8.039000000000005
 20
2.992500000000002
 30
0
 11
8.032250000000003
 21
3.002500000000003
 31
0
  0
LINE
  8
0
 62
7
 10
8.032250000000003
 20
3.002500000000003
 30
0
 11
8.025500000000005
 21
3.007500000000003
 31
0
  0
LINE
  8
0
 62
7
 10
8.025500000000005
 20
3.007500000000003
 30
0
 11
8.018750000000004
 21
3.010000000000002
 31
0
  0
LINE
  8
0
 62
7
 10
8.018750000000004
 20
3.010000000000002
 30
0
 11
8.009750000000004
 21
3.010000000000002
 31
0
  0
LINE
  8
0
 62
7
 10
8.009750000000004
 20
3.010000000000002
 30
0
 11
8.003000000000005
 21
3.007500000000003
 31
0
  0
LINE
  8
0
 62
7
 10
8.003000000000005
 20
3.007500000000003
 30
0
 11
7.996250000000005
 21
3.002500000000003
 31
0
  0
LINE
  8
0
 62
7
 10
7.996250000000005
 20
3.002500000000003
 30
0
 11
7.989500000000004
 21
2.992500000000002
 31
0
  0
LINE
  8
0
 62
7
 10
7.989500000000004
 20
2.992500000000002
 30
0
 11
7.987250000000005
 21
2.985000000000003
 31
0
  0
LINE
  8
0
 62
7
 10
7.987250000000005
 20
2.985000000000003
 30
0
 11
7.987250000000005
 21
2.965000000000003
 31
0
  0
LINE
  8
0
 62
7
 10
7.987250000000005
 20
2.965000000000003
 30
0
 11
7.989500000000004
 21
2.957500000000003
 31
0
  0
LINE
  8
0
 62
7
 10
7.989500000000004
 20
2.957500000000003
 30
0
 11
7.996250000000005
 21
2.947500000000002
 31
0
  0
LINE
  8
0
 62
7
 10
7.996250000000005
 20
2.947500000000002
 30
0
 11
8.003000000000005
 21
2.942500000000003
 31
0
  0
LINE
  8
0
 62
7
 10
8.003000000000005
 20
2.942500000000003
 30
0
 11
8.009750000000004
 21
2.940000000000003
 31
0
  0
LINE
  8
0
 62
7
 10
8.009750000000004
 20
2.940000000000003
 30
0
 11
8.018750000000004
 21
2.940000000000003
 31
0
  0
LINE
  8
0
 62
7
 10
8.018750000000004
 20
2.940000000000003
 30
0
 11
8.025500000000005
 21
2.942500000000003
 31
0
  0
LINE
  8
0
 62
7
 10
8.025500000000005
 20
2.942500000000003
 30
0
 11
8.032250000000003
 21
2.947500000000002
 31
0
  0
LINE
  8
0
 62
7
 10
8.032250000000003
 20
2.947500000000002
 30
0
 11
8.039000000000005
 21
2.957500000000003
 31
0
  0
LINE
  8
0
 62
7
 10
8.097500000000005
 20
2.985000000000003
 30
0
 11
8.097500000000005
 21
2.940000000000003
 31
0
  0
LINE
  8
0
 62
7
 10
8.057000000000004
 20
3.010000000000002
 30
0
 11
8.057000000000004
 21
2.985000000000003
 31
0
  0
LINE
  8
0
 62
7
 10
8.057000000000004
 20
2.940000000000003
 30
0
 11
8.057000000000004
 21
2.985000000000003
 31
0
  0
LINE
  8
0
 62
7
 10
8.057000000000004
 20
2.985000000000003
 30
0
 11
8.059250000000004
 21
2.997500000000002
 31
0
  0
LINE
  8
0
 62
7
 10
8.059250000000004
 20
2.997500000000002
 30
0
 11
8.061500000000006
 21
3.002500000000003
 31
0
  0
LINE
  8
0
 62
7
 10
8.061500000000006
 20
3.002500000000003
 30
0
 11
8.066000000000004
 21
3.007500000000003
 31
0
  0
LINE
  8
0
 62
7
 10
8.066000000000004
 20
3.007500000000003
 30
0
 11
8.072750000000005
 21
3.010000000000002
 31
0
  0
LINE
  8
0
 62
7
 10
8.072750000000005
 20
3.010000000000002
 30
0
 11
8.081750000000005
 21
3.010000000000002
 31
0
  0
LINE
  8
0
 62
7
 10
8.081750000000005
 20
3.010000000000002
 30
0
 11
8.088500000000003
 21
3.007500000000003
 31
0
  0
LINE
  8
0
 62
7
 10
8.088500000000003
 20
3.007500000000003
 30
0
 11
8.093000000000004
 21
3.002500000000003
 31
0
  0
LINE
  8
0
 62
7
 10
8.093000000000004
 20
3.002500000000003
 30
0
 11
8.095250000000005
 21
2.997500000000002
 31
0
  0
LINE
  8
0
 62
7
 10
8.095250000000005
 20
2.997500000000002
 30
0
 11
8.097500000000005
 21
2.985000000000003
 31
0
  0
LINE
  8
0
 62
7
 10
8.097500000000005
 20
2.985000000000003
 30
0
 11
8.099750000000006
 21
2.997500000000002
 31
0
  0
LINE
  8
0
 62
7
 10
8.099750000000006
 20
2.997500000000002
 30
0
 11
8.102000000000004
 21
3.002500000000003
 31
0
  0
LINE
  8
0
 62
7
 10
8.102000000000004
 20
3.002500000000003
 30
0
 11
8.106500000000004
 21
3.007500000000003
 31
0
  0
LINE
  8
0
 62
7
 10
8.106500000000004
 20
3.007500000000003
 30
0
 11
8.113250000000004
 21
3.010000000000002
 31
0
  0
LINE
  8
0
 62
7
 10
8.113250000000004
 20
3.010000000000002
 30
0
 11
8.122250000000005
 21
3.010000000000002
 31
0
  0
LINE
  8
0
 62
7
 10
8.122250000000005
 20
3.010000000000002
 30
0
 11
8.129000000000005
 21
3.007500000000003
 31
0
  0
LINE
  8
0
 62
7
 10
8.133500000000003
 20
3.002500000000003
 30
0
 11
8.129000000000005
 21
3.007500000000003
 31
0
  0
LINE
  8
0
 62
7
 10
8.129000000000005
 20
3.007500000000003
 30
0
 11
8.133500000000003
 21
3.002500000000003
 31
0
  0
LINE
  8
0
 62
7
 10
8.133500000000003
 20
3.002500000000003
 30
0
 11
8.135750000000005
 21
2.997500000000002
 31
0
  0
LINE
  8
0
 62
7
 10
8.135750000000005
 20
2.997500000000002
 30
0
 11
8.138000000000003
 21
2.985000000000003
 31
0
  0
LINE
  8
0
 62
7
 10
8.138000000000003
 20
2.985000000000003
 30
0
 11
8.138000000000003
 21
2.940000000000003
 31
0
  0
ARC
  8
0
 62
7
 10
6.420251667378562
 20
3.745251667378529
 30
0
 40
0.530000000000005
 50
359.9727934344324
 51
90.02720655801861
  0
ARC
  8
0
 62
7
 10
5.16974833262145
 20
3.745251667378562
 30
0
 40
0.5300000000000041
 50
89.97279343442987
 51
180.0272065626943
  0
CIRCLE
  8
0
 62
7
 10
4.639748392372829
 20
3.300000000000002
 30
0
 40
0.0600000000000005
  0
DIMENSION
  8
0
  6
CONTINUOUS
 62
7
  2
*D0
  3
DMST_1
 10
8.054023051439261
 20
4.75
 30
0
 11
8.054023051439261
 21
4.11585519303924
 31
0
 12
0
 22
0
 32
0
 70
0
 13
7.600000000000005
 23
3.4
 33
0
 14
7.600000000000005
 24
4.75
 34
0
 50
90
 53
0
  0
DIMENSION
  8
0
  6
CONTINUOUS
 62
7
  2
*D1
  3
DMST_1
 10
7.425000000000004
 20
5.66635194600579
 30
0
 11
5.80405407908929
 21
5.66635194600579
 31
0
 12
0
 22
0
 32
0
 70
0
 13
4.165000000000004
 23
5.269999999999999
 33
0
 14
7.425000000000004
 24
5.269999999999999
 34
0
 53
0
  0
DIMENSION
  8
0
  6
CONTINUOUS
 62
7
  2
*D2
  3
DMST_1
 10
3.68232168029294
 20
3.3
 30
0
 11
3.68232168029294
 21
4.01093436013172
 31
0
 12
0
 22
0
 32
0
 70
0
 13
3.990000000000004
 23
4.75
 33
0
 14
3.990000000000004
 24
3.3
 34
0
 50
90
 53
0
  0
DIMENSION
  8
0
  6
CONTINUOUS
 62
7
  2
*D3
  3
DMST_2
 10
4.165000000000004
 20
11.5768921997956
 30
0
 11
5.792396208766231
 21
11.5768921997956
 31
0
 12
0
 22
0
 32
0
 70
0
 13
7.425000000000004
 23
11.2
 33
0
 14
4.165000000000004
 24
11.2
 34
0
 53
0
  0
INSERT
  8
0
  2
*D4
 10
0
 20
0
 30
0
  0
ENDSEC
  0
EOF
