  0
SECTION
  2
HEADER
  9
$ACADVER
  1
AC1009
  9
$INSBASE
 10
0
 20
0
  9
$EXTMIN
 10
0.4221619066882369
 20
2.890000000000001
  9
$EXTMAX
 10
8.249999999999998
 20
11.552488109493
  9
$LIMMIN
 10
0.4221619066882369
 20
2.890000000000001
  9
$LIMMAX
 10
8.249999999999998
 20
11.552488109493
  9
$VIEWCTR
 10
10
 20
10
  9
$VIEWSIZE
 40
10
  9
$SNAPMODE
 70
0
  9
$SNAPUNIT
 10
1
 20
1
  9
$SNAPBASE
 10
0
 20
0
  9
$SNAPANG
 50
0
  9
$SNAPSTYLE
 70
0
  9
$SNAPISOPAIR
 70
0
  9
$GRIDMODE
 70
0
  9
$GRIDUNIT
 10
0
 20
0
  9
$ORTHOMODE
 70
0
  9
$REGENMODE
 70
1
  9
$FILLMODE
 70
1
  9
$QTEXTMODE
 70
0
  9
$DRAGMODE
 70
2
  9
$LTSCALE
 40
1
  9
$OSMODE
 70
0
  9
$ATTMODE
 70
1
  9
$TEXTSIZE
 40
3.5
  9
$TRACEWID
 40
0.5
  9
$TEXTSTYLE
  7
STANDARD
  9
$CLAYER
  8
0
  9
$CELTYPE
  6
BYLAYER
  9
$CECOLOR
 62
256
  9
$DIMSCALE
 40
1
  9
$DIMASZ
 40
0.18
  9
$DIMEXO
 40
0.0625
  9
$DIMDLI
 40
0.38
  9
$DIMRND
 40
0
  9
$DIMDLE
 40
0
  9
$DIMEXE
 40
0.18
  9
$DIMTP
 40
0
  9
$DIMTM
 40
0
  9
$DIMTXT
 40
0.18
  9
$DIMCEN
 40
0.09
  9
$DIMTSZ
 40
0
  9
$DIMTOL
 70
0
  9
$DIMLIM
 70
0
  9
$DIMTIH
 70
1
  9
$DIMTOH
 70
1
  9
$DIMSE1
 70
0
  9
$DIMSE2
 70
0
  9
$DIMTAD
 70
0
  9
$DIMZIN
 70
0
  9
$DIMBLK
  1

  9
$DIMASO
 70
1
  9
$DIMSHO
 70
1
  9
$DIMPOST
  1

  9
$DIMAPOST
  1

  9
$DIMALT
 70
0
  9
$DIMALTD
 70
2
  9
$DIMALTF
 40
25.4
  9
$DIMLFAC
 40
1
  9
$DIMTOFL
 70
0
  9
$DIMTVP
 40
0
  9
$DIMTIX
 70
0
  9
$DIMSOXD
 70
0
  9
$DIMSAH
 70
0
  9
$DIMBLK1
  1

  9
$DIMBLK2
  1

  9
$DIMSTYLE
  2
*UNNAMED
  9
$DIMCLRD
 70
0
  9
$DIMCLRE
 70
0
  9
$DIMCLRT
 70
0
  9
$DIMTFAC
 40
1
  9
$DIMGAP
 40
0.09
  9
$LUNITS
 70
2
  9
$LUPREC
 70
4
  9
$AXISMODE
 70
0
  9
$AXISUNIT
 10
0
 20
0
  9
$SKETCHINC
 40
0.1
  9
$FILLETRAD
 40
2
  9
$AUNITS
 70
0
  9
$AUPREC
 70
0
  9
$MENU
  1
ACAD
  9
$ELEVATION
 40
0
  9
$THICKNESS
 40
0
  9
$VIEWDIR
 10
0
 20
0
 30
1
  9
$LIMCHECK
 70
0
  9
$BLIPMODE
 70
1
  9
$CHAMFERA
 40
0
  9
$CHAMFERB
 40
0
  9
$FASTZOOM
 70
1
  9
$SKPOLY
 70
0
  9
$ANGBASE
 50
0
  9
$ANGDIR
 70
0
  9
$PDMODE
 70
0
  9
$PDSIZE
 40
0
  9
$PLINEWID
 40
0
  9
$COORDS
 70
2
  0
ENDSEC
  0
SECTION
  2
TABLES
  0
TABLE
  2
DIMSTYLE
 70
2
  0
DIMSTYLE
  2
DMST_1
 70
0
  3

  4

  5

  6

  7

 40
1
 41
0.1
 42
0
 43
0.7
 44
0.2
 45
0
 46
0
 47
0
 48
0
140
0.1
141
0
142
0.1
143
25.4
144
1
145
0
146
1
147
0.25
 71
0
 72
0
 73
0
 74
0
 75
0
 76
0
 77
0
 78
9
170
0
171
2
172
0
173
0
174
0
175
0
176
7
177
7
178
7
  0
DIMSTYLE
  2
DMST_2
 70
0
  3

  4

  5

  6

  7

 40
1
 41
0.1
 42
0
 43
0.7
 44
0.2
 45
0
 46
0
 47
0
 48
0
140
0.1
141
0
142
0.1
143
25.4
144
1
145
0
146
1
147
0.2
 71
0
 72
0
 73
0
 74
0
 75
0
 76
0
 77
0
 78
9
170
0
171
2
172
0
173
0
174
0
175
0
176
7
177
7
178
7
  0
ENDTAB
  0
TABLE
  2
LTYPE
 70
9
  0
LTYPE
  2
CONTINUOUS
 70
64
  3
Solid line
 72
65
 73
0
 40
0
  0
LTYPE
  2
BORDER
 70
64
  3
__ __ . __ __ .
 72
65
 73
6
 40
0.3989303734634934
 49
0.1139801067038552
 49
-0.05699005335192762
 49
0.1139801067038552
 49
-0.05699005335192762
 49
0
 49
-0.05699005335192762
  0
LTYPE
  2
CENTER
 70
64
  3
____ _ ____ _
 72
65
 73
4
 40
0.455920426815421
 49
0.2849502667596381
 49
-0.05699005335192762
 49
0.05699005335192762
 49
-0.05699005335192762
  0
LTYPE
  2
DASHDOT
 70
64
  3
__ . __ . __ .
 72
65
 73
4
 40
0.2279602134077105
 49
0.1139801067038552
 49
-0.05699005335192762
 49
0
 49
-0.05699005335192762
  0
LTYPE
  2
DASHED
 70
64
  3
__ __ __ __ __
 72
65
 73
2
 40
0.1709701600557829
 49
0.1139801067038552
 49
-0.05699005335192762
  0
LTYPE
  2
DIVIDE
 70
64
  3
__ . . __ . . 
 72
65
 73
6
 40
0.2849502667596381
 49
0.1139801067038552
 49
-0.05699005335192762
 49
0
 49
-0.05699005335192762
 49
0
 49
-0.05699005335192762
  0
LTYPE
  2
DOT
 70
64
  3
..............
 72
65
 73
4
 40
0.1139801067038552
 49
0
 49
-0.05699005335192762
 49
0
 49
-0.05699005335192762
  0
LTYPE
  2
HIDDEN
 70
64
  3
_ _ _ _ _ _ _
 72
65
 73
2
 40
0.08548508002789143
 49
0.05699005335192762
 49
-0.02849502667596381
  0
LTYPE
  2
PHANTOM
 70
64
  3
_____ _ _ _____ _ _ 
 72
65
 73
6
 40
0.5699005335192763
 49
0.2849502667596381
 49
-0.05699005335192762
 49
0.05699005335192762
 49
-0.05699005335192762
 49
0.05699005335192762
 49
-0.05699005335192762
  0
ENDTAB
  0
TABLE
  2
LAYER
 70
2
  0
LAYER
  2
0
 70
0
 62
7
  6
CONTINUOUS
  0
ENDTAB
  0
TABLE
  2
STYLE
 70
4
  0
STYLE
  2
STANDARD
 70
0
 40
0
 41
1
 50
0
 71
0
 42
3.5
  3
txt
  4

  0
STYLE
  2
SIMPLEX
 70
0
 40
0
 41
1
 50
0
 71
0
 42
3.5
  3
simplex
  4

  0
STYLE
  2
COMPLEX
 70
0
 40
0
 41
1
 50
0
 71
0
 42
3.5
  3
complex
  4

  0
STYLE
  2
ITALIC
 70
0
 40
0
 41
1
 50
0
 71
0
 42
3.5
  3
italic
  4

  0
ENDTAB
  0
TABLE
  2
VIEW
 70
0
  0
ENDTAB
  0
ENDSEC
  0
SECTION
  2
BLOCKS
  0
BLOCK
  8
0
  2
*X0
 70
1
 10
0
 20
0
 30
0
  0
LINE
  8
0
 62
7
  6
DASHED
 10
7.959999999999998
 20
8.278198051533943
 30
0
 11
7.98180194846605
 21
8.299999999999997
 31
0
  0
LINE
  8
0
 62
7
  6
DASHED
 10
7.993933982822015
 20
8.099999999999996
 30
0
 11
8.193933982822013
 21
8.299999999999997
 31
0
  0
LINE
  8
0
 62
7
 10
7.959999999999996
 20
8.172132034355959
 30
0
 11
8.087867965644033
 21
8.299999999999995
 31
0
  0
LINE
  8
0
 62
7
 10
8.099999999999998
 20
8.099999999999996
 30
0
 11
8.199999999999998
 21
8.199999999999996
 31
0
  0
ENDBLK
  8
0
  0
BLOCK
  8
0
  2
*X1
 70
1
 10
0
 20
0
 30
0
  0
LINE
  8
0
 62
7
  6
DASHED
 10
7.959999999999997
 20
11.03591449816148
 30
0
 11
7.97408550183852
 21
11.05
 31
0
  0
LINE
  8
0
 62
7
  6
DASHED
 10
7.986217536194484
 20
10.85
 30
0
 11
8.186217536194484
 21
11.05
 31
0
  0
LINE
  8
0
 62
7
  6
DASHED
 10
8.198349570550448
 20
10.85
 30
0
 11
8.199999999999996
 21
10.85165042944955
 31
0
  0
LINE
  8
0
 62
7
 10
7.959999999999996
 20
10.9298484809835
 30
0
 11
8.0801515190165
 21
11.05
 31
0
  0
LINE
  8
0
 62
7
 10
8.092283553372464
 20
10.85
 30
0
 11
8.199999999999996
 21
10.95771644662753
 31
0
  0
ENDBLK
  8
0
  0
BLOCK
  8
0
  2
*X2
 70
1
 10
0
 20
0
 30
0
  0
LINE
  8
0
 62
7
  6
DASHED
 10
6.359999999999996
 20
10.92083873865323
 30
0
 11
6.489161261346771
 21
11.05
 31
0
  0
LINE
  8
0
 62
7
  6
DASHED
 10
6.501293295702734
 20
10.85
 30
0
 11
6.659999999999995
 21
11.00870670429726
 31
0
  0
LINE
  8
0
 62
7
 10
6.359999999999998
 20
11.02690475583121
 30
0
 11
6.383095244168789
 21
11.05
 31
0
  0
LINE
  8
0
 62
7
 10
6.395227278524754
 20
10.85
 30
0
 11
6.595227278524753
 21
11.05
 31
0
  0
LINE
  8
0
 62
7
 10
6.607359312880718
 20
10.85
 30
0
 11
6.659999999999995
 21
10.90264068711928
 31
0
  0
ENDBLK
  8
0
  0
BLOCK
  8
0
  2
*X3
 70
1
 10
0
 20
0
 30
0
  0
LINE
  8
0
 62
7
  6
DASHED
 10
6.359999999999997
 20
8.163122292025692
 30
0
 11
6.496877707974303
 21
8.299999999999997
 31
0
  0
LINE
  8
0
 62
7
  6
DASHED
 10
6.509009742330265
 20
8.099999999999996
 30
0
 11
6.659999999999996
 21
8.250990257669727
 31
0
  0
LINE
  8
0
 62
7
 10
6.359999999999997
 20
8.269188309203674
 30
0
 11
6.390811690796321
 21
8.299999999999997
 31
0
  0
LINE
  8
0
 62
7
 10
6.402943725152284
 20
8.099999999999996
 30
0
 11
6.602943725152285
 21
8.299999999999997
 31
0
  0
LINE
  8
0
 62
7
 10
6.615075759508247
 20
8.099999999999996
 30
0
 11
6.659999999999997
 21
8.144924240491745
 31
0
  0
ENDBLK
  8
0
  0
BLOCK
  8
0
  2
*X4
 70
1
 10
0
 20
0
 30
0
  0
LINE
  8
0
 62
7
 10
7.97408550183852
 20
11.05
 30
0
 11
8.12408550183852
 21
11.2
 31
0
  0
LINE
  8
0
 62
7
 10
8.186217536194484
 20
11.05
 30
0
 11
8.199999999999998
 21
11.06378246380551
 31
0
  0
LINE
  8
0
 62
7
 10
7.959999999999998
 20
11.14198051533946
 30
0
 11
8.018019484660535
 21
11.2
 31
0
  0
LINE
  8
0
 62
7
 10
8.0801515190165
 20
11.05
 30
0
 11
8.199999999999996
 21
11.16984848098349
 31
0
  0
ENDBLK
  8
0
  0
BLOCK
  8
0
  2
*X5
 70
1
 10
0
 20
0
 30
0
  0
LINE
  8
0
 62
7
 10
7.959999999999997
 20
10.82378246380551
 30
0
 11
7.986217536194484
 21
10.85
 31
0
  0
LINE
  8
0
 62
7
 10
7.959999999999997
 20
10.61165042944955
 30
0
 11
8.198349570550448
 21
10.85
 31
0
  0
LINE
  8
0
 62
7
 10
7.959999999999997
 20
10.39951839509358
 30
0
 11
8.199999999999998
 21
10.63951839509358
 31
0
  0
LINE
  8
0
 62
7
 10
7.959999999999997
 20
10.18738636073762
 30
0
 11
8.199999999999998
 21
10.42738636073762
 31
0
  0
LINE
  8
0
 62
7
 10
7.959999999999997
 20
9.975254326381656
 30
0
 11
8.199999999999998
 21
10.21525432638166
 31
0
  0
LINE
  8
0
 62
7
 10
7.959999999999997
 20
9.763122292025692
 30
0
 11
8.199999999999998
 21
10.00312229202569
 31
0
  0
LINE
  8
0
 62
7
 10
7.959999999999997
 20
9.550990257669728
 30
0
 11
8.199999999999998
 21
9.790990257669728
 31
0
  0
LINE
  8
0
 62
7
 10
7.959999999999997
 20
9.338858223313764
 30
0
 11
8.199999999999998
 21
9.578858223313764
 31
0
  0
LINE
  8
0
 62
7
 10
7.959999999999997
 20
9.1267261889578
 30
0
 11
8.199999999999998
 21
9.3667261889578
 31
0
  0
LINE
  8
0
 62
7
 10
7.959999999999997
 20
8.914594154601836
 30
0
 11
8.199999999999998
 21
9.154594154601837
 31
0
  0
LINE
  8
0
 62
7
 10
7.959999999999997
 20
8.702462120245873
 30
0
 11
8.199999999999998
 21
8.942462120245873
 31
0
  0
LINE
  8
0
 62
7
 10
7.959999999999997
 20
8.490330085889909
 30
0
 11
8.199999999999998
 21
8.730330085889909
 31
0
  0
LINE
  8
0
 62
7
 10
7.98180194846605
 20
8.299999999999997
 30
0
 11
8.199999999999998
 21
8.518198051533945
 31
0
  0
LINE
  8
0
 62
7
 10
8.193933982822013
 20
8.299999999999997
 30
0
 11
8.199999999999998
 21
8.306066017177981
 31
0
  0
LINE
  8
0
 62
7
 10
7.959999999999997
 20
10.71771644662753
 30
0
 11
8.092283553372464
 21
10.85
 31
0
  0
LINE
  8
0
 62
7
 10
7.959999999999997
 20
10.50558441227156
 30
0
 11
8.199999999999998
 21
10.74558441227156
 31
0
  0
LINE
  8
0
 62
7
 10
7.959999999999997
 20
10.2934523779156
 30
0
 11
8.199999999999998
 21
10.5334523779156
 31
0
  0
LINE
  8
0
 62
7
 10
7.959999999999997
 20
10.08132034355964
 30
0
 11
8.199999999999998
 21
10.32132034355963
 31
0
  0
LINE
  8
0
 62
7
 10
7.959999999999997
 20
9.869188309203672
 30
0
 11
8.199999999999998
 21
10.10918830920367
 31
0
  0
LINE
  8
0
 62
7
 10
7.959999999999997
 20
9.657056274847708
 30
0
 11
8.199999999999998
 21
9.897056274847706
 31
0
  0
LINE
  8
0
 62
7
 10
7.959999999999997
 20
9.444924240491744
 30
0
 11
8.199999999999998
 21
9.684924240491743
 31
0
  0
LINE
  8
0
 62
7
 10
7.959999999999997
 20
9.23279220613578
 30
0
 11
8.199999999999998
 21
9.472792206135779
 31
0
  0
LINE
  8
0
 62
7
 10
7.959999999999997
 20
9.020660171779816
 30
0
 11
8.199999999999998
 21
9.260660171779815
 31
0
  0
LINE
  8
0
 62
7
 10
7.959999999999997
 20
8.808528137423853
 30
0
 11
8.199999999999998
 21
9.048528137423851
 31
0
  0
LINE
  8
0
 62
7
 10
7.959999999999997
 20
8.596396103067889
 30
0
 11
8.199999999999998
 21
8.836396103067887
 31
0
  0
LINE
  8
0
 62
7
 10
7.959999999999997
 20
8.384264068711925
 30
0
 11
8.199999999999998
 21
8.624264068711923
 31
0
  0
LINE
  8
0
 62
7
 10
8.087867965644033
 20
8.299999999999995
 30
0
 11
8.199999999999998
 21
8.41213203435596
 31
0
  0
ENDBLK
  8
0
  0
BLOCK
  8
0
  2
*X6
 70
1
 10
0
 20
0
 30
0
  0
LINE
  8
0
 62
7
 10
7.959999999999998
 20
8.066066017177979
 30
0
 11
7.993933982822015
 21
8.099999999999996
 31
0
  0
LINE
  8
0
 62
7
 10
8.056066017177979
 20
7.949999999999997
 30
0
 11
8.199999999999998
 21
8.093933982822012
 31
0
  0
LINE
  8
0
 62
7
 10
7.959999999999997
 20
7.959999999999996
 30
0
 11
8.099999999999998
 21
8.099999999999996
 31
0
  0
LINE
  8
0
 62
7
 10
8.162132034355961
 20
7.949999999999996
 30
0
 11
8.199999999999998
 21
7.987867965644032
 31
0
  0
ENDBLK
  8
0
  0
BLOCK
  8
0
  2
*X7
 70
1
 10
0
 20
0
 30
0
  0
LINE
  8
0
 62
7
  6
DASHED
 10
0.9500000000000002
 20
11.0262716319083
 30
0
 11
0.9737283680917028
 21
11.05
 31
0
  0
LINE
  8
0
 62
7
  6
DASHED
 10
0.9858604024476647
 20
10.85
 30
0
 11
1.185860402447667
 21
11.05
 31
0
  0
LINE
  8
0
 62
7
  6
DASHED
 10
1.197992436803629
 20
10.85
 30
0
 11
1.397992436803631
 21
11.05
 31
0
  0
LINE
  8
0
 62
7
  6
DASHED
 10
1.410124471159593
 20
10.85
 30
0
 11
1.610124471159596
 21
11.05
 31
0
  0
LINE
  8
0
 62
7
  6
DASHED
 10
1.622256505515558
 20
10.85
 30
0
 11
1.82225650551556
 21
11.05
 31
0
  0
LINE
  8
0
 62
7
  6
DASHED
 10
1.834388539871522
 20
10.85
 30
0
 11
2.034388539871524
 21
11.05
 31
0
  0
LINE
  8
0
 62
7
  6
DASHED
 10
2.046520574227486
 20
10.85
 30
0
 11
2.246520574227489
 21
11.05
 31
0
  0
LINE
  8
0
 62
7
  6
DASHED
 10
2.25865260858345
 20
10.85
 30
0
 11
2.458652608583453
 21
11.05
 31
0
  0
LINE
  8
0
 62
7
  6
DASHED
 10
2.470784642939415
 20
10.85
 30
0
 11
2.670784642939417
 21
11.05
 31
0
  0
LINE
  8
0
 62
7
  6
DASHED
 10
2.682916677295379
 20
10.85
 30
0
 11
2.882916677295381
 21
11.05
 31
0
  0
LINE
  8
0
 62
7
  6
DASHED
 10
2.895048711651343
 20
10.85
 30
0
 11
3.095048711651346
 21
11.05
 31
0
  0
LINE
  8
0
 62
7
  6
DASHED
 10
3.107180746007308
 20
10.85
 30
0
 11
3.30718074600731
 21
11.05
 31
0
  0
LINE
  8
0
 62
7
  6
DASHED
 10
3.319312780363272
 20
10.85
 30
0
 11
3.519312780363274
 21
11.05
 31
0
  0
LINE
  8
0
 62
7
  6
DASHED
 10
3.531444814719236
 20
10.85
 30
0
 11
3.731444814719239
 21
11.05
 31
0
  0
LINE
  8
0
 62
7
  6
DASHED
 10
3.7435768490752
 20
10.85
 30
0
 11
3.943576849075203
 21
11.05
 31
0
  0
LINE
  8
0
 62
7
  6
DASHED
 10
3.955708883431165
 20
10.85
 30
0
 11
4.155708883431167
 21
11.05
 31
0
  0
LINE
  8
0
 62
7
  6
DASHED
 10
4.167840917787129
 20
10.85
 30
0
 11
4.367840917787131
 21
11.05
 31
0
  0
LINE
  8
0
 62
7
  6
DASHED
 10
4.379972952143093
 20
10.85
 30
0
 11
4.579972952143095
 21
11.05
 31
0
  0
LINE
  8
0
 62
7
  6
DASHED
 10
4.592104986499057
 20
10.85
 30
0
 11
4.792104986499059
 21
11.05
 31
0
  0
LINE
  8
0
 62
7
  6
DASHED
 10
4.80423702085502
 20
10.85
 30
0
 11
4.984999999999997
 21
11.03076297914498
 31
0
  0
LINE
  8
0
 62
7
 10
0.9500000000000002
 20
10.92020561473032
 30
0
 11
1.079794385269683
 21
11.05
 31
0
  0
LINE
  8
0
 62
7
 10
1.091926419625648
 20
10.85
 30
0
 11
1.291926419625648
 21
11.05
 31
0
  0
LINE
  8
0
 62
7
 10
1.304058453981612
 20
10.85
 30
0
 11
1.504058453981612
 21
11.05
 31
0
  0
LINE
  8
0
 62
7
 10
1.516190488337577
 20
10.85
 30
0
 11
1.716190488337576
 21
11.05
 31
0
  0
LINE
  8
0
 62
7
 10
1.728322522693541
 20
10.85
 30
0
 11
1.928322522693541
 21
11.05
 31
0
  0
LINE
  8
0
 62
7
 10
1.940454557049505
 20
10.85
 30
0
 11
2.140454557049505
 21
11.05
 31
0
  0
LINE
  8
0
 62
7
 10
2.152586591405469
 20
10.85
 30
0
 11
2.352586591405469
 21
11.05
 31
0
  0
LINE
  8
0
 62
7
 10
2.364718625761434
 20
10.85
 30
0
 11
2.564718625761433
 21
11.05
 31
0
  0
LINE
  8
0
 62
7
 10
2.576850660117398
 20
10.85
 30
0
 11
2.776850660117398
 21
11.05
 31
0
  0
LINE
  8
0
 62
7
 10
2.788982694473362
 20
10.85
 30
0
 11
2.988982694473362
 21
11.05
 31
0
  0
LINE
  8
0
 62
7
 10
3.001114728829327
 20
10.85
 30
0
 11
3.201114728829326
 21
11.05
 31
0
  0
LINE
  8
0
 62
7
 10
3.213246763185291
 20
10.85
 30
0
 11
3.413246763185291
 21
11.05
 31
0
  0
LINE
  8
0
 62
7
 10
3.425378797541255
 20
10.85
 30
0
 11
3.625378797541255
 21
11.05
 31
0
  0
LINE
  8
0
 62
7
 10
3.637510831897219
 20
10.85
 30
0
 11
3.837510831897219
 21
11.05
 31
0
  0
LINE
  8
0
 62
7
 10
3.849642866253184
 20
10.85
 30
0
 11
4.049642866253183
 21
11.05
 31
0
  0
LINE
  8
0
 62
7
 10
4.061774900609148
 20
10.85
 30
0
 11
4.261774900609147
 21
11.05
 31
0
  0
LINE
  8
0
 62
7
 10
4.273906934965112
 20
10.85
 30
0
 11
4.473906934965111
 21
11.05
 31
0
  0
LINE
  8
0
 62
7
 10
4.486038969321076
 20
10.85
 30
0
 11
4.686038969321075
 21
11.05
 31
0
  0
LINE
  8
0
 62
7
 10
4.698171003677039
 20
10.85
 30
0
 11
4.898171003677039
 21
11.05
 31
0
  0
LINE
  8
0
 62
7
 10
4.910303038033003
 20
10.85
 30
0
 11
4.984999999999998
 21
10.924696961967
 31
0
  0
ENDBLK
  8
0
  0
BLOCK
  8
0
  2
*X8
 70
1
 10
0
 20
0
 30
0
  0
LINE
  8
0
 62
7
  6
DASHED
 10
0.9499999999999993
 20
8.268555185280766
 30
0
 11
0.9814448147192318
 21
8.299999999999997
 31
0
  0
LINE
  8
0
 62
7
  6
DASHED
 10
0.9935768490751955
 20
8.099999999999996
 30
0
 11
1.193576849075196
 21
8.299999999999997
 31
0
  0
LINE
  8
0
 62
7
  6
DASHED
 10
1.20570888343116
 20
8.099999999999996
 30
0
 11
1.40570888343116
 21
8.299999999999997
 31
0
  0
LINE
  8
0
 62
7
  6
DASHED
 10
1.417840917787124
 20
8.099999999999996
 30
0
 11
1.617840917787125
 21
8.299999999999997
 31
0
  0
LINE
  8
0
 62
7
  6
DASHED
 10
1.629972952143088
 20
8.099999999999996
 30
0
 11
1.829972952143089
 21
8.299999999999997
 31
0
  0
LINE
  8
0
 62
7
  6
DASHED
 10
1.842104986499053
 20
8.099999999999996
 30
0
 11
2.042104986499053
 21
8.299999999999997
 31
0
  0
LINE
  8
0
 62
7
  6
DASHED
 10
2.054237020855017
 20
8.099999999999996
 30
0
 11
2.254237020855018
 21
8.299999999999997
 31
0
  0
LINE
  8
0
 62
7
  6
DASHED
 10
2.266369055210981
 20
8.099999999999996
 30
0
 11
2.466369055210982
 21
8.299999999999997
 31
0
  0
LINE
  8
0
 62
7
  6
DASHED
 10
2.478501089566945
 20
8.099999999999996
 30
0
 11
2.678501089566946
 21
8.299999999999997
 31
0
  0
LINE
  8
0
 62
7
  6
DASHED
 10
2.69063312392291
 20
8.099999999999996
 30
0
 11
2.89063312392291
 21
8.299999999999997
 31
0
  0
LINE
  8
0
 62
7
  6
DASHED
 10
2.902765158278874
 20
8.099999999999996
 30
0
 11
3.102765158278875
 21
8.299999999999997
 31
0
  0
LINE
  8
0
 62
7
  6
DASHED
 10
3.114897192634838
 20
8.099999999999996
 30
0
 11
3.314897192634839
 21
8.299999999999997
 31
0
  0
LINE
  8
0
 62
7
  6
DASHED
 10
3.327029226990803
 20
8.099999999999996
 30
0
 11
3.527029226990803
 21
8.299999999999997
 31
0
  0
LINE
  8
0
 62
7
  6
DASHED
 10
3.539161261346767
 20
8.099999999999996
 30
0
 11
3.739161261346768
 21
8.299999999999997
 31
0
  0
LINE
  8
0
 62
7
  6
DASHED
 10
3.751293295702731
 20
8.099999999999996
 30
0
 11
3.951293295702732
 21
8.299999999999997
 31
0
  0
LINE
  8
0
 62
7
  6
DASHED
 10
3.963425330058695
 20
8.099999999999996
 30
0
 11
4.163425330058696
 21
8.299999999999997
 31
0
  0
LINE
  8
0
 62
7
  6
DASHED
 10
4.17555736441466
 20
8.099999999999996
 30
0
 11
4.37555736441466
 21
8.299999999999997
 31
0
  0
LINE
  8
0
 62
7
  6
DASHED
 10
4.387689398770624
 20
8.099999999999996
 30
0
 11
4.587689398770624
 21
8.299999999999997
 31
0
  0
LINE
  8
0
 62
7
  6
DASHED
 10
4.599821433126587
 20
8.099999999999996
 30
0
 11
4.799821433126588
 21
8.299999999999997
 31
0
  0
LINE
  8
0
 62
7
  6
DASHED
 10
4.811953467482551
 20
8.099999999999996
 30
0
 11
4.984999999999996
 21
8.273046532517441
 31
0
  0
LINE
  8
0
 62
7
 10
0.9499999999999988
 20
8.162489168102784
 30
0
 11
1.087510831897215
 21
8.299999999999997
 31
0
  0
LINE
  8
0
 62
7
 10
1.099642866253179
 20
8.099999999999996
 30
0
 11
1.299642866253179
 21
8.299999999999997
 31
0
  0
LINE
  8
0
 62
7
 10
1.311774900609143
 20
8.099999999999996
 30
0
 11
1.511774900609144
 21
8.299999999999997
 31
0
  0
LINE
  8
0
 62
7
 10
1.523906934965107
 20
8.099999999999996
 30
0
 11
1.723906934965108
 21
8.299999999999997
 31
0
  0
LINE
  8
0
 62
7
 10
1.736038969321072
 20
8.099999999999996
 30
0
 11
1.936038969321072
 21
8.299999999999997
 31
0
  0
LINE
  8
0
 62
7
 10
1.948171003677036
 20
8.099999999999996
 30
0
 11
2.148171003677037
 21
8.299999999999997
 31
0
  0
LINE
  8
0
 62
7
 10
2.160303038033
 20
8.099999999999996
 30
0
 11
2.360303038033001
 21
8.299999999999997
 31
0
  0
LINE
  8
0
 62
7
 10
2.372435072388964
 20
8.099999999999996
 30
0
 11
2.572435072388965
 21
8.299999999999997
 31
0
  0
LINE
  8
0
 62
7
 10
2.584567106744929
 20
8.099999999999996
 30
0
 11
2.784567106744929
 21
8.299999999999997
 31
0
  0
LINE
  8
0
 62
7
 10
2.796699141100893
 20
8.099999999999996
 30
0
 11
2.996699141100894
 21
8.299999999999997
 31
0
  0
LINE
  8
0
 62
7
 10
3.008831175456857
 20
8.099999999999996
 30
0
 11
3.208831175456858
 21
8.299999999999997
 31
0
  0
LINE
  8
0
 62
7
 10
3.220963209812822
 20
8.099999999999996
 30
0
 11
3.420963209812822
 21
8.299999999999997
 31
0
  0
LINE
  8
0
 62
7
 10
3.433095244168786
 20
8.099999999999996
 30
0
 11
3.633095244168786
 21
8.299999999999997
 31
0
  0
LINE
  8
0
 62
7
 10
3.64522727852475
 20
8.099999999999996
 30
0
 11
3.845227278524751
 21
8.299999999999997
 31
0
  0
LINE
  8
0
 62
7
 10
3.857359312880714
 20
8.099999999999996
 30
0
 11
4.057359312880715
 21
8.299999999999997
 31
0
  0
LINE
  8
0
 62
7
 10
4.069491347236679
 20
8.099999999999996
 30
0
 11
4.269491347236679
 21
8.299999999999997
 31
0
  0
LINE
  8
0
 62
7
 10
4.281623381592643
 20
8.099999999999996
 30
0
 11
4.481623381592643
 21
8.299999999999997
 31
0
  0
LINE
  8
0
 62
7
 10
4.493755415948606
 20
8.099999999999996
 30
0
 11
4.693755415948607
 21
8.299999999999997
 31
0
  0
LINE
  8
0
 62
7
 10
4.70588745030457
 20
8.099999999999996
 30
0
 11
4.90588745030457
 21
8.299999999999997
 31
0
  0
LINE
  8
0
 62
7
 10
4.918019484660534
 20
8.099999999999996
 30
0
 11
4.984999999999997
 21
8.166980515339459
 31
0
  0
ENDBLK
  8
0
  0
BLOCK
  8
0
  2
*X9
 70
1
 10
0
 20
0
 30
0
  0
LINE
  8
0
 62
7
 10
4.659999999999996
 20
11.1300270478569
 30
0
 11
4.729972952143091
 21
11.2
 31
0
  0
LINE
  8
0
 62
7
 10
4.792104986499057
 20
11.05
 30
0
 11
4.834999999999997
 21
11.09289501350094
 31
0
  0
LINE
  8
0
 62
7
 10
4.686038969321075
 20
11.05
 30
0
 11
4.834999999999997
 21
11.19896103067892
 31
0
  0
ENDBLK
  8
0
  0
BLOCK
  8
0
  2
*X10
 70
1
 10
0
 20
0
 30
0
  0
LINE
  8
0
 62
7
 10
4.659999999999997
 20
10.70576297914497
 30
0
 11
4.80423702085502
 21
10.85
 31
0
  0
LINE
  8
0
 62
7
 10
4.659999999999997
 20
10.49363094478901
 30
0
 11
4.834999999999998
 21
10.66863094478901
 31
0
  0
LINE
  8
0
 62
7
 10
4.659999999999997
 20
10.28149891043305
 30
0
 11
4.834999999999998
 21
10.45649891043304
 31
0
  0
LINE
  8
0
 62
7
 10
4.659999999999997
 20
10.06936687607708
 30
0
 11
4.834999999999998
 21
10.24436687607708
 31
0
  0
LINE
  8
0
 62
7
 10
4.659999999999997
 20
9.857234841721118
 30
0
 11
4.834999999999998
 21
10.03223484172112
 31
0
  0
LINE
  8
0
 62
7
 10
4.659999999999997
 20
9.645102807365154
 30
0
 11
4.834999999999998
 21
9.820102807365153
 31
0
  0
LINE
  8
0
 62
7
 10
4.659999999999997
 20
9.43297077300919
 30
0
 11
4.834999999999998
 21
9.607970773009189
 31
0
  0
LINE
  8
0
 62
7
 10
4.659999999999997
 20
9.220838738653226
 30
0
 11
4.834999999999998
 21
9.395838738653225
 31
0
  0
LINE
  8
0
 62
7
 10
4.659999999999997
 20
9.008706704297262
 30
0
 11
4.834999999999998
 21
9.183706704297261
 31
0
  0
LINE
  8
0
 62
7
 10
4.659999999999997
 20
8.796574669941299
 30
0
 11
4.834999999999998
 21
8.971574669941297
 31
0
  0
LINE
  8
0
 62
7
 10
4.659999999999997
 20
8.584442635585335
 30
0
 11
4.834999999999998
 21
8.759442635585334
 31
0
  0
LINE
  8
0
 62
7
 10
4.659999999999997
 20
8.372310601229371
 30
0
 11
4.834999999999998
 21
8.54731060122937
 31
0
  0
LINE
  8
0
 62
7
 10
4.799821433126587
 20
8.299999999999997
 30
0
 11
4.834999999999998
 21
8.335178566873406
 31
0
  0
LINE
  8
0
 62
7
 10
4.659999999999996
 20
10.81182899632295
 30
0
 11
4.698171003677038
 21
10.85
 31
0
  0
LINE
  8
0
 62
7
 10
4.659999999999996
 20
10.59969696196699
 30
0
 11
4.834999999999997
 21
10.77469696196699
 31
0
  0
LINE
  8
0
 62
7
 10
4.659999999999996
 20
10.38756492761103
 30
0
 11
4.834999999999997
 21
10.56256492761103
 31
0
  0
LINE
  8
0
 62
7
 10
4.659999999999996
 20
10.17543289325506
 30
0
 11
4.834999999999997
 21
10.35043289325506
 31
0
  0
LINE
  8
0
 62
7
 10
4.659999999999996
 20
9.963300858899098
 30
0
 11
4.834999999999997
 21
10.1383008588991
 31
0
  0
LINE
  8
0
 62
7
 10
4.659999999999996
 20
9.751168824543134
 30
0
 11
4.834999999999997
 21
9.926168824543137
 31
0
  0
LINE
  8
0
 62
7
 10
4.659999999999996
 20
9.53903679018717
 30
0
 11
4.834999999999997
 21
9.714036790187173
 31
0
  0
LINE
  8
0
 62
7
 10
4.659999999999996
 20
9.326904755831206
 30
0
 11
4.834999999999997
 21
9.501904755831209
 31
0
  0
LINE
  8
0
 62
7
 10
4.659999999999996
 20
9.114772721475243
 30
0
 11
4.834999999999997
 21
9.289772721475245
 31
0
  0
LINE
  8
0
 62
7
 10
4.659999999999996
 20
8.902640687119279
 30
0
 11
4.834999999999997
 21
9.077640687119281
 31
0
  0
LINE
  8
0
 62
7
 10
4.659999999999996
 20
8.690508652763315
 30
0
 11
4.834999999999997
 21
8.865508652763317
 31
0
  0
LINE
  8
0
 62
7
 10
4.659999999999996
 20
8.478376618407351
 30
0
 11
4.834999999999997
 21
8.653376618407354
 31
0
  0
LINE
  8
0
 62
7
 10
4.693755415948607
 20
8.299999999999997
 30
0
 11
4.834999999999997
 21
8.44124458405139
 31
0
  0
ENDBLK
  8
0
  0
BLOCK
  8
0
  2
*X11
 70
1
 10
0
 20
0
 30
0
  0
LINE
  8
0
 62
7
 10
4.661953467482551
 20
7.949999999999996
 30
0
 11
4.811953467482551
 21
8.099999999999996
 31
0
  0
LINE
  8
0
 62
7
 10
4.659999999999997
 20
8.054112549695423
 30
0
 11
4.705887450304569
 21
8.099999999999996
 31
0
  0
LINE
  8
0
 62
7
 10
4.768019484660533
 20
7.949999999999996
 30
0
 11
4.834999999999997
 21
8.01698051533946
 31
0
  0
ENDBLK
  8
0
  0
BLOCK
  8
0
  2
*X12
 70
1
 10
0
 20
0
 30
0
  0
LINE
  8
0
 62
7
 10
1.100000000000001
 20
11.1762716319083
 30
0
 11
1.123728368091698
 21
11.2
 31
0
  0
LINE
  8
0
 62
7
 10
1.185860402447664
 20
11.05
 30
0
 11
1.274999999999999
 21
11.13913959755234
 31
0
  0
LINE
  8
0
 62
7
 10
1.1
 20
11.07020561473032
 30
0
 11
1.229794385269681
 21
11.2
 31
0
  0
ENDBLK
  8
0
  0
BLOCK
  8
0
  2
*X13
 70
1
 10
0
 20
0
 30
0
  0
LINE
  8
0
 62
7
 10
1.1
 20
10.75200756319637
 30
0
 11
1.197992436803626
 21
10.85
 31
0
  0
LINE
  8
0
 62
7
 10
1.1
 20
10.5398755288404
 30
0
 11
1.275
 21
10.7148755288404
 31
0
  0
LINE
  8
0
 62
7
 10
1.1
 20
10.32774349448444
 30
0
 11
1.275
 21
10.50274349448444
 31
0
  0
LINE
  8
0
 62
7
 10
1.1
 20
10.11561146012848
 30
0
 11
1.275
 21
10.29061146012848
 31
0
  0
LINE
  8
0
 62
7
 10
1.1
 20
9.903479425772513
 30
0
 11
1.275
 21
10.07847942577251
 31
0
  0
LINE
  8
0
 62
7
 10
1.1
 20
9.691347391416549
 30
0
 11
1.275
 21
9.866347391416548
 31
0
  0
LINE
  8
0
 62
7
 10
1.1
 20
9.479215357060585
 30
0
 11
1.275
 21
9.654215357060584
 31
0
  0
LINE
  8
0
 62
7
 10
1.1
 20
9.267083322704622
 30
0
 11
1.275
 21
9.442083322704621
 31
0
  0
LINE
  8
0
 62
7
 10
1.1
 20
9.054951288348658
 30
0
 11
1.275
 21
9.229951288348657
 31
0
  0
LINE
  8
0
 62
7
 10
1.1
 20
8.842819253992694
 30
0
 11
1.275
 21
9.017819253992693
 31
0
  0
LINE
  8
0
 62
7
 10
1.1
 20
8.63068721963673
 30
0
 11
1.275
 21
8.805687219636729
 31
0
  0
LINE
  8
0
 62
7
 10
1.1
 20
8.418555185280766
 30
0
 11
1.275
 21
8.593555185280765
 31
0
  0
LINE
  8
0
 62
7
 10
1.193576849075197
 20
8.299999999999997
 30
0
 11
1.275
 21
8.381423150924801
 31
0
  0
LINE
  8
0
 62
7
 10
1.100000000000001
 20
10.64594154601839
 30
0
 11
1.274999999999999
 21
10.82094154601838
 31
0
  0
LINE
  8
0
 62
7
 10
1.100000000000001
 20
10.43380951166242
 30
0
 11
1.274999999999999
 21
10.60880951166242
 31
0
  0
LINE
  8
0
 62
7
 10
1.100000000000001
 20
10.22167747730646
 30
0
 11
1.274999999999999
 21
10.39667747730646
 31
0
  0
LINE
  8
0
 62
7
 10
1.100000000000001
 20
10.0095454429505
 30
0
 11
1.274999999999999
 21
10.18454544295049
 31
0
  0
LINE
  8
0
 62
7
 10
1.100000000000001
 20
9.797413408594531
 30
0
 11
1.274999999999999
 21
9.972413408594528
 31
0
  0
LINE
  8
0
 62
7
 10
1.100000000000001
 20
9.585281374238567
 30
0
 11
1.274999999999999
 21
9.760281374238565
 31
0
  0
LINE
  8
0
 62
7
 10
1.100000000000001
 20
9.373149339882604
 30
0
 11
1.274999999999999
 21
9.548149339882601
 31
0
  0
LINE
  8
0
 62
7
 10
1.100000000000001
 20
9.16101730552664
 30
0
 11
1.274999999999999
 21
9.336017305526637
 31
0
  0
LINE
  8
0
 62
7
 10
1.100000000000001
 20
8.948885271170676
 30
0
 11
1.274999999999999
 21
9.123885271170673
 31
0
  0
LINE
  8
0
 62
7
 10
1.100000000000001
 20
8.736753236814712
 30
0
 11
1.274999999999999
 21
8.911753236814709
 31
0
  0
LINE
  8
0
 62
7
 10
1.100000000000001
 20
8.524621202458748
 30
0
 11
1.274999999999999
 21
8.699621202458745
 31
0
  0
LINE
  8
0
 62
7
 10
1.100000000000001
 20
8.312489168102784
 30
0
 11
1.274999999999999
 21
8.487489168102782
 31
0
  0
ENDBLK
  8
0
  0
BLOCK
  8
0
  2
*X14
 70
1
 10
0
 20
0
 30
0
  0
LINE
  8
0
 62
7
 10
1.099999999999999
 20
7.994291116568838
 30
0
 11
1.205708883431158
 21
8.099999999999996
 31
0
  0
LINE
  8
0
 62
7
 10
1.267840917787122
 20
7.949999999999996
 30
0
 11
1.275
 21
7.957159082212874
 31
0
  0
LINE
  8
0
 62
7
 10
1.16177490060914
 20
7.949999999999996
 30
0
 11
1.274999999999999
 21
8.063225099390854
 31
0
  0
ENDBLK
  8
0
  0
BLOCK
  8
0
  2
*X15
 70
1
 10
0
 20
0
 30
0
  0
LINE
  8
0
 62
7
 10
1.1
 20
5.236574669941302
 30
0
 11
1.183425330058693
 21
5.319999999999995
 31
0
  0
LINE
  8
0
 62
7
 10
0.9350000000000001
 20
5.071574669941302
 30
0
 11
1.033425330058692
 21
5.169999999999995
 31
0
  0
LINE
  8
0
 62
7
 10
1.005557364414663
 20
4.93
 30
0
 11
1.275
 21
5.199442635585338
 31
0
  0
LINE
  8
0
 62
7
 10
1.217689398770627
 20
4.93
 30
0
 11
1.457689398770622
 21
5.169999999999995
 31
0
  0
LINE
  8
0
 62
7
 10
1.429821433126591
 20
4.93
 30
0
 11
1.669821433126586
 21
5.169999999999995
 31
0
  0
LINE
  8
0
 62
7
 10
1.641953467482556
 20
4.93
 30
0
 11
1.881953467482551
 21
5.169999999999995
 31
0
  0
LINE
  8
0
 62
7
 10
1.85408550183852
 20
4.93
 30
0
 11
2.094085501838515
 21
5.169999999999995
 31
0
  0
LINE
  8
0
 62
7
 10
2.066217536194484
 20
4.93
 30
0
 11
2.306217536194479
 21
5.169999999999995
 31
0
  0
LINE
  8
0
 62
7
 10
2.278349570550449
 20
4.93
 30
0
 11
2.518349570550444
 21
5.169999999999995
 31
0
  0
LINE
  8
0
 62
7
 10
2.490481604906413
 20
4.93
 30
0
 11
2.730481604906408
 21
5.169999999999995
 31
0
  0
LINE
  8
0
 62
7
 10
2.702613639262377
 20
4.93
 30
0
 11
2.942613639262372
 21
5.169999999999995
 31
0
  0
LINE
  8
0
 62
7
 10
2.914745673618341
 20
4.93
 30
0
 11
3.154745673618336
 21
5.169999999999995
 31
0
  0
LINE
  8
0
 62
7
 10
3.126877707974306
 20
4.93
 30
0
 11
3.366877707974301
 21
5.169999999999995
 31
0
  0
LINE
  8
0
 62
7
 10
3.33900974233027
 20
4.93
 30
0
 11
3.579009742330265
 21
5.169999999999995
 31
0
  0
LINE
  8
0
 62
7
 10
3.551141776686234
 20
4.93
 30
0
 11
3.791141776686229
 21
5.169999999999995
 31
0
  0
LINE
  8
0
 62
7
 10
3.763273811042199
 20
4.93
 30
0
 11
4.003273811042193
 21
5.169999999999995
 31
0
  0
LINE
  8
0
 62
7
 10
3.975405845398163
 20
4.93
 30
0
 11
4.215405845398157
 21
5.169999999999995
 31
0
  0
LINE
  8
0
 62
7
 10
4.187537879754127
 20
4.93
 30
0
 11
4.427537879754121
 21
5.169999999999995
 31
0
  0
LINE
  8
0
 62
7
 10
4.659999999999997
 20
5.190330085889907
 30
0
 11
4.789669914110085
 21
5.319999999999996
 31
0
  0
LINE
  8
0
 62
7
 10
4.399669914110091
 20
4.93
 30
0
 11
4.639669914110085
 21
5.169999999999995
 31
0
  0
LINE
  8
0
 62
7
 10
4.611801948466055
 20
4.93
 30
0
 11
4.85180194846605
 21
5.169999999999995
 31
0
  0
LINE
  8
0
 62
7
 10
4.823933982822019
 20
4.93
 30
0
 11
4.984999999999998
 21
5.09106601717798
 31
0
  0
LINE
  8
0
 62
7
 10
0.9349999999999996
 20
4.965508652763321
 30
0
 11
1.275
 21
5.30550865276332
 31
0
  0
LINE
  8
0
 62
7
 10
1.111623381592645
 20
4.93
 30
0
 11
1.35162338159264
 21
5.169999999999995
 31
0
  0
LINE
  8
0
 62
7
 10
1.32375541594861
 20
4.93
 30
0
 11
1.563755415948604
 21
5.169999999999995
 31
0
  0
LINE
  8
0
 62
7
 10
1.535887450304574
 20
4.93
 30
0
 11
1.775887450304568
 21
5.169999999999995
 31
0
  0
LINE
  8
0
 62
7
 10
1.748019484660538
 20
4.93
 30
0
 11
1.988019484660533
 21
5.169999999999995
 31
0
  0
LINE
  8
0
 62
7
 10
1.960151519016502
 20
4.93
 30
0
 11
2.200151519016497
 21
5.169999999999995
 31
0
  0
LINE
  8
0
 62
7
 10
2.172283553372467
 20
4.93
 30
0
 11
2.412283553372461
 21
5.169999999999995
 31
0
  0
LINE
  8
0
 62
7
 10
2.384415587728431
 20
4.93
 30
0
 11
2.624415587728425
 21
5.169999999999995
 31
0
  0
LINE
  8
0
 62
7
 10
2.596547622084395
 20
4.93
 30
0
 11
2.83654762208439
 21
5.169999999999995
 31
0
  0
LINE
  8
0
 62
7
 10
2.80867965644036
 20
4.93
 30
0
 11
3.048679656440354
 21
5.169999999999995
 31
0
  0
LINE
  8
0
 62
7
 10
3.020811690796324
 20
4.93
 30
0
 11
3.260811690796318
 21
5.169999999999995
 31
0
  0
LINE
  8
0
 62
7
 10
3.232943725152288
 20
4.93
 30
0
 11
3.472943725152283
 21
5.169999999999995
 31
0
  0
LINE
  8
0
 62
7
 10
3.445075759508252
 20
4.93
 30
0
 11
3.685075759508247
 21
5.169999999999995
 31
0
  0
LINE
  8
0
 62
7
 10
3.657207793864217
 20
4.93
 30
0
 11
3.897207793864211
 21
5.169999999999995
 31
0
  0
LINE
  8
0
 62
7
 10
3.869339828220181
 20
4.93
 30
0
 11
4.109339828220175
 21
5.169999999999995
 31
0
  0
LINE
  8
0
 62
7
 10
4.081471862576145
 20
4.93
 30
0
 11
4.321471862576139
 21
5.169999999999995
 31
0
  0
LINE
  8
0
 62
7
 10
4.659999999999997
 20
5.29639610306789
 30
0
 11
4.683603896932103
 21
5.319999999999996
 31
0
  0
LINE
  8
0
 62
7
 10
4.293603896932109
 20
4.93
 30
0
 11
4.533603896932103
 21
5.169999999999995
 31
0
  0
LINE
  8
0
 62
7
 10
4.505735931288073
 20
4.93
 30
0
 11
4.834999999999998
 21
5.259264068711925
 31
0
  0
LINE
  8
0
 62
7
 10
4.717867965644037
 20
4.93
 30
0
 11
4.957867965644032
 21
5.169999999999995
 31
0
  0
LINE
  8
0
 62
7
 10
4.930000000000001
 20
4.93
 30
0
 11
4.984999999999997
 21
4.984999999999997
 31
0
  0
ENDBLK
  8
0
  0
BLOCK
  8
0
  2
*X16
 70
1
 10
0
 20
0
 30
0
  0
LINE
  8
0
 62
7
 10
0.9350000000000001
 20
4.859442635585339
 30
0
 11
0.965557364414662
 21
4.889999999999999
 31
0
  0
LINE
  8
0
 62
7
 10
0.9376893987706243
 20
4.649999999999999
 30
0
 11
1.177689398770626
 21
4.889999999999999
 31
0
  0
LINE
  8
0
 62
7
 10
1.1
 20
4.600178566873409
 30
0
 11
1.389821433126591
 21
4.889999999999999
 31
0
  0
LINE
  8
0
 62
7
 10
1.361953467482554
 20
4.649999999999999
 30
0
 11
1.601953467482555
 21
4.889999999999999
 31
0
  0
LINE
  8
0
 62
7
 10
1.1
 20
4.388046532517445
 30
0
 11
1.274999999999999
 21
4.563046532517444
 31
0
  0
LINE
  8
0
 62
7
 10
1.574085501838518
 20
4.649999999999999
 30
0
 11
1.814085501838519
 21
4.889999999999999
 31
0
  0
LINE
  8
0
 62
7
 10
1.1
 20
4.175914498161482
 30
0
 11
1.274999999999999
 21
4.35091449816148
 31
0
  0
LINE
  8
0
 62
7
 10
1.786217536194483
 20
4.649999999999999
 30
0
 11
2.026217536194483
 21
4.889999999999999
 31
0
  0
LINE
  8
0
 62
7
 10
1.1
 20
3.963782463805517
 30
0
 11
1.274999999999999
 21
4.138782463805517
 31
0
  0
LINE
  8
0
 62
7
 10
1.998349570550447
 20
4.649999999999999
 30
0
 11
2.238349570550448
 21
4.889999999999999
 31
0
  0
LINE
  8
0
 62
7
 10
1.1
 20
3.751650429449553
 30
0
 11
1.274999999999999
 21
3.926650429449553
 31
0
  0
LINE
  8
0
 62
7
 10
2.210481604906411
 20
4.649999999999999
 30
0
 11
2.450481604906412
 21
4.889999999999999
 31
0
  0
LINE
  8
0
 62
7
 10
1.1
 20
3.539518395093589
 30
0
 11
1.274999999999999
 21
3.714518395093588
 31
0
  0
LINE
  8
0
 62
7
 10
2.422613639262376
 20
4.649999999999999
 30
0
 11
2.662613639262376
 21
4.889999999999999
 31
0
  0
LINE
  8
0
 62
7
 10
1.122613639262376
 20
3.35
 30
0
 11
1.274999999999999
 21
3.502386360737624
 31
0
  0
LINE
  8
0
 62
7
 10
2.63474567361834
 20
4.649999999999999
 30
0
 11
2.874745673618341
 21
4.889999999999999
 31
0
  0
LINE
  8
0
 62
7
 10
2.846877707974304
 20
4.649999999999999
 30
0
 11
3.086877707974305
 21
4.889999999999999
 31
0
  0
LINE
  8
0
 62
7
 10
3.059009742330268
 20
4.649999999999999
 30
0
 11
3.299009742330269
 21
4.889999999999999
 31
0
  0
LINE
  8
0
 62
7
 10
3.271141776686233
 20
4.649999999999999
 30
0
 11
3.511141776686233
 21
4.889999999999999
 31
0
  0
LINE
  8
0
 62
7
 10
3.483273811042197
 20
4.649999999999999
 30
0
 11
3.723273811042198
 21
4.889999999999999
 31
0
  0
LINE
  8
0
 62
7
 10
3.695405845398161
 20
4.649999999999999
 30
0
 11
3.935405845398162
 21
4.889999999999999
 31
0
  0
LINE
  8
0
 62
7
 10
3.907537879754126
 20
4.649999999999999
 30
0
 11
4.147537879754126
 21
4.889999999999999
 31
0
  0
LINE
  8
0
 62
7
 10
4.11966991411009
 20
4.649999999999999
 30
0
 11
4.35966991411009
 21
4.889999999999999
 31
0
  0
LINE
  8
0
 62
7
 10
4.331801948466054
 20
4.649999999999999
 30
0
 11
4.571801948466054
 21
4.889999999999999
 31
0
  0
LINE
  8
0
 62
7
 10
4.543933982822018
 20
4.649999999999999
 30
0
 11
4.783933982822018
 21
4.889999999999999
 31
0
  0
LINE
  8
0
 62
7
 10
4.659999999999997
 20
4.553933982822016
 30
0
 11
4.984999999999998
 21
4.878933982822015
 31
0
  0
LINE
  8
0
 62
7
 10
4.968198051533945
 20
4.649999999999999
 30
0
 11
4.984999999999998
 21
4.666801948466051
 31
0
  0
LINE
  8
0
 62
7
 10
4.659999999999999
 20
4.341801948466053
 30
0
 11
4.834999999999999
 21
4.516801948466051
 31
0
  0
LINE
  8
0
 62
7
 10
4.660000000000001
 20
4.129669914110091
 30
0
 11
4.834999999999999
 21
4.304669914110087
 31
0
  0
LINE
  8
0
 62
7
 10
4.660000000000003
 20
3.917537879754128
 30
0
 11
4.834999999999999
 21
4.092537879754123
 31
0
  0
LINE
  8
0
 62
7
 10
4.660000000000005
 20
3.705405845398165
 30
0
 11
4.834999999999999
 21
3.880405845398159
 31
0
  0
LINE
  8
0
 62
7
 10
4.660000000000006
 20
3.493273811042203
 30
0
 11
4.834999999999999
 21
3.668273811042194
 31
0
  0
LINE
  8
0
 62
7
 10
4.66
 20
3.281141776686232
 30
0
 11
4.834999999999999
 21
3.45614177668623
 31
0
  0
LINE
  8
0
 62
7
 10
0.9350000000000005
 20
4.753376618407357
 30
0
 11
1.071623381592644
 21
4.889999999999999
 31
0
  0
LINE
  8
0
 62
7
 10
1.043755415948606
 20
4.649999999999999
 30
0
 11
1.283755415948609
 21
4.889999999999999
 31
0
  0
LINE
  8
0
 62
7
 10
1.1
 20
4.494112549695427
 30
0
 11
1.495887450304573
 21
4.889999999999999
 31
0
  0
LINE
  8
0
 62
7
 10
1.468019484660537
 20
4.649999999999999
 30
0
 11
1.708019484660537
 21
4.889999999999999
 31
0
  0
LINE
  8
0
 62
7
 10
1.1
 20
4.281980515339463
 30
0
 11
1.275
 21
4.456980515339462
 31
0
  0
LINE
  8
0
 62
7
 10
1.680151519016502
 20
4.649999999999999
 30
0
 11
1.920151519016501
 21
4.889999999999999
 31
0
  0
LINE
  8
0
 62
7
 10
1.1
 20
4.0698484809835
 30
0
 11
1.275
 21
4.244848480983499
 31
0
  0
LINE
  8
0
 62
7
 10
1.892283553372466
 20
4.649999999999999
 30
0
 11
2.132283553372466
 21
4.889999999999999
 31
0
  0
LINE
  8
0
 62
7
 10
1.1
 20
3.857716446627535
 30
0
 11
1.275
 21
4.032716446627535
 31
0
  0
LINE
  8
0
 62
7
 10
2.10441558772843
 20
4.649999999999999
 30
0
 11
2.34441558772843
 21
4.889999999999999
 31
0
  0
LINE
  8
0
 62
7
 10
1.1
 20
3.645584412271571
 30
0
 11
1.275
 21
3.820584412271571
 31
0
  0
LINE
  8
0
 62
7
 10
2.316547622084395
 20
4.649999999999999
 30
0
 11
2.556547622084394
 21
4.889999999999999
 31
0
  0
LINE
  8
0
 62
7
 10
1.1
 20
3.433452377915607
 30
0
 11
1.275
 21
3.608452377915607
 31
0
  0
LINE
  8
0
 62
7
 10
2.528679656440359
 20
4.649999999999999
 30
0
 11
2.768679656440359
 21
4.889999999999999
 31
0
  0
LINE
  8
0
 62
7
 10
1.228679656440357
 20
3.35
 30
0
 11
1.275
 21
3.396320343559642
 31
0
  0
LINE
  8
0
 62
7
 10
2.740811690796323
 20
4.649999999999999
 30
0
 11
2.980811690796323
 21
4.889999999999999
 31
0
  0
LINE
  8
0
 62
7
 10
2.952943725152287
 20
4.649999999999999
 30
0
 11
3.192943725152287
 21
4.889999999999999
 31
0
  0
LINE
  8
0
 62
7
 10
3.165075759508252
 20
4.649999999999999
 30
0
 11
3.405075759508251
 21
4.889999999999999
 31
0
  0
LINE
  8
0
 62
7
 10
3.377207793864216
 20
4.649999999999999
 30
0
 11
3.617207793864216
 21
4.889999999999999
 31
0
  0
LINE
  8
0
 62
7
 10
3.58933982822018
 20
4.649999999999999
 30
0
 11
3.82933982822018
 21
4.889999999999999
 31
0
  0
LINE
  8
0
 62
7
 10
3.801471862576145
 20
4.649999999999999
 30
0
 11
4.041471862576144
 21
4.889999999999999
 31
0
  0
LINE
  8
0
 62
7
 10
4.013603896932109
 20
4.649999999999999
 30
0
 11
4.253603896932108
 21
4.889999999999999
 31
0
  0
LINE
  8
0
 62
7
 10
4.225735931288073
 20
4.649999999999999
 30
0
 11
4.465735931288072
 21
4.889999999999999
 31
0
  0
LINE
  8
0
 62
7
 10
4.437867965644037
 20
4.649999999999999
 30
0
 11
4.677867965644036
 21
4.889999999999999
 31
0
  0
LINE
  8
0
 62
7
 10
4.65
 20
4.649999999999999
 30
0
 11
4.89
 21
4.889999999999999
 31
0
  0
LINE
  8
0
 62
7
 10
4.862132034355963
 20
4.649999999999999
 30
0
 11
4.984999999999998
 21
4.772867965644033
 31
0
  0
LINE
  8
0
 62
7
 10
4.659999999999997
 20
4.447867965644034
 30
0
 11
4.834999999999997
 21
4.622867965644031
 31
0
  0
LINE
  8
0
 62
7
 10
4.659999999999999
 20
4.235735931288071
 30
0
 11
4.834999999999997
 21
4.410735931288067
 31
0
  0
LINE
  8
0
 62
7
 10
4.660000000000001
 20
4.023603896932108
 30
0
 11
4.834999999999997
 21
4.198603896932103
 31
0
  0
LINE
  8
0
 62
7
 10
4.660000000000003
 20
3.811471862576145
 30
0
 11
4.834999999999997
 21
3.986471862576139
 31
0
  0
LINE
  8
0
 62
7
 10
4.660000000000005
 20
3.599339828220183
 30
0
 11
4.834999999999997
 21
3.774339828220175
 31
0
  0
LINE
  8
0
 62
7
 10
4.660000000000006
 20
3.38720779386422
 30
0
 11
4.834999999999997
 21
3.562207793864211
 31
0
  0
LINE
  8
0
 62
7
 10
4.73492424049175
 20
3.25
 30
0
 11
4.834999999999997
 21
3.350075759508246
 31
0
  0
ENDBLK
  8
0
  0
BLOCK
  8
0
  2
*D0
 70
1
 10
0
 20
0
 30
0
  0
LINE
  8
0
 62
7
 10
0.795814838897401
 20
4.34136233449725
 30
0
 11
0.795814838897401
 21
4.649999999999999
 31
0
  0
LINE
  8
0
 62
7
 10
0.795814838897401
 20
3.35
 30
0
 11
0.795814838897401
 21
3.68636233449725
 31
0
  0
LINE
  8
0
 62
7
 10
1.1
 20
4.649999999999999
 30
0
 11
0.745814838897401
 21
4.649999999999999
 31
0
  0
LINE
  8
0
 62
7
 10
1.1
 20
3.35
 30
0
 11
0.745814838897401
 21
3.35
 31
0
  0
LINE
  8
0
 62
7
 10
0.8311701779567284
 20
4.614644660940672
 30
0
 11
0.7604594998380736
 21
4.685355339059327
 31
0
  0
LINE
  8
0
 62
7
 10
0.7604594998380736
 20
3.385355339059327
 30
0
 11
0.8311701779567284
 21
3.314644660940672
 31
0
  0
TEXT
  8
0
 62
7
 10
0.8408148388974011
 20
3.93636233449725
 30
0
 40
0.1
  1
1,3
 50
90
 41
0.9
  0
ENDBLK
  8
0
  0
BLOCK
  8
0
  2
*D1
 70
1
 10
0
 20
0
 30
0
  0
LINE
  8
0
 62
7
 10
3.42260131110543
 20
5.55699757182195
 30
0
 11
4.659999999999997
 21
5.55699757182195
 31
0
  0
LINE
  8
0
 62
7
 10
1.275
 20
5.55699757182195
 30
0
 11
2.64760131110543
 21
5.55699757182195
 31
0
  0
LINE
  8
0
 62
7
 10
4.659999999999997
 20
5.169999999999995
 30
0
 11
4.659999999999997
 21
5.60699757182195
 31
0
  0
LINE
  8
0
 62
7
 10
1.275
 20
5.169999999999995
 30
0
 11
1.275
 21
5.60699757182195
 31
0
  0
LINE
  8
0
 62
7
 10
4.624644660940669
 20
5.521642232762622
 30
0
 11
4.695355339059324
 21
5.592352910881277
 31
0
  0
LINE
  8
0
 62
7
 10
1.310355339059327
 20
5.592352910881277
 30
0
 11
1.239644660940673
 21
5.521642232762622
 31
0
  0
TEXT
  8
0
 62
7
 10
2.89760131110543
 20
5.51199757182195
 30
0
 40
0.1
  1
3,39
 41
0.9
  0
ENDBLK
  8
0
  0
BLOCK
  8
0
  2
*D2
 70
1
 10
0
 20
0
 30
0
  0
LINE
  8
0
 62
7
 10
5.14676005691819
 20
4.29495225217169
 30
0
 11
5.14676005691819
 21
4.649999999999999
 31
0
  0
LINE
  8
0
 62
7
 10
5.14676005691819
 20
3.25
 30
0
 11
5.14676005691819
 21
3.63995225217169
 31
0
  0
LINE
  8
0
 62
7
 10
4.834999999999997
 20
4.649999999999999
 30
0
 11
5.19676005691819
 21
4.649999999999999
 31
0
  0
LINE
  8
0
 62
7
 10
4.834999999999997
 20
3.25
 30
0
 11
5.19676005691819
 21
3.25
 31
0
  0
LINE
  8
0
 62
7
 10
5.111404717858862
 20
3.285355339059327
 30
0
 11
5.182115395977517
 21
3.214644660940672
 31
0
  0
LINE
  8
0
 62
7
 10
5.182115395977517
 20
4.614644660940671
 30
0
 11
5.111404717858862
 21
4.685355339059326
 31
0
  0
TEXT
  8
0
 62
7
 10
5.19176005691819
 20
3.88995225217169
 30
0
 40
0.1
  1
1,4
 50
90
 41
0.9
  0
ENDBLK
  8
0
  0
BLOCK
  8
0
  2
*D3
 70
1
 10
0
 20
0
 30
0
  0
LINE
  8
0
 62
7
 10
3.36099879052404
 20
11.497488109493
 30
0
 11
4.659999999999997
 21
11.497488109493
 31
0
  0
LINE
  8
0
 62
7
 10
1.275
 20
11.497488109493
 30
0
 11
2.68599879052404
 21
11.497488109493
 31
0
  0
LINE
  8
0
 62
7
 10
4.659999999999997
 20
11.2
 30
0
 11
4.659999999999997
 21
11.547488109493
 31
0
  0
LINE
  8
0
 62
7
 10
1.275
 20
11.2
 30
0
 11
1.275
 21
11.547488109493
 31
0
  0
LINE
  8
0
 62
7
 10
1.310355339059327
 20
11.53284344855233
 30
0
 11
1.239644660940673
 21
11.46213277043367
 31
0
  0
LINE
  8
0
 62
7
 10
4.624644660940669
 20
11.46213277043367
 30
0
 11
4.695355339059324
 21
11.53284344855233
 31
0
  0
TEXT
  8
0
 62
7
 10
2.88599879052404
 20
11.452488109493
 30
0
 40
0.1
  1
3,39
 41
0.9
  0
ENDBLK
  8
0
  0
BLOCK
  8
0
  2
*D4
 70
1
 10
0
 20
0
 30
0
  0
LINE
  8
0
 62
7
 10
0.5521619066882369
 20
10.19268733705218
 30
0
 11
0.5521619066882369
 21
11.05
 31
0
  0
LINE
  8
0
 62
7
 10
0.5521619066882369
 20
8.299999999999997
 30
0
 11
0.5521619066882369
 21
9.112687337052179
 31
0
  0
LINE
  8
0
 62
7
 10
0.9500000000000001
 20
11.05
 30
0
 11
0.5021619066882369
 21
11.05
 31
0
  0
LINE
  8
0
 62
7
 10
0.9500000000000001
 20
8.299999999999997
 30
0
 11
0.5021619066882369
 21
8.299999999999997
 31
0
  0
LINE
  8
0
 62
7
 10
0.5168065676289095
 20
8.335355339059324
 30
0
 11
0.5875172457475644
 21
8.26464466094067
 31
0
  0
LINE
  8
0
 62
7
 10
0.5875172457475644
 20
11.01464466094067
 30
0
 11
0.5168065676289095
 21
11.08535533905933
 31
0
  0
TEXT
  8
0
 62
7
 10
0.5221619066882369
 20
9.515187337052181
 30
0
 40
0.1
  1
2,75
 50
90
 41
0.9
  0
TEXT
  8
0
 62
7
 10
0.682161906688237
 20
9.31268733705218
 30
0
 40
0.1
  1
(260-280)
 50
90
 41
0.9
  0
ENDBLK
  8
0
  0
ENDSEC
  0
SECTION
  2
ENTITIES
  0
INSERT
  8
0
  2
*X0
 10
0
 20
0
 30
0
  0
INSERT
  8
0
  2
*X1
 10
0
 20
0
 30
0
  0
INSERT
  8
0
  2
*X2
 10
0
 20
0
 30
0
  0
INSERT
  8
0
  2
*X3
 10
0
 20
0
 30
0
  0
INSERT
  8
0
  2
*X4
 10
0
 20
0
 30
0
  0
INSERT
  8
0
  2
*X5
 10
0
 20
0
 30
0
  0
INSERT
  8
0
  2
*X6
 10
0
 20
0
 30
0
  0
INSERT
  8
0
  2
*X7
 10
0
 20
0
 30
0
  0
INSERT
  8
0
  2
*X8
 10
0
 20
0
 30
0
  0
INSERT
  8
0
  2
*X9
 10
0
 20
0
 30
0
  0
INSERT
  8
0
  2
*X10
 10
0
 20
0
 30
0
  0
INSERT
  8
0
  2
*X11
 10
0
 20
0
 30
0
  0
INSERT
  8
0
  2
*X12
 10
0
 20
0
 30
0
  0
INSERT
  8
0
  2
*X13
 10
0
 20
0
 30
0
  0
INSERT
  8
0
  2
*X14
 10
0
 20
0
 30
0
  0
INSERT
  8
0
  2
*X15
 10
0
 20
0
 30
0
  0
INSERT
  8
0
  2
*X16
 10
0
 20
0
 30
0
  0
LINE
  8
0
 62
7
 10
2.279999999999997
 20
3.42076541699398
 30
0
 11
2.279999999999997
 21
3.568981833730011
 31
0
  0
LINE
  8
0
 62
7
 10
2.279999999999997
 20
3.568981833730011
 30
0
 11
2.346337876051548
 21
3.615
 31
0
  0
LINE
  8
0
 62
7
 10
2.444094908936237
 20
3.615
 30
0
 11
2.545671852094496
 21
3.615
 31
0
  0
LINE
  8
0
 62
7
 10
2.346337876051548
 20
3.615
 30
0
 11
2.545671852094496
 21
3.615
 31
0
  0
LINE
  8
0
 62
7
 10
3.372662132465626
 20
3.615
 30
0
 11
3.586429207984459
 21
3.615
 31
0
  0
LINE
  8
0
 62
7
 10
3.586429207984459
 20
3.615
 30
0
 11
3.654999999999998
 21
3.573404998151996
 31
0
  0
LINE
  8
0
 62
7
 10
3.654999999999998
 20
3.520869827898459
 30
0
 11
3.654999999999998
 21
3.429889411054701
 31
0
  0
LINE
  8
0
 62
7
 10
3.654999999999998
 20
3.573404998151996
 30
0
 11
3.654999999999998
 21
3.429889411054701
 31
0
  0
LINE
  8
0
 62
7
 10
4.604999999999998
 20
3.25
 30
0
 11
4.604999999999998
 21
3.66147531520036
 31
0
  0
LINE
  8
0
 62
7
 10
3.654999999999998
 20
3.429889411054701
 30
0
 11
3.654999999999998
 21
3.25
 31
0
  0
LINE
  8
0
 62
7
 10
3.654999999999998
 20
3.25
 30
0
 11
4.604999999999998
 21
3.25
 31
0
  0
LINE
  8
0
 62
7
 10
4.604999999999998
 20
3.5704948983566
 30
0
 11
4.604999999999998
 21
4.066139971582671
 31
0
  0
LINE
  8
0
 62
7
 10
3.654999999999998
 20
3.429889411054701
 30
0
 11
4.604999999999998
 21
3.5704948983566
 31
0
  0
LINE
  8
0
 62
7
 10
4.604999999999998
 20
3.967095033480571
 30
0
 11
4.604999999999998
 21
4.590063690236431
 31
0
  0
LINE
  8
0
 62
7
 10
3.654999999999998
 20
3.573404998151996
 30
0
 11
3.695140592411377
 21
3.549055738555389
 31
0
  0
LINE
  8
0
 62
7
 10
3.695140592411377
 20
3.549055738555389
 30
0
 11
4.604999999999998
 21
3.967095033480571
 31
0
  0
LINE
  8
0
 62
7
 10
4.604999999999998
 20
4.47190632884169
 30
0
 11
4.604999999999998
 21
4.594999999999999
 31
0
  0
LINE
  8
0
 62
7
 10
4.604999999999998
 20
4.594999999999999
 30
0
 11
4.020804919729957
 21
4.594999999999999
 31
0
  0
LINE
  8
0
 62
7
 10
3.586429207984459
 20
3.615
 30
0
 11
3.597641639235548
 21
3.615
 31
0
  0
LINE
  8
0
 62
7
 10
3.597641639235548
 20
3.615
 30
0
 11
4.604999999999998
 21
4.47190632884169
 31
0
  0
LINE
  8
0
 62
7
 10
4.128707770898138
 20
4.594999999999999
 30
0
 11
3.632093101448167
 21
4.594999999999999
 31
0
  0
LINE
  8
0
 62
7
 10
3.261949491144717
 20
3.615
 30
0
 11
3.480564983633807
 21
3.615
 31
0
  0
LINE
  8
0
 62
7
 10
3.480564983633807
 20
3.615
 30
0
 11
4.128707770898138
 21
4.594999999999999
 31
0
  0
LINE
  8
0
 62
7
 10
3.728298658089718
 20
4.594999999999999
 30
0
 11
3.265048035434647
 21
4.594999999999999
 31
0
  0
LINE
  8
0
 62
7
 10
3.146404799086927
 20
3.615
 30
0
 11
3.358155047786258
 21
3.615
 31
0
  0
LINE
  8
0
 62
7
 10
3.358155047786258
 20
3.615
 30
0
 11
3.728298658089718
 21
4.594999999999999
 31
0
  0
LINE
  8
0
 62
7
 10
3.355705184183807
 20
4.594999999999999
 30
0
 11
2.951881939966976
 21
4.594999999999709
 31
0
  0
LINE
  8
0
 62
7
 10
2.953463580775457
 20
3.61499999999971
 30
0
 11
3.237061947836077
 21
3.615
 31
0
  0
LINE
  8
0
 62
7
 10
3.237061947836077
 20
3.615
 30
0
 11
3.355705184183807
 21
4.594999999999999
 31
0
  0
LINE
  8
0
 62
7
 10
3.041882057179986
 20
4.594999999999999
 30
0
 11
2.636721558006188
 21
4.594999999999999
 31
0
  0
LINE
  8
0
 62
7
 10
2.759932736394488
 20
3.615
 30
0
 11
3.043463697988468
 21
3.615
 31
0
  0
LINE
  8
0
 62
7
 10
3.043463697988468
 20
3.615
 30
0
 11
3.041882057179986
 21
4.594999999999999
 31
0
  0
LINE
  8
0
 62
7
 10
2.727430081819937
 20
4.594999999999999
 30
0
 11
2.319544002385435
 21
4.594999999999999
 31
0
  0
LINE
  8
0
 62
7
 10
2.565805490685896
 20
3.615
 30
0
 11
2.850641260208228
 21
3.615
 31
0
  0
LINE
  8
0
 62
7
 10
2.850641260208228
 20
3.615
 30
0
 11
2.727430081819937
 21
4.594999999999999
 31
0
  0
LINE
  8
0
 62
7
 10
2.412342045009906
 20
4.594999999999999
 30
0
 11
1.931290044324349
 21
4.594999999999999
 31
0
  0
LINE
  8
0
 62
7
 10
2.545671852094496
 20
3.615
 30
0
 11
2.658603533310368
 21
3.615
 31
0
  0
LINE
  8
0
 62
7
 10
2.658603533310368
 20
3.615
 30
0
 11
2.412342045009906
 21
4.594999999999999
 31
0
  0
LINE
  8
0
 62
7
 10
2.032866987482606
 20
4.594999999999999
 30
0
 11
1.418696742558999
 21
4.594999999999999
 31
0
  0
LINE
  8
0
 62
7
 10
2.545671852094496
 20
3.615
 30
0
 11
2.032866987482606
 21
4.594999999999999
 31
0
  0
LINE
  8
0
 62
7
 10
1.54127193859276
 20
4.594999999999999
 30
0
 11
1.33
 21
4.594999999999999
 31
0
  0
LINE
  8
0
 62
7
 10
1.33
 20
4.594999999999999
 30
0
 11
1.33
 21
4.115342090834459
 31
0
  0
LINE
  8
0
 62
7
 10
2.346337876051548
 20
3.615
 30
0
 11
2.407900896487067
 21
3.65770587904086
 31
0
  0
LINE
  8
0
 62
7
 10
2.407900896487067
 20
3.65770587904086
 30
0
 11
1.54127193859276
 21
4.594999999999999
 31
0
  0
LINE
  8
0
 62
7
 10
1.33
 20
4.222160459949009
 30
0
 11
1.33
 21
3.678171148581151
 31
0
  0
LINE
  8
0
 62
7
 10
2.279999999999997
 20
3.568981833730011
 30
0
 11
2.279999999999997
 21
3.61485686753429
 31
0
  0
LINE
  8
0
 62
7
 10
2.279999999999997
 20
3.61485686753429
 30
0
 11
1.33
 21
4.222160459949009
 31
0
  0
LINE
  8
0
 62
7
 10
1.33
 20
3.77141634975313
 30
0
 11
1.33
 21
3.39
 31
0
  0
LINE
  8
0
 62
7
 10
2.279999999999997
 20
3.39
 30
0
 11
2.279999999999997
 21
3.51401061816596
 31
0
  0
LINE
  8
0
 62
7
 10
2.279999999999997
 20
3.51401061816596
 30
0
 11
1.33
 21
3.77141634975313
 31
0
  0
LINE
  8
0
 62
7
 10
1.738733361276081
 20
3.4
 30
0
 11
1.738733361276081
 21
3.6149999999897
 31
0
  0
LINE
  8
0
 62
7
 10
1.738733361276081
 20
3.4
 30
0
 11
1.633078262014376
 21
3.461
 31
0
  0
LINE
  8
0
 62
7
 10
1.633078262014376
 20
3.461
 30
0
 11
1.844388460537781
 21
3.461
 31
0
  0
LINE
  8
0
 62
7
 10
1.844388460537781
 20
3.461
 30
0
 11
1.738733361276081
 21
3.4
 31
0
  0
LINE
  8
0
 62
7
 10
2.280000000055026
 20
4.15626663872392
 30
0
 11
3.654999999989698
 21
4.15626663872392
 31
0
  0
LINE
  8
0
 62
7
 10
4.196266638723919
 20
3.615000000023911
 30
0
 11
4.196266638723919
 21
3.25
 31
0
  0
LINE
  8
0
 62
7
 10
6.559999809999997
 20
8.58333322666666
 30
0
 11
6.971474989999996
 21
8.58333322666666
 31
0
  0
LINE
  8
0
 62
7
 10
6.971474989999996
 20
8.518333226666661
 30
0
 11
6.559999809999997
 21
8.518333226666661
 31
0
  0
LINE
  8
0
 62
7
 10
6.559999809999997
 20
8.518333226666661
 30
0
 11
6.559999809999997
 21
8.58333322666666
 31
0
  0
LINE
  8
0
 62
7
 10
6.971474989999996
 20
8.58333322666666
 30
0
 11
6.971474989999996
 21
8.518333226666661
 31
0
  0
LINE
  8
0
 62
7
 10
7.376139679999999
 20
8.701666566666661
 30
0
 11
6.739888989999996
 21
8.701666566666661
 31
0
  0
LINE
  8
0
 62
7
 10
6.739888989999996
 20
8.766666566666663
 30
0
 11
7.376139679999999
 21
8.766666566666663
 31
0
  0
LINE
  8
0
 62
7
 10
6.739888989999996
 20
8.701666566666661
 30
0
 11
6.739888989999996
 21
8.766666566666663
 31
0
  0
LINE
  8
0
 62
7
 10
7.376139679999999
 20
8.766666566666663
 30
0
 11
7.376139679999999
 21
8.701666566666661
 31
0
  0
LINE
  8
0
 62
7
 10
7.900063329999999
 20
8.884999906666662
 30
0
 11
6.859055599999998
 21
8.884999906666662
 31
0
  0
LINE
  8
0
 62
7
 10
6.859055599999998
 20
8.949999906666664
 30
0
 11
7.900063329999999
 21
8.949999906666664
 31
0
  0
LINE
  8
0
 62
7
 10
6.859055599999998
 20
8.884999906666662
 30
0
 11
6.859055599999998
 21
8.949999906666664
 31
0
  0
LINE
  8
0
 62
7
 10
7.900063329999999
 20
8.949999906666664
 30
0
 11
7.900063329999999
 21
8.884999906666662
 31
0
  0
LINE
  8
0
 62
7
 10
6.924999729999996
 20
9.133333226666663
 30
0
 11
7.904999849999998
 21
9.133333226666663
 31
0
  0
LINE
  8
0
 62
7
 10
7.904999849999998
 20
9.068333226666663
 30
0
 11
6.924999729999996
 21
9.068333226666663
 31
0
  0
LINE
  8
0
 62
7
 10
6.924999729999996
 20
9.068333226666663
 30
0
 11
6.924999729999996
 21
9.133333226666663
 31
0
  0
LINE
  8
0
 62
7
 10
7.904999849999998
 20
9.133333226666663
 30
0
 11
7.904999849999998
 21
9.068333226666663
 31
0
  0
LINE
  8
0
 62
7
 10
6.924999849999996
 20
9.316666586666662
 30
0
 11
7.904999849999998
 21
9.316666586666662
 31
0
  0
LINE
  8
0
 62
7
 10
6.924999849999996
 20
9.251666586666662
 30
0
 11
6.924999849999996
 21
9.316666586666662
 31
0
  0
LINE
  8
0
 62
7
 10
7.904999849999998
 20
9.316666586666662
 30
0
 11
7.904999849999998
 21
9.251666586666662
 31
0
  0
LINE
  8
0
 62
7
 10
7.904999849999998
 20
9.251666586666662
 30
0
 11
6.924999849999996
 21
9.251666586666662
 31
0
  0
LINE
  8
0
 62
7
 10
6.924999659999999
 20
9.499999946666664
 30
0
 11
7.904999999999998
 21
9.499999946666664
 31
0
  0
LINE
  8
0
 62
7
 10
6.924999659999999
 20
9.434999946666663
 30
0
 11
6.924999659999999
 21
9.499999946666664
 31
0
  0
LINE
  8
0
 62
7
 10
7.904999999999998
 20
9.499999946666664
 30
0
 11
7.904999999999998
 21
9.434999946666663
 31
0
  0
LINE
  8
0
 62
7
 10
7.904999999999998
 20
9.434999946666663
 30
0
 11
6.924999659999999
 21
9.434999946666663
 31
0
  0
LINE
  8
0
 62
7
 10
6.924999619999999
 20
9.683333226666662
 30
0
 11
7.904999999999998
 21
9.683333226666662
 31
0
  0
LINE
  8
0
 62
7
 10
6.924999619999999
 20
9.618333226666664
 30
0
 11
6.924999619999999
 21
9.683333226666662
 31
0
  0
LINE
  8
0
 62
7
 10
7.904999999999998
 20
9.683333226666662
 30
0
 11
7.904999999999998
 21
9.618333226666664
 31
0
  0
LINE
  8
0
 62
7
 10
7.904999999999998
 20
9.618333226666664
 30
0
 11
6.924999619999999
 21
9.618333226666664
 31
0
  0
LINE
  8
0
 62
7
 10
6.92499958
 20
9.866666666666664
 30
0
 11
7.904999849999998
 21
9.866666666666664
 31
0
  0
LINE
  8
0
 62
7
 10
6.92499958
 20
9.801666666666662
 30
0
 11
6.92499958
 21
9.866666666666664
 31
0
  0
LINE
  8
0
 62
7
 10
7.904999849999998
 20
9.866666666666664
 30
0
 11
7.904999849999998
 21
9.801666666666662
 31
0
  0
LINE
  8
0
 62
7
 10
7.904999849999998
 20
9.801666666666662
 30
0
 11
6.92499958
 21
9.801666666666662
 31
0
  0
LINE
  8
0
 62
7
 10
6.924999849999996
 20
10.04999994666666
 30
0
 11
7.904999999999998
 21
10.04999994666666
 31
0
  0
LINE
  8
0
 62
7
 10
6.924999849999996
 20
9.984999946666663
 30
0
 11
6.924999849999996
 21
10.04999994666666
 31
0
  0
LINE
  8
0
 62
7
 10
7.904999999999998
 20
10.04999994666666
 30
0
 11
7.904999999999998
 21
9.984999946666663
 31
0
  0
LINE
  8
0
 62
7
 10
7.904999999999998
 20
9.984999946666663
 30
0
 11
6.924999849999996
 21
9.984999946666663
 31
0
  0
LINE
  8
0
 62
7
 10
6.924999769999997
 20
10.23333322666666
 30
0
 11
7.904999999999998
 21
10.23333322666666
 31
0
  0
LINE
  8
0
 62
7
 10
6.924999769999997
 20
10.16833322666666
 30
0
 11
6.924999769999997
 21
10.23333322666666
 31
0
  0
LINE
  8
0
 62
7
 10
7.904999999999998
 20
10.23333322666666
 30
0
 11
7.904999999999998
 21
10.16833322666666
 31
0
  0
LINE
  8
0
 62
7
 10
7.904999999999998
 20
10.16833322666666
 30
0
 11
6.924999769999997
 21
10.16833322666666
 31
0
  0
LINE
  8
0
 62
7
 10
6.924999999999997
 20
10.41666666666666
 30
0
 11
7.904999849999998
 21
10.41666666666666
 31
0
  0
LINE
  8
0
 62
7
 10
6.924999999999997
 20
10.35166666666666
 30
0
 11
6.924999999999997
 21
10.41666666666666
 31
0
  0
LINE
  8
0
 62
7
 10
7.904999849999998
 20
10.41666666666666
 30
0
 11
7.904999849999998
 21
10.35166666666666
 31
0
  0
LINE
  8
0
 62
7
 10
7.904999849999998
 20
10.35166666666666
 30
0
 11
6.924999999999997
 21
10.35166666666666
 31
0
  0
LINE
  8
0
 62
7
 10
7.904999539999996
 20
10.53499994666666
 30
0
 11
6.847265819999999
 21
10.53499994666666
 31
0
  0
LINE
  8
0
 62
7
 10
6.847265819999999
 20
10.59999994666666
 30
0
 11
7.904999539999996
 21
10.59999994666666
 31
0
  0
LINE
  8
0
 62
7
 10
6.847265819999999
 20
10.53499994666666
 30
0
 11
6.847265819999999
 21
10.59999994666666
 31
0
  0
LINE
  8
0
 62
7
 10
7.904999539999996
 20
10.59999994666666
 30
0
 11
7.904999539999996
 21
10.53499994666666
 31
0
  0
LINE
  8
0
 62
7
 10
7.53215973
 20
10.71833322666666
 30
0
 11
6.730765119999998
 21
10.71833322666666
 31
0
  0
LINE
  8
0
 62
7
 10
6.730765119999998
 20
10.78333322666666
 30
0
 11
7.53215973
 21
10.78333322666666
 31
0
  0
LINE
  8
0
 62
7
 10
6.730765119999998
 20
10.71833322666666
 30
0
 11
6.730765119999998
 21
10.78333322666666
 31
0
  0
LINE
  8
0
 62
7
 10
7.53215973
 20
10.78333322666666
 30
0
 11
7.53215973
 21
10.71833322666666
 31
0
  0
LINE
  8
0
 62
7
 10
6.699999469999998
 20
10.96666666666666
 30
0
 11
7.081415329999996
 21
10.96666666666666
 31
0
  0
LINE
  8
0
 62
7
 10
7.081415329999996
 20
10.90166666666666
 30
0
 11
6.699999469999998
 21
10.90166666666666
 31
0
  0
LINE
  8
0
 62
7
 10
6.699999469999998
 20
10.90166666666666
 30
0
 11
6.699999469999998
 21
10.96666666666666
 31
0
  0
LINE
  8
0
 62
7
 10
7.081415329999996
 20
10.96666666666666
 30
0
 11
7.081415329999996
 21
10.90166666666666
 31
0
  0
LINE
  8
0
 62
7
 10
3.654999689999997
 20
8.583333226666662
 30
0
 11
4.605000230000007
 21
8.583333226666662
 31
0
  0
LINE
  8
0
 62
7
 10
4.605000230000007
 20
8.583333226666662
 30
0
 11
4.605000230000007
 21
8.518333226666662
 31
0
  0
LINE
  8
0
 62
7
 10
3.654999689999997
 20
8.518333226666662
 30
0
 11
3.654999689999997
 21
8.583333226666662
 31
0
  0
LINE
  8
0
 62
7
 10
4.605000230000007
 20
8.518333226666662
 30
0
 11
3.654999689999997
 21
8.518333226666662
 31
0
  0
LINE
  8
0
 62
7
 10
3.654999769999997
 20
8.766666566666663
 30
0
 11
4.604999810000008
 21
8.766666566666663
 31
0
  0
LINE
  8
0
 62
7
 10
4.604999810000008
 20
8.766666566666663
 30
0
 11
4.604999810000008
 21
8.701666566666661
 31
0
  0
LINE
  8
0
 62
7
 10
3.654999769999997
 20
8.701666566666661
 30
0
 11
3.654999769999997
 21
8.766666566666663
 31
0
  0
LINE
  8
0
 62
7
 10
4.604999810000008
 20
8.701666566666661
 30
0
 11
3.654999769999997
 21
8.701666566666661
 31
0
  0
LINE
  8
0
 62
7
 10
3.511891479999997
 20
8.949999906666664
 30
0
 11
4.604999810000008
 21
8.949999906666664
 31
0
  0
LINE
  8
0
 62
7
 10
4.604999810000008
 20
8.884999906666662
 30
0
 11
3.511891479999997
 21
8.884999906666662
 31
0
  0
LINE
  8
0
 62
7
 10
4.604999810000008
 20
8.949999906666664
 30
0
 11
4.604999810000008
 21
8.884999906666662
 31
0
  0
LINE
  8
0
 62
7
 10
3.511891479999997
 20
8.884999906666662
 30
0
 11
3.511891479999997
 21
8.949999906666664
 31
0
  0
LINE
  8
0
 62
7
 10
4.604999829999997
 20
9.068333226666663
 30
0
 11
3.372661900000007
 21
9.068333226666663
 31
0
  0
LINE
  8
0
 62
7
 10
3.372661900000007
 20
9.133333226666663
 30
0
 11
4.604999829999997
 21
9.133333226666663
 31
0
  0
LINE
  8
0
 62
7
 10
4.604999829999997
 20
9.133333226666663
 30
0
 11
4.604999829999997
 21
9.068333226666663
 31
0
  0
LINE
  8
0
 62
7
 10
3.372661900000007
 20
9.068333226666663
 30
0
 11
3.372661900000007
 21
9.133333226666663
 31
0
  0
LINE
  8
0
 62
7
 10
4.128707579999997
 20
9.251666586666662
 30
0
 11
3.261949459999999
 21
9.251666586666662
 31
0
  0
LINE
  8
0
 62
7
 10
3.261949459999999
 20
9.316666586666662
 30
0
 11
4.128707579999997
 21
9.316666586666662
 31
0
  0
LINE
  8
0
 62
7
 10
4.128707579999997
 20
9.316666586666662
 30
0
 11
4.128707579999997
 21
9.251666586666662
 31
0
  0
LINE
  8
0
 62
7
 10
3.261949459999999
 20
9.251666586666662
 30
0
 11
3.261949459999999
 21
9.316666586666662
 31
0
  0
LINE
  8
0
 62
7
 10
3.728298489999997
 20
9.434999946666663
 30
0
 11
3.146404719999997
 21
9.434999946666663
 31
0
  0
LINE
  8
0
 62
7
 10
3.146404719999997
 20
9.499999946666664
 30
0
 11
3.728298489999997
 21
9.499999946666664
 31
0
  0
LINE
  8
0
 62
7
 10
3.728298489999997
 20
9.499999946666664
 30
0
 11
3.728298489999997
 21
9.434999946666663
 31
0
  0
LINE
  8
0
 62
7
 10
3.146404719999997
 20
9.434999946666663
 30
0
 11
3.146404719999997
 21
9.499999946666664
 31
0
  0
LINE
  8
0
 62
7
 10
2.953463439999998
 20
9.618333226666664
 30
0
 11
2.951881869999997
 21
9.618333226666664
 31
0
  0
LINE
  8
0
 62
7
 10
2.953463439999998
 20
9.683333226666662
 30
0
 11
3.355704960000007
 21
9.683333226666662
 31
0
  0
LINE
  8
0
 62
7
 10
2.953463439999998
 20
9.618333226666664
 30
0
 11
2.953463439999998
 21
9.683333226666662
 31
0
  0
LINE
  8
0
 62
7
 10
3.355704960000007
 20
9.618333226666664
 30
0
 11
2.953463439999998
 21
9.618333226666664
 31
0
  0
LINE
  8
0
 62
7
 10
3.355704960000007
 20
9.683333226666662
 30
0
 11
3.355704960000007
 21
9.618333226666664
 31
0
  0
LINE
  8
0
 62
7
 10
2.951881869999997
 20
9.683333226666662
 30
0
 11
2.953463439999998
 21
9.683333226666662
 31
0
  0
LINE
  8
0
 62
7
 10
2.951881869999997
 20
9.618333226666664
 30
0
 11
2.951881869999997
 21
9.683333226666662
 31
0
  0
LINE
  8
0
 62
7
 10
3.041881869999997
 20
9.801666666666662
 30
0
 11
2.636721339999996
 21
9.801666666666662
 31
0
  0
LINE
  8
0
 62
7
 10
2.636721339999996
 20
9.866666666666664
 30
0
 11
3.041881869999997
 21
9.866666666666664
 31
0
  0
LINE
  8
0
 62
7
 10
3.041881869999997
 20
9.866666666666664
 30
0
 11
3.043463439999998
 21
9.866666666666664
 31
0
  0
LINE
  8
0
 62
7
 10
3.041881869999997
 20
9.801666666666662
 30
0
 11
3.041881869999997
 21
9.866666666666664
 31
0
  0
LINE
  8
0
 62
7
 10
3.043463439999998
 20
9.866666666666664
 30
0
 11
3.043463439999998
 21
9.801666666666662
 31
0
  0
LINE
  8
0
 62
7
 10
2.636721339999996
 20
9.801666666666662
 30
0
 11
2.636721339999996
 21
9.866666666666664
 31
0
  0
LINE
  8
0
 62
7
 10
3.043463439999998
 20
9.801666666666662
 30
0
 11
3.041881869999997
 21
9.801666666666662
 31
0
  0
LINE
  8
0
 62
7
 10
2.850641329999999
 20
9.984999946666663
 30
0
 11
2.319543610000006
 21
9.984999946666663
 31
0
  0
LINE
  8
0
 62
7
 10
2.319543610000006
 20
10.04999994666666
 30
0
 11
2.850641329999999
 21
10.04999994666666
 31
0
  0
LINE
  8
0
 62
7
 10
2.850641329999999
 20
10.04999994666666
 30
0
 11
2.850641329999999
 21
9.984999946666663
 31
0
  0
LINE
  8
0
 62
7
 10
2.319543610000006
 20
9.984999946666663
 30
0
 11
2.319543610000006
 21
10.04999994666666
 31
0
  0
LINE
  8
0
 62
7
 10
2.658603669999998
 20
10.16833322666666
 30
0
 11
1.931289980000001
 21
10.16833322666666
 31
0
  0
LINE
  8
0
 62
7
 10
1.931289980000001
 20
10.23333322666666
 30
0
 11
2.658603669999998
 21
10.23333322666666
 31
0
  0
LINE
  8
0
 62
7
 10
2.658603669999998
 20
10.23333322666666
 30
0
 11
2.658603669999998
 21
10.16833322666666
 31
0
  0
LINE
  8
0
 62
7
 10
1.931289980000001
 20
10.16833322666666
 30
0
 11
1.931289980000001
 21
10.23333322666666
 31
0
  0
LINE
  8
0
 62
7
 10
2.545671539999998
 20
10.35166666666666
 30
0
 11
1.41869659
 21
10.35166666666666
 31
0
  0
LINE
  8
0
 62
7
 10
1.41869659
 20
10.41666666666666
 30
0
 11
2.545671539999998
 21
10.41666666666666
 31
0
  0
LINE
  8
0
 62
7
 10
2.545671539999998
 20
10.41666666666666
 30
0
 11
2.545671539999998
 21
10.35166666666666
 31
0
  0
LINE
  8
0
 62
7
 10
1.41869659
 20
10.35166666666666
 30
0
 11
1.41869659
 21
10.41666666666666
 31
0
  0
LINE
  8
0
 62
7
 10
2.407900699999997
 20
10.53499994666666
 30
0
 11
1.33
 21
10.53499994666666
 31
0
  0
LINE
  8
0
 62
7
 10
1.33
 20
10.59999994666666
 30
0
 11
2.407900699999997
 21
10.59999994666666
 31
0
  0
LINE
  8
0
 62
7
 10
2.407900699999997
 20
10.59999994666666
 30
0
 11
2.407900699999997
 21
10.53499994666666
 31
0
  0
LINE
  8
0
 62
7
 10
1.33
 20
10.53499994666666
 30
0
 11
1.33
 21
10.59999994666666
 31
0
  0
LINE
  8
0
 62
7
 10
1.33
 20
10.78333322666666
 30
0
 11
2.279999999999997
 21
10.78333322666666
 31
0
  0
LINE
  8
0
 62
7
 10
2.279999999999997
 20
10.78333322666666
 30
0
 11
2.279999999999997
 21
10.71833322666666
 31
0
  0
LINE
  8
0
 62
7
 10
1.33
 20
10.71833322666666
 30
0
 11
1.33
 21
10.78333322666666
 31
0
  0
LINE
  8
0
 62
7
 10
2.279999999999997
 20
10.71833322666666
 30
0
 11
1.33
 21
10.71833322666666
 31
0
  0
LINE
  8
0
 62
7
  6
DASHED
 10
1.33
 20
10.96666666666666
 30
0
 11
2.279999999999997
 21
10.96666666666666
 31
0
  0
LINE
  8
0
 62
7
  6
DASHED
 10
2.279999999999997
 20
10.96666666666666
 30
0
 11
2.279999999999997
 21
10.90166666666666
 31
0
  0
LINE
  8
0
 62
7
  6
DASHED
 10
1.33
 20
10.90166666666666
 30
0
 11
1.33
 21
10.96666666666666
 31
0
  0
LINE
  8
0
 62
7
  6
DASHED
 10
2.279999999999997
 20
10.90166666666666
 30
0
 11
1.33
 21
10.90166666666666
 31
0
  0
LINE
  8
0
 62
7
  6
DASHDOT
 10
1.1
 20
5.319999999999996
 30
0
 11
1.275
 21
5.319999999999996
 31
0
  0
LINE
  8
0
 62
7
  6
DASHDOT
 10
1.05
 20
5.319999999999996
 30
0
 11
1.1
 21
5.319999999999996
 31
0
  0
LINE
  8
0
 62
7
  6
DASHDOT
 10
4.984999999999998
 20
4.649999999999999
 30
0
 11
4.984999999999998
 21
4.89
 31
0
  0
LINE
  8
0
 62
7
  6
DASHDOT
 10
0.9350000000000001
 20
4.649999999999999
 30
0
 11
0.9350000000000001
 21
4.89
 31
0
  0
LINE
  8
0
 62
7
  6
DASHDOT
 10
4.984999999999998
 20
4.89
 30
0
 11
4.984999999999998
 21
4.93
 31
0
  0
LINE
  8
0
 62
7
  6
DASHDOT
 10
0.9350000000000001
 20
4.89
 30
0
 11
0.9350000000000001
 21
4.93
 31
0
  0
LINE
  8
0
 62
7
  6
DASHDOT
 10
4.984999999999998
 20
4.6
 30
0
 11
4.984999999999998
 21
4.649999999999999
 31
0
  0
LINE
  8
0
 62
7
  6
DASHDOT
 10
4.984999999999998
 20
4.93
 30
0
 11
4.984999999999998
 21
5.169999999999995
 31
0
  0
LINE
  8
0
 62
7
  6
DASHDOT
 10
4.609999999999998
 20
5.319999999999996
 30
0
 11
4.659999999999997
 21
5.319999999999996
 31
0
  0
LINE
  8
0
 62
7
  6
DASHDOT
 10
4.659999999999997
 20
5.319999999999996
 30
0
 11
4.834999999999997
 21
5.319999999999996
 31
0
  0
LINE
  8
0
 62
7
  6
DASHDOT
 10
0.9350000000000001
 20
4.6
 30
0
 11
0.9350000000000001
 21
4.649999999999999
 31
0
  0
LINE
  8
0
 62
7
  6
DASHDOT
 10
0.9350000000000001
 20
4.93
 30
0
 11
0.9350000000000001
 21
5.169999999999995
 31
0
  0
LINE
  8
0
 62
7
  6
DASHDOT
 10
0.9350000000000001
 20
5.169999999999995
 30
0
 11
0.9350000000000001
 21
5.219999999999995
 31
0
  0
LINE
  8
0
 62
7
  6
DASHDOT
 10
4.984999999999998
 20
5.169999999999995
 30
0
 11
4.984999999999998
 21
5.219999999999995
 31
0
  0
LINE
  8
0
 62
7
  6
DASHDOT
 10
1.275
 20
5.319999999999996
 30
0
 11
1.325
 21
5.319999999999996
 31
0
  0
LINE
  8
0
 62
7
  6
DASHDOT
 10
4.834999999999997
 20
5.319999999999996
 30
0
 11
4.884999999999998
 21
5.319999999999996
 31
0
  0
LINE
  8
0
 62
7
 10
4.660000000000006
 20
3.4
 30
0
 11
4.660000000000006
 21
3.35
 31
0
  0
LINE
  8
0
 62
7
  6
DASHDOT
 10
4.660000000000006
 20
3.35
 30
0
 11
1.275
 21
3.35
 31
0
  0
LINE
  8
0
 62
7
 10
1.275
 20
3.35
 30
0
 11
1.275
 21
3.4
 31
0
  0
LINE
  8
0
 62
7
 10
4.659999999999997
 20
4.649999999999999
 30
0
 11
4.660000000000006
 21
3.4
 31
0
  0
LINE
  8
0
 62
7
 10
4.660000000000006
 20
3.4
 30
0
 11
1.275
 21
3.4
 31
0
  0
LINE
  8
0
 62
7
 10
1.1
 20
3.35
 30
0
 11
1.275
 21
3.35
 31
0
  0
LINE
  8
0
 62
7
 10
0.9350000000000001
 20
4.649999999999999
 30
0
 11
1.1
 21
4.649999999999999
 31
0
  0
LINE
  8
0
 62
7
 10
1.1
 20
4.649999999999999
 30
0
 11
1.1
 21
3.35
 31
0
  0
LINE
  8
0
 62
7
 10
1.275
 20
3.4
 30
0
 11
1.275
 21
4.649999999999999
 31
0
  0
LINE
  8
0
 62
7
 10
1.275
 20
4.649999999999999
 30
0
 11
4.659999999999997
 21
4.649999999999999
 31
0
  0
LINE
  8
0
 62
7
 10
4.834999999999997
 20
3.25
 30
0
 11
4.834999999999997
 21
4.649999999999999
 31
0
  0
LINE
  8
0
 62
7
 10
4.659999999999997
 20
3.25
 30
0
 11
4.834999999999997
 21
3.25
 31
0
  0
LINE
  8
0
 62
7
 10
4.660000000000006
 20
3.35
 30
0
 11
4.659999999999997
 21
3.25
 31
0
  0
LINE
  8
0
 62
7
 10
4.834999999999997
 20
4.649999999999999
 30
0
 11
4.984999999999998
 21
4.649999999999999
 31
0
  0
LINE
  8
0
 62
7
 10
0.9350000000000001
 20
4.89
 30
0
 11
4.984999999999998
 21
4.89
 31
0
  0
LINE
  8
0
 62
7
 10
0.9350000000000001
 20
4.93
 30
0
 11
4.984999999999998
 21
4.93
 31
0
  0
LINE
  8
0
 62
7
 10
0.9350000000000001
 20
5.169999999999995
 30
0
 11
1.1
 21
5.169999999999995
 31
0
  0
LINE
  8
0
 62
7
 10
1.1
 20
5.169999999999995
 30
0
 11
1.1
 21
5.319999999999996
 31
0
  0
LINE
  8
0
 62
7
 10
1.275
 20
5.319999999999996
 30
0
 11
1.275
 21
5.169999999999995
 31
0
  0
LINE
  8
0
 62
7
 10
1.275
 20
5.169999999999995
 30
0
 11
4.659999999999997
 21
5.169999999999995
 31
0
  0
LINE
  8
0
 62
7
 10
4.659999999999997
 20
5.169999999999995
 30
0
 11
4.659999999999997
 21
5.319999999999996
 31
0
  0
LINE
  8
0
 62
7
 10
4.834999999999997
 20
5.319999999999996
 30
0
 11
4.834999999999997
 21
5.169999999999995
 31
0
  0
LINE
  8
0
 62
7
 10
4.834999999999997
 20
5.169999999999995
 30
0
 11
4.984999999999998
 21
5.169999999999995
 31
0
  0
LINE
  8
0
 62
7
  6
DASHED
 10
6.659999999999997
 20
8.099999999999996
 30
0
 11
7.959999999999997
 21
8.099999999999996
 31
0
  0
LINE
  8
0
 62
7
  6
DASHED
 10
6.659999999999997
 20
8.299999999999997
 30
0
 11
7.959999999999997
 21
8.299999999999997
 31
0
  0
LINE
  8
0
 62
7
  6
DASHED
 10
6.659999999999997
 20
10.85
 30
0
 11
7.959999999999997
 21
10.85
 31
0
  0
LINE
  8
0
 62
7
  6
DASHED
 10
6.659999999999997
 20
11.05
 30
0
 11
7.959999999999997
 21
11.05
 31
0
  0
LINE
  8
0
 62
7
  6
DASHDOT
 10
6.359999999999997
 20
10.85
 30
0
 11
6.359999999999997
 21
11.05
 31
0
  0
LINE
  8
0
 62
7
  6
DASHDOT
 10
6.359999999999997
 20
10.8
 30
0
 11
6.359999999999997
 21
10.85
 31
0
  0
LINE
  8
0
 62
7
  6
DASHDOT
 10
7.959999999999997
 20
11.2
 30
0
 11
8.199999999999998
 21
11.2
 31
0
  0
LINE
  8
0
 62
7
  6
DASHDOT
 10
7.909999999999997
 20
11.2
 30
0
 11
7.959999999999997
 21
11.2
 31
0
  0
LINE
  8
0
 62
7
  6
DASHDOT
 10
7.909999999999997
 20
7.949999999999996
 30
0
 11
7.959999999999997
 21
7.949999999999996
 31
0
  0
LINE
  8
0
 62
7
  6
DASHDOT
 10
7.959999999999997
 20
7.949999999999996
 30
0
 11
8.199999999999998
 21
7.949999999999996
 31
0
  0
LINE
  8
0
 62
7
  6
DASHDOT
 10
6.359999999999997
 20
8.299999999999997
 30
0
 11
6.359999999999997
 21
8.099999999999996
 31
0
  0
LINE
  8
0
 62
7
  6
DASHDOT
 10
6.359999999999997
 20
8.399999999999997
 30
0
 11
6.359999999999997
 21
8.299999999999997
 31
0
  0
LINE
  8
0
 62
7
  6
DASHDOT
 10
6.359999999999997
 20
11.05
 30
0
 11
6.359999999999997
 21
11.15
 31
0
  0
LINE
  8
0
 62
7
 10
6.359999999999997
 20
11.15
 30
0
 11
6.659999999999997
 21
11.15
 31
0
  0
LINE
  8
0
 62
7
  6
DASHDOT
 10
6.359999999999997
 20
8.449999999999998
 30
0
 11
6.359999999999997
 21
8.399999999999997
 31
0
  0
LINE
  8
0
 62
7
 10
6.359999999999997
 20
8.399999999999997
 30
0
 11
6.659999999999997
 21
8.399999999999997
 31
0
  0
LINE
  8
0
 62
7
  6
DASHDOT
 10
8.199999999999998
 20
7.949999999999996
 30
0
 11
8.249999999999998
 21
7.949999999999996
 31
0
  0
LINE
  8
0
 62
7
  6
DASHDOT
 10
6.359999999999997
 20
8.099999999999996
 30
0
 11
6.359999999999997
 21
8.049999999999995
 31
0
  0
LINE
  8
0
 62
7
  6
DASHDOT
 10
6.359999999999997
 20
11.15
 30
0
 11
6.359999999999997
 21
11.2
 31
0
  0
LINE
  8
0
 62
7
  6
DASHDOT
 10
8.199999999999998
 20
11.2
 30
0
 11
8.249999999999998
 21
11.2
 31
0
  0
LINE
  8
0
 62
7
 10
6.359999999999997
 20
8.099999999999996
 30
0
 11
6.659999999999997
 21
8.099999999999996
 31
0
  0
LINE
  8
0
 62
7
 10
6.659999999999997
 20
8.099999999999996
 30
0
 11
6.659999999999997
 21
8.299999999999997
 31
0
  0
LINE
  8
0
 62
7
 10
6.359999999999997
 20
8.299999999999997
 30
0
 11
6.659999999999997
 21
8.299999999999997
 31
0
  0
LINE
  8
0
 62
7
 10
6.359999999999997
 20
11.05
 30
0
 11
6.659999999999997
 21
11.05
 31
0
  0
LINE
  8
0
 62
7
 10
6.359999999999997
 20
10.85
 30
0
 11
6.659999999999997
 21
10.85
 31
0
  0
LINE
  8
0
 62
7
 10
6.659999999999997
 20
10.85
 30
0
 11
6.659999999999997
 21
11.05
 31
0
  0
LINE
  8
0
 62
7
 10
7.959999999999997
 20
7.949999999999996
 30
0
 11
7.959999999999997
 21
8.099999999999996
 31
0
  0
LINE
  8
0
 62
7
 10
8.199999999999998
 20
8.299999999999997
 30
0
 11
8.199999999999998
 21
8.099999999999996
 31
0
  0
LINE
  8
0
 62
7
 10
7.959999999999997
 20
8.099999999999996
 30
0
 11
8.199999999999998
 21
8.099999999999996
 31
0
  0
LINE
  8
0
 62
7
 10
7.959999999999997
 20
8.099999999999996
 30
0
 11
7.959999999999997
 21
8.299999999999997
 31
0
  0
LINE
  8
0
 62
7
 10
8.199999999999998
 20
10.85
 30
0
 11
8.199999999999998
 21
8.299999999999997
 31
0
  0
LINE
  8
0
 62
7
 10
7.959999999999997
 20
8.299999999999997
 30
0
 11
8.199999999999998
 21
8.299999999999997
 31
0
  0
LINE
  8
0
 62
7
 10
7.959999999999997
 20
8.299999999999997
 30
0
 11
7.959999999999997
 21
10.85
 31
0
  0
LINE
  8
0
 62
7
 10
8.199999999999998
 20
11.05
 30
0
 11
8.199999999999998
 21
10.85
 31
0
  0
LINE
  8
0
 62
7
 10
7.959999999999997
 20
10.85
 30
0
 11
8.199999999999998
 21
10.85
 31
0
  0
LINE
  8
0
 62
7
 10
7.959999999999997
 20
10.85
 30
0
 11
7.959999999999997
 21
11.05
 31
0
  0
LINE
  8
0
 62
7
 10
8.199999999999998
 20
11.2
 30
0
 11
8.199999999999998
 21
11.05
 31
0
  0
LINE
  8
0
 62
7
 10
7.959999999999997
 20
11.05
 30
0
 11
8.199999999999998
 21
11.05
 31
0
  0
LINE
  8
0
 62
7
 10
7.959999999999997
 20
11.05
 30
0
 11
7.959999999999997
 21
11.2
 31
0
  0
LINE
  8
0
 62
7
 10
8.199999999999998
 20
8.099999999999996
 30
0
 11
8.199999999999998
 21
7.949999999999996
 31
0
  0
LINE
  8
0
 62
7
  6
DASHDOT
 10
4.834999999999997
 20
11.2
 30
0
 11
4.884999999999998
 21
11.2
 31
0
  0
LINE
  8
0
 62
7
  6
DASHDOT
 10
4.659999999999997
 20
11.2
 30
0
 11
4.834999999999997
 21
11.2
 31
0
  0
LINE
  8
0
 62
7
  6
DASHDOT
 10
4.984999999999998
 20
11.05
 30
0
 11
4.984999999999998
 21
11.15
 31
0
  0
LINE
  8
0
 62
7
  6
DASHDOT
 10
4.984999999999998
 20
10.85
 30
0
 11
4.984999999999998
 21
11.05
 31
0
  0
LINE
  8
0
 62
7
  6
DASHDOT
 10
1.275
 20
11.2
 30
0
 11
1.325
 21
11.2
 31
0
  0
LINE
  8
0
 62
7
  6
DASHDOT
 10
1.1
 20
11.2
 30
0
 11
1.275
 21
11.2
 31
0
  0
LINE
  8
0
 62
7
  6
DASHDOT
 10
0.9500000000000001
 20
11.05
 30
0
 11
0.9500000000000001
 21
11.15
 31
0
  0
LINE
  8
0
 62
7
  6
DASHDOT
 10
0.9500000000000001
 20
10.85
 30
0
 11
0.9500000000000001
 21
11.05
 31
0
  0
LINE
  8
0
 62
7
  6
DASHDOT
 10
1.275
 20
7.949999999999996
 30
0
 11
1.325
 21
7.949999999999996
 31
0
  0
LINE
  8
0
 62
7
  6
DASHDOT
 10
1.1
 20
7.949999999999996
 30
0
 11
1.275
 21
7.949999999999996
 31
0
  0
LINE
  8
0
 62
7
  6
DASHDOT
 10
0.9500000000000001
 20
8.299999999999997
 30
0
 11
0.9500000000000001
 21
8.399999999999997
 31
0
  0
LINE
  8
0
 62
7
  6
DASHDOT
 10
0.9500000000000001
 20
8.099999999999996
 30
0
 11
0.9500000000000001
 21
8.299999999999997
 31
0
  0
LINE
  8
0
 62
7
  6
DASHDOT
 10
4.834999999999997
 20
7.949999999999996
 30
0
 11
4.884999999999998
 21
7.949999999999996
 31
0
  0
LINE
  8
0
 62
7
  6
DASHDOT
 10
4.659999999999997
 20
7.949999999999996
 30
0
 11
4.834999999999997
 21
7.949999999999996
 31
0
  0
LINE
  8
0
 62
7
  6
DASHDOT
 10
4.984999999999998
 20
8.299999999999997
 30
0
 11
4.984999999999998
 21
8.399999999999997
 31
0
  0
LINE
  8
0
 62
7
  6
DASHDOT
 10
4.984999999999998
 20
8.099999999999996
 30
0
 11
4.984999999999998
 21
8.299999999999997
 31
0
  0
LINE
  8
0
 62
7
  6
DASHDOT
 10
4.984999999999998
 20
11.15
 30
0
 11
4.984999999999998
 21
11.2
 31
0
  0
LINE
  8
0
 62
7
 10
4.834999999999997
 20
11.15
 30
0
 11
4.834999999999997
 21
11.2
 31
0
  0
LINE
  8
0
 62
7
 10
4.834999999999997
 20
11.15
 30
0
 11
4.984999999999998
 21
11.15
 31
0
  0
LINE
  8
0
 62
7
 10
4.659999999999997
 20
11.15
 30
0
 11
4.659999999999997
 21
11.2
 31
0
  0
LINE
  8
0
 62
7
 10
1.275
 20
11.15
 30
0
 11
1.275
 21
11.2
 31
0
  0
LINE
  8
0
 62
7
 10
1.275
 20
11.15
 30
0
 11
4.659999999999997
 21
11.15
 31
0
  0
LINE
  8
0
 62
7
  6
DASHDOT
 10
0.9500000000000001
 20
11.15
 30
0
 11
0.9500000000000001
 21
11.2
 31
0
  0
LINE
  8
0
 62
7
 10
1.1
 20
11.15
 30
0
 11
1.1
 21
11.2
 31
0
  0
LINE
  8
0
 62
7
 10
0.9500000000000001
 20
11.15
 30
0
 11
1.1
 21
11.15
 31
0
  0
LINE
  8
0
 62
7
  6
DASHDOT
 10
4.984999999999998
 20
8.399999999999997
 30
0
 11
4.984999999999998
 21
8.449999999999998
 31
0
  0
LINE
  8
0
 62
7
 10
4.834999999999997
 20
8.399999999999997
 30
0
 11
4.834999999999997
 21
10.85
 31
0
  0
LINE
  8
0
 62
7
 10
4.834999999999997
 20
8.399999999999997
 30
0
 11
4.984999999999998
 21
8.399999999999997
 31
0
  0
LINE
  8
0
 62
7
 10
4.659999999999997
 20
8.399999999999997
 30
0
 11
4.659999999999997
 21
10.85
 31
0
  0
LINE
  8
0
 62
7
 10
1.275
 20
8.399999999999997
 30
0
 11
1.275
 21
10.85
 31
0
  0
LINE
  8
0
 62
7
 10
1.275
 20
8.399999999999997
 30
0
 11
4.659999999999997
 21
8.399999999999997
 31
0
  0
LINE
  8
0
 62
7
  6
DASHDOT
 10
0.9500000000000001
 20
8.399999999999997
 30
0
 11
0.9500000000000001
 21
8.449999999999998
 31
0
  0
LINE
  8
0
 62
7
 10
1.1
 20
8.399999999999997
 30
0
 11
1.1
 21
10.85
 31
0
  0
LINE
  8
0
 62
7
 10
0.9500000000000001
 20
8.399999999999997
 30
0
 11
1.1
 21
8.399999999999997
 31
0
  0
LINE
  8
0
 62
7
  6
DASHDOT
 10
4.609999999999998
 20
7.949999999999996
 30
0
 11
4.659999999999997
 21
7.949999999999996
 31
0
  0
LINE
  8
0
 62
7
  6
DASHDOT
 10
4.609999999999998
 20
11.2
 30
0
 11
4.659999999999997
 21
11.2
 31
0
  0
LINE
  8
0
 62
7
  6
DASHDOT
 10
1.05
 20
7.949999999999996
 30
0
 11
1.1
 21
7.949999999999996
 31
0
  0
LINE
  8
0
 62
7
  6
DASHDOT
 10
1.05
 20
11.2
 30
0
 11
1.1
 21
11.2
 31
0
  0
LINE
  8
0
 62
7
  6
DASHDOT
 10
4.984999999999998
 20
10.8
 30
0
 11
4.984999999999998
 21
10.85
 31
0
  0
LINE
  8
0
 62
7
  6
DASHDOT
 10
4.984999999999998
 20
8.049999999999995
 30
0
 11
4.984999999999998
 21
8.099999999999996
 31
0
  0
LINE
  8
0
 62
7
  6
DASHDOT
 10
0.9500000000000001
 20
10.8
 30
0
 11
0.9500000000000001
 21
10.85
 31
0
  0
LINE
  8
0
 62
7
  6
DASHDOT
 10
0.9500000000000001
 20
8.049999999999995
 30
0
 11
0.9500000000000001
 21
8.099999999999996
 31
0
  0
LINE
  8
0
 62
7
 10
4.834999999999997
 20
11.05
 30
0
 11
4.984999999999998
 21
11.05
 31
0
  0
LINE
  8
0
 62
7
 10
4.834999999999997
 20
11.05
 30
0
 11
4.834999999999997
 21
11.15
 31
0
  0
LINE
  8
0
 62
7
 10
4.834999999999997
 20
10.85
 30
0
 11
4.984999999999998
 21
10.85
 31
0
  0
LINE
  8
0
 62
7
 10
4.834999999999997
 20
8.299999999999997
 30
0
 11
4.984999999999998
 21
8.299999999999997
 31
0
  0
LINE
  8
0
 62
7
 10
4.834999999999997
 20
8.299999999999997
 30
0
 11
4.834999999999997
 21
8.399999999999997
 31
0
  0
LINE
  8
0
 62
7
 10
4.834999999999997
 20
8.099999999999996
 30
0
 11
4.984999999999998
 21
8.099999999999996
 31
0
  0
LINE
  8
0
 62
7
 10
4.834999999999997
 20
7.949999999999996
 30
0
 11
4.834999999999997
 21
8.099999999999996
 31
0
  0
LINE
  8
0
 62
7
 10
4.659999999999997
 20
11.05
 30
0
 11
4.834999999999997
 21
11.05
 31
0
  0
LINE
  8
0
 62
7
 10
4.659999999999997
 20
11.05
 30
0
 11
4.659999999999997
 21
11.15
 31
0
  0
LINE
  8
0
 62
7
 10
4.659999999999997
 20
10.85
 30
0
 11
4.834999999999997
 21
10.85
 31
0
  0
LINE
  8
0
 62
7
 10
4.659999999999997
 20
8.299999999999997
 30
0
 11
4.834999999999997
 21
8.299999999999997
 31
0
  0
LINE
  8
0
 62
7
 10
4.659999999999997
 20
8.299999999999997
 30
0
 11
4.659999999999997
 21
8.399999999999997
 31
0
  0
LINE
  8
0
 62
7
 10
4.659999999999997
 20
8.099999999999996
 30
0
 11
4.834999999999997
 21
8.099999999999996
 31
0
  0
LINE
  8
0
 62
7
 10
4.659999999999997
 20
7.949999999999996
 30
0
 11
4.659999999999997
 21
8.099999999999996
 31
0
  0
LINE
  8
0
 62
7
 10
1.275
 20
11.05
 30
0
 11
4.659999999999997
 21
11.05
 31
0
  0
LINE
  8
0
 62
7
 10
1.275
 20
11.05
 30
0
 11
1.275
 21
11.15
 31
0
  0
LINE
  8
0
 62
7
 10
1.275
 20
10.85
 30
0
 11
4.659999999999997
 21
10.85
 31
0
  0
LINE
  8
0
 62
7
 10
1.275
 20
8.299999999999997
 30
0
 11
4.659999999999997
 21
8.299999999999997
 31
0
  0
LINE
  8
0
 62
7
 10
1.275
 20
8.299999999999997
 30
0
 11
1.275
 21
8.399999999999997
 31
0
  0
LINE
  8
0
 62
7
 10
1.275
 20
8.099999999999996
 30
0
 11
4.659999999999997
 21
8.099999999999996
 31
0
  0
LINE
  8
0
 62
7
 10
1.275
 20
7.949999999999996
 30
0
 11
1.275
 21
8.099999999999996
 31
0
  0
LINE
  8
0
 62
7
 10
1.1
 20
11.05
 30
0
 11
1.275
 21
11.05
 31
0
  0
LINE
  8
0
 62
7
 10
1.1
 20
11.05
 30
0
 11
1.1
 21
11.15
 31
0
  0
LINE
  8
0
 62
7
 10
1.1
 20
10.85
 30
0
 11
1.275
 21
10.85
 31
0
  0
LINE
  8
0
 62
7
 10
1.1
 20
8.299999999999997
 30
0
 11
1.275
 21
8.299999999999997
 31
0
  0
LINE
  8
0
 62
7
 10
1.1
 20
8.299999999999997
 30
0
 11
1.1
 21
8.399999999999997
 31
0
  0
LINE
  8
0
 62
7
 10
1.1
 20
8.099999999999996
 30
0
 11
1.275
 21
8.099999999999996
 31
0
  0
LINE
  8
0
 62
7
 10
1.1
 20
7.949999999999996
 30
0
 11
1.1
 21
8.099999999999996
 31
0
  0
LINE
  8
0
 62
7
 10
0.9500000000000001
 20
11.05
 30
0
 11
1.1
 21
11.05
 31
0
  0
LINE
  8
0
 62
7
 10
0.9500000000000001
 20
10.85
 30
0
 11
1.1
 21
10.85
 31
0
  0
LINE
  8
0
 62
7
 10
0.9500000000000001
 20
8.299999999999997
 30
0
 11
1.1
 21
8.299999999999997
 31
0
  0
LINE
  8
0
 62
7
 10
0.9500000000000001
 20
8.099999999999996
 30
0
 11
1.1
 21
8.099999999999996
 31
0
  0
LINE
  8
0
 62
7
 10
2.110703009950211
 20
4.30324891770206
 30
0
 11
2.110703009950211
 21
4.42324891770206
 31
0
  0
LINE
  8
0
 62
7
 10
2.186303009950211
 20
4.42324891770206
 30
0
 11
2.132303009950211
 21
4.36324891770206
 31
0
  0
LINE
  8
0
 62
7
 10
2.132303009950211
 20
4.36324891770206
 30
0
 11
2.186303009950211
 21
4.30324891770206
 31
0
  0
LINE
  8
0
 62
7
 10
2.132303009950211
 20
4.36324891770206
 30
0
 11
2.110703009950211
 21
4.339248917702061
 31
0
  0
LINE
  8
0
 62
7
 10
2.294303009950212
 20
4.42324891770206
 30
0
 11
2.218703009950211
 21
4.42324891770206
 31
0
  0
LINE
  8
0
 62
7
 10
2.218703009950211
 20
4.42324891770206
 30
0
 11
2.218703009950211
 21
4.36324891770206
 31
0
  0
LINE
  8
0
 62
7
 10
2.218703009950211
 20
4.30324891770206
 30
0
 11
2.294303009950212
 21
4.30324891770206
 31
0
  0
LINE
  8
0
 62
7
 10
2.283503009950211
 20
4.36324891770206
 30
0
 11
2.218703009950211
 21
4.36324891770206
 31
0
  0
LINE
  8
0
 62
7
 10
2.218703009950211
 20
4.36324891770206
 30
0
 11
2.218703009950211
 21
4.30324891770206
 31
0
  0
LINE
  8
0
 62
7
 10
2.326703009950211
 20
4.30324891770206
 30
0
 11
2.326703009950211
 21
4.42324891770206
 31
0
  0
LINE
  8
0
 62
7
 10
2.326703009950211
 20
4.42324891770206
 30
0
 11
2.402303009950211
 21
4.30324891770206
 31
0
  0
LINE
  8
0
 62
7
 10
2.402303009950211
 20
4.30324891770206
 30
0
 11
2.402303009950211
 21
4.42324891770206
 31
0
  0
LINE
  8
0
 62
7
 10
2.434703009950211
 20
4.30324891770206
 30
0
 11
2.434703009950211
 21
4.42324891770206
 31
0
  0
LINE
  8
0
 62
7
 10
2.434703009950211
 20
4.42324891770206
 30
0
 11
2.510303009950212
 21
4.30324891770206
 31
0
  0
LINE
  8
0
 62
7
 10
2.510303009950212
 20
4.30324891770206
 30
0
 11
2.510303009950212
 21
4.42324891770206
 31
0
  0
LINE
  8
0
 62
7
 10
2.618303009950211
 20
4.38724891770206
 30
0
 11
2.615603009950211
 21
4.39924891770206
 31
0
  0
LINE
  8
0
 62
7
 10
2.615603009950211
 20
4.39924891770206
 30
0
 11
2.610203009950211
 21
4.40824891770206
 31
0
  0
LINE
  8
0
 62
7
 10
2.610203009950211
 20
4.40824891770206
 30
0
 11
2.604803009950211
 21
4.41424891770206
 31
0
  0
LINE
  8
0
 62
7
 10
2.604803009950211
 20
4.41424891770206
 30
0
 11
2.596703009950211
 21
4.42024891770206
 31
0
  0
LINE
  8
0
 62
7
 10
2.596703009950211
 20
4.42024891770206
 30
0
 11
2.588603009950211
 21
4.42324891770206
 31
0
  0
LINE
  8
0
 62
7
 10
2.588603009950211
 20
4.42324891770206
 30
0
 11
2.572403009950211
 21
4.42324891770206
 31
0
  0
LINE
  8
0
 62
7
 10
2.572403009950211
 20
4.42324891770206
 30
0
 11
2.564303009950212
 21
4.42024891770206
 31
0
  0
LINE
  8
0
 62
7
 10
2.564303009950212
 20
4.42024891770206
 30
0
 11
2.556203009950211
 21
4.41424891770206
 31
0
  0
LINE
  8
0
 62
7
 10
2.556203009950211
 20
4.41424891770206
 30
0
 11
2.550803009950211
 21
4.40824891770206
 31
0
  0
LINE
  8
0
 62
7
 10
2.550803009950211
 20
4.40824891770206
 30
0
 11
2.545403009950212
 21
4.39924891770206
 31
0
  0
LINE
  8
0
 62
7
 10
2.545403009950212
 20
4.39924891770206
 30
0
 11
2.542703009950211
 21
4.38724891770206
 31
0
  0
LINE
  8
0
 62
7
 10
2.542703009950211
 20
4.38724891770206
 30
0
 11
2.542703009950211
 21
4.339248917702061
 31
0
  0
LINE
  8
0
 62
7
 10
2.542703009950211
 20
4.339248917702061
 30
0
 11
2.545403009950212
 21
4.32724891770206
 31
0
  0
LINE
  8
0
 62
7
 10
2.545403009950212
 20
4.32724891770206
 30
0
 11
2.550803009950211
 21
4.31824891770206
 31
0
  0
LINE
  8
0
 62
7
 10
2.550803009950211
 20
4.31824891770206
 30
0
 11
2.556203009950211
 21
4.31224891770206
 31
0
  0
LINE
  8
0
 62
7
 10
2.556203009950211
 20
4.31224891770206
 30
0
 11
2.564303009950212
 21
4.30624891770206
 31
0
  0
LINE
  8
0
 62
7
 10
2.564303009950212
 20
4.30624891770206
 30
0
 11
2.572403009950211
 21
4.30324891770206
 31
0
  0
LINE
  8
0
 62
7
 10
2.572403009950211
 20
4.30324891770206
 30
0
 11
2.588603009950211
 21
4.30324891770206
 31
0
  0
LINE
  8
0
 62
7
 10
2.588603009950211
 20
4.30324891770206
 30
0
 11
2.596703009950211
 21
4.30624891770206
 31
0
  0
LINE
  8
0
 62
7
 10
2.596703009950211
 20
4.30624891770206
 30
0
 11
2.604803009950211
 21
4.31224891770206
 31
0
  0
LINE
  8
0
 62
7
 10
2.604803009950211
 20
4.31224891770206
 30
0
 11
2.610203009950211
 21
4.31824891770206
 31
0
  0
LINE
  8
0
 62
7
 10
2.610203009950211
 20
4.31824891770206
 30
0
 11
2.615603009950211
 21
4.32724891770206
 31
0
  0
LINE
  8
0
 62
7
 10
2.615603009950211
 20
4.32724891770206
 30
0
 11
2.618303009950211
 21
4.339248917702061
 31
0
  0
LINE
  8
0
 62
7
 10
2.618303009950211
 20
4.339248917702061
 30
0
 11
2.618303009950211
 21
4.36324891770206
 31
0
  0
LINE
  8
0
 62
7
 10
2.618303009950211
 20
4.36324891770206
 30
0
 11
2.585903009950211
 21
4.36324891770206
 31
0
  0
LINE
  8
0
 62
7
 10
2.696603009950211
 20
4.42324891770206
 30
0
 11
2.680403009950211
 21
4.42324891770206
 31
0
  0
LINE
  8
0
 62
7
 10
2.680403009950211
 20
4.42324891770206
 30
0
 11
2.672303009950211
 21
4.42024891770206
 31
0
  0
LINE
  8
0
 62
7
 10
2.672303009950211
 20
4.42024891770206
 30
0
 11
2.664203009950211
 21
4.41424891770206
 31
0
  0
LINE
  8
0
 62
7
 10
2.664203009950211
 20
4.41424891770206
 30
0
 11
2.658803009950212
 21
4.40824891770206
 31
0
  0
LINE
  8
0
 62
7
 10
2.658803009950212
 20
4.40824891770206
 30
0
 11
2.653403009950211
 21
4.39924891770206
 31
0
  0
LINE
  8
0
 62
7
 10
2.653403009950211
 20
4.39924891770206
 30
0
 11
2.650703009950211
 21
4.38724891770206
 31
0
  0
LINE
  8
0
 62
7
 10
2.650703009950211
 20
4.38724891770206
 30
0
 11
2.650703009950211
 21
4.339248917702061
 31
0
  0
LINE
  8
0
 62
7
 10
2.650703009950211
 20
4.339248917702061
 30
0
 11
2.653403009950211
 21
4.32724891770206
 31
0
  0
LINE
  8
0
 62
7
 10
2.653403009950211
 20
4.32724891770206
 30
0
 11
2.658803009950212
 21
4.31824891770206
 31
0
  0
LINE
  8
0
 62
7
 10
2.658803009950212
 20
4.31824891770206
 30
0
 11
2.664203009950211
 21
4.31224891770206
 31
0
  0
LINE
  8
0
 62
7
 10
2.664203009950211
 20
4.31224891770206
 30
0
 11
2.672303009950211
 21
4.30624891770206
 31
0
  0
LINE
  8
0
 62
7
 10
2.672303009950211
 20
4.30624891770206
 30
0
 11
2.680403009950211
 21
4.30324891770206
 31
0
  0
LINE
  8
0
 62
7
 10
2.680403009950211
 20
4.30324891770206
 30
0
 11
2.696603009950211
 21
4.30324891770206
 31
0
  0
LINE
  8
0
 62
7
 10
2.696603009950211
 20
4.30324891770206
 30
0
 11
2.704703009950211
 21
4.30624891770206
 31
0
  0
LINE
  8
0
 62
7
 10
2.704703009950211
 20
4.30624891770206
 30
0
 11
2.712803009950211
 21
4.31224891770206
 31
0
  0
LINE
  8
0
 62
7
 10
2.712803009950211
 20
4.31224891770206
 30
0
 11
2.718203009950212
 21
4.31824891770206
 31
0
  0
LINE
  8
0
 62
7
 10
2.718203009950212
 20
4.31824891770206
 30
0
 11
2.723603009950211
 21
4.32724891770206
 31
0
  0
LINE
  8
0
 62
7
 10
2.723603009950211
 20
4.32724891770206
 30
0
 11
2.726303009950211
 21
4.339248917702061
 31
0
  0
LINE
  8
0
 62
7
 10
2.726303009950211
 20
4.339248917702061
 30
0
 11
2.726303009950211
 21
4.38724891770206
 31
0
  0
LINE
  8
0
 62
7
 10
2.726303009950211
 20
4.38724891770206
 30
0
 11
2.723603009950211
 21
4.39924891770206
 31
0
  0
LINE
  8
0
 62
7
 10
2.723603009950211
 20
4.39924891770206
 30
0
 11
2.718203009950212
 21
4.40824891770206
 31
0
  0
LINE
  8
0
 62
7
 10
2.718203009950212
 20
4.40824891770206
 30
0
 11
2.712803009950211
 21
4.41424891770206
 31
0
  0
LINE
  8
0
 62
7
 10
2.712803009950211
 20
4.41424891770206
 30
0
 11
2.704703009950211
 21
4.42024891770206
 31
0
  0
LINE
  8
0
 62
7
 10
2.704703009950211
 20
4.42024891770206
 30
0
 11
2.696603009950211
 21
4.42324891770206
 31
0
  0
LINE
  8
0
 62
7
 10
2.747903009950211
 20
4.42324891770206
 30
0
 11
2.785703009950211
 21
4.42324891770206
 31
0
  0
LINE
  8
0
 62
7
 10
2.785703009950211
 20
4.42324891770206
 30
0
 11
2.785703009950211
 21
4.30324891770206
 31
0
  0
LINE
  8
0
 62
7
 10
2.785703009950211
 20
4.42324891770206
 30
0
 11
2.823503009950211
 21
4.42324891770206
 31
0
  0
LINE
  8
0
 62
7
 10
2.855903009950211
 20
4.42324891770206
 30
0
 11
2.893703009950212
 21
4.42324891770206
 31
0
  0
LINE
  8
0
 62
7
 10
2.893703009950212
 20
4.42324891770206
 30
0
 11
2.893703009950212
 21
4.30324891770206
 31
0
  0
LINE
  8
0
 62
7
 10
2.893703009950212
 20
4.42324891770206
 30
0
 11
2.931503009950211
 21
4.42324891770206
 31
0
  0
LINE
  8
0
 62
7
 10
3.050303009950211
 20
4.34524891770206
 30
0
 11
3.104303009950211
 21
4.34524891770206
 31
0
  0
LINE
  8
0
 62
7
 10
3.212303009950211
 20
4.42324891770206
 30
0
 11
3.250103009950212
 21
4.42324891770206
 31
0
  0
LINE
  8
0
 62
7
 10
3.250103009950212
 20
4.42324891770206
 30
0
 11
3.250103009950212
 21
4.30324891770206
 31
0
  0
LINE
  8
0
 62
7
 10
3.250103009950212
 20
4.42324891770206
 30
0
 11
3.287903009950211
 21
4.42324891770206
 31
0
  0
LINE
  8
0
 62
7
 10
3.320303009950212
 20
4.30324891770206
 30
0
 11
3.320303009950212
 21
4.42324891770206
 31
0
  0
LINE
  8
0
 62
7
 10
3.320303009950212
 20
4.42324891770206
 30
0
 11
3.371603009950211
 21
4.42324891770206
 31
0
  0
LINE
  8
0
 62
7
 10
3.371603009950211
 20
4.42324891770206
 30
0
 11
3.382403009950211
 21
4.42024891770206
 31
0
  0
LINE
  8
0
 62
7
 10
3.382403009950211
 20
4.42024891770206
 30
0
 11
3.390503009950212
 21
4.41424891770206
 31
0
  0
LINE
  8
0
 62
7
 10
3.390503009950212
 20
4.41424891770206
 30
0
 11
3.393203009950212
 21
4.40824891770206
 31
0
  0
LINE
  8
0
 62
7
 10
3.393203009950212
 20
4.40824891770206
 30
0
 11
3.395903009950212
 21
4.39924891770206
 31
0
  0
LINE
  8
0
 62
7
 10
3.395903009950212
 20
4.39924891770206
 30
0
 11
3.395903009950212
 21
4.38724891770206
 31
0
  0
LINE
  8
0
 62
7
 10
3.395903009950212
 20
4.38724891770206
 30
0
 11
3.393203009950212
 21
4.37824891770206
 31
0
  0
LINE
  8
0
 62
7
 10
3.393203009950212
 20
4.37824891770206
 30
0
 11
3.390503009950212
 21
4.37224891770206
 31
0
  0
LINE
  8
0
 62
7
 10
3.390503009950212
 20
4.37224891770206
 30
0
 11
3.382403009950211
 21
4.36624891770206
 31
0
  0
LINE
  8
0
 62
7
 10
3.382403009950211
 20
4.36624891770206
 30
0
 11
3.371603009950211
 21
4.36324891770206
 31
0
  0
LINE
  8
0
 62
7
 10
3.371603009950211
 20
4.36324891770206
 30
0
 11
3.363503009950211
 21
4.36324891770206
 31
0
  0
LINE
  8
0
 62
7
 10
3.363503009950211
 20
4.36324891770206
 30
0
 11
3.395903009950212
 21
4.30324891770206
 31
0
  0
LINE
  8
0
 62
7
 10
3.363503009950211
 20
4.36324891770206
 30
0
 11
3.320303009950212
 21
4.36324891770206
 31
0
  0
LINE
  8
0
 62
7
 10
3.493103009950212
 20
4.42324891770206
 30
0
 11
3.417503009950211
 21
4.42324891770206
 31
0
  0
LINE
  8
0
 62
7
 10
3.417503009950211
 20
4.42324891770206
 30
0
 11
3.417503009950211
 21
4.36324891770206
 31
0
  0
LINE
  8
0
 62
7
 10
3.417503009950211
 20
4.30324891770206
 30
0
 11
3.493103009950212
 21
4.30324891770206
 31
0
  0
LINE
  8
0
 62
7
 10
3.482303009950211
 20
4.36324891770206
 30
0
 11
3.417503009950211
 21
4.36324891770206
 31
0
  0
LINE
  8
0
 62
7
 10
3.417503009950211
 20
4.36324891770206
 30
0
 11
3.417503009950211
 21
4.30324891770206
 31
0
  0
LINE
  8
0
 62
7
 10
3.525503009950211
 20
4.30324891770206
 30
0
 11
3.525503009950211
 21
4.36324891770206
 31
0
  0
LINE
  8
0
 62
7
 10
3.525503009950211
 20
4.42324891770206
 30
0
 11
3.576803009950211
 21
4.42324891770206
 31
0
  0
LINE
  8
0
 62
7
 10
3.576803009950211
 20
4.42324891770206
 30
0
 11
3.587603009950212
 21
4.42024891770206
 31
0
  0
LINE
  8
0
 62
7
 10
3.587603009950212
 20
4.42024891770206
 30
0
 11
3.595703009950212
 21
4.41424891770206
 31
0
  0
LINE
  8
0
 62
7
 10
3.595703009950212
 20
4.41424891770206
 30
0
 11
3.598403009950212
 21
4.40824891770206
 31
0
  0
LINE
  8
0
 62
7
 10
3.598403009950212
 20
4.40824891770206
 30
0
 11
3.601103009950211
 21
4.39924891770206
 31
0
  0
LINE
  8
0
 62
7
 10
3.601103009950211
 20
4.39924891770206
 30
0
 11
3.601103009950211
 21
4.38724891770206
 31
0
  0
LINE
  8
0
 62
7
 10
3.601103009950211
 20
4.38724891770206
 30
0
 11
3.598403009950212
 21
4.37824891770206
 31
0
  0
LINE
  8
0
 62
7
 10
3.598403009950212
 20
4.37824891770206
 30
0
 11
3.595703009950212
 21
4.37224891770206
 31
0
  0
LINE
  8
0
 62
7
 10
3.595703009950212
 20
4.37224891770206
 30
0
 11
3.587603009950212
 21
4.36624891770206
 31
0
  0
LINE
  8
0
 62
7
 10
3.587603009950212
 20
4.36624891770206
 30
0
 11
3.576803009950211
 21
4.36324891770206
 31
0
  0
LINE
  8
0
 62
7
 10
3.576803009950211
 20
4.36324891770206
 30
0
 11
3.525503009950211
 21
4.36324891770206
 31
0
  0
LINE
  8
0
 62
7
 10
3.525503009950211
 20
4.36324891770206
 30
0
 11
3.525503009950211
 21
4.42324891770206
 31
0
  0
LINE
  8
0
 62
7
 10
3.622703009950211
 20
4.30324891770206
 30
0
 11
3.622703009950211
 21
4.36324891770206
 31
0
  0
LINE
  8
0
 62
7
 10
3.622703009950211
 20
4.42324891770206
 30
0
 11
3.674003009950212
 21
4.42324891770206
 31
0
  0
LINE
  8
0
 62
7
 10
3.674003009950212
 20
4.42324891770206
 30
0
 11
3.684803009950211
 21
4.42024891770206
 31
0
  0
LINE
  8
0
 62
7
 10
3.684803009950211
 20
4.42024891770206
 30
0
 11
3.692903009950211
 21
4.41424891770206
 31
0
  0
LINE
  8
0
 62
7
 10
3.692903009950211
 20
4.41424891770206
 30
0
 11
3.695603009950212
 21
4.40824891770206
 31
0
  0
LINE
  8
0
 62
7
 10
3.695603009950212
 20
4.40824891770206
 30
0
 11
3.698303009950211
 21
4.39924891770206
 31
0
  0
LINE
  8
0
 62
7
 10
3.698303009950211
 20
4.39924891770206
 30
0
 11
3.698303009950211
 21
4.38724891770206
 31
0
  0
LINE
  8
0
 62
7
 10
3.698303009950211
 20
4.38724891770206
 30
0
 11
3.695603009950212
 21
4.37824891770206
 31
0
  0
LINE
  8
0
 62
7
 10
3.695603009950212
 20
4.37824891770206
 30
0
 11
3.692903009950211
 21
4.37224891770206
 31
0
  0
LINE
  8
0
 62
7
 10
3.692903009950211
 20
4.37224891770206
 30
0
 11
3.684803009950211
 21
4.36624891770206
 31
0
  0
LINE
  8
0
 62
7
 10
3.684803009950211
 20
4.36624891770206
 30
0
 11
3.674003009950212
 21
4.36324891770206
 31
0
  0
LINE
  8
0
 62
7
 10
3.674003009950212
 20
4.36324891770206
 30
0
 11
3.622703009950211
 21
4.36324891770206
 31
0
  0
LINE
  8
0
 62
7
 10
3.622703009950211
 20
4.36324891770206
 30
0
 11
3.622703009950211
 21
4.42324891770206
 31
0
  0
LINE
  8
0
 62
7
 10
3.795503009950211
 20
4.42324891770206
 30
0
 11
3.719903009950211
 21
4.42324891770206
 31
0
  0
LINE
  8
0
 62
7
 10
3.719903009950211
 20
4.42324891770206
 30
0
 11
3.719903009950211
 21
4.36324891770206
 31
0
  0
LINE
  8
0
 62
7
 10
3.719903009950211
 20
4.30324891770206
 30
0
 11
3.795503009950211
 21
4.30324891770206
 31
0
  0
LINE
  8
0
 62
7
 10
3.784703009950211
 20
4.36324891770206
 30
0
 11
3.719903009950211
 21
4.36324891770206
 31
0
  0
LINE
  8
0
 62
7
 10
3.719903009950211
 20
4.36324891770206
 30
0
 11
3.719903009950211
 21
4.30324891770206
 31
0
  0
LINE
  8
0
 62
7
 10
0.625
 20
3.01
 30
0
 11
0.7006000000000001
 21
3.01
 31
0
  0
LINE
  8
0
 62
7
 10
0.7006000000000001
 20
3.01
 30
0
 11
0.625
 21
2.890000000000001
 31
0
  0
LINE
  8
0
 62
7
 10
0.625
 20
2.890000000000001
 30
0
 11
0.7006000000000001
 21
2.890000000000001
 31
0
  0
LINE
  8
0
 62
7
 10
0.7330000000000001
 20
2.992
 30
0
 11
0.7384000000000002
 21
3.001
 31
0
  0
LINE
  8
0
 62
7
 10
0.7384000000000002
 20
3.001
 30
0
 11
0.7465000000000001
 21
3.007
 31
0
  0
LINE
  8
0
 62
7
 10
0.7465000000000001
 20
3.007
 30
0
 11
0.7573000000000001
 21
3.01
 31
0
  0
LINE
  8
0
 62
7
 10
0.7573000000000001
 20
3.01
 30
0
 11
0.7735000000000002
 21
3.01
 31
0
  0
LINE
  8
0
 62
7
 10
0.7735000000000002
 20
3.01
 30
0
 11
0.7843000000000001
 21
3.007
 31
0
  0
LINE
  8
0
 62
7
 10
0.7843000000000001
 20
3.007
 30
0
 11
0.7924000000000002
 21
3.001
 31
0
  0
LINE
  8
0
 62
7
 10
0.7924000000000002
 20
3.001
 30
0
 11
0.7978000000000001
 21
2.992
 31
0
  0
LINE
  8
0
 62
7
 10
0.7978000000000001
 20
2.992
 30
0
 11
0.7978000000000001
 21
2.98
 31
0
  0
LINE
  8
0
 62
7
 10
0.7978000000000001
 20
2.98
 30
0
 11
0.7924000000000002
 21
2.968
 31
0
  0
LINE
  8
0
 62
7
 10
0.7924000000000002
 20
2.968
 30
0
 11
0.7330000000000001
 21
2.890000000000001
 31
0
  0
LINE
  8
0
 62
7
 10
0.7330000000000001
 20
2.890000000000001
 30
0
 11
0.7978000000000001
 21
2.890000000000001
 31
0
  0
LINE
  8
0
 62
7
 10
0.8302000000000002
 20
3.01
 30
0
 11
0.8680000000000002
 21
2.890000000000001
 31
0
  0
LINE
  8
0
 62
7
 10
0.8680000000000002
 20
2.890000000000001
 30
0
 11
0.9058000000000002
 21
3.01
 31
0
  0
LINE
  8
0
 62
7
 10
0.9382000000000001
 20
2.992
 30
0
 11
0.9436000000000002
 21
3.001
 31
0
  0
LINE
  8
0
 62
7
 10
0.9436000000000002
 20
3.001
 30
0
 11
0.9517000000000002
 21
3.007
 31
0
  0
LINE
  8
0
 62
7
 10
0.9517000000000002
 20
3.007
 30
0
 11
0.9625
 21
3.01
 31
0
  0
LINE
  8
0
 62
7
 10
0.9625
 20
3.01
 30
0
 11
0.9787000000000001
 21
3.01
 31
0
  0
LINE
  8
0
 62
7
 10
0.9787000000000001
 20
3.01
 30
0
 11
0.9868000000000001
 21
3.007
 31
0
  0
LINE
  8
0
 62
7
 10
0.9868000000000001
 20
3.007
 30
0
 11
0.9949000000000002
 21
3.001
 31
0
  0
LINE
  8
0
 62
7
 10
0.9949000000000002
 20
3.001
 30
0
 11
1.0003
 21
2.992
 31
0
  0
LINE
  8
0
 62
7
 10
1.0003
 20
2.992
 30
0
 11
1.003
 21
2.98
 31
0
  0
LINE
  8
0
 62
7
 10
1.003
 20
2.98
 30
0
 11
1.003
 21
2.971
 31
0
  0
LINE
  8
0
 62
7
 10
1.003
 20
2.971
 30
0
 11
1.0003
 21
2.962
 31
0
  0
LINE
  8
0
 62
7
 10
1.0003
 20
2.962
 30
0
 11
0.9949000000000002
 21
2.956
 31
0
  0
LINE
  8
0
 62
7
 10
0.9949000000000002
 20
2.956
 30
0
 11
0.9814000000000003
 21
2.95
 31
0
  0
LINE
  8
0
 62
7
 10
0.9625
 20
2.95
 30
0
 11
0.9814000000000003
 21
2.95
 31
0
  0
LINE
  8
0
 62
7
 10
0.9814000000000003
 20
2.95
 30
0
 11
0.9949000000000002
 21
2.944
 31
0
  0
LINE
  8
0
 62
7
 10
0.9949000000000002
 20
2.944
 30
0
 11
1.0003
 21
2.938
 31
0
  0
LINE
  8
0
 62
7
 10
1.0003
 20
2.938
 30
0
 11
1.003
 21
2.929
 31
0
  0
LINE
  8
0
 62
7
 10
1.003
 20
2.929
 30
0
 11
1.003
 21
2.92
 31
0
  0
LINE
  8
0
 62
7
 10
1.003
 20
2.92
 30
0
 11
1.0003
 21
2.908
 31
0
  0
LINE
  8
0
 62
7
 10
1.0003
 20
2.908
 30
0
 11
0.9949000000000002
 21
2.899
 31
0
  0
LINE
  8
0
 62
7
 10
0.9949000000000002
 20
2.899
 30
0
 11
0.9868000000000001
 21
2.893
 31
0
  0
LINE
  8
0
 62
7
 10
0.9868000000000001
 20
2.893
 30
0
 11
0.9787000000000001
 21
2.890000000000001
 31
0
  0
LINE
  8
0
 62
7
 10
0.9787000000000001
 20
2.890000000000001
 30
0
 11
0.9625
 21
2.890000000000001
 31
0
  0
LINE
  8
0
 62
7
 10
0.9625
 20
2.890000000000001
 30
0
 11
0.9517000000000002
 21
2.893
 31
0
  0
LINE
  8
0
 62
7
 10
0.9517000000000002
 20
2.893
 30
0
 11
0.9436000000000002
 21
2.899
 31
0
  0
LINE
  8
0
 62
7
 10
0.9436000000000002
 20
2.899
 30
0
 11
0.9382000000000001
 21
2.908
 31
0
  0
LINE
  8
0
 62
7
 10
1.0354
 20
2.992
 30
0
 11
1.0408
 21
3.001
 31
0
  0
LINE
  8
0
 62
7
 10
1.0408
 20
3.001
 30
0
 11
1.0489
 21
3.007
 31
0
  0
LINE
  8
0
 62
7
 10
1.0489
 20
3.007
 30
0
 11
1.0597
 21
3.01
 31
0
  0
LINE
  8
0
 62
7
 10
1.0597
 20
3.01
 30
0
 11
1.0759
 21
3.01
 31
0
  0
LINE
  8
0
 62
7
 10
1.0759
 20
3.01
 30
0
 11
1.084
 21
3.007
 31
0
  0
LINE
  8
0
 62
7
 10
1.084
 20
3.007
 30
0
 11
1.0921
 21
3.001
 31
0
  0
LINE
  8
0
 62
7
 10
1.0921
 20
3.001
 30
0
 11
1.0975
 21
2.992
 31
0
  0
LINE
  8
0
 62
7
 10
1.0975
 20
2.992
 30
0
 11
1.1002
 21
2.98
 31
0
  0
LINE
  8
0
 62
7
 10
1.1002
 20
2.98
 30
0
 11
1.1002
 21
2.971
 31
0
  0
LINE
  8
0
 62
7
 10
1.1002
 20
2.971
 30
0
 11
1.0975
 21
2.962
 31
0
  0
LINE
  8
0
 62
7
 10
1.0975
 20
2.962
 30
0
 11
1.0921
 21
2.956
 31
0
  0
LINE
  8
0
 62
7
 10
1.0921
 20
2.956
 30
0
 11
1.0786
 21
2.95
 31
0
  0
LINE
  8
0
 62
7
 10
1.0597
 20
2.95
 30
0
 11
1.0786
 21
2.95
 31
0
  0
LINE
  8
0
 62
7
 10
1.0786
 20
2.95
 30
0
 11
1.0921
 21
2.944
 31
0
  0
LINE
  8
0
 62
7
 10
1.0921
 20
2.944
 30
0
 11
1.0975
 21
2.938
 31
0
  0
LINE
  8
0
 62
7
 10
1.0975
 20
2.938
 30
0
 11
1.1002
 21
2.929
 31
0
  0
LINE
  8
0
 62
7
 10
1.1002
 20
2.929
 30
0
 11
1.1002
 21
2.92
 31
0
  0
LINE
  8
0
 62
7
 10
1.1002
 20
2.92
 30
0
 11
1.0975
 21
2.908
 31
0
  0
LINE
  8
0
 62
7
 10
1.0975
 20
2.908
 30
0
 11
1.0921
 21
2.899
 31
0
  0
LINE
  8
0
 62
7
 10
1.0921
 20
2.899
 30
0
 11
1.084
 21
2.893
 31
0
  0
LINE
  8
0
 62
7
 10
1.084
 20
2.893
 30
0
 11
1.0759
 21
2.890000000000001
 31
0
  0
LINE
  8
0
 62
7
 10
1.0759
 20
2.890000000000001
 30
0
 11
1.0597
 21
2.890000000000001
 31
0
  0
LINE
  8
0
 62
7
 10
1.0597
 20
2.890000000000001
 30
0
 11
1.0489
 21
2.893
 31
0
  0
LINE
  8
0
 62
7
 10
1.0489
 20
2.893
 30
0
 11
1.0408
 21
2.899
 31
0
  0
LINE
  8
0
 62
7
 10
1.0408
 20
2.899
 30
0
 11
1.0354
 21
2.908
 31
0
  0
LINE
  8
0
 62
7
 10
1.1596
 20
3.01
 30
0
 11
1.1704
 21
3.01
 31
0
  0
LINE
  8
0
 62
7
 10
1.1704
 20
3.01
 30
0
 11
1.1785
 21
3.007
 31
0
  0
LINE
  8
0
 62
7
 10
1.1785
 20
3.007
 30
0
 11
1.1839
 21
3.001
 31
0
  0
LINE
  8
0
 62
7
 10
1.1839
 20
3.001
 30
0
 11
1.1893
 21
2.992
 31
0
  0
LINE
  8
0
 62
7
 10
1.1893
 20
2.992
 30
0
 11
1.1893
 21
2.98
 31
0
  0
LINE
  8
0
 62
7
 10
1.1893
 20
2.98
 30
0
 11
1.1866
 21
2.974
 31
0
  0
LINE
  8
0
 62
7
 10
1.1866
 20
2.974
 30
0
 11
1.1785
 21
2.965
 31
0
  0
LINE
  8
0
 62
7
 10
1.1785
 20
2.965
 30
0
 11
1.1704
 21
2.962
 31
0
  0
LINE
  8
0
 62
7
 10
1.1704
 20
2.962
 30
0
 11
1.1596
 21
2.962
 31
0
  0
LINE
  8
0
 62
7
 10
1.1596
 20
2.962
 30
0
 11
1.1515
 21
2.965
 31
0
  0
LINE
  8
0
 62
7
 10
1.1515
 20
2.965
 30
0
 11
1.1434
 21
2.974
 31
0
  0
LINE
  8
0
 62
7
 10
1.1434
 20
2.974
 30
0
 11
1.1407
 21
2.98
 31
0
  0
LINE
  8
0
 62
7
 10
1.1407
 20
2.98
 30
0
 11
1.1407
 21
2.992
 31
0
  0
LINE
  8
0
 62
7
 10
1.1407
 20
2.992
 30
0
 11
1.1461
 21
3.001
 31
0
  0
LINE
  8
0
 62
7
 10
1.1461
 20
3.001
 30
0
 11
1.1515
 21
3.007
 31
0
  0
LINE
  8
0
 62
7
 10
1.1515
 20
3.007
 30
0
 11
1.1596
 21
3.01
 31
0
  0
LINE
  8
0
 62
7
 10
1.1596
 20
2.962
 30
0
 11
1.1461
 21
2.956
 31
0
  0
LINE
  8
0
 62
7
 10
1.1461
 20
2.956
 30
0
 11
1.138
 21
2.947
 31
0
  0
LINE
  8
0
 62
7
 10
1.138
 20
2.947
 30
0
 11
1.1326
 21
2.935
 31
0
  0
LINE
  8
0
 62
7
 10
1.1326
 20
2.935
 30
0
 11
1.1326
 21
2.917
 31
0
  0
LINE
  8
0
 62
7
 10
1.1326
 20
2.917
 30
0
 11
1.138
 21
2.905
 31
0
  0
LINE
  8
0
 62
7
 10
1.138
 20
2.905
 30
0
 11
1.1461
 21
2.896
 31
0
  0
LINE
  8
0
 62
7
 10
1.1461
 20
2.896
 30
0
 11
1.1569
 21
2.890000000000001
 31
0
  0
LINE
  8
0
 62
7
 10
1.1569
 20
2.890000000000001
 30
0
 11
1.1731
 21
2.890000000000001
 31
0
  0
LINE
  8
0
 62
7
 10
1.1731
 20
2.890000000000001
 30
0
 11
1.1839
 21
2.896
 31
0
  0
LINE
  8
0
 62
7
 10
1.1839
 20
2.896
 30
0
 11
1.192
 21
2.905
 31
0
  0
LINE
  8
0
 62
7
 10
1.192
 20
2.905
 30
0
 11
1.1974
 21
2.917
 31
0
  0
LINE
  8
0
 62
7
 10
1.1974
 20
2.917
 30
0
 11
1.1974
 21
2.935
 31
0
  0
LINE
  8
0
 62
7
 10
1.1974
 20
2.935
 30
0
 11
1.192
 21
2.947
 31
0
  0
LINE
  8
0
 62
7
 10
1.192
 20
2.947
 30
0
 11
1.1839
 21
2.956
 31
0
  0
LINE
  8
0
 62
7
 10
1.1839
 20
2.956
 30
0
 11
1.1704
 21
2.962
 31
0
  0
LINE
  8
0
 62
7
 10
1.3054
 20
2.890000000000001
 30
0
 11
1.2406
 21
2.890000000000001
 31
0
  0
LINE
  8
0
 62
7
 10
1.2406
 20
2.890000000000001
 30
0
 11
1.2406
 21
3.01
 31
0
  0
LINE
  8
0
 62
7
 10
1.3378
 20
2.938
 30
0
 11
1.3405
 21
2.95
 31
0
  0
LINE
  8
0
 62
7
 10
1.3405
 20
2.95
 30
0
 11
1.3459
 21
2.959
 31
0
  0
LINE
  8
0
 62
7
 10
1.3459
 20
2.959
 30
0
 11
1.354
 21
2.965
 31
0
  0
LINE
  8
0
 62
7
 10
1.354
 20
2.965
 30
0
 11
1.3621
 21
2.968
 31
0
  0
LINE
  8
0
 62
7
 10
1.3621
 20
2.968
 30
0
 11
1.3783
 21
2.968
 31
0
  0
LINE
  8
0
 62
7
 10
1.3783
 20
2.968
 30
0
 11
1.3864
 21
2.965
 31
0
  0
LINE
  8
0
 62
7
 10
1.3864
 20
2.965
 30
0
 11
1.3945
 21
2.959
 31
0
  0
LINE
  8
0
 62
7
 10
1.3945
 20
2.959
 30
0
 11
1.3999
 21
2.95
 31
0
  0
LINE
  8
0
 62
7
 10
1.3999
 20
2.95
 30
0
 11
1.4026
 21
2.938
 31
0
  0
LINE
  8
0
 62
7
 10
1.4026
 20
2.938
 30
0
 11
1.4026
 21
2.92
 31
0
  0
LINE
  8
0
 62
7
 10
1.4026
 20
2.92
 30
0
 11
1.3999
 21
2.908
 31
0
  0
LINE
  8
0
 62
7
 10
1.3999
 20
2.908
 30
0
 11
1.3945
 21
2.899
 31
0
  0
LINE
  8
0
 62
7
 10
1.3945
 20
2.899
 30
0
 11
1.3864
 21
2.893
 31
0
  0
LINE
  8
0
 62
7
 10
1.3864
 20
2.893
 30
0
 11
1.3783
 21
2.890000000000001
 31
0
  0
LINE
  8
0
 62
7
 10
1.3783
 20
2.890000000000001
 30
0
 11
1.3621
 21
2.890000000000001
 31
0
  0
LINE
  8
0
 62
7
 10
1.3621
 20
2.890000000000001
 30
0
 11
1.354
 21
2.893
 31
0
  0
LINE
  8
0
 62
7
 10
1.354
 20
2.893
 30
0
 11
1.3459
 21
2.899
 31
0
  0
LINE
  8
0
 62
7
 10
1.3459
 20
2.899
 30
0
 11
1.3405
 21
2.908
 31
0
  0
LINE
  8
0
 62
7
 10
1.3405
 20
2.908
 30
0
 11
1.3378
 21
2.92
 31
0
  0
LINE
  8
0
 62
7
 10
1.3378
 20
2.92
 30
0
 11
1.3378
 21
2.938
 31
0
  0
LINE
  8
0
 62
7
 10
1.3378
 20
2.98
 30
0
 11
1.3405
 21
2.992
 31
0
  0
LINE
  8
0
 62
7
 10
1.3405
 20
2.992
 30
0
 11
1.3459
 21
3.001
 31
0
  0
LINE
  8
0
 62
7
 10
1.3459
 20
3.001
 30
0
 11
1.354
 21
3.007
 31
0
  0
LINE
  8
0
 62
7
 10
1.354
 20
3.007
 30
0
 11
1.3621
 21
3.01
 31
0
  0
LINE
  8
0
 62
7
 10
1.3621
 20
3.01
 30
0
 11
1.3783
 21
3.01
 31
0
  0
LINE
  8
0
 62
7
 10
1.3783
 20
3.01
 30
0
 11
1.3864
 21
3.007
 31
0
  0
LINE
  8
0
 62
7
 10
1.3864
 20
3.007
 30
0
 11
1.3945
 21
3.001
 31
0
  0
LINE
  8
0
 62
7
 10
1.3945
 20
3.001
 30
0
 11
1.3999
 21
2.992
 31
0
  0
LINE
  8
0
 62
7
 10
1.3378
 20
2.938
 30
0
 11
1.3378
 21
2.98
 31
0
  0
LINE
  8
0
 62
7
 10
3.125
 20
2.890000000000001
 30
0
 11
3.125
 21
2.99
 31
0
  0
LINE
  8
0
 62
7
 10
3.125
 20
2.99
 30
0
 11
3.188
 21
2.890000000000001
 31
0
  0
LINE
  8
0
 62
7
 10
3.188
 20
2.890000000000001
 30
0
 11
3.188
 21
2.99
 31
0
  0
LINE
  8
0
 62
7
 10
3.269
 20
2.890000000000001
 30
0
 11
3.215
 21
2.890000000000001
 31
0
  0
LINE
  8
0
 62
7
 10
3.215
 20
2.890000000000001
 30
0
 11
3.215
 21
2.99
 31
0
  0
LINE
  8
0
 62
7
 10
3.296
 20
2.94
 30
0
 11
3.332
 21
2.94
 31
0
  0
LINE
  8
0
 62
7
 10
3.332
 20
2.94
 30
0
 11
3.3365
 21
2.94
 31
0
  0
LINE
  8
0
 62
7
 10
3.3365
 20
2.94
 30
0
 11
3.3455
 21
2.935
 31
0
  0
LINE
  8
0
 62
7
 10
3.3455
 20
2.935
 30
0
 11
3.35
 21
2.93
 31
0
  0
LINE
  8
0
 62
7
 10
3.35
 20
2.93
 30
0
 11
3.3545
 21
2.92
 31
0
  0
LINE
  8
0
 62
7
 10
3.3545
 20
2.92
 30
0
 11
3.3545
 21
2.91
 31
0
  0
LINE
  8
0
 62
7
 10
3.3545
 20
2.91
 30
0
 11
3.35
 21
2.9
 31
0
  0
LINE
  8
0
 62
7
 10
3.35
 20
2.9
 30
0
 11
3.3455
 21
2.895
 31
0
  0
LINE
  8
0
 62
7
 10
3.3455
 20
2.895
 30
0
 11
3.3365
 21
2.890000000000001
 31
0
  0
LINE
  8
0
 62
7
 10
3.3365
 20
2.890000000000001
 30
0
 11
3.296
 21
2.890000000000001
 31
0
  0
LINE
  8
0
 62
7
 10
3.296
 20
2.890000000000001
 30
0
 11
3.296
 21
2.94
 31
0
  0
LINE
  8
0
 62
7
 10
3.296
 20
2.99
 30
0
 11
3.32975
 21
2.99
 31
0
  0
LINE
  8
0
 62
7
 10
3.32975
 20
2.99
 30
0
 11
3.341000000000001
 21
2.9875
 31
0
  0
LINE
  8
0
 62
7
 10
3.341000000000001
 20
2.9875
 30
0
 11
3.34775
 21
2.98
 31
0
  0
LINE
  8
0
 62
7
 10
3.34775
 20
2.98
 30
0
 11
3.35
 21
2.97
 31
0
  0
LINE
  8
0
 62
7
 10
3.35
 20
2.97
 30
0
 11
3.35
 21
2.96
 31
0
  0
LINE
  8
0
 62
7
 10
3.35
 20
2.96
 30
0
 11
3.3455
 21
2.95
 31
0
  0
LINE
  8
0
 62
7
 10
3.3455
 20
2.95
 30
0
 11
3.338750000000001
 21
2.9425
 31
0
  0
LINE
  8
0
 62
7
 10
3.338750000000001
 20
2.9425
 30
0
 11
3.332
 21
2.94
 31
0
  0
LINE
  8
0
 62
7
 10
3.296
 20
2.94
 30
0
 11
3.296
 21
2.99
 31
0
  0
LINE
  8
0
 62
7
 10
3.49625
 20
2.9425
 30
0
 11
3.4895
 21
2.952500000000001
 31
0
  0
LINE
  8
0
 62
7
 10
3.4895
 20
2.952500000000001
 30
0
 11
3.48275
 21
2.9575
 31
0
  0
LINE
  8
0
 62
7
 10
3.48275
 20
2.9575
 30
0
 11
3.476
 21
2.96
 31
0
  0
LINE
  8
0
 62
7
 10
3.476
 20
2.96
 30
0
 11
3.467000000000001
 21
2.96
 31
0
  0
LINE
  8
0
 62
7
 10
3.467000000000001
 20
2.96
 30
0
 11
3.46025
 21
2.9575
 31
0
  0
LINE
  8
0
 62
7
 10
3.46025
 20
2.9575
 30
0
 11
3.4535
 21
2.952500000000001
 31
0
  0
LINE
  8
0
 62
7
 10
3.4535
 20
2.952500000000001
 30
0
 11
3.44675
 21
2.9425
 31
0
  0
LINE
  8
0
 62
7
 10
3.44675
 20
2.9425
 30
0
 11
3.4445
 21
2.935
 31
0
  0
LINE
  8
0
 62
7
 10
3.4445
 20
2.935
 30
0
 11
3.4445
 21
2.915
 31
0
  0
LINE
  8
0
 62
7
 10
3.4445
 20
2.915
 30
0
 11
3.44675
 21
2.9075
 31
0
  0
LINE
  8
0
 62
7
 10
3.44675
 20
2.9075
 30
0
 11
3.4535
 21
2.8975
 31
0
  0
LINE
  8
0
 62
7
 10
3.4535
 20
2.8975
 30
0
 11
3.46025
 21
2.8925
 31
0
  0
LINE
  8
0
 62
7
 10
3.46025
 20
2.8925
 30
0
 11
3.467000000000001
 21
2.890000000000001
 31
0
  0
LINE
  8
0
 62
7
 10
3.467000000000001
 20
2.890000000000001
 30
0
 11
3.476
 21
2.890000000000001
 31
0
  0
LINE
  8
0
 62
7
 10
3.476
 20
2.890000000000001
 30
0
 11
3.48275
 21
2.8925
 31
0
  0
LINE
  8
0
 62
7
 10
3.48275
 20
2.8925
 30
0
 11
3.4895
 21
2.8975
 31
0
  0
LINE
  8
0
 62
7
 10
3.4895
 20
2.8975
 30
0
 11
3.49625
 21
2.9075
 31
0
  0
LINE
  8
0
 62
7
 10
3.56825
 20
2.935
 30
0
 11
3.566000000000001
 21
2.9425
 31
0
  0
LINE
  8
0
 62
7
 10
3.566000000000001
 20
2.9425
 30
0
 11
3.55925
 21
2.952500000000001
 31
0
  0
LINE
  8
0
 62
7
 10
3.55925
 20
2.952500000000001
 30
0
 11
3.5525
 21
2.9575
 31
0
  0
LINE
  8
0
 62
7
 10
3.5525
 20
2.9575
 30
0
 11
3.54575
 21
2.96
 31
0
  0
LINE
  8
0
 62
7
 10
3.54575
 20
2.96
 30
0
 11
3.53675
 21
2.96
 31
0
  0
LINE
  8
0
 62
7
 10
3.53675
 20
2.96
 30
0
 11
3.530000000000001
 21
2.9575
 31
0
  0
LINE
  8
0
 62
7
 10
3.530000000000001
 20
2.9575
 30
0
 11
3.52325
 21
2.952500000000001
 31
0
  0
LINE
  8
0
 62
7
 10
3.52325
 20
2.952500000000001
 30
0
 11
3.5165
 21
2.9425
 31
0
  0
LINE
  8
0
 62
7
 10
3.5165
 20
2.9425
 30
0
 11
3.51425
 21
2.935
 31
0
  0
LINE
  8
0
 62
7
 10
3.51425
 20
2.935
 30
0
 11
3.51425
 21
2.915
 31
0
  0
LINE
  8
0
 62
7
 10
3.51425
 20
2.915
 30
0
 11
3.5165
 21
2.9075
 31
0
  0
LINE
  8
0
 62
7
 10
3.5165
 20
2.9075
 30
0
 11
3.52325
 21
2.8975
 31
0
  0
LINE
  8
0
 62
7
 10
3.52325
 20
2.8975
 30
0
 11
3.530000000000001
 21
2.8925
 31
0
  0
LINE
  8
0
 62
7
 10
3.530000000000001
 20
2.8925
 30
0
 11
3.53675
 21
2.890000000000001
 31
0
  0
LINE
  8
0
 62
7
 10
3.53675
 20
2.890000000000001
 30
0
 11
3.54575
 21
2.890000000000001
 31
0
  0
LINE
  8
0
 62
7
 10
3.54575
 20
2.890000000000001
 30
0
 11
3.5525
 21
2.8925
 31
0
  0
LINE
  8
0
 62
7
 10
3.5525
 20
2.8925
 30
0
 11
3.55925
 21
2.8975
 31
0
  0
LINE
  8
0
 62
7
 10
3.55925
 20
2.8975
 30
0
 11
3.566000000000001
 21
2.9075
 31
0
  0
LINE
  8
0
 62
7
 10
3.566000000000001
 20
2.9075
 30
0
 11
3.56825
 21
2.915
 31
0
  0
LINE
  8
0
 62
7
 10
3.56825
 20
2.96
 30
0
 11
3.56825
 21
2.935
 31
0
  0
LINE
  8
0
 62
7
 10
3.56825
 20
2.8925
 30
0
 11
3.5705
 21
2.890000000000001
 31
0
  0
LINE
  8
0
 62
7
 10
3.5705
 20
2.890000000000001
 30
0
 11
3.57275
 21
2.890000000000001
 31
0
  0
LINE
  8
0
 62
7
 10
3.56825
 20
2.915
 30
0
 11
3.56825
 21
2.8925
 31
0
  0
LINE
  8
0
 62
7
 10
3.56825
 20
2.935
 30
0
 11
3.56825
 21
2.915
 31
0
  0
LINE
  8
0
 62
7
 10
3.59075
 20
2.890000000000001
 30
0
 11
3.59075
 21
2.8925
 31
0
  0
LINE
  8
0
 62
7
 10
3.59075
 20
2.8925
 30
0
 11
3.593
 21
2.8925
 31
0
  0
LINE
  8
0
 62
7
 10
3.593
 20
2.8925
 30
0
 11
3.593
 21
2.890000000000001
 31
0
  0
LINE
  8
0
 62
7
 10
3.593
 20
2.890000000000001
 30
0
 11
3.59075
 21
2.890000000000001
 31
0
  0
LINE
  8
0
 62
7
 10
3.716750000000001
 20
2.99
 30
0
 11
3.72575
 21
2.99
 31
0
  0
LINE
  8
0
 62
7
 10
3.72575
 20
2.99
 30
0
 11
3.7325
 21
2.9875
 31
0
  0
LINE
  8
0
 62
7
 10
3.7325
 20
2.9875
 30
0
 11
3.737
 21
2.9825
 31
0
  0
LINE
  8
0
 62
7
 10
3.737
 20
2.9825
 30
0
 11
3.7415
 21
2.975
 31
0
  0
LINE
  8
0
 62
7
 10
3.7415
 20
2.975
 30
0
 11
3.7415
 21
2.965
 31
0
  0
LINE
  8
0
 62
7
 10
3.7415
 20
2.965
 30
0
 11
3.73925
 21
2.96
 31
0
  0
LINE
  8
0
 62
7
 10
3.73925
 20
2.96
 30
0
 11
3.7325
 21
2.952500000000001
 31
0
  0
LINE
  8
0
 62
7
 10
3.7325
 20
2.952500000000001
 30
0
 11
3.72575
 21
2.95
 31
0
  0
LINE
  8
0
 62
7
 10
3.72575
 20
2.95
 30
0
 11
3.716750000000001
 21
2.95
 31
0
  0
LINE
  8
0
 62
7
 10
3.716750000000001
 20
2.95
 30
0
 11
3.71
 21
2.952500000000001
 31
0
  0
LINE
  8
0
 62
7
 10
3.71
 20
2.952500000000001
 30
0
 11
3.70325
 21
2.96
 31
0
  0
LINE
  8
0
 62
7
 10
3.70325
 20
2.96
 30
0
 11
3.701
 21
2.965
 31
0
  0
LINE
  8
0
 62
7
 10
3.701
 20
2.965
 30
0
 11
3.701
 21
2.975
 31
0
  0
LINE
  8
0
 62
7
 10
3.701
 20
2.975
 30
0
 11
3.7055
 21
2.9825
 31
0
  0
LINE
  8
0
 62
7
 10
3.7055
 20
2.9825
 30
0
 11
3.71
 21
2.9875
 31
0
  0
LINE
  8
0
 62
7
 10
3.71
 20
2.9875
 30
0
 11
3.716750000000001
 21
2.99
 31
0
  0
LINE
  8
0
 62
7
 10
3.716750000000001
 20
2.95
 30
0
 11
3.7055
 21
2.945
 31
0
  0
LINE
  8
0
 62
7
 10
3.7055
 20
2.945
 30
0
 11
3.69875
 21
2.9375
 31
0
  0
LINE
  8
0
 62
7
 10
3.69875
 20
2.9375
 30
0
 11
3.69425
 21
2.9275
 31
0
  0
LINE
  8
0
 62
7
 10
3.69425
 20
2.9275
 30
0
 11
3.69425
 21
2.9125
 31
0
  0
LINE
  8
0
 62
7
 10
3.69425
 20
2.9125
 30
0
 11
3.69875
 21
2.9025
 31
0
  0
LINE
  8
0
 62
7
 10
3.69875
 20
2.9025
 30
0
 11
3.7055
 21
2.895
 31
0
  0
LINE
  8
0
 62
7
 10
3.7055
 20
2.895
 30
0
 11
3.714500000000001
 21
2.890000000000001
 31
0
  0
LINE
  8
0
 62
7
 10
3.714500000000001
 20
2.890000000000001
 30
0
 11
3.728
 21
2.890000000000001
 31
0
  0
LINE
  8
0
 62
7
 10
3.728
 20
2.890000000000001
 30
0
 11
3.737
 21
2.895
 31
0
  0
LINE
  8
0
 62
7
 10
3.737
 20
2.895
 30
0
 11
3.74375
 21
2.9025
 31
0
  0
LINE
  8
0
 62
7
 10
3.74375
 20
2.9025
 30
0
 11
3.748250000000001
 21
2.9125
 31
0
  0
LINE
  8
0
 62
7
 10
3.748250000000001
 20
2.9125
 30
0
 11
3.748250000000001
 21
2.9275
 31
0
  0
LINE
  8
0
 62
7
 10
3.748250000000001
 20
2.9275
 30
0
 11
3.74375
 21
2.9375
 31
0
  0
LINE
  8
0
 62
7
 10
3.74375
 20
2.9375
 30
0
 11
3.737
 21
2.945
 31
0
  0
LINE
  8
0
 62
7
 10
3.737
 20
2.945
 30
0
 11
3.72575
 21
2.95
 31
0
  0
LINE
  8
0
 62
7
 10
3.83825
 20
2.95
 30
0
 11
3.836
 21
2.94
 31
0
  0
LINE
  8
0
 62
7
 10
3.836
 20
2.94
 30
0
 11
3.8315
 21
2.9325
 31
0
  0
LINE
  8
0
 62
7
 10
3.8315
 20
2.9325
 30
0
 11
3.82475
 21
2.9275
 31
0
  0
LINE
  8
0
 62
7
 10
3.82475
 20
2.9275
 30
0
 11
3.818
 21
2.925
 31
0
  0
LINE
  8
0
 62
7
 10
3.818
 20
2.925
 30
0
 11
3.8045
 21
2.925
 31
0
  0
LINE
  8
0
 62
7
 10
3.8045
 20
2.925
 30
0
 11
3.79775
 21
2.9275
 31
0
  0
LINE
  8
0
 62
7
 10
3.79775
 20
2.9275
 30
0
 11
3.791
 21
2.9325
 31
0
  0
LINE
  8
0
 62
7
 10
3.791
 20
2.9325
 30
0
 11
3.7865
 21
2.94
 31
0
  0
LINE
  8
0
 62
7
 10
3.7865
 20
2.94
 30
0
 11
3.78425
 21
2.95
 31
0
  0
LINE
  8
0
 62
7
 10
3.78425
 20
2.95
 30
0
 11
3.78425
 21
2.965
 31
0
  0
LINE
  8
0
 62
7
 10
3.78425
 20
2.965
 30
0
 11
3.7865
 21
2.975
 31
0
  0
LINE
  8
0
 62
7
 10
3.7865
 20
2.975
 30
0
 11
3.791
 21
2.9825
 31
0
  0
LINE
  8
0
 62
7
 10
3.791
 20
2.9825
 30
0
 11
3.79775
 21
2.9875
 31
0
  0
LINE
  8
0
 62
7
 10
3.79775
 20
2.9875
 30
0
 11
3.8045
 21
2.99
 31
0
  0
LINE
  8
0
 62
7
 10
3.8045
 20
2.99
 30
0
 11
3.818
 21
2.99
 31
0
  0
LINE
  8
0
 62
7
 10
3.818
 20
2.99
 30
0
 11
3.82475
 21
2.9875
 31
0
  0
LINE
  8
0
 62
7
 10
3.82475
 20
2.9875
 30
0
 11
3.8315
 21
2.9825
 31
0
  0
LINE
  8
0
 62
7
 10
3.8315
 20
2.9825
 30
0
 11
3.836
 21
2.975
 31
0
  0
LINE
  8
0
 62
7
 10
3.836
 20
2.975
 30
0
 11
3.83825
 21
2.965
 31
0
  0
LINE
  8
0
 62
7
 10
3.83825
 20
2.965
 30
0
 11
3.83825
 21
2.95
 31
0
  0
LINE
  8
0
 62
7
 10
3.83825
 20
2.915
 30
0
 11
3.836
 21
2.905
 31
0
  0
LINE
  8
0
 62
7
 10
3.836
 20
2.905
 30
0
 11
3.8315
 21
2.8975
 31
0
  0
LINE
  8
0
 62
7
 10
3.8315
 20
2.8975
 30
0
 11
3.82475
 21
2.8925
 31
0
  0
LINE
  8
0
 62
7
 10
3.82475
 20
2.8925
 30
0
 11
3.818
 21
2.890000000000001
 31
0
  0
LINE
  8
0
 62
7
 10
3.818
 20
2.890000000000001
 30
0
 11
3.8045
 21
2.890000000000001
 31
0
  0
LINE
  8
0
 62
7
 10
3.8045
 20
2.890000000000001
 30
0
 11
3.79775
 21
2.8925
 31
0
  0
LINE
  8
0
 62
7
 10
3.79775
 20
2.8925
 30
0
 11
3.791
 21
2.8975
 31
0
  0
LINE
  8
0
 62
7
 10
3.791
 20
2.8975
 30
0
 11
3.7865
 21
2.905
 31
0
  0
LINE
  8
0
 62
7
 10
3.83825
 20
2.95
 30
0
 11
3.83825
 21
2.915
 31
0
  0
LINE
  8
0
 62
7
 10
3.989
 20
2.9425
 30
0
 11
3.98225
 21
2.952500000000001
 31
0
  0
LINE
  8
0
 62
7
 10
3.98225
 20
2.952500000000001
 30
0
 11
3.9755
 21
2.9575
 31
0
  0
LINE
  8
0
 62
7
 10
3.9755
 20
2.9575
 30
0
 11
3.96875
 21
2.96
 31
0
  0
LINE
  8
0
 62
7
 10
3.96875
 20
2.96
 30
0
 11
3.959750000000001
 21
2.96
 31
0
  0
LINE
  8
0
 62
7
 10
3.959750000000001
 20
2.96
 30
0
 11
3.953
 21
2.9575
 31
0
  0
LINE
  8
0
 62
7
 10
3.953
 20
2.9575
 30
0
 11
3.94625
 21
2.952500000000001
 31
0
  0
LINE
  8
0
 62
7
 10
3.94625
 20
2.952500000000001
 30
0
 11
3.939500000000001
 21
2.9425
 31
0
  0
LINE
  8
0
 62
7
 10
3.939500000000001
 20
2.9425
 30
0
 11
3.937250000000001
 21
2.935
 31
0
  0
LINE
  8
0
 62
7
 10
3.937250000000001
 20
2.935
 30
0
 11
3.937250000000001
 21
2.915
 31
0
  0
LINE
  8
0
 62
7
 10
3.937250000000001
 20
2.915
 30
0
 11
3.939500000000001
 21
2.9075
 31
0
  0
LINE
  8
0
 62
7
 10
3.939500000000001
 20
2.9075
 30
0
 11
3.94625
 21
2.8975
 31
0
  0
LINE
  8
0
 62
7
 10
3.94625
 20
2.8975
 30
0
 11
3.953
 21
2.8925
 31
0
  0
LINE
  8
0
 62
7
 10
3.953
 20
2.8925
 30
0
 11
3.959750000000001
 21
2.890000000000001
 31
0
  0
LINE
  8
0
 62
7
 10
3.959750000000001
 20
2.890000000000001
 30
0
 11
3.96875
 21
2.890000000000001
 31
0
  0
LINE
  8
0
 62
7
 10
3.96875
 20
2.890000000000001
 30
0
 11
3.9755
 21
2.8925
 31
0
  0
LINE
  8
0
 62
7
 10
3.9755
 20
2.8925
 30
0
 11
3.98225
 21
2.8975
 31
0
  0
LINE
  8
0
 62
7
 10
3.98225
 20
2.8975
 30
0
 11
3.989
 21
2.9075
 31
0
  0
LINE
  8
0
 62
7
 10
4.0475
 20
2.935
 30
0
 11
4.0475
 21
2.890000000000001
 31
0
  0
LINE
  8
0
 62
7
 10
4.007000000000001
 20
2.96
 30
0
 11
4.007000000000001
 21
2.935
 31
0
  0
LINE
  8
0
 62
7
 10
4.007000000000001
 20
2.890000000000001
 30
0
 11
4.007000000000001
 21
2.935
 31
0
  0
LINE
  8
0
 62
7
 10
4.007000000000001
 20
2.935
 30
0
 11
4.009250000000001
 21
2.9475
 31
0
  0
LINE
  8
0
 62
7
 10
4.009250000000001
 20
2.9475
 30
0
 11
4.011500000000001
 21
2.952500000000001
 31
0
  0
LINE
  8
0
 62
7
 10
4.011500000000001
 20
2.952500000000001
 30
0
 11
4.016000000000001
 21
2.9575
 31
0
  0
LINE
  8
0
 62
7
 10
4.016000000000001
 20
2.9575
 30
0
 11
4.02275
 21
2.96
 31
0
  0
LINE
  8
0
 62
7
 10
4.02275
 20
2.96
 30
0
 11
4.031750000000001
 21
2.96
 31
0
  0
LINE
  8
0
 62
7
 10
4.031750000000001
 20
2.96
 30
0
 11
4.0385
 21
2.9575
 31
0
  0
LINE
  8
0
 62
7
 10
4.0385
 20
2.9575
 30
0
 11
4.043
 21
2.952500000000001
 31
0
  0
LINE
  8
0
 62
7
 10
4.043
 20
2.952500000000001
 30
0
 11
4.04525
 21
2.9475
 31
0
  0
LINE
  8
0
 62
7
 10
4.04525
 20
2.9475
 30
0
 11
4.0475
 21
2.935
 31
0
  0
LINE
  8
0
 62
7
 10
4.0475
 20
2.935
 30
0
 11
4.04975
 21
2.9475
 31
0
  0
LINE
  8
0
 62
7
 10
4.04975
 20
2.9475
 30
0
 11
4.052
 21
2.952500000000001
 31
0
  0
LINE
  8
0
 62
7
 10
4.052
 20
2.952500000000001
 30
0
 11
4.0565
 21
2.9575
 31
0
  0
LINE
  8
0
 62
7
 10
4.0565
 20
2.9575
 30
0
 11
4.06325
 21
2.96
 31
0
  0
LINE
  8
0
 62
7
 10
4.06325
 20
2.96
 30
0
 11
4.07225
 21
2.96
 31
0
  0
LINE
  8
0
 62
7
 10
4.07225
 20
2.96
 30
0
 11
4.079
 21
2.9575
 31
0
  0
LINE
  8
0
 62
7
 10
4.0835
 20
2.952500000000001
 30
0
 11
4.079
 21
2.9575
 31
0
  0
LINE
  8
0
 62
7
 10
4.079
 20
2.9575
 30
0
 11
4.0835
 21
2.952500000000001
 31
0
  0
LINE
  8
0
 62
7
 10
4.0835
 20
2.952500000000001
 30
0
 11
4.08575
 21
2.9475
 31
0
  0
LINE
  8
0
 62
7
 10
4.08575
 20
2.9475
 30
0
 11
4.088
 21
2.935
 31
0
  0
LINE
  8
0
 62
7
 10
4.088
 20
2.935
 30
0
 11
4.088
 21
2.890000000000001
 31
0
  0
ARC
  8
0
 62
7
 10
2.279733295535527
 20
3.6152667044645
 30
0
 40
0.5409999999999979
 50
89.9717540777018
 51
180.0282459175643
  0
ARC
  8
0
 62
7
 10
3.655266704464455
 20
3.61526670446447
 30
0
 40
0.5410000000000026
 50
359.9717540860621
 51
90.0282459175597
  0
CIRCLE
  8
0
 62
7
 10
4.196266638723919
 20
3.25
 30
0
 40
0.05999999999999961
  0
DIMENSION
  8
0
  6
CONTINUOUS
 62
7
  2
*D0
  3
DMST_1
 10
0.795814838897401
 20
4.649999999999999
 30
0
 11
0.795814838897401
 21
4.01386233449725
 31
0
 12
0
 22
0
 32
0
 70
0
 13
1.1
 23
3.35
 33
0
 14
1.1
 24
4.649999999999999
 34
0
 50
90
 53
0
  0
DIMENSION
  8
0
  6
CONTINUOUS
 62
7
  2
*D1
  3
DMST_1
 10
4.659999999999997
 20
5.55699757182195
 30
0
 11
3.03510131110543
 21
5.55699757182195
 31
0
 12
0
 22
0
 32
0
 70
0
 13
1.275
 23
5.169999999999995
 33
0
 14
4.659999999999997
 24
5.169999999999995
 34
0
 53
0
  0
DIMENSION
  8
0
  6
CONTINUOUS
 62
7
  2
*D2
  3
DMST_1
 10
5.14676005691819
 20
4.649999999999999
 30
0
 11
5.14676005691819
 21
3.96745225217169
 31
0
 12
0
 22
0
 32
0
 70
0
 13
4.834999999999997
 23
3.25
 33
0
 14
4.834999999999997
 24
4.649999999999999
 34
0
 50
90
 53
0
  0
DIMENSION
  8
0
  6
CONTINUOUS
 62
7
  2
*D3
  3
DMST_2
 10
4.659999999999997
 20
11.497488109493
 30
0
 11
3.02349879052404
 21
11.497488109493
 31
0
 12
0
 22
0
 32
0
 70
0
 13
1.275
 23
11.2
 33
0
 14
4.659999999999997
 24
11.2
 34
0
 53
0
  0
INSERT
  8
0
  2
*D4
 10
0
 20
0
 30
0
  0
ENDSEC
  0
EOF
