  0
SECTION
  2
HEADER
  9
$ACADVER
  1
AC1009
  9
$INSBASE
 10
0
 20
0
  9
$EXTMIN
 10
0.45
 20
2.890000000000001
  9
$EXTMAX
 10
8.44047524129901
 20
11.6165493527508
  9
$LIMMIN
 10
0.45
 20
2.890000000000001
  9
$LIMMAX
 10
8.44047524129901
 20
11.6165493527508
  9
$VIEWCTR
 10
10
 20
10
  9
$VIEWSIZE
 40
10
  9
$SNAPMODE
 70
0
  9
$SNAPUNIT
 10
1
 20
1
  9
$SNAPBASE
 10
0
 20
0
  9
$SNAPANG
 50
0
  9
$SNAPSTYLE
 70
0
  9
$SNAPISOPAIR
 70
0
  9
$GRIDMODE
 70
0
  9
$GRIDUNIT
 10
0
 20
0
  9
$ORTHOMODE
 70
0
  9
$REGENMODE
 70
1
  9
$FILLMODE
 70
1
  9
$QTEXTMODE
 70
0
  9
$DRAGMODE
 70
2
  9
$LTSCALE
 40
1
  9
$OSMODE
 70
0
  9
$ATTMODE
 70
1
  9
$TEXTSIZE
 40
3.5
  9
$TRACEWID
 40
0.5
  9
$TEXTSTYLE
  7
STANDARD
  9
$CLAYER
  8
0
  9
$CELTYPE
  6
BYLAYER
  9
$CECOLOR
 62
256
  9
$DIMSCALE
 40
1
  9
$DIMASZ
 40
0.18
  9
$DIMEXO
 40
0.0625
  9
$DIMDLI
 40
0.38
  9
$DIMRND
 40
0
  9
$DIMDLE
 40
0
  9
$DIMEXE
 40
0.18
  9
$DIMTP
 40
0
  9
$DIMTM
 40
0
  9
$DIMTXT
 40
0.18
  9
$DIMCEN
 40
0.09
  9
$DIMTSZ
 40
0
  9
$DIMTOL
 70
0
  9
$DIMLIM
 70
0
  9
$DIMTIH
 70
1
  9
$DIMTOH
 70
1
  9
$DIMSE1
 70
0
  9
$DIMSE2
 70
0
  9
$DIMTAD
 70
0
  9
$DIMZIN
 70
0
  9
$DIMBLK
  1

  9
$DIMASO
 70
1
  9
$DIMSHO
 70
1
  9
$DIMPOST
  1

  9
$DIMAPOST
  1

  9
$DIMALT
 70
0
  9
$DIMALTD
 70
2
  9
$DIMALTF
 40
25.4
  9
$DIMLFAC
 40
1
  9
$DIMTOFL
 70
0
  9
$DIMTVP
 40
0
  9
$DIMTIX
 70
0
  9
$DIMSOXD
 70
0
  9
$DIMSAH
 70
0
  9
$DIMBLK1
  1

  9
$DIMBLK2
  1

  9
$DIMSTYLE
  2
*UNNAMED
  9
$DIMCLRD
 70
0
  9
$DIMCLRE
 70
0
  9
$DIMCLRT
 70
0
  9
$DIMTFAC
 40
1
  9
$DIMGAP
 40
0.09
  9
$LUNITS
 70
2
  9
$LUPREC
 70
4
  9
$AXISMODE
 70
0
  9
$AXISUNIT
 10
0
 20
0
  9
$SKETCHINC
 40
0.1
  9
$FILLETRAD
 40
2
  9
$AUNITS
 70
0
  9
$AUPREC
 70
0
  9
$MENU
  1
ACAD
  9
$ELEVATION
 40
0
  9
$THICKNESS
 40
0
  9
$VIEWDIR
 10
0
 20
0
 30
1
  9
$LIMCHECK
 70
0
  9
$BLIPMODE
 70
1
  9
$CHAMFERA
 40
0
  9
$CHAMFERB
 40
0
  9
$FASTZOOM
 70
1
  9
$SKPOLY
 70
0
  9
$ANGBASE
 50
0
  9
$ANGDIR
 70
0
  9
$PDMODE
 70
0
  9
$PDSIZE
 40
0
  9
$PLINEWID
 40
0
  9
$COORDS
 70
2
  0
ENDSEC
  0
SECTION
  2
TABLES
  0
TABLE
  2
DIMSTYLE
 70
2
  0
DIMSTYLE
  2
DMST_1
 70
0
  3

  4

  5

  6

  7

 40
1
 41
0.1
 42
0
 43
0.7
 44
0.2
 45
0
 46
0
 47
0
 48
0
140
0.1
141
0
142
0.1
143
25.4
144
1
145
0
146
1
147
0.25
 71
0
 72
0
 73
0
 74
0
 75
0
 76
0
 77
0
 78
9
170
0
171
2
172
0
173
0
174
0
175
0
176
7
177
7
178
7
  0
DIMSTYLE
  2
DMST_2
 70
0
  3

  4

  5

  6

  7

 40
1
 41
0.1
 42
0
 43
0.7
 44
0.2
 45
0
 46
0
 47
0
 48
0
140
0.1
141
0
142
0.1
143
25.4
144
1
145
0
146
1
147
0.2
 71
0
 72
0
 73
0
 74
0
 75
0
 76
0
 77
0
 78
9
170
0
171
2
172
0
173
0
174
0
175
0
176
7
177
7
178
7
  0
ENDTAB
  0
TABLE
  2
LTYPE
 70
9
  0
LTYPE
  2
CONTINUOUS
 70
64
  3
Solid line
 72
65
 73
0
 40
0
  0
LTYPE
  2
BORDER
 70
64
  3
__ __ . __ __ .
 72
65
 73
6
 40
0.4018805622977342
 49
0.1148230177993526
 49
-0.05741150889967631
 49
0.1148230177993526
 49
-0.05741150889967631
 49
0
 49
-0.05741150889967631
  0
LTYPE
  2
CENTER
 70
64
  3
____ _ ____ _
 72
65
 73
4
 40
0.4592920711974105
 49
0.2870575444983816
 49
-0.05741150889967631
 49
0.05741150889967631
 49
-0.05741150889967631
  0
LTYPE
  2
DASHDOT
 70
64
  3
__ . __ . __ .
 72
65
 73
4
 40
0.2296460355987053
 49
0.1148230177993526
 49
-0.05741150889967631
 49
0
 49
-0.05741150889967631
  0
LTYPE
  2
DASHED
 70
64
  3
__ __ __ __ __
 72
65
 73
2
 40
0.1722345266990289
 49
0.1148230177993526
 49
-0.05741150889967631
  0
LTYPE
  2
DIVIDE
 70
64
  3
__ . . __ . . 
 72
65
 73
6
 40
0.2870575444983816
 49
0.1148230177993526
 49
-0.05741150889967631
 49
0
 49
-0.05741150889967631
 49
0
 49
-0.05741150889967631
  0
LTYPE
  2
DOT
 70
64
  3
..............
 72
65
 73
4
 40
0.1148230177993526
 49
0
 49
-0.05741150889967631
 49
0
 49
-0.05741150889967631
  0
LTYPE
  2
HIDDEN
 70
64
  3
_ _ _ _ _ _ _
 72
65
 73
2
 40
0.08611726334951447
 49
0.05741150889967631
 49
-0.02870575444983816
  0
LTYPE
  2
PHANTOM
 70
64
  3
_____ _ _ _____ _ _ 
 72
65
 73
6
 40
0.5741150889967631
 49
0.2870575444983816
 49
-0.05741150889967631
 49
0.05741150889967631
 49
-0.05741150889967631
 49
0.05741150889967631
 49
-0.05741150889967631
  0
ENDTAB
  0
TABLE
  2
LAYER
 70
2
  0
LAYER
  2
0
 70
0
 62
7
  6
CONTINUOUS
  0
ENDTAB
  0
TABLE
  2
STYLE
 70
4
  0
STYLE
  2
STANDARD
 70
0
 40
0
 41
1
 50
0
 71
0
 42
3.5
  3
txt
  4

  0
STYLE
  2
SIMPLEX
 70
0
 40
0
 41
1
 50
0
 71
0
 42
3.5
  3
simplex
  4

  0
STYLE
  2
COMPLEX
 70
0
 40
0
 41
1
 50
0
 71
0
 42
3.5
  3
complex
  4

  0
STYLE
  2
ITALIC
 70
0
 40
0
 41
1
 50
0
 71
0
 42
3.5
  3
italic
  4

  0
ENDTAB
  0
TABLE
  2
VIEW
 70
0
  0
ENDTAB
  0
ENDSEC
  0
SECTION
  2
BLOCKS
  0
BLOCK
  8
0
  2
*X0
 70
1
 10
0
 20
0
 30
0
  0
LINE
  8
0
 62
7
  6
DASHED
 10
0.5
 20
8.242819253992694
 30
0
 11
0.5571807460073028
 21
8.299999999999997
 31
0
  0
LINE
  8
0
 62
7
  6
DASHED
 10
0.5693127803632687
 20
8.099999999999998
 30
0
 11
0.7399999999999998
 21
8.270687219636729
 31
0
  0
LINE
  8
0
 62
7
 10
0.5
 20
8.136753236814712
 30
0
 11
0.6632467631852856
 21
8.299999999999997
 31
0
  0
LINE
  8
0
 62
7
 10
0.6753787975412497
 20
8.099999999999998
 30
0
 11
0.7399999999999998
 21
8.164621202458747
 31
0
  0
ENDBLK
  8
0
  0
BLOCK
  8
0
  2
*X1
 70
1
 10
0
 20
0
 30
0
  0
LINE
  8
0
 62
7
  6
DASHED
 10
0.4999999999999991
 20
11.00053570062023
 30
0
 11
0.5494642993797729
 21
11.05
 31
0
  0
LINE
  8
0
 62
7
  6
DASHED
 10
0.5615963337357357
 20
10.85
 30
0
 11
0.7399999999999993
 21
11.02840366626426
 31
0
  0
LINE
  8
0
 62
7
 10
0.5000000000000009
 20
10.89446968344225
 30
0
 11
0.655530316557754
 21
11.05
 31
0
  0
LINE
  8
0
 62
7
 10
0.6676623509137176
 20
10.85
 30
0
 11
0.7400000000000002
 21
10.92233764908628
 31
0
  0
ENDBLK
  8
0
  0
BLOCK
  8
0
  2
*X2
 70
1
 10
0
 20
0
 30
0
  0
LINE
  8
0
 62
7
  6
DASHED
 10
2.046520574227485
 20
10.85
 30
0
 11
2.246520574227487
 21
11.05
 31
0
  0
LINE
  8
0
 62
7
  6
DASHED
 10
2.258652608583449
 20
10.85
 30
0
 11
2.339999999999997
 21
10.93134739141655
 31
0
  0
LINE
  8
0
 62
7
 10
2.040000000000001
 20
10.9495454429505
 30
0
 11
2.140454557049505
 21
11.05
 31
0
  0
LINE
  8
0
 62
7
 10
2.152586591405467
 20
10.85
 30
0
 11
2.339999999999995
 21
11.03741340859453
 31
0
  0
ENDBLK
  8
0
  0
BLOCK
  8
0
  2
*X3
 70
1
 10
0
 20
0
 30
0
  0
LINE
  8
0
 62
7
  6
DASHED
 10
2.04
 20
8.297895013500945
 30
0
 11
2.042104986499052
 21
8.299999999999997
 31
0
  0
LINE
  8
0
 62
7
  6
DASHED
 10
2.054237020855016
 20
8.099999999999996
 30
0
 11
2.254237020855017
 21
8.299999999999997
 31
0
  0
LINE
  8
0
 62
7
  6
DASHED
 10
2.26636905521098
 20
8.099999999999996
 30
0
 11
2.339999999999997
 21
8.173630944789013
 31
0
  0
LINE
  8
0
 62
7
 10
2.04
 20
8.191828996322961
 30
0
 11
2.148171003677035
 21
8.299999999999997
 31
0
  0
LINE
  8
0
 62
7
 10
2.160303038032999
 20
8.099999999999996
 30
0
 11
2.339999999999996
 21
8.279696961966994
 31
0
  0
ENDBLK
  8
0
  0
BLOCK
  8
0
  2
*X4
 70
1
 10
0
 20
0
 30
0
  0
LINE
  8
0
 62
7
 10
0.549464299379772
 20
11.05
 30
0
 11
0.6994642993797706
 21
11.2
 31
0
  0
LINE
  8
0
 62
7
 10
0.5
 20
11.10660171779821
 30
0
 11
0.5933982822017896
 21
11.2
 31
0
  0
LINE
  8
0
 62
7
 10
0.655530316557754
 20
11.05
 30
0
 11
0.7400000000000002
 21
11.13446968344225
 31
0
  0
ENDBLK
  8
0
  0
BLOCK
  8
0
  2
*X5
 70
1
 10
0
 20
0
 30
0
  0
LINE
  8
0
 62
7
 10
0.5000000000000004
 20
10.78840366626426
 30
0
 11
0.5615963337357339
 21
10.85
 31
0
  0
LINE
  8
0
 62
7
 10
0.5000000000000004
 20
10.5762716319083
 30
0
 11
0.7400000000000002
 21
10.8162716319083
 31
0
  0
LINE
  8
0
 62
7
 10
0.5000000000000004
 20
10.36413959755233
 30
0
 11
0.7400000000000002
 21
10.60413959755233
 31
0
  0
LINE
  8
0
 62
7
 10
0.5000000000000004
 20
10.15200756319637
 30
0
 11
0.7400000000000002
 21
10.39200756319637
 31
0
  0
LINE
  8
0
 62
7
 10
0.5000000000000004
 20
9.939875528840407
 30
0
 11
0.7400000000000002
 21
10.17987552884041
 31
0
  0
LINE
  8
0
 62
7
 10
0.5000000000000004
 20
9.727743494484443
 30
0
 11
0.7400000000000002
 21
9.967743494484441
 31
0
  0
LINE
  8
0
 62
7
 10
0.5000000000000004
 20
9.515611460128479
 30
0
 11
0.7400000000000002
 21
9.755611460128478
 31
0
  0
LINE
  8
0
 62
7
 10
0.5000000000000004
 20
9.303479425772515
 30
0
 11
0.7400000000000002
 21
9.543479425772514
 31
0
  0
LINE
  8
0
 62
7
 10
0.5000000000000004
 20
9.091347391416551
 30
0
 11
0.7400000000000002
 21
9.33134739141655
 31
0
  0
LINE
  8
0
 62
7
 10
0.5000000000000004
 20
8.879215357060588
 30
0
 11
0.7400000000000002
 21
9.119215357060586
 31
0
  0
LINE
  8
0
 62
7
 10
0.5000000000000004
 20
8.667083322704624
 30
0
 11
0.7400000000000002
 21
8.907083322704622
 31
0
  0
LINE
  8
0
 62
7
 10
0.5000000000000004
 20
8.45495128834866
 30
0
 11
0.7400000000000002
 21
8.694951288348658
 31
0
  0
LINE
  8
0
 62
7
 10
0.5571807460073028
 20
8.299999999999997
 30
0
 11
0.7400000000000002
 21
8.482819253992695
 31
0
  0
LINE
  8
0
 62
7
 10
0.5
 20
10.68233764908628
 30
0
 11
0.6676623509137176
 21
10.85
 31
0
  0
LINE
  8
0
 62
7
 10
0.5
 20
10.47020561473031
 30
0
 11
0.7400000000000007
 21
10.71020561473031
 31
0
  0
LINE
  8
0
 62
7
 10
0.5
 20
10.25807358037435
 30
0
 11
0.7400000000000007
 21
10.49807358037435
 31
0
  0
LINE
  8
0
 62
7
 10
0.5
 20
10.04594154601839
 30
0
 11
0.7400000000000007
 21
10.28594154601839
 31
0
  0
LINE
  8
0
 62
7
 10
0.5
 20
9.833809511662423
 30
0
 11
0.7400000000000007
 21
10.07380951166242
 31
0
  0
LINE
  8
0
 62
7
 10
0.5
 20
9.621677477306459
 30
0
 11
0.7400000000000007
 21
9.861677477306458
 31
0
  0
LINE
  8
0
 62
7
 10
0.5
 20
9.409545442950495
 30
0
 11
0.7400000000000007
 21
9.649545442950494
 31
0
  0
LINE
  8
0
 62
7
 10
0.5
 20
9.197413408594532
 30
0
 11
0.7400000000000007
 21
9.43741340859453
 31
0
  0
LINE
  8
0
 62
7
 10
0.5
 20
8.985281374238568
 30
0
 11
0.7400000000000007
 21
9.225281374238566
 31
0
  0
LINE
  8
0
 62
7
 10
0.5
 20
8.773149339882604
 30
0
 11
0.7400000000000007
 21
9.013149339882602
 31
0
  0
LINE
  8
0
 62
7
 10
0.5
 20
8.56101730552664
 30
0
 11
0.7400000000000007
 21
8.801017305526639
 31
0
  0
LINE
  8
0
 62
7
 10
0.5
 20
8.348885271170676
 30
0
 11
0.7400000000000007
 21
8.588885271170675
 31
0
  0
LINE
  8
0
 62
7
 10
0.6632467631852861
 20
8.299999999999997
 30
0
 11
0.7400000000000007
 21
8.376753236814711
 31
0
  0
ENDBLK
  8
0
  0
BLOCK
  8
0
  2
*X6
 70
1
 10
0
 20
0
 30
0
  0
LINE
  8
0
 62
7
 10
0.5
 20
8.03068721963673
 30
0
 11
0.5693127803632674
 21
8.099999999999998
 31
0
  0
LINE
  8
0
 62
7
 10
0.6314448147192295
 20
7.949999999999995
 30
0
 11
0.7399999999999989
 21
8.058555185280763
 31
0
  0
LINE
  8
0
 62
7
 10
0.5253787975412476
 20
7.949999999999996
 30
0
 11
0.6753787975412497
 21
8.099999999999998
 31
0
  0
LINE
  8
0
 62
7
 10
0.7375108318972119
 20
7.949999999999996
 30
0
 11
0.7400000000000011
 21
7.952489168102783
 31
0
  0
ENDBLK
  8
0
  0
BLOCK
  8
0
  2
*X7
 70
1
 10
0
 20
0
 30
0
  0
LINE
  8
0
 62
7
  6
DASHED
 10
3.714999999999996
 20
11.03355518528076
 30
0
 11
3.731444814719243
 21
11.05
 31
0
  0
LINE
  8
0
 62
7
  6
DASHED
 10
3.743576849075207
 20
10.85
 30
0
 11
3.943576849075207
 21
11.05
 31
0
  0
LINE
  8
0
 62
7
  6
DASHED
 10
3.955708883431171
 20
10.85
 30
0
 11
4.155708883431172
 21
11.05
 31
0
  0
LINE
  8
0
 62
7
  6
DASHED
 10
4.167840917787135
 20
10.85
 30
0
 11
4.367840917787135
 21
11.05
 31
0
  0
LINE
  8
0
 62
7
  6
DASHED
 10
4.379972952143099
 20
10.85
 30
0
 11
4.579972952143099
 21
11.05
 31
0
  0
LINE
  8
0
 62
7
  6
DASHED
 10
4.592104986499063
 20
10.85
 30
0
 11
4.792104986499063
 21
11.05
 31
0
  0
LINE
  8
0
 62
7
  6
DASHED
 10
4.804237020855027
 20
10.85
 30
0
 11
5.004237020855027
 21
11.05
 31
0
  0
LINE
  8
0
 62
7
  6
DASHED
 10
5.016369055210991
 20
10.85
 30
0
 11
5.216369055210991
 21
11.05
 31
0
  0
LINE
  8
0
 62
7
  6
DASHED
 10
5.228501089566954
 20
10.85
 30
0
 11
5.428501089566955
 21
11.05
 31
0
  0
LINE
  8
0
 62
7
  6
DASHED
 10
5.440633123922918
 20
10.85
 30
0
 11
5.640633123922918
 21
11.05
 31
0
  0
LINE
  8
0
 62
7
  6
DASHED
 10
5.652765158278882
 20
10.85
 30
0
 11
5.852765158278882
 21
11.05
 31
0
  0
LINE
  8
0
 62
7
  6
DASHED
 10
5.864897192634846
 20
10.85
 30
0
 11
6.064897192634846
 21
11.05
 31
0
  0
LINE
  8
0
 62
7
  6
DASHED
 10
6.07702922699081
 20
10.85
 30
0
 11
6.27702922699081
 21
11.05
 31
0
  0
LINE
  8
0
 62
7
  6
DASHED
 10
6.289161261346774
 20
10.85
 30
0
 11
6.489161261346774
 21
11.05
 31
0
  0
LINE
  8
0
 62
7
  6
DASHED
 10
6.501293295702737
 20
10.85
 30
0
 11
6.701293295702738
 21
11.05
 31
0
  0
LINE
  8
0
 62
7
  6
DASHED
 10
6.713425330058701
 20
10.85
 30
0
 11
6.913425330058701
 21
11.05
 31
0
  0
LINE
  8
0
 62
7
  6
DASHED
 10
6.925557364414665
 20
10.85
 30
0
 11
7.125557364414665
 21
11.05
 31
0
  0
LINE
  8
0
 62
7
  6
DASHED
 10
7.137689398770629
 20
10.85
 30
0
 11
7.337689398770629
 21
11.05
 31
0
  0
LINE
  8
0
 62
7
  6
DASHED
 10
7.349821433126593
 20
10.85
 30
0
 11
7.549821433126593
 21
11.05
 31
0
  0
LINE
  8
0
 62
7
  6
DASHED
 10
7.561953467482557
 20
10.85
 30
0
 11
7.75
 21
11.03804653251744
 31
0
  0
LINE
  8
0
 62
7
 10
3.714999999999998
 20
10.92748916810278
 30
0
 11
3.837510831897223
 21
11.05
 31
0
  0
LINE
  8
0
 62
7
 10
3.849642866253188
 20
10.85
 30
0
 11
4.049642866253187
 21
11.05
 31
0
  0
LINE
  8
0
 62
7
 10
4.061774900609152
 20
10.85
 30
0
 11
4.261774900609151
 21
11.05
 31
0
  0
LINE
  8
0
 62
7
 10
4.273906934965116
 20
10.85
 30
0
 11
4.473906934965115
 21
11.05
 31
0
  0
LINE
  8
0
 62
7
 10
4.48603896932108
 20
10.85
 30
0
 11
4.686038969321078
 21
11.05
 31
0
  0
LINE
  8
0
 62
7
 10
4.698171003677044
 20
10.85
 30
0
 11
4.898171003677042
 21
11.05
 31
0
  0
LINE
  8
0
 62
7
 10
4.910303038033008
 20
10.85
 30
0
 11
5.110303038033006
 21
11.05
 31
0
  0
LINE
  8
0
 62
7
 10
5.122435072388972
 20
10.85
 30
0
 11
5.32243507238897
 21
11.05
 31
0
  0
LINE
  8
0
 62
7
 10
5.334567106744935
 20
10.85
 30
0
 11
5.534567106744934
 21
11.05
 31
0
  0
LINE
  8
0
 62
7
 10
5.546699141100899
 20
10.85
 30
0
 11
5.746699141100898
 21
11.05
 31
0
  0
LINE
  8
0
 62
7
 10
5.758831175456863
 20
10.85
 30
0
 11
5.958831175456861
 21
11.05
 31
0
  0
LINE
  8
0
 62
7
 10
5.970963209812827
 20
10.85
 30
0
 11
6.170963209812825
 21
11.05
 31
0
  0
LINE
  8
0
 62
7
 10
6.183095244168791
 20
10.85
 30
0
 11
6.383095244168789
 21
11.05
 31
0
  0
LINE
  8
0
 62
7
 10
6.395227278524755
 20
10.85
 30
0
 11
6.595227278524753
 21
11.05
 31
0
  0
LINE
  8
0
 62
7
 10
6.607359312880718
 20
10.85
 30
0
 11
6.807359312880717
 21
11.05
 31
0
  0
LINE
  8
0
 62
7
 10
6.819491347236682
 20
10.85
 30
0
 11
7.019491347236681
 21
11.05
 31
0
  0
LINE
  8
0
 62
7
 10
7.031623381592646
 20
10.85
 30
0
 11
7.231623381592645
 21
11.05
 31
0
  0
LINE
  8
0
 62
7
 10
7.24375541594861
 20
10.85
 30
0
 11
7.443755415948608
 21
11.05
 31
0
  0
LINE
  8
0
 62
7
 10
7.455887450304574
 20
10.85
 30
0
 11
7.655887450304572
 21
11.05
 31
0
  0
LINE
  8
0
 62
7
 10
7.668019484660538
 20
10.85
 30
0
 11
7.749999999999999
 21
10.93198051533946
 31
0
  0
ENDBLK
  8
0
  0
BLOCK
  8
0
  2
*X8
 70
1
 10
0
 20
0
 30
0
  0
LINE
  8
0
 62
7
  6
DASHED
 10
3.714999999999997
 20
8.275838738653228
 30
0
 11
3.739161261346774
 21
8.299999999999997
 31
0
  0
LINE
  8
0
 62
7
  6
DASHED
 10
3.751293295702737
 20
8.099999999999996
 30
0
 11
3.951293295702738
 21
8.299999999999997
 31
0
  0
LINE
  8
0
 62
7
  6
DASHED
 10
3.963425330058701
 20
8.099999999999996
 30
0
 11
4.163425330058702
 21
8.299999999999997
 31
0
  0
LINE
  8
0
 62
7
  6
DASHED
 10
4.175557364414665
 20
8.099999999999996
 30
0
 11
4.375557364414666
 21
8.299999999999997
 31
0
  0
LINE
  8
0
 62
7
  6
DASHED
 10
4.387689398770629
 20
8.099999999999996
 30
0
 11
4.58768939877063
 21
8.299999999999997
 31
0
  0
LINE
  8
0
 62
7
  6
DASHED
 10
4.599821433126593
 20
8.099999999999996
 30
0
 11
4.799821433126594
 21
8.299999999999997
 31
0
  0
LINE
  8
0
 62
7
  6
DASHED
 10
4.811953467482557
 20
8.099999999999996
 30
0
 11
5.011953467482558
 21
8.299999999999997
 31
0
  0
LINE
  8
0
 62
7
  6
DASHED
 10
5.02408550183852
 20
8.099999999999996
 30
0
 11
5.224085501838521
 21
8.299999999999997
 31
0
  0
LINE
  8
0
 62
7
  6
DASHED
 10
5.236217536194484
 20
8.099999999999996
 30
0
 11
5.436217536194485
 21
8.299999999999997
 31
0
  0
LINE
  8
0
 62
7
  6
DASHED
 10
5.448349570550448
 20
8.099999999999996
 30
0
 11
5.648349570550449
 21
8.299999999999997
 31
0
  0
LINE
  8
0
 62
7
  6
DASHED
 10
5.660481604906412
 20
8.099999999999996
 30
0
 11
5.860481604906413
 21
8.299999999999997
 31
0
  0
LINE
  8
0
 62
7
  6
DASHED
 10
5.872613639262376
 20
8.099999999999996
 30
0
 11
6.072613639262377
 21
8.299999999999997
 31
0
  0
LINE
  8
0
 62
7
  6
DASHED
 10
6.08474567361834
 20
8.099999999999996
 30
0
 11
6.284745673618341
 21
8.299999999999997
 31
0
  0
LINE
  8
0
 62
7
  6
DASHED
 10
6.296877707974303
 20
8.099999999999996
 30
0
 11
6.496877707974305
 21
8.299999999999997
 31
0
  0
LINE
  8
0
 62
7
  6
DASHED
 10
6.509009742330267
 20
8.099999999999996
 30
0
 11
6.709009742330268
 21
8.299999999999997
 31
0
  0
LINE
  8
0
 62
7
  6
DASHED
 10
6.721141776686231
 20
8.099999999999996
 30
0
 11
6.921141776686232
 21
8.299999999999997
 31
0
  0
LINE
  8
0
 62
7
  6
DASHED
 10
6.933273811042195
 20
8.099999999999996
 30
0
 11
7.133273811042196
 21
8.299999999999997
 31
0
  0
LINE
  8
0
 62
7
  6
DASHED
 10
7.145405845398159
 20
8.099999999999996
 30
0
 11
7.34540584539816
 21
8.299999999999997
 31
0
  0
LINE
  8
0
 62
7
  6
DASHED
 10
7.357537879754123
 20
8.099999999999996
 30
0
 11
7.557537879754124
 21
8.299999999999997
 31
0
  0
LINE
  8
0
 62
7
  6
DASHED
 10
7.569669914110086
 20
8.099999999999996
 30
0
 11
7.749999999999998
 21
8.280330085889908
 31
0
  0
LINE
  8
0
 62
7
 10
3.714999999999998
 20
8.169772721475246
 30
0
 11
3.845227278524756
 21
8.299999999999997
 31
0
  0
LINE
  8
0
 62
7
 10
3.857359312880721
 20
8.099999999999996
 30
0
 11
4.05735931288072
 21
8.299999999999997
 31
0
  0
LINE
  8
0
 62
7
 10
4.069491347236685
 20
8.099999999999996
 30
0
 11
4.269491347236684
 21
8.299999999999997
 31
0
  0
LINE
  8
0
 62
7
 10
4.281623381592649
 20
8.099999999999996
 30
0
 11
4.481623381592648
 21
8.299999999999997
 31
0
  0
LINE
  8
0
 62
7
 10
4.493755415948613
 20
8.099999999999996
 30
0
 11
4.693755415948612
 21
8.299999999999997
 31
0
  0
LINE
  8
0
 62
7
 10
4.705887450304576
 20
8.099999999999996
 30
0
 11
4.905887450304576
 21
8.299999999999997
 31
0
  0
LINE
  8
0
 62
7
 10
4.91801948466054
 20
8.099999999999996
 30
0
 11
5.11801948466054
 21
8.299999999999997
 31
0
  0
LINE
  8
0
 62
7
 10
5.130151519016504
 20
8.099999999999996
 30
0
 11
5.330151519016503
 21
8.299999999999997
 31
0
  0
LINE
  8
0
 62
7
 10
5.342283553372468
 20
8.099999999999996
 30
0
 11
5.542283553372467
 21
8.299999999999997
 31
0
  0
LINE
  8
0
 62
7
 10
5.554415587728432
 20
8.099999999999996
 30
0
 11
5.754415587728431
 21
8.299999999999997
 31
0
  0
LINE
  8
0
 62
7
 10
5.766547622084396
 20
8.099999999999996
 30
0
 11
5.966547622084395
 21
8.299999999999997
 31
0
  0
LINE
  8
0
 62
7
 10
5.978679656440359
 20
8.099999999999996
 30
0
 11
6.178679656440359
 21
8.299999999999997
 31
0
  0
LINE
  8
0
 62
7
 10
6.190811690796323
 20
8.099999999999996
 30
0
 11
6.390811690796323
 21
8.299999999999997
 31
0
  0
LINE
  8
0
 62
7
 10
6.402943725152287
 20
8.099999999999996
 30
0
 11
6.602943725152286
 21
8.299999999999997
 31
0
  0
LINE
  8
0
 62
7
 10
6.615075759508251
 20
8.099999999999996
 30
0
 11
6.81507575950825
 21
8.299999999999997
 31
0
  0
LINE
  8
0
 62
7
 10
6.827207793864215
 20
8.099999999999996
 30
0
 11
7.027207793864214
 21
8.299999999999997
 31
0
  0
LINE
  8
0
 62
7
 10
7.039339828220179
 20
8.099999999999996
 30
0
 11
7.239339828220178
 21
8.299999999999997
 31
0
  0
LINE
  8
0
 62
7
 10
7.251471862576143
 20
8.099999999999996
 30
0
 11
7.451471862576142
 21
8.299999999999997
 31
0
  0
LINE
  8
0
 62
7
 10
7.463603896932106
 20
8.099999999999996
 30
0
 11
7.663603896932106
 21
8.299999999999997
 31
0
  0
LINE
  8
0
 62
7
 10
7.67573593128807
 20
8.099999999999996
 30
0
 11
7.749999999999999
 21
8.174264068711926
 31
0
  0
ENDBLK
  8
0
  0
BLOCK
  8
0
  2
*X9
 70
1
 10
0
 20
0
 30
0
  0
LINE
  8
0
 62
7
 10
3.864999999999999
 20
11.18355518528076
 30
0
 11
3.881444814719234
 21
11.2
 31
0
  0
LINE
  8
0
 62
7
 10
3.943576849075201
 20
11.05
 30
0
 11
4.039999999999999
 21
11.1464231509248
 31
0
  0
LINE
  8
0
 62
7
 10
3.864999999999998
 20
11.07748916810278
 30
0
 11
3.987510831897217
 21
11.2
 31
0
  0
ENDBLK
  8
0
  0
BLOCK
  8
0
  2
*X10
 70
1
 10
0
 20
0
 30
0
  0
LINE
  8
0
 62
7
 10
3.864999999999999
 20
10.75929111656883
 30
0
 11
3.955708883431164
 21
10.85
 31
0
  0
LINE
  8
0
 62
7
 10
3.864999999999999
 20
10.54715908221287
 30
0
 11
4.039999999999999
 21
10.72215908221287
 31
0
  0
LINE
  8
0
 62
7
 10
3.864999999999999
 20
10.3350270478569
 30
0
 11
4.039999999999999
 21
10.5100270478569
 31
0
  0
LINE
  8
0
 62
7
 10
3.864999999999999
 20
10.12289501350094
 30
0
 11
4.039999999999999
 21
10.29789501350094
 31
0
  0
LINE
  8
0
 62
7
 10
3.864999999999999
 20
9.910762979144977
 30
0
 11
4.039999999999999
 21
10.08576297914498
 31
0
  0
LINE
  8
0
 62
7
 10
3.864999999999999
 20
9.698630944789013
 30
0
 11
4.039999999999999
 21
9.873630944789012
 31
0
  0
LINE
  8
0
 62
7
 10
3.864999999999999
 20
9.486498910433049
 30
0
 11
4.039999999999999
 21
9.661498910433048
 31
0
  0
LINE
  8
0
 62
7
 10
3.864999999999999
 20
9.274366876077085
 30
0
 11
4.039999999999999
 21
9.449366876077084
 31
0
  0
LINE
  8
0
 62
7
 10
3.864999999999999
 20
9.062234841721121
 30
0
 11
4.039999999999999
 21
9.23723484172112
 31
0
  0
LINE
  8
0
 62
7
 10
3.864999999999999
 20
8.850102807365158
 30
0
 11
4.039999999999999
 21
9.025102807365156
 31
0
  0
LINE
  8
0
 62
7
 10
3.864999999999999
 20
8.637970773009194
 30
0
 11
4.039999999999999
 21
8.812970773009193
 31
0
  0
LINE
  8
0
 62
7
 10
3.864999999999999
 20
8.42583873865323
 30
0
 11
4.039999999999999
 21
8.600838738653229
 31
0
  0
LINE
  8
0
 62
7
 10
3.951293295702732
 20
8.299999999999997
 30
0
 11
4.039999999999999
 21
8.388706704297265
 31
0
  0
LINE
  8
0
 62
7
 10
3.864999999999999
 20
10.65322509939085
 30
0
 11
4.039999999999999
 21
10.82822509939085
 31
0
  0
LINE
  8
0
 62
7
 10
3.864999999999999
 20
10.44109306503488
 30
0
 11
4.039999999999999
 21
10.61609306503489
 31
0
  0
LINE
  8
0
 62
7
 10
3.864999999999999
 20
10.22896103067892
 30
0
 11
4.039999999999999
 21
10.40396103067892
 31
0
  0
LINE
  8
0
 62
7
 10
3.864999999999999
 20
10.01682899632296
 30
0
 11
4.039999999999999
 21
10.19182899632296
 31
0
  0
LINE
  8
0
 62
7
 10
3.864999999999999
 20
9.804696961966993
 30
0
 11
4.039999999999999
 21
9.979696961966994
 31
0
  0
LINE
  8
0
 62
7
 10
3.864999999999999
 20
9.592564927611029
 30
0
 11
4.039999999999999
 21
9.76756492761103
 31
0
  0
LINE
  8
0
 62
7
 10
3.864999999999999
 20
9.380432893255065
 30
0
 11
4.039999999999999
 21
9.555432893255066
 31
0
  0
LINE
  8
0
 62
7
 10
3.864999999999999
 20
9.168300858899102
 30
0
 11
4.039999999999999
 21
9.343300858899102
 31
0
  0
LINE
  8
0
 62
7
 10
3.864999999999999
 20
8.956168824543138
 30
0
 11
4.039999999999999
 21
9.131168824543138
 31
0
  0
LINE
  8
0
 62
7
 10
3.864999999999999
 20
8.744036790187174
 30
0
 11
4.039999999999999
 21
8.919036790187175
 31
0
  0
LINE
  8
0
 62
7
 10
3.864999999999999
 20
8.53190475583121
 30
0
 11
4.039999999999999
 21
8.706904755831211
 31
0
  0
LINE
  8
0
 62
7
 10
3.864999999999999
 20
8.319772721475246
 30
0
 11
4.039999999999999
 21
8.494772721475247
 31
0
  0
ENDBLK
  8
0
  0
BLOCK
  8
0
  2
*X11
 70
1
 10
0
 20
0
 30
0
  0
LINE
  8
0
 62
7
 10
3.864999999999999
 20
8.0015746699413
 30
0
 11
3.963425330058695
 21
8.099999999999996
 31
0
  0
LINE
  8
0
 62
7
 10
4.025557364414659
 20
7.949999999999996
 30
0
 11
4.039999999999998
 21
7.964442635585335
 31
0
  0
LINE
  8
0
 62
7
 10
3.919491347236677
 20
7.949999999999996
 30
0
 11
4.039999999999998
 21
8.070508652763317
 31
0
  0
ENDBLK
  8
0
  0
BLOCK
  8
0
  2
*X12
 70
1
 10
0
 20
0
 30
0
  0
LINE
  8
0
 62
7
 10
7.424999999999998
 20
11.13731060122937
 30
0
 11
7.487689398770626
 21
11.2
 31
0
  0
LINE
  8
0
 62
7
 10
7.549821433126593
 20
11.05
 30
0
 11
7.599999999999997
 21
11.10017856687341
 31
0
  0
LINE
  8
0
 62
7
 10
7.44375541594861
 20
11.05
 30
0
 11
7.593755415948609
 21
11.2
 31
0
  0
ENDBLK
  8
0
  0
BLOCK
  8
0
  2
*X13
 70
1
 10
0
 20
0
 30
0
  0
LINE
  8
0
 62
7
 10
7.424999999999999
 20
10.71304653251744
 30
0
 11
7.561953467482555
 21
10.85
 31
0
  0
LINE
  8
0
 62
7
 10
7.424999999999999
 20
10.50091449816147
 30
0
 11
7.6
 21
10.67591449816148
 31
0
  0
LINE
  8
0
 62
7
 10
7.424999999999999
 20
10.28878246380551
 30
0
 11
7.6
 21
10.46378246380551
 31
0
  0
LINE
  8
0
 62
7
 10
7.424999999999999
 20
10.07665042944955
 30
0
 11
7.6
 21
10.25165042944955
 31
0
  0
LINE
  8
0
 62
7
 10
7.424999999999999
 20
9.864518395093583
 30
0
 11
7.6
 21
10.03951839509358
 31
0
  0
LINE
  8
0
 62
7
 10
7.424999999999999
 20
9.652386360737619
 30
0
 11
7.6
 21
9.82738636073762
 31
0
  0
LINE
  8
0
 62
7
 10
7.424999999999999
 20
9.440254326381655
 30
0
 11
7.6
 21
9.615254326381656
 31
0
  0
LINE
  8
0
 62
7
 10
7.424999999999999
 20
9.228122292025692
 30
0
 11
7.6
 21
9.403122292025692
 31
0
  0
LINE
  8
0
 62
7
 10
7.424999999999999
 20
9.015990257669728
 30
0
 11
7.6
 21
9.190990257669728
 31
0
  0
LINE
  8
0
 62
7
 10
7.424999999999999
 20
8.803858223313764
 30
0
 11
7.6
 21
8.978858223313765
 31
0
  0
LINE
  8
0
 62
7
 10
7.424999999999999
 20
8.5917261889578
 30
0
 11
7.6
 21
8.766726188957801
 31
0
  0
LINE
  8
0
 62
7
 10
7.424999999999999
 20
8.379594154601836
 30
0
 11
7.6
 21
8.554594154601837
 31
0
  0
LINE
  8
0
 62
7
 10
7.557537879754123
 20
8.299999999999995
 30
0
 11
7.6
 21
8.342462120245873
 31
0
  0
LINE
  8
0
 62
7
 10
7.425
 20
10.81911254969542
 30
0
 11
7.455887450304571
 21
10.85
 31
0
  0
LINE
  8
0
 62
7
 10
7.425
 20
10.60698051533946
 30
0
 11
7.600000000000001
 21
10.78198051533946
 31
0
  0
LINE
  8
0
 62
7
 10
7.425
 20
10.39484848098349
 30
0
 11
7.600000000000001
 21
10.56984848098349
 31
0
  0
LINE
  8
0
 62
7
 10
7.425
 20
10.18271644662753
 30
0
 11
7.600000000000001
 21
10.35771644662753
 31
0
  0
LINE
  8
0
 62
7
 10
7.425
 20
9.970584412271567
 30
0
 11
7.600000000000001
 21
10.14558441227157
 31
0
  0
LINE
  8
0
 62
7
 10
7.425
 20
9.758452377915603
 30
0
 11
7.600000000000001
 21
9.933452377915602
 31
0
  0
LINE
  8
0
 62
7
 10
7.425
 20
9.546320343559639
 30
0
 11
7.600000000000001
 21
9.721320343559638
 31
0
  0
LINE
  8
0
 62
7
 10
7.425
 20
9.334188309203675
 30
0
 11
7.600000000000001
 21
9.509188309203674
 31
0
  0
LINE
  8
0
 62
7
 10
7.425
 20
9.122056274847711
 30
0
 11
7.600000000000001
 21
9.29705627484771
 31
0
  0
LINE
  8
0
 62
7
 10
7.425
 20
8.909924240491748
 30
0
 11
7.600000000000001
 21
9.084924240491747
 31
0
  0
LINE
  8
0
 62
7
 10
7.425
 20
8.697792206135784
 30
0
 11
7.600000000000001
 21
8.872792206135783
 31
0
  0
LINE
  8
0
 62
7
 10
7.425
 20
8.48566017177982
 30
0
 11
7.600000000000001
 21
8.660660171779819
 31
0
  0
LINE
  8
0
 62
7
 10
7.451471862576141
 20
8.299999999999997
 30
0
 11
7.600000000000001
 21
8.448528137423855
 31
0
  0
ENDBLK
  8
0
  0
BLOCK
  8
0
  2
*X14
 70
1
 10
0
 20
0
 30
0
  0
LINE
  8
0
 62
7
 10
7.424999999999999
 20
7.955330085889909
 30
0
 11
7.569669914110088
 21
8.099999999999998
 31
0
  0
LINE
  8
0
 62
7
 10
7.425
 20
8.061396103067892
 30
0
 11
7.463603896932105
 21
8.099999999999998
 31
0
  0
LINE
  8
0
 62
7
 10
7.525735931288069
 20
7.949999999999995
 30
0
 11
7.599999999999999
 21
8.024264068711926
 31
0
  0
ENDBLK
  8
0
  0
BLOCK
  8
0
  2
*X15
 70
1
 10
0
 20
0
 30
0
  0
LINE
  8
0
 62
7
 10
3.864999999999998
 20
5.243858223313766
 30
0
 11
3.941141776686229
 21
5.319999999999997
 31
0
  0
LINE
  8
0
 62
7
 10
3.714999999999998
 20
5.093858223313766
 30
0
 11
3.791141776686227
 21
5.169999999999995
 31
0
  0
LINE
  8
0
 62
7
 10
3.763273811042205
 20
4.930000000000001
 30
0
 11
4.039999999999998
 21
5.206726188957802
 31
0
  0
LINE
  8
0
 62
7
 10
3.975405845398169
 20
4.930000000000001
 30
0
 11
4.215405845398161
 21
5.169999999999994
 31
0
  0
LINE
  8
0
 62
7
 10
4.187537879754133
 20
4.930000000000001
 30
0
 11
4.427537879754125
 21
5.169999999999994
 31
0
  0
LINE
  8
0
 62
7
 10
4.399669914110097
 20
4.930000000000001
 30
0
 11
4.639669914110089
 21
5.169999999999994
 31
0
  0
LINE
  8
0
 62
7
 10
4.611801948466061
 20
4.930000000000001
 30
0
 11
4.851801948466052
 21
5.169999999999994
 31
0
  0
LINE
  8
0
 62
7
 10
4.823933982822025
 20
4.930000000000001
 30
0
 11
5.063933982822016
 21
5.169999999999994
 31
0
  0
LINE
  8
0
 62
7
 10
5.036066017177989
 20
4.930000000000001
 30
0
 11
5.27606601717798
 21
5.169999999999994
 31
0
  0
LINE
  8
0
 62
7
 10
5.248198051533953
 20
4.930000000000001
 30
0
 11
5.488198051533944
 21
5.169999999999994
 31
0
  0
LINE
  8
0
 62
7
 10
5.460330085889916
 20
4.930000000000001
 30
0
 11
5.700330085889908
 21
5.169999999999994
 31
0
  0
LINE
  8
0
 62
7
 10
5.67246212024588
 20
4.930000000000001
 30
0
 11
5.912462120245872
 21
5.169999999999994
 31
0
  0
LINE
  8
0
 62
7
 10
5.884594154601844
 20
4.930000000000001
 30
0
 11
6.124594154601835
 21
5.169999999999994
 31
0
  0
LINE
  8
0
 62
7
 10
6.096726188957808
 20
4.930000000000001
 30
0
 11
6.336726188957799
 21
5.169999999999994
 31
0
  0
LINE
  8
0
 62
7
 10
6.308858223313772
 20
4.930000000000001
 30
0
 11
6.548858223313763
 21
5.169999999999994
 31
0
  0
LINE
  8
0
 62
7
 10
6.520990257669736
 20
4.930000000000001
 30
0
 11
6.760990257669727
 21
5.169999999999994
 31
0
  0
LINE
  8
0
 62
7
 10
6.733122292025699
 20
4.930000000000001
 30
0
 11
6.973122292025691
 21
5.169999999999994
 31
0
  0
LINE
  8
0
 62
7
 10
6.945254326381663
 20
4.930000000000001
 30
0
 11
7.185254326381655
 21
5.169999999999994
 31
0
  0
LINE
  8
0
 62
7
 10
7.424999999999998
 20
5.197613639262373
 30
0
 11
7.547386360737622
 21
5.319999999999997
 31
0
  0
LINE
  8
0
 62
7
 10
7.157386360737627
 20
4.930000000000001
 30
0
 11
7.397386360737618
 21
5.169999999999994
 31
0
  0
LINE
  8
0
 62
7
 10
7.369518395093591
 20
4.930000000000001
 30
0
 11
7.609518395093584
 21
5.169999999999995
 31
0
  0
LINE
  8
0
 62
7
 10
7.581650429449555
 20
4.930000000000001
 30
0
 11
7.765000000000001
 21
5.113349570550446
 31
0
  0
LINE
  8
0
 62
7
 10
3.714999999999999
 20
4.987792206135784
 30
0
 11
4.039999999999997
 21
5.312792206135783
 31
0
  0
LINE
  8
0
 62
7
 10
3.869339828220188
 20
4.930000000000001
 30
0
 11
4.10933982822018
 21
5.169999999999994
 31
0
  0
LINE
  8
0
 62
7
 10
4.081471862576152
 20
4.930000000000001
 30
0
 11
4.321471862576144
 21
5.169999999999994
 31
0
  0
LINE
  8
0
 62
7
 10
4.293603896932116
 20
4.930000000000001
 30
0
 11
4.533603896932108
 21
5.169999999999994
 31
0
  0
LINE
  8
0
 62
7
 10
4.50573593128808
 20
4.930000000000001
 30
0
 11
4.745735931288071
 21
5.169999999999994
 31
0
  0
LINE
  8
0
 62
7
 10
4.717867965644044
 20
4.930000000000001
 30
0
 11
4.957867965644035
 21
5.169999999999994
 31
0
  0
LINE
  8
0
 62
7
 10
4.930000000000008
 20
4.930000000000001
 30
0
 11
5.169999999999999
 21
5.169999999999994
 31
0
  0
LINE
  8
0
 62
7
 10
5.142132034355972
 20
4.930000000000001
 30
0
 11
5.382132034355963
 21
5.169999999999994
 31
0
  0
LINE
  8
0
 62
7
 10
5.354264068711935
 20
4.930000000000001
 30
0
 11
5.594264068711927
 21
5.169999999999994
 31
0
  0
LINE
  8
0
 62
7
 10
5.566396103067899
 20
4.930000000000001
 30
0
 11
5.806396103067891
 21
5.169999999999994
 31
0
  0
LINE
  8
0
 62
7
 10
5.778528137423863
 20
4.930000000000001
 30
0
 11
6.018528137423854
 21
5.169999999999994
 31
0
  0
LINE
  8
0
 62
7
 10
5.990660171779827
 20
4.930000000000001
 30
0
 11
6.230660171779818
 21
5.169999999999994
 31
0
  0
LINE
  8
0
 62
7
 10
6.202792206135791
 20
4.930000000000001
 30
0
 11
6.442792206135782
 21
5.169999999999994
 31
0
  0
LINE
  8
0
 62
7
 10
6.414924240491755
 20
4.930000000000001
 30
0
 11
6.654924240491746
 21
5.169999999999994
 31
0
  0
LINE
  8
0
 62
7
 10
6.627056274847718
 20
4.930000000000001
 30
0
 11
6.86705627484771
 21
5.169999999999994
 31
0
  0
LINE
  8
0
 62
7
 10
6.839188309203682
 20
4.930000000000001
 30
0
 11
7.079188309203674
 21
5.169999999999994
 31
0
  0
LINE
  8
0
 62
7
 10
7.424999999999999
 20
5.303679656440356
 30
0
 11
7.44132034355964
 21
5.319999999999997
 31
0
  0
LINE
  8
0
 62
7
 10
7.051320343559646
 20
4.930000000000001
 30
0
 11
7.291320343559637
 21
5.169999999999994
 31
0
  0
LINE
  8
0
 62
7
 10
7.26345237791561
 20
4.930000000000001
 30
0
 11
7.6
 21
5.266547622084392
 31
0
  0
LINE
  8
0
 62
7
 10
7.475584412271574
 20
4.930000000000001
 30
0
 11
7.715584412271568
 21
5.169999999999995
 31
0
  0
LINE
  8
0
 62
7
 10
7.687716446627538
 20
4.930000000000001
 30
0
 11
7.765
 21
5.007283553372464
 31
0
  0
ENDBLK
  8
0
  0
BLOCK
  8
0
  2
*X16
 70
1
 10
0
 20
0
 30
0
  0
LINE
  8
0
 62
7
 10
3.714999999999997
 20
4.881726188957801
 30
0
 11
3.723273811042205
 21
4.890000000000001
 31
0
  0
LINE
  8
0
 62
7
 10
3.714999999999997
 20
4.669594154601837
 30
0
 11
3.935405845398169
 21
4.890000000000001
 31
0
  0
LINE
  8
0
 62
7
 10
3.864999999999998
 20
4.607462120245873
 30
0
 11
4.147537879754133
 21
4.890000000000001
 31
0
  0
LINE
  8
0
 62
7
 10
4.119669914110094
 20
4.649999999999998
 30
0
 11
4.359669914110097
 21
4.890000000000001
 31
0
  0
LINE
  8
0
 62
7
 10
3.864999999999998
 20
4.395330085889909
 30
0
 11
4.039999999999998
 21
4.570330085889908
 31
0
  0
LINE
  8
0
 62
7
 10
4.331801948466058
 20
4.649999999999998
 30
0
 11
4.571801948466061
 21
4.890000000000001
 31
0
  0
LINE
  8
0
 62
7
 10
3.864999999999998
 20
4.183198051533945
 30
0
 11
4.039999999999998
 21
4.358198051533944
 31
0
  0
LINE
  8
0
 62
7
 10
4.543933982822022
 20
4.649999999999998
 30
0
 11
4.783933982822025
 21
4.890000000000001
 31
0
  0
LINE
  8
0
 62
7
 10
3.864999999999998
 20
3.971066017177981
 30
0
 11
4.039999999999998
 21
4.14606601717798
 31
0
  0
LINE
  8
0
 62
7
 10
4.756066017177986
 20
4.649999999999998
 30
0
 11
4.996066017177989
 21
4.890000000000001
 31
0
  0
LINE
  8
0
 62
7
 10
3.864999999999998
 20
3.758933982822017
 30
0
 11
4.039999999999998
 21
3.933933982822016
 31
0
  0
LINE
  8
0
 62
7
 10
4.96819805153395
 20
4.649999999999998
 30
0
 11
5.208198051533953
 21
4.890000000000001
 31
0
  0
LINE
  8
0
 62
7
 10
3.864999999999998
 20
3.546801948466052
 30
0
 11
4.039999999999998
 21
3.721801948466052
 31
0
  0
LINE
  8
0
 62
7
 10
5.180330085889914
 20
4.649999999999998
 30
0
 11
5.420330085889916
 21
4.890000000000001
 31
0
  0
LINE
  8
0
 62
7
 10
3.864999999999998
 20
3.334669914110088
 30
0
 11
4.039999999999998
 21
3.509669914110088
 31
0
  0
LINE
  8
0
 62
7
 10
5.392462120245877
 20
4.649999999999998
 30
0
 11
5.63246212024588
 21
4.890000000000001
 31
0
  0
LINE
  8
0
 62
7
 10
3.992462120245875
 20
3.25
 30
0
 11
4.039999999999998
 21
3.297537879754122
 31
0
  0
LINE
  8
0
 62
7
 10
5.604594154601841
 20
4.649999999999998
 30
0
 11
5.844594154601844
 21
4.890000000000001
 31
0
  0
LINE
  8
0
 62
7
 10
5.816726188957805
 20
4.649999999999998
 30
0
 11
6.056726188957808
 21
4.890000000000001
 31
0
  0
LINE
  8
0
 62
7
 10
6.028858223313769
 20
4.649999999999998
 30
0
 11
6.268858223313772
 21
4.890000000000001
 31
0
  0
LINE
  8
0
 62
7
 10
6.240990257669733
 20
4.649999999999998
 30
0
 11
6.480990257669736
 21
4.890000000000001
 31
0
  0
LINE
  8
0
 62
7
 10
6.453122292025697
 20
4.649999999999998
 30
0
 11
6.693122292025699
 21
4.890000000000001
 31
0
  0
LINE
  8
0
 62
7
 10
6.66525432638166
 20
4.649999999999998
 30
0
 11
6.905254326381663
 21
4.890000000000001
 31
0
  0
LINE
  8
0
 62
7
 10
6.877386360737624
 20
4.649999999999998
 30
0
 11
7.117386360737627
 21
4.890000000000001
 31
0
  0
LINE
  8
0
 62
7
 10
7.089518395093588
 20
4.649999999999998
 30
0
 11
7.329518395093591
 21
4.890000000000001
 31
0
  0
LINE
  8
0
 62
7
 10
7.301650429449552
 20
4.649999999999998
 30
0
 11
7.541650429449555
 21
4.890000000000001
 31
0
  0
LINE
  8
0
 62
7
 10
7.424999999999999
 20
4.56121753619448
 30
0
 11
7.753782463805519
 21
4.890000000000001
 31
0
  0
LINE
  8
0
 62
7
 10
7.72591449816148
 20
4.649999999999999
 30
0
 11
7.765
 21
4.689085501838518
 31
0
  0
LINE
  8
0
 62
7
 10
7.424999999999999
 20
4.349085501838516
 30
0
 11
7.599999999999999
 21
4.524085501838516
 31
0
  0
LINE
  8
0
 62
7
 10
7.424999999999999
 20
4.136953467482552
 30
0
 11
7.599999999999999
 21
4.311953467482552
 31
0
  0
LINE
  8
0
 62
7
 10
7.424999999999999
 20
3.924821433126588
 30
0
 11
7.599999999999999
 21
4.099821433126588
 31
0
  0
LINE
  8
0
 62
7
 10
7.424999999999999
 20
3.712689398770624
 30
0
 11
7.599999999999999
 21
3.887689398770624
 31
0
  0
LINE
  8
0
 62
7
 10
7.424999999999999
 20
3.50055736441466
 30
0
 11
7.599999999999999
 21
3.67555736441466
 31
0
  0
LINE
  8
0
 62
7
 10
7.486574669941303
 20
3.35
 30
0
 11
7.599999999999999
 21
3.463425330058695
 31
0
  0
LINE
  8
0
 62
7
 10
3.714999999999998
 20
4.775660171779819
 30
0
 11
3.829339828220186
 21
4.89
 31
0
  0
LINE
  8
0
 62
7
 10
3.801471862576141
 20
4.649999999999999
 30
0
 11
4.041471862576151
 21
4.89
 31
0
  0
LINE
  8
0
 62
7
 10
3.864999999999998
 20
4.50139610306789
 30
0
 11
4.253603896932114
 21
4.89
 31
0
  0
LINE
  8
0
 62
7
 10
4.225735931288076
 20
4.649999999999998
 30
0
 11
4.465735931288078
 21
4.89
 31
0
  0
LINE
  8
0
 62
7
 10
3.864999999999998
 20
4.289264068711926
 30
0
 11
4.039999999999997
 21
4.464264068711925
 31
0
  0
LINE
  8
0
 62
7
 10
4.43786796564404
 20
4.649999999999998
 30
0
 11
4.677867965644042
 21
4.89
 31
0
  0
LINE
  8
0
 62
7
 10
3.864999999999998
 20
4.077132034355962
 30
0
 11
4.039999999999997
 21
4.252132034355961
 31
0
  0
LINE
  8
0
 62
7
 10
4.650000000000004
 20
4.649999999999998
 30
0
 11
4.890000000000006
 21
4.89
 31
0
  0
LINE
  8
0
 62
7
 10
3.864999999999998
 20
3.864999999999998
 30
0
 11
4.039999999999997
 21
4.039999999999997
 31
0
  0
LINE
  8
0
 62
7
 10
4.862132034355968
 20
4.649999999999998
 30
0
 11
5.10213203435597
 21
4.89
 31
0
  0
LINE
  8
0
 62
7
 10
3.864999999999998
 20
3.652867965644034
 30
0
 11
4.039999999999997
 21
3.827867965644034
 31
0
  0
LINE
  8
0
 62
7
 10
5.074264068711932
 20
4.649999999999998
 30
0
 11
5.314264068711934
 21
4.89
 31
0
  0
LINE
  8
0
 62
7
 10
3.864999999999998
 20
3.440735931288069
 30
0
 11
4.039999999999997
 21
3.615735931288069
 31
0
  0
LINE
  8
0
 62
7
 10
5.286396103067895
 20
4.649999999999998
 30
0
 11
5.526396103067897
 21
4.89
 31
0
  0
LINE
  8
0
 62
7
 10
3.886396103067893
 20
3.25
 30
0
 11
4.039999999999997
 21
3.403603896932105
 31
0
  0
LINE
  8
0
 62
7
 10
5.498528137423859
 20
4.649999999999998
 30
0
 11
5.738528137423861
 21
4.89
 31
0
  0
LINE
  8
0
 62
7
 10
5.710660171779823
 20
4.649999999999998
 30
0
 11
5.950660171779825
 21
4.89
 31
0
  0
LINE
  8
0
 62
7
 10
5.922792206135787
 20
4.649999999999998
 30
0
 11
6.162792206135789
 21
4.89
 31
0
  0
LINE
  8
0
 62
7
 10
6.134924240491751
 20
4.649999999999998
 30
0
 11
6.374924240491753
 21
4.89
 31
0
  0
LINE
  8
0
 62
7
 10
6.347056274847715
 20
4.649999999999998
 30
0
 11
6.587056274847717
 21
4.89
 31
0
  0
LINE
  8
0
 62
7
 10
6.559188309203678
 20
4.649999999999998
 30
0
 11
6.79918830920368
 21
4.89
 31
0
  0
LINE
  8
0
 62
7
 10
6.771320343559642
 20
4.649999999999998
 30
0
 11
7.011320343559644
 21
4.89
 31
0
  0
LINE
  8
0
 62
7
 10
6.983452377915606
 20
4.649999999999998
 30
0
 11
7.223452377915608
 21
4.89
 31
0
  0
LINE
  8
0
 62
7
 10
7.19558441227157
 20
4.649999999999998
 30
0
 11
7.435584412271572
 21
4.89
 31
0
  0
LINE
  8
0
 62
7
 10
7.407716446627534
 20
4.649999999999998
 30
0
 11
7.647716446627536
 21
4.89
 31
0
  0
LINE
  8
0
 62
7
 10
7.619848480983498
 20
4.649999999999998
 30
0
 11
7.764999999999999
 21
4.795151519016499
 31
0
  0
LINE
  8
0
 62
7
 10
7.424999999999999
 20
4.455151519016498
 30
0
 11
7.599999999999998
 21
4.630151519016497
 31
0
  0
LINE
  8
0
 62
7
 10
7.424999999999999
 20
4.243019484660534
 30
0
 11
7.599999999999998
 21
4.418019484660533
 31
0
  0
LINE
  8
0
 62
7
 10
7.424999999999999
 20
4.03088745030457
 30
0
 11
7.599999999999998
 21
4.205887450304569
 31
0
  0
LINE
  8
0
 62
7
 10
7.424999999999999
 20
3.818755415948606
 30
0
 11
7.599999999999998
 21
3.993755415948606
 31
0
  0
LINE
  8
0
 62
7
 10
7.424999999999999
 20
3.606623381592642
 30
0
 11
7.599999999999998
 21
3.781623381592641
 31
0
  0
LINE
  8
0
 62
7
 10
7.424999999999999
 20
3.394491347236678
 30
0
 11
7.599999999999998
 21
3.569491347236677
 31
0
  0
LINE
  8
0
 62
7
 10
7.592640687119285
 20
3.35
 30
0
 11
7.599999999999998
 21
3.357359312880713
 31
0
  0
ENDBLK
  8
0
  0
BLOCK
  8
0
  2
*D0
 70
1
 10
0
 20
0
 30
0
  0
LINE
  8
0
 62
7
 10
8.014472005053049
 20
4.3508336030205
 30
0
 11
8.014472005053049
 21
4.649999999999999
 31
0
  0
LINE
  8
0
 62
7
 10
8.014472005053049
 20
3.35
 30
0
 11
8.014472005053049
 21
3.695833603020501
 31
0
  0
LINE
  8
0
 62
7
 10
7.599999999999998
 20
4.649999999999999
 30
0
 11
8.06447200505305
 21
4.649999999999999
 31
0
  0
LINE
  8
0
 62
7
 10
7.599999999999998
 20
3.35
 30
0
 11
8.06447200505305
 21
3.35
 31
0
  0
LINE
  8
0
 62
7
 10
8.049827344112376
 20
4.614644660940672
 30
0
 11
7.979116665993722
 21
4.685355339059327
 31
0
  0
LINE
  8
0
 62
7
 10
7.979116665993722
 20
3.385355339059327
 30
0
 11
8.049827344112376
 21
3.314644660940673
 31
0
  0
TEXT
  8
0
 62
7
 10
8.059472005053049
 20
3.9458336030205
 30
0
 40
0.1
  1
1,3
 50
90
 41
0.9
  0
ENDBLK
  8
0
  0
BLOCK
  8
0
  2
*D1
 70
1
 10
0
 20
0
 30
0
  0
LINE
  8
0
 62
7
 10
6.201681282291461
 20
5.552683656957931
 30
0
 11
7.424999999999999
 21
5.552683656957931
 31
0
  0
LINE
  8
0
 62
7
 10
4.039999999999997
 20
5.552683656957931
 30
0
 11
5.426681282291461
 21
5.552683656957931
 31
0
  0
LINE
  8
0
 62
7
 10
7.424999999999999
 20
5.169999999999995
 30
0
 11
7.424999999999999
 21
5.602683656957931
 31
0
  0
LINE
  8
0
 62
7
 10
4.039999999999997
 20
5.169999999999995
 30
0
 11
4.039999999999997
 21
5.602683656957931
 31
0
  0
LINE
  8
0
 62
7
 10
4.075355339059325
 20
5.588038996017258
 30
0
 11
4.00464466094067
 21
5.517328317898603
 31
0
  0
LINE
  8
0
 62
7
 10
7.389644660940672
 20
5.517328317898603
 30
0
 11
7.460355339059326
 21
5.588038996017258
 31
0
  0
TEXT
  8
0
 62
7
 10
5.676681282291461
 20
5.507683656957931
 30
0
 40
0.1
  1
3,39
 41
0.9
  0
ENDBLK
  8
0
  0
BLOCK
  8
0
  2
*D2
 70
1
 10
0
 20
0
 30
0
  0
LINE
  8
0
 62
7
 10
3.57442346136373
 20
4.3212332793959
 30
0
 11
3.57442346136373
 21
4.649999999999999
 31
0
  0
LINE
  8
0
 62
7
 10
3.57442346136373
 20
3.25
 30
0
 11
3.57442346136373
 21
3.6662332793959
 31
0
  0
LINE
  8
0
 62
7
 10
3.864999999999998
 20
4.649999999999999
 30
0
 11
3.52442346136373
 21
4.649999999999999
 31
0
  0
LINE
  8
0
 62
7
 10
3.864999999999998
 20
3.25
 30
0
 11
3.52442346136373
 21
3.25
 31
0
  0
LINE
  8
0
 62
7
 10
3.539068122304402
 20
3.285355339059327
 30
0
 11
3.609778800423057
 21
3.214644660940673
 31
0
  0
LINE
  8
0
 62
7
 10
3.609778800423057
 20
4.614644660940672
 30
0
 11
3.539068122304402
 21
4.685355339059327
 31
0
  0
TEXT
  8
0
 62
7
 10
3.61942346136373
 20
3.9162332793959
 30
0
 40
0.1
  1
1,4
 50
90
 41
0.9
  0
ENDBLK
  8
0
  0
BLOCK
  8
0
  2
*D3
 70
1
 10
0
 20
0
 30
0
  0
LINE
  8
0
 62
7
 10
6.01354643871001
 20
11.5615493527508
 30
0
 11
7.424999999999999
 21
11.5615493527508
 31
0
  0
LINE
  8
0
 62
7
 10
4.039999999999998
 20
11.5615493527508
 30
0
 11
5.33854643871001
 21
11.5615493527508
 31
0
  0
LINE
  8
0
 62
7
 10
7.424999999999999
 20
11.2
 30
0
 11
7.424999999999999
 21
11.6115493527508
 31
0
  0
LINE
  8
0
 62
7
 10
4.039999999999998
 20
11.2
 30
0
 11
4.039999999999998
 21
11.6115493527508
 31
0
  0
LINE
  8
0
 62
7
 10
7.389644660940672
 20
11.52619401369147
 30
0
 11
7.460355339059326
 21
11.59690469181013
 31
0
  0
LINE
  8
0
 62
7
 10
4.075355339059326
 20
11.59690469181013
 30
0
 11
4.004644660940671
 21
11.52619401369147
 31
0
  0
TEXT
  8
0
 62
7
 10
5.53854643871001
 20
11.5165493527508
 30
0
 40
0.1
  1
3,39
 41
0.9
  0
ENDBLK
  8
0
  0
BLOCK
  8
0
  2
*D4
 70
1
 10
0
 20
0
 30
0
  0
LINE
  8
0
 62
7
 10
8.310475241299009
 20
10.2367289644013
 30
0
 11
8.310475241299009
 21
11.05
 31
0
  0
LINE
  8
0
 62
7
 10
8.310475241299009
 20
8.299999999999999
 30
0
 11
8.310475241299009
 21
9.156728964401301
 31
0
  0
LINE
  8
0
 62
7
 10
7.749999999999998
 20
11.05
 30
0
 11
8.36047524129901
 21
11.05
 31
0
  0
LINE
  8
0
 62
7
 10
7.749999999999998
 20
8.299999999999999
 30
0
 11
8.36047524129901
 21
8.299999999999999
 31
0
  0
LINE
  8
0
 62
7
 10
8.275119902239682
 20
8.335355339059326
 30
0
 11
8.345830580358337
 21
8.264644660940672
 31
0
  0
LINE
  8
0
 62
7
 10
8.345830580358337
 20
11.01464466094067
 30
0
 11
8.275119902239682
 21
11.08535533905933
 31
0
  0
TEXT
  8
0
 62
7
 10
8.28047524129901
 20
9.559228964401303
 30
0
 40
0.1
  1
2,75
 50
90
 41
0.9
  0
TEXT
  8
0
 62
7
 10
8.44047524129901
 20
9.356728964401302
 30
0
 40
0.1
  1
(260-280)
 50
90
 41
0.9
  0
ENDBLK
  8
0
  0
ENDSEC
  0
SECTION
  2
ENTITIES
  0
INSERT
  8
0
  2
*X0
 10
0
 20
0
 30
0
  0
INSERT
  8
0
  2
*X1
 10
0
 20
0
 30
0
  0
INSERT
  8
0
  2
*X2
 10
0
 20
0
 30
0
  0
INSERT
  8
0
  2
*X3
 10
0
 20
0
 30
0
  0
INSERT
  8
0
  2
*X4
 10
0
 20
0
 30
0
  0
INSERT
  8
0
  2
*X5
 10
0
 20
0
 30
0
  0
INSERT
  8
0
  2
*X6
 10
0
 20
0
 30
0
  0
INSERT
  8
0
  2
*X7
 10
0
 20
0
 30
0
  0
INSERT
  8
0
  2
*X8
 10
0
 20
0
 30
0
  0
INSERT
  8
0
  2
*X9
 10
0
 20
0
 30
0
  0
INSERT
  8
0
  2
*X10
 10
0
 20
0
 30
0
  0
INSERT
  8
0
  2
*X11
 10
0
 20
0
 30
0
  0
INSERT
  8
0
  2
*X12
 10
0
 20
0
 30
0
  0
INSERT
  8
0
  2
*X13
 10
0
 20
0
 30
0
  0
INSERT
  8
0
  2
*X14
 10
0
 20
0
 30
0
  0
INSERT
  8
0
  2
*X15
 10
0
 20
0
 30
0
  0
INSERT
  8
0
  2
*X16
 10
0
 20
0
 30
0
  0
LINE
  8
0
 62
7
 10
6.420000000000009
 20
3.568981833730011
 30
0
 11
6.419999999999999
 21
3.42076541699398
 31
0
  0
LINE
  8
0
 62
7
 10
6.353662123948457
 20
3.615
 30
0
 11
6.420000000000009
 21
3.568981833730011
 31
0
  0
LINE
  8
0
 62
7
 10
6.154328147905498
 20
3.615
 30
0
 11
6.255905091063759
 21
3.615
 31
0
  0
LINE
  8
0
 62
7
 10
6.154328147905498
 20
3.615
 30
0
 11
6.353662123948457
 21
3.615
 31
0
  0
LINE
  8
0
 62
7
 10
5.113570792015546
 20
3.615
 30
0
 11
5.32733786753437
 21
3.615
 31
0
  0
LINE
  8
0
 62
7
 10
5.045000000000008
 20
3.573404998151996
 30
0
 11
5.113570792015546
 21
3.615
 31
0
  0
LINE
  8
0
 62
7
 10
5.044999999999998
 20
3.429889411054701
 30
0
 11
5.044999999999998
 21
3.520869827898459
 31
0
  0
LINE
  8
0
 62
7
 10
5.044999999999998
 20
3.429889411054701
 30
0
 11
5.045000000000008
 21
3.573404998151996
 31
0
  0
LINE
  8
0
 62
7
 10
4.094999999999998
 20
3.66147531520036
 30
0
 11
4.094999999999998
 21
3.25
 31
0
  0
LINE
  8
0
 62
7
 10
5.044999999999998
 20
3.25
 30
0
 11
5.044999999999998
 21
3.429889411054701
 31
0
  0
LINE
  8
0
 62
7
 10
4.094999999999998
 20
3.25
 30
0
 11
5.044999999999998
 21
3.25
 31
0
  0
LINE
  8
0
 62
7
 10
4.094999999999998
 20
4.066139971582671
 30
0
 11
4.094999999999998
 21
3.5704948983566
 31
0
  0
LINE
  8
0
 62
7
 10
4.094999999999998
 20
3.5704948983566
 30
0
 11
5.044999999999998
 21
3.429889411054701
 31
0
  0
LINE
  8
0
 62
7
 10
4.094999999999998
 20
4.590063690236431
 30
0
 11
4.094999999999998
 21
3.967095033480571
 31
0
  0
LINE
  8
0
 62
7
 10
5.004859407588619
 20
3.549055738555389
 30
0
 11
5.045000000000008
 21
3.573404998151996
 31
0
  0
LINE
  8
0
 62
7
 10
4.094999999999998
 20
3.967095033480571
 30
0
 11
5.004859407588619
 21
3.549055738555389
 31
0
  0
LINE
  8
0
 62
7
 10
4.094999999999998
 20
4.594999999999999
 30
0
 11
4.094999999999998
 21
4.47190632884169
 31
0
  0
LINE
  8
0
 62
7
 10
4.679195080270047
 20
4.594999999999999
 30
0
 11
4.094999999999998
 21
4.594999999999999
 31
0
  0
LINE
  8
0
 62
7
 10
5.102358360764447
 20
3.615
 30
0
 11
5.113570792015546
 21
3.615
 31
0
  0
LINE
  8
0
 62
7
 10
4.094999999999998
 20
4.47190632884169
 30
0
 11
5.102358360764447
 21
3.615
 31
0
  0
LINE
  8
0
 62
7
 10
5.067906898551837
 20
4.594999999999999
 30
0
 11
4.571292229101856
 21
4.594999999999999
 31
0
  0
LINE
  8
0
 62
7
 10
5.219435016366197
 20
3.615
 30
0
 11
5.438050508855287
 21
3.615
 31
0
  0
LINE
  8
0
 62
7
 10
4.571292229101856
 20
4.594999999999999
 30
0
 11
5.219435016366197
 21
3.615
 31
0
  0
LINE
  8
0
 62
7
 10
5.434951964565357
 20
4.594999999999999
 30
0
 11
4.971701341910286
 21
4.594999999999999
 31
0
  0
LINE
  8
0
 62
7
 10
5.341844952213738
 20
3.615
 30
0
 11
5.553595200913069
 21
3.615
 31
0
  0
LINE
  8
0
 62
7
 10
4.971701341910286
 20
4.594999999999999
 30
0
 11
5.341844952213738
 21
3.615
 31
0
  0
LINE
  8
0
 62
7
 10
5.748118060033029
 20
4.59499999999971
 30
0
 11
5.344294815816196
 21
4.594999999999999
 31
0
  0
LINE
  8
0
 62
7
 10
5.462938052163928
 20
3.615
 30
0
 11
5.746536419224548
 21
3.61499999999971
 31
0
  0
LINE
  8
0
 62
7
 10
5.344294815816196
 20
4.594999999999999
 30
0
 11
5.462938052163928
 21
3.615
 31
0
  0
LINE
  8
0
 62
7
 10
6.063278441993807
 20
4.594999999999999
 30
0
 11
5.658117942820008
 21
4.594999999999999
 31
0
  0
LINE
  8
0
 62
7
 10
5.656536302011537
 20
3.615
 30
0
 11
5.940067263605517
 21
3.615
 31
0
  0
LINE
  8
0
 62
7
 10
5.658117942820008
 20
4.594999999999999
 30
0
 11
5.656536302011537
 21
3.615
 31
0
  0
LINE
  8
0
 62
7
 10
6.380455997614568
 20
4.594999999999999
 30
0
 11
5.972569918180056
 21
4.594999999999999
 31
0
  0
LINE
  8
0
 62
7
 10
5.849358739791768
 20
3.615
 30
0
 11
6.134194509314108
 21
3.615
 31
0
  0
LINE
  8
0
 62
7
 10
5.972569918180056
 20
4.594999999999999
 30
0
 11
5.849358739791768
 21
3.615
 31
0
  0
LINE
  8
0
 62
7
 10
6.768709955675648
 20
4.594999999999999
 30
0
 11
6.287657954990086
 21
4.594999999999999
 31
0
  0
LINE
  8
0
 62
7
 10
6.041396466689639
 20
3.615
 30
0
 11
6.154328147905498
 21
3.615
 31
0
  0
LINE
  8
0
 62
7
 10
6.287657954990086
 20
4.594999999999999
 30
0
 11
6.041396466689639
 21
3.615
 31
0
  0
LINE
  8
0
 62
7
 10
7.281303257441007
 20
4.594999999999999
 30
0
 11
6.667133012517397
 21
4.594999999999999
 31
0
  0
LINE
  8
0
 62
7
 10
6.667133012517397
 20
4.594999999999999
 30
0
 11
6.154328147905498
 21
3.615
 31
0
  0
LINE
  8
0
 62
7
 10
7.369999999999999
 20
4.594999999999999
 30
0
 11
7.158728061407237
 21
4.594999999999999
 31
0
  0
LINE
  8
0
 62
7
 10
7.369999999999999
 20
4.11534209083446
 30
0
 11
7.369999999999999
 21
4.594999999999999
 31
0
  0
LINE
  8
0
 62
7
 10
6.292099103512928
 20
3.65770587904086
 30
0
 11
6.353662123948457
 21
3.615
 31
0
  0
LINE
  8
0
 62
7
 10
7.158728061407237
 20
4.594999999999999
 30
0
 11
6.292099103512928
 21
3.65770587904086
 31
0
  0
LINE
  8
0
 62
7
 10
7.369999999999999
 20
3.678171148581151
 30
0
 11
7.369999999999999
 21
4.22216045994901
 31
0
  0
LINE
  8
0
 62
7
 10
6.419999999999999
 20
3.61485686753429
 30
0
 11
6.420000000000009
 21
3.568981833730011
 31
0
  0
LINE
  8
0
 62
7
 10
7.369999999999999
 20
4.22216045994901
 30
0
 11
6.419999999999999
 21
3.61485686753429
 31
0
  0
LINE
  8
0
 62
7
 10
7.369999999999999
 20
3.39
 30
0
 11
7.369999999999999
 21
3.77141634975313
 31
0
  0
LINE
  8
0
 62
7
 10
6.419999999999999
 20
3.51401061816596
 30
0
 11
6.419999999999999
 21
3.39
 31
0
  0
LINE
  8
0
 62
7
 10
7.369999999999999
 20
3.77141634975313
 30
0
 11
6.419999999999999
 21
3.51401061816596
 31
0
  0
LINE
  8
0
 62
7
 10
6.961266638723917
 20
3.6149999999897
 30
0
 11
6.961266638723917
 21
3.4
 31
0
  0
LINE
  8
0
 62
7
 10
7.066921737985628
 20
3.461
 30
0
 11
6.961266638723917
 21
3.4
 31
0
  0
LINE
  8
0
 62
7
 10
6.855611539462219
 20
3.461
 30
0
 11
7.066921737985628
 21
3.461
 31
0
  0
LINE
  8
0
 62
7
 10
6.961266638723917
 20
3.4
 30
0
 11
6.855611539462219
 21
3.461
 31
0
  0
LINE
  8
0
 62
7
 10
5.045000000010307
 20
4.15626663872392
 30
0
 11
6.419999999944977
 21
4.15626663872392
 31
0
  0
LINE
  8
0
 62
7
 10
4.503733361276078
 20
3.25
 30
0
 11
4.503733361276078
 21
3.615000000023911
 31
0
  0
LINE
  8
0
 62
7
 10
1.728525010000001
 20
8.58333322666666
 30
0
 11
2.140000190000001
 21
8.58333322666666
 31
0
  0
LINE
  8
0
 62
7
 10
2.140000190000001
 20
8.518333226666661
 30
0
 11
1.728525010000001
 21
8.518333226666661
 31
0
  0
LINE
  8
0
 62
7
 10
2.140000190000001
 20
8.58333322666666
 30
0
 11
2.140000190000001
 21
8.518333226666661
 31
0
  0
LINE
  8
0
 62
7
 10
1.728525010000001
 20
8.518333226666661
 30
0
 11
1.728525010000001
 21
8.58333322666666
 31
0
  0
LINE
  8
0
 62
7
 10
1.960111010000001
 20
8.701666566666661
 30
0
 11
1.32386032
 21
8.701666566666661
 31
0
  0
LINE
  8
0
 62
7
 10
1.32386032
 20
8.766666566666663
 30
0
 11
1.960111010000001
 21
8.766666566666663
 31
0
  0
LINE
  8
0
 62
7
 10
1.960111010000001
 20
8.766666566666663
 30
0
 11
1.960111010000001
 21
8.701666566666661
 31
0
  0
LINE
  8
0
 62
7
 10
1.32386032
 20
8.701666566666661
 30
0
 11
1.32386032
 21
8.766666566666663
 31
0
  0
LINE
  8
0
 62
7
 10
1.8409444
 20
8.884999906666662
 30
0
 11
0.7999366700000029
 21
8.884999906666662
 31
0
  0
LINE
  8
0
 62
7
 10
0.7999366700000029
 20
8.94999990666666
 30
0
 11
1.8409444
 21
8.94999990666666
 31
0
  0
LINE
  8
0
 62
7
 10
1.8409444
 20
8.94999990666666
 30
0
 11
1.8409444
 21
8.884999906666662
 31
0
  0
LINE
  8
0
 62
7
 10
0.7999366700000029
 20
8.884999906666662
 30
0
 11
0.7999366700000029
 21
8.94999990666666
 31
0
  0
LINE
  8
0
 62
7
 10
0.7950001499999999
 20
9.133333226666663
 30
0
 11
1.77500027
 21
9.133333226666663
 31
0
  0
LINE
  8
0
 62
7
 10
1.77500027
 20
9.068333226666663
 30
0
 11
0.7950001499999999
 21
9.068333226666663
 31
0
  0
LINE
  8
0
 62
7
 10
1.77500027
 20
9.133333226666663
 30
0
 11
1.77500027
 21
9.068333226666663
 31
0
  0
LINE
  8
0
 62
7
 10
0.7950001499999999
 20
9.068333226666663
 30
0
 11
0.7950001499999999
 21
9.133333226666663
 31
0
  0
LINE
  8
0
 62
7
 10
0.7950001499999999
 20
9.316666586666662
 30
0
 11
1.77500015
 21
9.316666586666662
 31
0
  0
LINE
  8
0
 62
7
 10
1.77500015
 20
9.316666586666662
 30
0
 11
1.77500015
 21
9.251666586666662
 31
0
  0
LINE
  8
0
 62
7
 10
0.7950001499999999
 20
9.251666586666662
 30
0
 11
0.7950001499999999
 21
9.316666586666662
 31
0
  0
LINE
  8
0
 62
7
 10
1.77500015
 20
9.251666586666662
 30
0
 11
0.7950001499999999
 21
9.251666586666662
 31
0
  0
LINE
  8
0
 62
7
 10
0.795
 20
9.499999946666664
 30
0
 11
1.775000340000003
 21
9.499999946666664
 31
0
  0
LINE
  8
0
 62
7
 10
1.775000340000003
 20
9.499999946666664
 30
0
 11
1.775000340000003
 21
9.434999946666663
 31
0
  0
LINE
  8
0
 62
7
 10
0.795
 20
9.434999946666663
 30
0
 11
0.795
 21
9.499999946666664
 31
0
  0
LINE
  8
0
 62
7
 10
1.775000340000003
 20
9.434999946666663
 30
0
 11
0.795
 21
9.434999946666663
 31
0
  0
LINE
  8
0
 62
7
 10
0.795
 20
9.683333226666662
 30
0
 11
1.775000380000001
 21
9.683333226666662
 31
0
  0
LINE
  8
0
 62
7
 10
1.775000380000001
 20
9.683333226666662
 30
0
 11
1.775000380000001
 21
9.618333226666664
 31
0
  0
LINE
  8
0
 62
7
 10
0.795
 20
9.618333226666664
 30
0
 11
0.795
 21
9.683333226666662
 31
0
  0
LINE
  8
0
 62
7
 10
1.775000380000001
 20
9.618333226666664
 30
0
 11
0.795
 21
9.618333226666664
 31
0
  0
LINE
  8
0
 62
7
 10
0.7950001499999999
 20
9.866666666666662
 30
0
 11
1.77500042
 21
9.866666666666662
 31
0
  0
LINE
  8
0
 62
7
 10
1.77500042
 20
9.866666666666662
 30
0
 11
1.77500042
 21
9.801666666666662
 31
0
  0
LINE
  8
0
 62
7
 10
0.7950001499999999
 20
9.801666666666662
 30
0
 11
0.7950001499999999
 21
9.866666666666662
 31
0
  0
LINE
  8
0
 62
7
 10
1.77500042
 20
9.801666666666662
 30
0
 11
0.7950001499999999
 21
9.801666666666662
 31
0
  0
LINE
  8
0
 62
7
 10
0.795
 20
10.04999994666666
 30
0
 11
1.775000150000002
 21
10.04999994666666
 31
0
  0
LINE
  8
0
 62
7
 10
1.775000150000002
 20
10.04999994666666
 30
0
 11
1.775000150000002
 21
9.984999946666663
 31
0
  0
LINE
  8
0
 62
7
 10
0.795
 20
9.984999946666663
 30
0
 11
0.795
 21
10.04999994666666
 31
0
  0
LINE
  8
0
 62
7
 10
1.775000150000002
 20
9.984999946666663
 30
0
 11
0.795
 21
9.984999946666663
 31
0
  0
LINE
  8
0
 62
7
 10
0.795
 20
10.23333322666666
 30
0
 11
1.775000230000002
 21
10.23333322666666
 31
0
  0
LINE
  8
0
 62
7
 10
1.775000230000002
 20
10.23333322666666
 30
0
 11
1.775000230000002
 21
10.16833322666666
 31
0
  0
LINE
  8
0
 62
7
 10
0.795
 20
10.16833322666666
 30
0
 11
0.795
 21
10.23333322666666
 31
0
  0
LINE
  8
0
 62
7
 10
1.775000230000002
 20
10.16833322666666
 30
0
 11
0.795
 21
10.16833322666666
 31
0
  0
LINE
  8
0
 62
7
 10
0.7950001499999999
 20
10.41666666666666
 30
0
 11
1.775
 21
10.41666666666666
 31
0
  0
LINE
  8
0
 62
7
 10
1.775
 20
10.41666666666666
 30
0
 11
1.775
 21
10.35166666666666
 31
0
  0
LINE
  8
0
 62
7
 10
0.7950001499999999
 20
10.35166666666666
 30
0
 11
0.7950001499999999
 21
10.41666666666666
 31
0
  0
LINE
  8
0
 62
7
 10
1.775
 20
10.35166666666666
 30
0
 11
0.7950001499999999
 21
10.35166666666666
 31
0
  0
LINE
  8
0
 62
7
 10
1.852734180000003
 20
10.53499994666666
 30
0
 11
0.7950004600000011
 21
10.53499994666666
 31
0
  0
LINE
  8
0
 62
7
 10
0.7950004600000011
 20
10.59999994666666
 30
0
 11
1.852734180000003
 21
10.59999994666666
 31
0
  0
LINE
  8
0
 62
7
 10
1.852734180000003
 20
10.59999994666666
 30
0
 11
1.852734180000003
 21
10.53499994666666
 31
0
  0
LINE
  8
0
 62
7
 10
0.7950004600000011
 20
10.53499994666666
 30
0
 11
0.7950004600000011
 21
10.59999994666666
 31
0
  0
LINE
  8
0
 62
7
 10
1.96923488
 20
10.71833322666666
 30
0
 11
1.167840270000001
 21
10.71833322666666
 31
0
  0
LINE
  8
0
 62
7
 10
1.167840270000001
 20
10.78333322666666
 30
0
 11
1.96923488
 21
10.78333322666666
 31
0
  0
LINE
  8
0
 62
7
 10
1.96923488
 20
10.78333322666666
 30
0
 11
1.96923488
 21
10.71833322666666
 31
0
  0
LINE
  8
0
 62
7
 10
1.167840270000001
 20
10.71833322666666
 30
0
 11
1.167840270000001
 21
10.78333322666666
 31
0
  0
LINE
  8
0
 62
7
 10
1.61858467
 20
10.96666666666666
 30
0
 11
2.000000530000001
 21
10.96666666666666
 31
0
  0
LINE
  8
0
 62
7
 10
2.000000530000001
 20
10.90166666666666
 30
0
 11
1.61858467
 21
10.90166666666666
 31
0
  0
LINE
  8
0
 62
7
 10
2.000000530000001
 20
10.96666666666666
 30
0
 11
2.000000530000001
 21
10.90166666666666
 31
0
  0
LINE
  8
0
 62
7
 10
1.61858467
 20
10.90166666666666
 30
0
 11
1.61858467
 21
10.96666666666666
 31
0
  0
LINE
  8
0
 62
7
 10
4.094999769999998
 20
8.583333226666662
 30
0
 11
5.045000309999996
 21
8.583333226666662
 31
0
  0
LINE
  8
0
 62
7
 10
4.094999769999998
 20
8.518333226666662
 30
0
 11
4.094999769999998
 21
8.583333226666662
 31
0
  0
LINE
  8
0
 62
7
 10
5.045000309999996
 20
8.583333226666662
 30
0
 11
5.045000309999996
 21
8.518333226666662
 31
0
  0
LINE
  8
0
 62
7
 10
5.045000309999996
 20
8.518333226666662
 30
0
 11
4.094999769999998
 21
8.518333226666662
 31
0
  0
LINE
  8
0
 62
7
 10
4.095000189999996
 20
8.766666566666663
 30
0
 11
5.045000229999996
 21
8.766666566666663
 31
0
  0
LINE
  8
0
 62
7
 10
4.095000189999996
 20
8.701666566666661
 30
0
 11
4.095000189999996
 21
8.766666566666663
 31
0
  0
LINE
  8
0
 62
7
 10
5.045000229999996
 20
8.766666566666663
 30
0
 11
5.045000229999996
 21
8.701666566666661
 31
0
  0
LINE
  8
0
 62
7
 10
5.045000229999996
 20
8.701666566666661
 30
0
 11
4.095000189999996
 21
8.701666566666661
 31
0
  0
LINE
  8
0
 62
7
 10
4.095000189999996
 20
8.949999906666664
 30
0
 11
5.188108519999997
 21
8.949999906666664
 31
0
  0
LINE
  8
0
 62
7
 10
5.188108519999997
 20
8.884999906666662
 30
0
 11
4.095000189999996
 21
8.884999906666662
 31
0
  0
LINE
  8
0
 62
7
 10
4.095000189999996
 20
8.884999906666662
 30
0
 11
4.095000189999996
 21
8.949999906666664
 31
0
  0
LINE
  8
0
 62
7
 10
5.188108519999997
 20
8.949999906666664
 30
0
 11
5.188108519999997
 21
8.884999906666662
 31
0
  0
LINE
  8
0
 62
7
 10
5.327338099999998
 20
9.068333226666663
 30
0
 11
4.095000169999997
 21
9.068333226666663
 31
0
  0
LINE
  8
0
 62
7
 10
4.095000169999997
 20
9.133333226666663
 30
0
 11
5.327338099999998
 21
9.133333226666663
 31
0
  0
LINE
  8
0
 62
7
 10
4.095000169999997
 20
9.068333226666663
 30
0
 11
4.095000169999997
 21
9.133333226666663
 31
0
  0
LINE
  8
0
 62
7
 10
5.327338099999998
 20
9.133333226666663
 30
0
 11
5.327338099999998
 21
9.068333226666663
 31
0
  0
LINE
  8
0
 62
7
 10
5.438050539999997
 20
9.251666586666662
 30
0
 11
4.571292419999998
 21
9.251666586666662
 31
0
  0
LINE
  8
0
 62
7
 10
4.571292419999998
 20
9.316666586666662
 30
0
 11
5.438050539999997
 21
9.316666586666662
 31
0
  0
LINE
  8
0
 62
7
 10
4.571292419999998
 20
9.251666586666662
 30
0
 11
4.571292419999998
 21
9.316666586666662
 31
0
  0
LINE
  8
0
 62
7
 10
5.438050539999997
 20
9.316666586666662
 30
0
 11
5.438050539999997
 21
9.251666586666662
 31
0
  0
LINE
  8
0
 62
7
 10
5.55359528
 20
9.434999946666663
 30
0
 11
4.971701509999995
 21
9.434999946666663
 31
0
  0
LINE
  8
0
 62
7
 10
4.971701509999995
 20
9.499999946666664
 30
0
 11
5.55359528
 21
9.499999946666664
 31
0
  0
LINE
  8
0
 62
7
 10
4.971701509999995
 20
9.434999946666663
 30
0
 11
4.971701509999995
 21
9.499999946666664
 31
0
  0
LINE
  8
0
 62
7
 10
5.55359528
 20
9.499999946666664
 30
0
 11
5.55359528
 21
9.434999946666663
 31
0
  0
LINE
  8
0
 62
7
 10
5.748118129999995
 20
9.618333226666664
 30
0
 11
5.746536560000006
 21
9.618333226666664
 31
0
  0
LINE
  8
0
 62
7
 10
5.344295039999998
 20
9.683333226666662
 30
0
 11
5.746536560000006
 21
9.683333226666662
 31
0
  0
LINE
  8
0
 62
7
 10
5.746536560000006
 20
9.683333226666662
 30
0
 11
5.746536560000006
 21
9.618333226666664
 31
0
  0
LINE
  8
0
 62
7
 10
5.746536560000006
 20
9.618333226666664
 30
0
 11
5.344295039999998
 21
9.618333226666664
 31
0
  0
LINE
  8
0
 62
7
 10
5.344295039999998
 20
9.618333226666664
 30
0
 11
5.344295039999998
 21
9.683333226666662
 31
0
  0
LINE
  8
0
 62
7
 10
5.746536560000006
 20
9.683333226666662
 30
0
 11
5.748118129999995
 21
9.683333226666662
 31
0
  0
LINE
  8
0
 62
7
 10
5.748118129999995
 20
9.683333226666662
 30
0
 11
5.748118129999995
 21
9.618333226666664
 31
0
  0
LINE
  8
0
 62
7
 10
6.063278659999997
 20
9.801666666666662
 30
0
 11
5.658118129999996
 21
9.801666666666662
 31
0
  0
LINE
  8
0
 62
7
 10
5.658118129999996
 20
9.866666666666664
 30
0
 11
6.063278659999997
 21
9.866666666666664
 31
0
  0
LINE
  8
0
 62
7
 10
5.656536560000006
 20
9.866666666666664
 30
0
 11
5.658118129999996
 21
9.866666666666664
 31
0
  0
LINE
  8
0
 62
7
 10
5.658118129999996
 20
9.866666666666664
 30
0
 11
5.658118129999996
 21
9.801666666666662
 31
0
  0
LINE
  8
0
 62
7
 10
5.656536560000006
 20
9.801666666666662
 30
0
 11
5.656536560000006
 21
9.866666666666664
 31
0
  0
LINE
  8
0
 62
7
 10
6.063278659999997
 20
9.866666666666664
 30
0
 11
6.063278659999997
 21
9.801666666666662
 31
0
  0
LINE
  8
0
 62
7
 10
5.658118129999996
 20
9.801666666666662
 30
0
 11
5.656536560000006
 21
9.801666666666662
 31
0
  0
LINE
  8
0
 62
7
 10
6.380456389999999
 20
9.984999946666663
 30
0
 11
5.849358669999998
 21
9.984999946666663
 31
0
  0
LINE
  8
0
 62
7
 10
5.849358669999998
 20
10.04999994666666
 30
0
 11
6.380456389999999
 21
10.04999994666666
 31
0
  0
LINE
  8
0
 62
7
 10
5.849358669999998
 20
9.984999946666663
 30
0
 11
5.849358669999998
 21
10.04999994666666
 31
0
  0
LINE
  8
0
 62
7
 10
6.380456389999999
 20
10.04999994666666
 30
0
 11
6.380456389999999
 21
9.984999946666663
 31
0
  0
LINE
  8
0
 62
7
 10
6.768710019999998
 20
10.16833322666666
 30
0
 11
6.041396329999998
 21
10.16833322666666
 31
0
  0
LINE
  8
0
 62
7
 10
6.041396329999998
 20
10.23333322666666
 30
0
 11
6.768710019999998
 21
10.23333322666666
 31
0
  0
LINE
  8
0
 62
7
 10
6.041396329999998
 20
10.16833322666666
 30
0
 11
6.041396329999998
 21
10.23333322666666
 31
0
  0
LINE
  8
0
 62
7
 10
6.768710019999998
 20
10.23333322666666
 30
0
 11
6.768710019999998
 21
10.16833322666666
 31
0
  0
LINE
  8
0
 62
7
 10
7.281303409999997
 20
10.35166666666666
 30
0
 11
6.154328459999998
 21
10.35166666666666
 31
0
  0
LINE
  8
0
 62
7
 10
6.154328459999998
 20
10.41666666666666
 30
0
 11
7.281303409999997
 21
10.41666666666666
 31
0
  0
LINE
  8
0
 62
7
 10
6.154328459999998
 20
10.35166666666666
 30
0
 11
6.154328459999998
 21
10.41666666666666
 31
0
  0
LINE
  8
0
 62
7
 10
7.281303409999997
 20
10.41666666666666
 30
0
 11
7.281303409999997
 21
10.35166666666666
 31
0
  0
LINE
  8
0
 62
7
 10
7.369999999999999
 20
10.53499994666666
 30
0
 11
6.292099299999999
 21
10.53499994666666
 31
0
  0
LINE
  8
0
 62
7
 10
6.292099299999999
 20
10.59999994666666
 30
0
 11
7.369999999999999
 21
10.59999994666666
 31
0
  0
LINE
  8
0
 62
7
 10
6.292099299999999
 20
10.53499994666666
 30
0
 11
6.292099299999999
 21
10.59999994666666
 31
0
  0
LINE
  8
0
 62
7
 10
7.369999999999999
 20
10.59999994666666
 30
0
 11
7.369999999999999
 21
10.53499994666666
 31
0
  0
LINE
  8
0
 62
7
 10
6.419999999999999
 20
10.78333322666666
 30
0
 11
7.369999999999999
 21
10.78333322666666
 31
0
  0
LINE
  8
0
 62
7
 10
6.419999999999999
 20
10.71833322666666
 30
0
 11
6.419999999999999
 21
10.78333322666666
 31
0
  0
LINE
  8
0
 62
7
 10
7.369999999999999
 20
10.78333322666666
 30
0
 11
7.369999999999999
 21
10.71833322666666
 31
0
  0
LINE
  8
0
 62
7
 10
7.369999999999999
 20
10.71833322666666
 30
0
 11
6.419999999999999
 21
10.71833322666666
 31
0
  0
LINE
  8
0
 62
7
  6
DASHED
 10
6.419999999999999
 20
10.96666666666666
 30
0
 11
7.369999999999999
 21
10.96666666666666
 31
0
  0
LINE
  8
0
 62
7
  6
DASHED
 10
6.419999999999999
 20
10.90166666666666
 30
0
 11
6.419999999999999
 21
10.96666666666666
 31
0
  0
LINE
  8
0
 62
7
  6
DASHED
 10
7.369999999999999
 20
10.96666666666666
 30
0
 11
7.369999999999999
 21
10.90166666666666
 31
0
  0
LINE
  8
0
 62
7
  6
DASHED
 10
7.369999999999999
 20
10.90166666666666
 30
0
 11
6.419999999999999
 21
10.90166666666666
 31
0
  0
LINE
  8
0
 62
7
  6
DASHDOT
 10
7.424999999999999
 20
5.319999999999997
 30
0
 11
7.599999999999999
 21
5.319999999999997
 31
0
  0
LINE
  8
0
 62
7
  6
DASHDOT
 10
7.599999999999999
 20
5.319999999999997
 30
0
 11
7.649999999999999
 21
5.319999999999996
 31
0
  0
LINE
  8
0
 62
7
  6
DASHDOT
 10
3.714999999999998
 20
4.890000000000001
 30
0
 11
3.714999999999998
 21
4.649999999999999
 31
0
  0
LINE
  8
0
 62
7
  6
DASHDOT
 10
7.765
 20
4.890000000000001
 30
0
 11
7.765
 21
4.649999999999999
 31
0
  0
LINE
  8
0
 62
7
  6
DASHDOT
 10
3.714999999999998
 20
4.930000000000001
 30
0
 11
3.714999999999998
 21
4.890000000000001
 31
0
  0
LINE
  8
0
 62
7
  6
DASHDOT
 10
7.765
 20
4.930000000000001
 30
0
 11
7.765
 21
4.890000000000001
 31
0
  0
LINE
  8
0
 62
7
  6
DASHDOT
 10
3.714999999999998
 20
4.649999999999999
 30
0
 11
3.714999999999998
 21
4.6
 31
0
  0
LINE
  8
0
 62
7
  6
DASHDOT
 10
3.714999999999998
 20
5.169999999999995
 30
0
 11
3.714999999999998
 21
4.930000000000001
 31
0
  0
LINE
  8
0
 62
7
  6
DASHDOT
 10
4.039999999999998
 20
5.319999999999997
 30
0
 11
4.089999999999998
 21
5.319999999999996
 31
0
  0
LINE
  8
0
 62
7
  6
DASHDOT
 10
3.864999999999998
 20
5.319999999999997
 30
0
 11
4.039999999999998
 21
5.319999999999997
 31
0
  0
LINE
  8
0
 62
7
  6
DASHDOT
 10
7.765
 20
4.649999999999999
 30
0
 11
7.765
 21
4.6
 31
0
  0
LINE
  8
0
 62
7
  6
DASHDOT
 10
7.765
 20
5.169999999999995
 30
0
 11
7.765
 21
4.930000000000001
 31
0
  0
LINE
  8
0
 62
7
  6
DASHDOT
 10
7.765
 20
5.219999999999995
 30
0
 11
7.765
 21
5.169999999999995
 31
0
  0
LINE
  8
0
 62
7
  6
DASHDOT
 10
3.714999999999998
 20
5.219999999999995
 30
0
 11
3.714999999999998
 21
5.169999999999995
 31
0
  0
LINE
  8
0
 62
7
  6
DASHDOT
 10
7.374999999999999
 20
5.319999999999996
 30
0
 11
7.424999999999999
 21
5.319999999999997
 31
0
  0
LINE
  8
0
 62
7
  6
DASHDOT
 10
3.814999999999998
 20
5.319999999999996
 30
0
 11
3.864999999999998
 21
5.319999999999997
 31
0
  0
LINE
  8
0
 62
7
 10
4.039999999999998
 20
3.35
 30
0
 11
4.039999999999998
 21
3.400000000000001
 31
0
  0
LINE
  8
0
 62
7
  6
DASHDOT
 10
7.424999999999999
 20
3.35
 30
0
 11
4.039999999999998
 21
3.35
 31
0
  0
LINE
  8
0
 62
7
 10
7.424999999999999
 20
3.4
 30
0
 11
7.424999999999999
 21
3.35
 31
0
  0
LINE
  8
0
 62
7
 10
4.039999999999998
 20
3.400000000000001
 30
0
 11
4.039999999999998
 21
4.649999999999999
 31
0
  0
LINE
  8
0
 62
7
 10
7.424999999999999
 20
3.4
 30
0
 11
4.039999999999998
 21
3.400000000000001
 31
0
  0
LINE
  8
0
 62
7
 10
7.424999999999999
 20
3.35
 30
0
 11
7.599999999999999
 21
3.35
 31
0
  0
LINE
  8
0
 62
7
 10
7.599999999999999
 20
4.649999999999999
 30
0
 11
7.765
 21
4.649999999999999
 31
0
  0
LINE
  8
0
 62
7
 10
7.599999999999999
 20
3.35
 30
0
 11
7.599999999999999
 21
4.649999999999999
 31
0
  0
LINE
  8
0
 62
7
 10
7.424999999999999
 20
4.649999999999999
 30
0
 11
7.424999999999999
 21
3.4
 31
0
  0
LINE
  8
0
 62
7
 10
4.039999999999998
 20
4.649999999999999
 30
0
 11
7.424999999999999
 21
4.649999999999999
 31
0
  0
LINE
  8
0
 62
7
 10
3.864999999999998
 20
4.649999999999999
 30
0
 11
3.864999999999998
 21
3.25
 31
0
  0
LINE
  8
0
 62
7
 10
3.864999999999998
 20
3.25
 30
0
 11
4.039999999999998
 21
3.25
 31
0
  0
LINE
  8
0
 62
7
 10
4.039999999999998
 20
3.25
 30
0
 11
4.039999999999998
 21
3.35
 31
0
  0
LINE
  8
0
 62
7
 10
3.714999999999998
 20
4.649999999999999
 30
0
 11
3.864999999999998
 21
4.649999999999999
 31
0
  0
LINE
  8
0
 62
7
 10
3.714999999999998
 20
4.890000000000001
 30
0
 11
7.765
 21
4.890000000000001
 31
0
  0
LINE
  8
0
 62
7
 10
3.714999999999998
 20
4.930000000000001
 30
0
 11
7.765
 21
4.930000000000001
 31
0
  0
LINE
  8
0
 62
7
 10
7.599999999999999
 20
5.169999999999995
 30
0
 11
7.765
 21
5.169999999999995
 31
0
  0
LINE
  8
0
 62
7
 10
7.599999999999999
 20
5.319999999999997
 30
0
 11
7.599999999999999
 21
5.169999999999995
 31
0
  0
LINE
  8
0
 62
7
 10
7.424999999999999
 20
5.169999999999995
 30
0
 11
7.424999999999999
 21
5.319999999999997
 31
0
  0
LINE
  8
0
 62
7
 10
4.039999999999998
 20
5.169999999999995
 30
0
 11
7.424999999999999
 21
5.169999999999995
 31
0
  0
LINE
  8
0
 62
7
 10
4.039999999999998
 20
5.319999999999997
 30
0
 11
4.039999999999998
 21
5.169999999999995
 31
0
  0
LINE
  8
0
 62
7
 10
3.864999999999998
 20
5.169999999999995
 30
0
 11
3.864999999999998
 21
5.319999999999997
 31
0
  0
LINE
  8
0
 62
7
 10
3.714999999999998
 20
5.169999999999995
 30
0
 11
3.864999999999998
 21
5.169999999999995
 31
0
  0
LINE
  8
0
 62
7
  6
DASHED
 10
0.7399999999999992
 20
8.099999999999998
 30
0
 11
2.04
 21
8.099999999999996
 31
0
  0
LINE
  8
0
 62
7
  6
DASHED
 10
0.7400000000000001
 20
8.299999999999997
 30
0
 11
2.04
 21
8.299999999999997
 31
0
  0
LINE
  8
0
 62
7
  6
DASHED
 10
0.7400000000000001
 20
10.85
 30
0
 11
2.04
 21
10.85
 31
0
  0
LINE
  8
0
 62
7
  6
DASHED
 10
0.7400000000000001
 20
11.05
 30
0
 11
2.04
 21
11.05
 31
0
  0
LINE
  8
0
 62
7
  6
DASHDOT
 10
2.339999999999997
 20
11.05
 30
0
 11
2.339999999999997
 21
10.85
 31
0
  0
LINE
  8
0
 62
7
  6
DASHDOT
 10
2.339999999999997
 20
10.85
 30
0
 11
2.339999999999997
 21
10.8
 31
0
  0
LINE
  8
0
 62
7
  6
DASHDOT
 10
0.5
 20
11.2
 30
0
 11
0.7400000000000001
 21
11.2
 31
0
  0
LINE
  8
0
 62
7
  6
DASHDOT
 10
0.7400000000000001
 20
11.2
 30
0
 11
0.79
 21
11.2
 31
0
  0
LINE
  8
0
 62
7
  6
DASHDOT
 10
0.7400000000000001
 20
7.949999999999996
 30
0
 11
0.79
 21
7.949999999999996
 31
0
  0
LINE
  8
0
 62
7
  6
DASHDOT
 10
0.5
 20
7.949999999999996
 30
0
 11
0.7400000000000001
 21
7.949999999999996
 31
0
  0
LINE
  8
0
 62
7
  6
DASHDOT
 10
2.339999999999997
 20
8.099999999999996
 30
0
 11
2.339999999999997
 21
8.299999999999997
 31
0
  0
LINE
  8
0
 62
7
  6
DASHDOT
 10
2.339999999999997
 20
8.299999999999997
 30
0
 11
2.339999999999997
 21
8.399999999999997
 31
0
  0
LINE
  8
0
 62
7
  6
DASHDOT
 10
2.339999999999997
 20
11.15
 30
0
 11
2.339999999999997
 21
11.05
 31
0
  0
LINE
  8
0
 62
7
 10
2.04
 20
11.15
 30
0
 11
2.339999999999997
 21
11.15
 31
0
  0
LINE
  8
0
 62
7
  6
DASHDOT
 10
2.339999999999997
 20
8.399999999999997
 30
0
 11
2.339999999999997
 21
8.449999999999998
 31
0
  0
LINE
  8
0
 62
7
 10
2.04
 20
8.399999999999997
 30
0
 11
2.339999999999997
 21
8.399999999999997
 31
0
  0
LINE
  8
0
 62
7
  6
DASHDOT
 10
0.45
 20
7.949999999999996
 30
0
 11
0.5
 21
7.949999999999996
 31
0
  0
LINE
  8
0
 62
7
  6
DASHDOT
 10
2.339999999999997
 20
8.049999999999995
 30
0
 11
2.339999999999997
 21
8.099999999999996
 31
0
  0
LINE
  8
0
 62
7
  6
DASHDOT
 10
2.339999999999997
 20
11.2
 30
0
 11
2.339999999999997
 21
11.15
 31
0
  0
LINE
  8
0
 62
7
  6
DASHDOT
 10
0.45
 20
11.2
 30
0
 11
0.5
 21
11.2
 31
0
  0
LINE
  8
0
 62
7
 10
2.04
 20
8.099999999999996
 30
0
 11
2.339999999999997
 21
8.099999999999996
 31
0
  0
LINE
  8
0
 62
7
 10
2.04
 20
8.299999999999997
 30
0
 11
2.04
 21
8.099999999999996
 31
0
  0
LINE
  8
0
 62
7
 10
2.04
 20
8.299999999999997
 30
0
 11
2.339999999999997
 21
8.299999999999997
 31
0
  0
LINE
  8
0
 62
7
 10
2.04
 20
11.05
 30
0
 11
2.339999999999997
 21
11.05
 31
0
  0
LINE
  8
0
 62
7
 10
2.04
 20
10.85
 30
0
 11
2.339999999999997
 21
10.85
 31
0
  0
LINE
  8
0
 62
7
 10
2.04
 20
11.05
 30
0
 11
2.04
 21
10.85
 31
0
  0
LINE
  8
0
 62
7
 10
0.7399999999999992
 20
8.099999999999998
 30
0
 11
0.7400000000000001
 21
7.949999999999996
 31
0
  0
LINE
  8
0
 62
7
 10
0.4999999999999991
 20
8.099999999999998
 30
0
 11
0.5
 21
8.299999999999997
 31
0
  0
LINE
  8
0
 62
7
 10
0.4999999999999991
 20
8.099999999999998
 30
0
 11
0.7399999999999992
 21
8.099999999999998
 31
0
  0
LINE
  8
0
 62
7
 10
0.7400000000000001
 20
8.299999999999997
 30
0
 11
0.7399999999999992
 21
8.099999999999998
 31
0
  0
LINE
  8
0
 62
7
 10
0.5
 20
8.299999999999997
 30
0
 11
0.5
 21
10.85
 31
0
  0
LINE
  8
0
 62
7
 10
0.5
 20
8.299999999999997
 30
0
 11
0.7400000000000001
 21
8.299999999999997
 31
0
  0
LINE
  8
0
 62
7
 10
0.7400000000000001
 20
10.85
 30
0
 11
0.7400000000000001
 21
8.299999999999997
 31
0
  0
LINE
  8
0
 62
7
 10
0.5
 20
10.85
 30
0
 11
0.5
 21
11.05
 31
0
  0
LINE
  8
0
 62
7
 10
0.5
 20
10.85
 30
0
 11
0.7400000000000001
 21
10.85
 31
0
  0
LINE
  8
0
 62
7
 10
0.7400000000000001
 20
11.05
 30
0
 11
0.7400000000000001
 21
10.85
 31
0
  0
LINE
  8
0
 62
7
 10
0.5
 20
11.05
 30
0
 11
0.5
 21
11.2
 31
0
  0
LINE
  8
0
 62
7
 10
0.5
 20
11.05
 30
0
 11
0.7400000000000001
 21
11.05
 31
0
  0
LINE
  8
0
 62
7
 10
0.7400000000000001
 20
11.2
 30
0
 11
0.7400000000000001
 21
11.05
 31
0
  0
LINE
  8
0
 62
7
 10
0.5
 20
7.949999999999996
 30
0
 11
0.4999999999999991
 21
8.099999999999998
 31
0
  0
LINE
  8
0
 62
7
  6
DASHDOT
 10
3.814999999999998
 20
11.2
 30
0
 11
3.864999999999998
 21
11.2
 31
0
  0
LINE
  8
0
 62
7
  6
DASHDOT
 10
3.864999999999998
 20
11.2
 30
0
 11
4.039999999999998
 21
11.2
 31
0
  0
LINE
  8
0
 62
7
  6
DASHDOT
 10
3.714999999999998
 20
11.15
 30
0
 11
3.714999999999998
 21
11.05
 31
0
  0
LINE
  8
0
 62
7
  6
DASHDOT
 10
3.714999999999998
 20
11.05
 30
0
 11
3.714999999999998
 21
10.85
 31
0
  0
LINE
  8
0
 62
7
  6
DASHDOT
 10
7.374999999999999
 20
11.2
 30
0
 11
7.424999999999999
 21
11.2
 31
0
  0
LINE
  8
0
 62
7
  6
DASHDOT
 10
7.424999999999999
 20
11.2
 30
0
 11
7.599999999999999
 21
11.2
 31
0
  0
LINE
  8
0
 62
7
  6
DASHDOT
 10
7.749999999999999
 20
11.15
 30
0
 11
7.749999999999999
 21
11.05
 31
0
  0
LINE
  8
0
 62
7
  6
DASHDOT
 10
7.749999999999999
 20
11.05
 30
0
 11
7.749999999999999
 21
10.85
 31
0
  0
LINE
  8
0
 62
7
  6
DASHDOT
 10
7.374999999999999
 20
7.949999999999996
 30
0
 11
7.424999999999999
 21
7.949999999999996
 31
0
  0
LINE
  8
0
 62
7
  6
DASHDOT
 10
7.424999999999999
 20
7.949999999999996
 30
0
 11
7.599999999999999
 21
7.949999999999996
 31
0
  0
LINE
  8
0
 62
7
  6
DASHDOT
 10
7.749999999999999
 20
8.399999999999997
 30
0
 11
7.749999999999999
 21
8.299999999999997
 31
0
  0
LINE
  8
0
 62
7
  6
DASHDOT
 10
7.749999999999999
 20
8.299999999999997
 30
0
 11
7.749999999999999
 21
8.099999999999996
 31
0
  0
LINE
  8
0
 62
7
  6
DASHDOT
 10
3.814999999999998
 20
7.949999999999996
 30
0
 11
3.864999999999998
 21
7.949999999999996
 31
0
  0
LINE
  8
0
 62
7
  6
DASHDOT
 10
3.864999999999998
 20
7.949999999999996
 30
0
 11
4.039999999999998
 21
7.949999999999996
 31
0
  0
LINE
  8
0
 62
7
  6
DASHDOT
 10
3.714999999999998
 20
8.399999999999997
 30
0
 11
3.714999999999998
 21
8.299999999999997
 31
0
  0
LINE
  8
0
 62
7
  6
DASHDOT
 10
3.714999999999998
 20
8.299999999999997
 30
0
 11
3.714999999999998
 21
8.099999999999996
 31
0
  0
LINE
  8
0
 62
7
  6
DASHDOT
 10
3.714999999999998
 20
11.2
 30
0
 11
3.714999999999998
 21
11.15
 31
0
  0
LINE
  8
0
 62
7
 10
3.864999999999998
 20
11.2
 30
0
 11
3.864999999999998
 21
11.15
 31
0
  0
LINE
  8
0
 62
7
 10
3.714999999999998
 20
11.15
 30
0
 11
3.864999999999998
 21
11.15
 31
0
  0
LINE
  8
0
 62
7
 10
4.039999999999998
 20
11.2
 30
0
 11
4.039999999999998
 21
11.15
 31
0
  0
LINE
  8
0
 62
7
 10
7.424999999999999
 20
11.2
 30
0
 11
7.424999999999999
 21
11.15
 31
0
  0
LINE
  8
0
 62
7
 10
4.039999999999998
 20
11.15
 30
0
 11
7.424999999999999
 21
11.15
 31
0
  0
LINE
  8
0
 62
7
  6
DASHDOT
 10
7.749999999999999
 20
11.2
 30
0
 11
7.749999999999999
 21
11.15
 31
0
  0
LINE
  8
0
 62
7
 10
7.599999999999999
 20
11.2
 30
0
 11
7.599999999999999
 21
11.15
 31
0
  0
LINE
  8
0
 62
7
 10
7.599999999999999
 20
11.15
 30
0
 11
7.749999999999999
 21
11.15
 31
0
  0
LINE
  8
0
 62
7
  6
DASHDOT
 10
3.714999999999998
 20
8.449999999999998
 30
0
 11
3.714999999999998
 21
8.399999999999997
 31
0
  0
LINE
  8
0
 62
7
 10
3.864999999999998
 20
10.85
 30
0
 11
3.864999999999998
 21
8.399999999999997
 31
0
  0
LINE
  8
0
 62
7
 10
3.714999999999998
 20
8.399999999999997
 30
0
 11
3.864999999999998
 21
8.399999999999997
 31
0
  0
LINE
  8
0
 62
7
 10
4.039999999999998
 20
10.85
 30
0
 11
4.039999999999998
 21
8.399999999999997
 31
0
  0
LINE
  8
0
 62
7
 10
7.424999999999999
 20
10.85
 30
0
 11
7.424999999999999
 21
8.399999999999997
 31
0
  0
LINE
  8
0
 62
7
 10
4.039999999999998
 20
8.399999999999997
 30
0
 11
7.424999999999999
 21
8.399999999999997
 31
0
  0
LINE
  8
0
 62
7
  6
DASHDOT
 10
7.749999999999999
 20
8.449999999999998
 30
0
 11
7.749999999999999
 21
8.399999999999997
 31
0
  0
LINE
  8
0
 62
7
 10
7.599999999999999
 20
10.85
 30
0
 11
7.599999999999999
 21
8.399999999999997
 31
0
  0
LINE
  8
0
 62
7
 10
7.599999999999999
 20
8.399999999999997
 30
0
 11
7.749999999999999
 21
8.399999999999997
 31
0
  0
LINE
  8
0
 62
7
  6
DASHDOT
 10
4.039999999999998
 20
7.949999999999996
 30
0
 11
4.089999999999998
 21
7.949999999999996
 31
0
  0
LINE
  8
0
 62
7
  6
DASHDOT
 10
4.039999999999998
 20
11.2
 30
0
 11
4.089999999999998
 21
11.2
 31
0
  0
LINE
  8
0
 62
7
  6
DASHDOT
 10
7.599999999999999
 20
7.949999999999996
 30
0
 11
7.649999999999999
 21
7.949999999999996
 31
0
  0
LINE
  8
0
 62
7
  6
DASHDOT
 10
7.599999999999999
 20
11.2
 30
0
 11
7.649999999999999
 21
11.2
 31
0
  0
LINE
  8
0
 62
7
  6
DASHDOT
 10
3.714999999999998
 20
10.85
 30
0
 11
3.714999999999998
 21
10.8
 31
0
  0
LINE
  8
0
 62
7
  6
DASHDOT
 10
3.714999999999998
 20
8.099999999999996
 30
0
 11
3.714999999999998
 21
8.049999999999995
 31
0
  0
LINE
  8
0
 62
7
  6
DASHDOT
 10
7.749999999999999
 20
10.85
 30
0
 11
7.749999999999999
 21
10.8
 31
0
  0
LINE
  8
0
 62
7
  6
DASHDOT
 10
7.749999999999999
 20
8.099999999999996
 30
0
 11
7.749999999999999
 21
8.049999999999995
 31
0
  0
LINE
  8
0
 62
7
 10
3.714999999999998
 20
11.05
 30
0
 11
3.864999999999998
 21
11.05
 31
0
  0
LINE
  8
0
 62
7
 10
3.864999999999998
 20
11.15
 30
0
 11
3.864999999999998
 21
11.05
 31
0
  0
LINE
  8
0
 62
7
 10
3.714999999999998
 20
10.85
 30
0
 11
3.864999999999998
 21
10.85
 31
0
  0
LINE
  8
0
 62
7
 10
3.714999999999998
 20
8.299999999999997
 30
0
 11
3.864999999999998
 21
8.299999999999997
 31
0
  0
LINE
  8
0
 62
7
 10
3.864999999999998
 20
8.399999999999997
 30
0
 11
3.864999999999998
 21
8.299999999999997
 31
0
  0
LINE
  8
0
 62
7
 10
3.714999999999998
 20
8.099999999999996
 30
0
 11
3.864999999999998
 21
8.099999999999998
 31
0
  0
LINE
  8
0
 62
7
 10
3.864999999999998
 20
8.099999999999998
 30
0
 11
3.864999999999998
 21
7.949999999999996
 31
0
  0
LINE
  8
0
 62
7
 10
3.864999999999998
 20
11.05
 30
0
 11
4.039999999999998
 21
11.05
 31
0
  0
LINE
  8
0
 62
7
 10
4.039999999999998
 20
11.15
 30
0
 11
4.039999999999998
 21
11.05
 31
0
  0
LINE
  8
0
 62
7
 10
3.864999999999998
 20
10.85
 30
0
 11
4.039999999999998
 21
10.85
 31
0
  0
LINE
  8
0
 62
7
 10
3.864999999999998
 20
8.299999999999997
 30
0
 11
4.039999999999998
 21
8.299999999999997
 31
0
  0
LINE
  8
0
 62
7
 10
4.039999999999998
 20
8.399999999999997
 30
0
 11
4.039999999999998
 21
8.299999999999997
 31
0
  0
LINE
  8
0
 62
7
 10
3.864999999999998
 20
8.099999999999998
 30
0
 11
4.039999999999998
 21
8.099999999999998
 31
0
  0
LINE
  8
0
 62
7
 10
4.039999999999998
 20
8.099999999999998
 30
0
 11
4.039999999999998
 21
7.949999999999996
 31
0
  0
LINE
  8
0
 62
7
 10
4.039999999999998
 20
11.05
 30
0
 11
7.424999999999999
 21
11.05
 31
0
  0
LINE
  8
0
 62
7
 10
7.424999999999999
 20
11.15
 30
0
 11
7.424999999999999
 21
11.05
 31
0
  0
LINE
  8
0
 62
7
 10
4.039999999999998
 20
10.85
 30
0
 11
7.424999999999999
 21
10.85
 31
0
  0
LINE
  8
0
 62
7
 10
4.039999999999998
 20
8.299999999999997
 30
0
 11
7.424999999999999
 21
8.299999999999997
 31
0
  0
LINE
  8
0
 62
7
 10
7.424999999999999
 20
8.399999999999997
 30
0
 11
7.424999999999999
 21
8.299999999999997
 31
0
  0
LINE
  8
0
 62
7
 10
4.039999999999998
 20
8.099999999999998
 30
0
 11
7.424999999999999
 21
8.099999999999998
 31
0
  0
LINE
  8
0
 62
7
 10
7.424999999999999
 20
8.099999999999998
 30
0
 11
7.424999999999999
 21
7.949999999999996
 31
0
  0
LINE
  8
0
 62
7
 10
7.424999999999999
 20
11.05
 30
0
 11
7.599999999999999
 21
11.05
 31
0
  0
LINE
  8
0
 62
7
 10
7.599999999999999
 20
11.15
 30
0
 11
7.599999999999999
 21
11.05
 31
0
  0
LINE
  8
0
 62
7
 10
7.424999999999999
 20
10.85
 30
0
 11
7.599999999999999
 21
10.85
 31
0
  0
LINE
  8
0
 62
7
 10
7.424999999999999
 20
8.299999999999997
 30
0
 11
7.599999999999999
 21
8.299999999999997
 31
0
  0
LINE
  8
0
 62
7
 10
7.599999999999999
 20
8.399999999999997
 30
0
 11
7.599999999999999
 21
8.299999999999997
 31
0
  0
LINE
  8
0
 62
7
 10
7.424999999999999
 20
8.099999999999998
 30
0
 11
7.599999999999999
 21
8.099999999999998
 31
0
  0
LINE
  8
0
 62
7
 10
7.599999999999999
 20
8.099999999999998
 30
0
 11
7.599999999999999
 21
7.949999999999996
 31
0
  0
LINE
  8
0
 62
7
 10
7.599999999999999
 20
11.05
 30
0
 11
7.749999999999999
 21
11.05
 31
0
  0
LINE
  8
0
 62
7
 10
7.599999999999999
 20
10.85
 30
0
 11
7.749999999999999
 21
10.85
 31
0
  0
LINE
  8
0
 62
7
 10
7.599999999999999
 20
8.299999999999997
 30
0
 11
7.749999999999999
 21
8.299999999999997
 31
0
  0
LINE
  8
0
 62
7
 10
7.599999999999999
 20
8.099999999999998
 30
0
 11
7.749999999999999
 21
8.099999999999996
 31
0
  0
LINE
  8
0
 62
7
 10
4.908986103020499
 20
4.32417372168285
 30
0
 11
4.908986103020499
 21
4.444173721682851
 31
0
  0
LINE
  8
0
 62
7
 10
4.984586103020501
 20
4.444173721682851
 30
0
 11
4.9305861030205
 21
4.38417372168285
 31
0
  0
LINE
  8
0
 62
7
 10
4.9305861030205
 20
4.38417372168285
 30
0
 11
4.984586103020501
 21
4.32417372168285
 31
0
  0
LINE
  8
0
 62
7
 10
4.9305861030205
 20
4.38417372168285
 30
0
 11
4.908986103020499
 21
4.360173721682851
 31
0
  0
LINE
  8
0
 62
7
 10
5.0925861030205
 20
4.444173721682851
 30
0
 11
5.016986103020499
 21
4.444173721682851
 31
0
  0
LINE
  8
0
 62
7
 10
5.016986103020499
 20
4.444173721682851
 30
0
 11
5.016986103020499
 21
4.38417372168285
 31
0
  0
LINE
  8
0
 62
7
 10
5.016986103020499
 20
4.32417372168285
 30
0
 11
5.0925861030205
 21
4.32417372168285
 31
0
  0
LINE
  8
0
 62
7
 10
5.081786103020499
 20
4.38417372168285
 30
0
 11
5.016986103020499
 21
4.38417372168285
 31
0
  0
LINE
  8
0
 62
7
 10
5.016986103020499
 20
4.38417372168285
 30
0
 11
5.016986103020499
 21
4.32417372168285
 31
0
  0
LINE
  8
0
 62
7
 10
5.1249861030205
 20
4.32417372168285
 30
0
 11
5.1249861030205
 21
4.444173721682851
 31
0
  0
LINE
  8
0
 62
7
 10
5.1249861030205
 20
4.444173721682851
 30
0
 11
5.2005861030205
 21
4.32417372168285
 31
0
  0
LINE
  8
0
 62
7
 10
5.2005861030205
 20
4.32417372168285
 30
0
 11
5.2005861030205
 21
4.444173721682851
 31
0
  0
LINE
  8
0
 62
7
 10
5.2329861030205
 20
4.32417372168285
 30
0
 11
5.2329861030205
 21
4.444173721682851
 31
0
  0
LINE
  8
0
 62
7
 10
5.2329861030205
 20
4.444173721682851
 30
0
 11
5.3085861030205
 21
4.32417372168285
 31
0
  0
LINE
  8
0
 62
7
 10
5.3085861030205
 20
4.32417372168285
 30
0
 11
5.3085861030205
 21
4.444173721682851
 31
0
  0
LINE
  8
0
 62
7
 10
5.4165861030205
 20
4.40817372168285
 30
0
 11
5.413886103020499
 21
4.42017372168285
 31
0
  0
LINE
  8
0
 62
7
 10
5.413886103020499
 20
4.42017372168285
 30
0
 11
5.4084861030205
 21
4.42917372168285
 31
0
  0
LINE
  8
0
 62
7
 10
5.4084861030205
 20
4.42917372168285
 30
0
 11
5.4030861030205
 21
4.43517372168285
 31
0
  0
LINE
  8
0
 62
7
 10
5.4030861030205
 20
4.43517372168285
 30
0
 11
5.3949861030205
 21
4.44117372168285
 31
0
  0
LINE
  8
0
 62
7
 10
5.3949861030205
 20
4.44117372168285
 30
0
 11
5.386886103020499
 21
4.444173721682851
 31
0
  0
LINE
  8
0
 62
7
 10
5.386886103020499
 20
4.444173721682851
 30
0
 11
5.3706861030205
 21
4.444173721682851
 31
0
  0
LINE
  8
0
 62
7
 10
5.3706861030205
 20
4.444173721682851
 30
0
 11
5.3625861030205
 21
4.44117372168285
 31
0
  0
LINE
  8
0
 62
7
 10
5.3625861030205
 20
4.44117372168285
 30
0
 11
5.354486103020499
 21
4.43517372168285
 31
0
  0
LINE
  8
0
 62
7
 10
5.354486103020499
 20
4.43517372168285
 30
0
 11
5.3490861030205
 21
4.42917372168285
 31
0
  0
LINE
  8
0
 62
7
 10
5.3490861030205
 20
4.42917372168285
 30
0
 11
5.3436861030205
 21
4.42017372168285
 31
0
  0
LINE
  8
0
 62
7
 10
5.3436861030205
 20
4.42017372168285
 30
0
 11
5.3409861030205
 21
4.40817372168285
 31
0
  0
LINE
  8
0
 62
7
 10
5.3409861030205
 20
4.40817372168285
 30
0
 11
5.3409861030205
 21
4.360173721682851
 31
0
  0
LINE
  8
0
 62
7
 10
5.3409861030205
 20
4.360173721682851
 30
0
 11
5.3436861030205
 21
4.34817372168285
 31
0
  0
LINE
  8
0
 62
7
 10
5.3436861030205
 20
4.34817372168285
 30
0
 11
5.3490861030205
 21
4.33917372168285
 31
0
  0
LINE
  8
0
 62
7
 10
5.3490861030205
 20
4.33917372168285
 30
0
 11
5.354486103020499
 21
4.33317372168285
 31
0
  0
LINE
  8
0
 62
7
 10
5.354486103020499
 20
4.33317372168285
 30
0
 11
5.3625861030205
 21
4.32717372168285
 31
0
  0
LINE
  8
0
 62
7
 10
5.3625861030205
 20
4.32717372168285
 30
0
 11
5.3706861030205
 21
4.32417372168285
 31
0
  0
LINE
  8
0
 62
7
 10
5.3706861030205
 20
4.32417372168285
 30
0
 11
5.386886103020499
 21
4.32417372168285
 31
0
  0
LINE
  8
0
 62
7
 10
5.386886103020499
 20
4.32417372168285
 30
0
 11
5.3949861030205
 21
4.32717372168285
 31
0
  0
LINE
  8
0
 62
7
 10
5.3949861030205
 20
4.32717372168285
 30
0
 11
5.4030861030205
 21
4.33317372168285
 31
0
  0
LINE
  8
0
 62
7
 10
5.4030861030205
 20
4.33317372168285
 30
0
 11
5.4084861030205
 21
4.33917372168285
 31
0
  0
LINE
  8
0
 62
7
 10
5.4084861030205
 20
4.33917372168285
 30
0
 11
5.413886103020499
 21
4.34817372168285
 31
0
  0
LINE
  8
0
 62
7
 10
5.413886103020499
 20
4.34817372168285
 30
0
 11
5.4165861030205
 21
4.360173721682851
 31
0
  0
LINE
  8
0
 62
7
 10
5.4165861030205
 20
4.360173721682851
 30
0
 11
5.4165861030205
 21
4.38417372168285
 31
0
  0
LINE
  8
0
 62
7
 10
5.4165861030205
 20
4.38417372168285
 30
0
 11
5.3841861030205
 21
4.38417372168285
 31
0
  0
LINE
  8
0
 62
7
 10
5.494886103020499
 20
4.444173721682851
 30
0
 11
5.478686103020499
 21
4.444173721682851
 31
0
  0
LINE
  8
0
 62
7
 10
5.478686103020499
 20
4.444173721682851
 30
0
 11
5.470586103020501
 21
4.44117372168285
 31
0
  0
LINE
  8
0
 62
7
 10
5.470586103020501
 20
4.44117372168285
 30
0
 11
5.462486103020501
 21
4.43517372168285
 31
0
  0
LINE
  8
0
 62
7
 10
5.462486103020501
 20
4.43517372168285
 30
0
 11
5.457086103020501
 21
4.42917372168285
 31
0
  0
LINE
  8
0
 62
7
 10
5.457086103020501
 20
4.42917372168285
 30
0
 11
5.4516861030205
 21
4.42017372168285
 31
0
  0
LINE
  8
0
 62
7
 10
5.4516861030205
 20
4.42017372168285
 30
0
 11
5.448986103020499
 21
4.40817372168285
 31
0
  0
LINE
  8
0
 62
7
 10
5.448986103020499
 20
4.40817372168285
 30
0
 11
5.448986103020499
 21
4.360173721682851
 31
0
  0
LINE
  8
0
 62
7
 10
5.448986103020499
 20
4.360173721682851
 30
0
 11
5.4516861030205
 21
4.34817372168285
 31
0
  0
LINE
  8
0
 62
7
 10
5.4516861030205
 20
4.34817372168285
 30
0
 11
5.457086103020501
 21
4.33917372168285
 31
0
  0
LINE
  8
0
 62
7
 10
5.457086103020501
 20
4.33917372168285
 30
0
 11
5.462486103020501
 21
4.33317372168285
 31
0
  0
LINE
  8
0
 62
7
 10
5.462486103020501
 20
4.33317372168285
 30
0
 11
5.470586103020501
 21
4.32717372168285
 31
0
  0
LINE
  8
0
 62
7
 10
5.470586103020501
 20
4.32717372168285
 30
0
 11
5.478686103020499
 21
4.32417372168285
 31
0
  0
LINE
  8
0
 62
7
 10
5.478686103020499
 20
4.32417372168285
 30
0
 11
5.494886103020499
 21
4.32417372168285
 31
0
  0
LINE
  8
0
 62
7
 10
5.494886103020499
 20
4.32417372168285
 30
0
 11
5.5029861030205
 21
4.32717372168285
 31
0
  0
LINE
  8
0
 62
7
 10
5.5029861030205
 20
4.32717372168285
 30
0
 11
5.5110861030205
 21
4.33317372168285
 31
0
  0
LINE
  8
0
 62
7
 10
5.5110861030205
 20
4.33317372168285
 30
0
 11
5.5164861030205
 21
4.33917372168285
 31
0
  0
LINE
  8
0
 62
7
 10
5.5164861030205
 20
4.33917372168285
 30
0
 11
5.521886103020499
 21
4.34817372168285
 31
0
  0
LINE
  8
0
 62
7
 10
5.521886103020499
 20
4.34817372168285
 30
0
 11
5.524586103020501
 21
4.360173721682851
 31
0
  0
LINE
  8
0
 62
7
 10
5.524586103020501
 20
4.360173721682851
 30
0
 11
5.524586103020501
 21
4.40817372168285
 31
0
  0
LINE
  8
0
 62
7
 10
5.524586103020501
 20
4.40817372168285
 30
0
 11
5.521886103020499
 21
4.42017372168285
 31
0
  0
LINE
  8
0
 62
7
 10
5.521886103020499
 20
4.42017372168285
 30
0
 11
5.5164861030205
 21
4.42917372168285
 31
0
  0
LINE
  8
0
 62
7
 10
5.5164861030205
 20
4.42917372168285
 30
0
 11
5.5110861030205
 21
4.43517372168285
 31
0
  0
LINE
  8
0
 62
7
 10
5.5110861030205
 20
4.43517372168285
 30
0
 11
5.5029861030205
 21
4.44117372168285
 31
0
  0
LINE
  8
0
 62
7
 10
5.5029861030205
 20
4.44117372168285
 30
0
 11
5.494886103020499
 21
4.444173721682851
 31
0
  0
LINE
  8
0
 62
7
 10
5.5461861030205
 20
4.444173721682851
 30
0
 11
5.583986103020502
 21
4.444173721682851
 31
0
  0
LINE
  8
0
 62
7
 10
5.583986103020502
 20
4.444173721682851
 30
0
 11
5.583986103020502
 21
4.32417372168285
 31
0
  0
LINE
  8
0
 62
7
 10
5.583986103020502
 20
4.444173721682851
 30
0
 11
5.621786103020501
 21
4.444173721682851
 31
0
  0
LINE
  8
0
 62
7
 10
5.654186103020502
 20
4.444173721682851
 30
0
 11
5.691986103020501
 21
4.444173721682851
 31
0
  0
LINE
  8
0
 62
7
 10
5.691986103020501
 20
4.444173721682851
 30
0
 11
5.691986103020501
 21
4.32417372168285
 31
0
  0
LINE
  8
0
 62
7
 10
5.691986103020501
 20
4.444173721682851
 30
0
 11
5.729786103020501
 21
4.444173721682851
 31
0
  0
LINE
  8
0
 62
7
 10
5.848586103020501
 20
4.36617372168285
 30
0
 11
5.9025861030205
 21
4.36617372168285
 31
0
  0
LINE
  8
0
 62
7
 10
6.010586103020501
 20
4.444173721682851
 30
0
 11
6.048386103020501
 21
4.444173721682851
 31
0
  0
LINE
  8
0
 62
7
 10
6.048386103020501
 20
4.444173721682851
 30
0
 11
6.048386103020501
 21
4.32417372168285
 31
0
  0
LINE
  8
0
 62
7
 10
6.048386103020501
 20
4.444173721682851
 30
0
 11
6.0861861030205
 21
4.444173721682851
 31
0
  0
LINE
  8
0
 62
7
 10
6.1185861030205
 20
4.32417372168285
 30
0
 11
6.1185861030205
 21
4.444173721682851
 31
0
  0
LINE
  8
0
 62
7
 10
6.1185861030205
 20
4.444173721682851
 30
0
 11
6.169886103020501
 21
4.444173721682851
 31
0
  0
LINE
  8
0
 62
7
 10
6.169886103020501
 20
4.444173721682851
 30
0
 11
6.1806861030205
 21
4.44117372168285
 31
0
  0
LINE
  8
0
 62
7
 10
6.1806861030205
 20
4.44117372168285
 30
0
 11
6.188786103020501
 21
4.43517372168285
 31
0
  0
LINE
  8
0
 62
7
 10
6.188786103020501
 20
4.43517372168285
 30
0
 11
6.1914861030205
 21
4.42917372168285
 31
0
  0
LINE
  8
0
 62
7
 10
6.1914861030205
 20
4.42917372168285
 30
0
 11
6.194186103020502
 21
4.42017372168285
 31
0
  0
LINE
  8
0
 62
7
 10
6.194186103020502
 20
4.42017372168285
 30
0
 11
6.194186103020502
 21
4.40817372168285
 31
0
  0
LINE
  8
0
 62
7
 10
6.194186103020502
 20
4.40817372168285
 30
0
 11
6.1914861030205
 21
4.39917372168285
 31
0
  0
LINE
  8
0
 62
7
 10
6.1914861030205
 20
4.39917372168285
 30
0
 11
6.188786103020501
 21
4.393173721682849
 31
0
  0
LINE
  8
0
 62
7
 10
6.188786103020501
 20
4.393173721682849
 30
0
 11
6.1806861030205
 21
4.38717372168285
 31
0
  0
LINE
  8
0
 62
7
 10
6.1806861030205
 20
4.38717372168285
 30
0
 11
6.169886103020501
 21
4.38417372168285
 31
0
  0
LINE
  8
0
 62
7
 10
6.169886103020501
 20
4.38417372168285
 30
0
 11
6.1617861030205
 21
4.38417372168285
 31
0
  0
LINE
  8
0
 62
7
 10
6.1617861030205
 20
4.38417372168285
 30
0
 11
6.194186103020502
 21
4.32417372168285
 31
0
  0
LINE
  8
0
 62
7
 10
6.1617861030205
 20
4.38417372168285
 30
0
 11
6.1185861030205
 21
4.38417372168285
 31
0
  0
LINE
  8
0
 62
7
 10
6.291386103020501
 20
4.444173721682851
 30
0
 11
6.215786103020501
 21
4.444173721682851
 31
0
  0
LINE
  8
0
 62
7
 10
6.215786103020501
 20
4.444173721682851
 30
0
 11
6.215786103020501
 21
4.38417372168285
 31
0
  0
LINE
  8
0
 62
7
 10
6.215786103020501
 20
4.32417372168285
 30
0
 11
6.291386103020501
 21
4.32417372168285
 31
0
  0
LINE
  8
0
 62
7
 10
6.280586103020501
 20
4.38417372168285
 30
0
 11
6.215786103020501
 21
4.38417372168285
 31
0
  0
LINE
  8
0
 62
7
 10
6.215786103020501
 20
4.38417372168285
 30
0
 11
6.215786103020501
 21
4.32417372168285
 31
0
  0
LINE
  8
0
 62
7
 10
6.323786103020502
 20
4.32417372168285
 30
0
 11
6.323786103020502
 21
4.38417372168285
 31
0
  0
LINE
  8
0
 62
7
 10
6.323786103020502
 20
4.444173721682851
 30
0
 11
6.375086103020502
 21
4.444173721682851
 31
0
  0
LINE
  8
0
 62
7
 10
6.375086103020502
 20
4.444173721682851
 30
0
 11
6.385886103020503
 21
4.44117372168285
 31
0
  0
LINE
  8
0
 62
7
 10
6.385886103020503
 20
4.44117372168285
 30
0
 11
6.393986103020502
 21
4.43517372168285
 31
0
  0
LINE
  8
0
 62
7
 10
6.393986103020502
 20
4.43517372168285
 30
0
 11
6.396686103020501
 21
4.42917372168285
 31
0
  0
LINE
  8
0
 62
7
 10
6.396686103020501
 20
4.42917372168285
 30
0
 11
6.399386103020502
 21
4.42017372168285
 31
0
  0
LINE
  8
0
 62
7
 10
6.399386103020502
 20
4.42017372168285
 30
0
 11
6.399386103020502
 21
4.40817372168285
 31
0
  0
LINE
  8
0
 62
7
 10
6.399386103020502
 20
4.40817372168285
 30
0
 11
6.396686103020501
 21
4.39917372168285
 31
0
  0
LINE
  8
0
 62
7
 10
6.396686103020501
 20
4.39917372168285
 30
0
 11
6.393986103020502
 21
4.393173721682849
 31
0
  0
LINE
  8
0
 62
7
 10
6.393986103020502
 20
4.393173721682849
 30
0
 11
6.385886103020503
 21
4.38717372168285
 31
0
  0
LINE
  8
0
 62
7
 10
6.385886103020503
 20
4.38717372168285
 30
0
 11
6.375086103020502
 21
4.38417372168285
 31
0
  0
LINE
  8
0
 62
7
 10
6.375086103020502
 20
4.38417372168285
 30
0
 11
6.323786103020502
 21
4.38417372168285
 31
0
  0
LINE
  8
0
 62
7
 10
6.323786103020502
 20
4.38417372168285
 30
0
 11
6.323786103020502
 21
4.444173721682851
 31
0
  0
LINE
  8
0
 62
7
 10
6.420986103020501
 20
4.32417372168285
 30
0
 11
6.420986103020501
 21
4.38417372168285
 31
0
  0
LINE
  8
0
 62
7
 10
6.420986103020501
 20
4.444173721682851
 30
0
 11
6.472286103020501
 21
4.444173721682851
 31
0
  0
LINE
  8
0
 62
7
 10
6.472286103020501
 20
4.444173721682851
 30
0
 11
6.483086103020501
 21
4.44117372168285
 31
0
  0
LINE
  8
0
 62
7
 10
6.483086103020501
 20
4.44117372168285
 30
0
 11
6.4911861030205
 21
4.43517372168285
 31
0
  0
LINE
  8
0
 62
7
 10
6.4911861030205
 20
4.43517372168285
 30
0
 11
6.4938861030205
 21
4.42917372168285
 31
0
  0
LINE
  8
0
 62
7
 10
6.4938861030205
 20
4.42917372168285
 30
0
 11
6.496586103020501
 21
4.42017372168285
 31
0
  0
LINE
  8
0
 62
7
 10
6.496586103020501
 20
4.42017372168285
 30
0
 11
6.496586103020501
 21
4.40817372168285
 31
0
  0
LINE
  8
0
 62
7
 10
6.496586103020501
 20
4.40817372168285
 30
0
 11
6.4938861030205
 21
4.39917372168285
 31
0
  0
LINE
  8
0
 62
7
 10
6.4938861030205
 20
4.39917372168285
 30
0
 11
6.4911861030205
 21
4.393173721682849
 31
0
  0
LINE
  8
0
 62
7
 10
6.4911861030205
 20
4.393173721682849
 30
0
 11
6.483086103020501
 21
4.38717372168285
 31
0
  0
LINE
  8
0
 62
7
 10
6.483086103020501
 20
4.38717372168285
 30
0
 11
6.472286103020501
 21
4.38417372168285
 31
0
  0
LINE
  8
0
 62
7
 10
6.472286103020501
 20
4.38417372168285
 30
0
 11
6.420986103020501
 21
4.38417372168285
 31
0
  0
LINE
  8
0
 62
7
 10
6.420986103020501
 20
4.38417372168285
 30
0
 11
6.420986103020501
 21
4.444173721682851
 31
0
  0
LINE
  8
0
 62
7
 10
6.593786103020502
 20
4.444173721682851
 30
0
 11
6.518186103020501
 21
4.444173721682851
 31
0
  0
LINE
  8
0
 62
7
 10
6.518186103020501
 20
4.444173721682851
 30
0
 11
6.518186103020501
 21
4.38417372168285
 31
0
  0
LINE
  8
0
 62
7
 10
6.518186103020501
 20
4.32417372168285
 30
0
 11
6.593786103020502
 21
4.32417372168285
 31
0
  0
LINE
  8
0
 62
7
 10
6.582986103020501
 20
4.38417372168285
 30
0
 11
6.518186103020501
 21
4.38417372168285
 31
0
  0
LINE
  8
0
 62
7
 10
6.518186103020501
 20
4.38417372168285
 30
0
 11
6.518186103020501
 21
4.32417372168285
 31
0
  0
LINE
  8
0
 62
7
 10
4.674999999999999
 20
3.01
 30
0
 11
4.750599999999999
 21
3.01
 31
0
  0
LINE
  8
0
 62
7
 10
4.750599999999999
 20
3.01
 30
0
 11
4.674999999999999
 21
2.890000000000001
 31
0
  0
LINE
  8
0
 62
7
 10
4.674999999999999
 20
2.890000000000001
 30
0
 11
4.750599999999999
 21
2.890000000000001
 31
0
  0
LINE
  8
0
 62
7
 10
4.782999999999999
 20
2.992
 30
0
 11
4.788399999999998
 21
3.001
 31
0
  0
LINE
  8
0
 62
7
 10
4.788399999999998
 20
3.001
 30
0
 11
4.796499999999999
 21
3.007
 31
0
  0
LINE
  8
0
 62
7
 10
4.796499999999999
 20
3.007
 30
0
 11
4.807299999999998
 21
3.01
 31
0
  0
LINE
  8
0
 62
7
 10
4.807299999999998
 20
3.01
 30
0
 11
4.823499999999999
 21
3.01
 31
0
  0
LINE
  8
0
 62
7
 10
4.823499999999999
 20
3.01
 30
0
 11
4.834299999999998
 21
3.007
 31
0
  0
LINE
  8
0
 62
7
 10
4.834299999999998
 20
3.007
 30
0
 11
4.842399999999998
 21
3.001
 31
0
  0
LINE
  8
0
 62
7
 10
4.842399999999998
 20
3.001
 30
0
 11
4.847799999999999
 21
2.992
 31
0
  0
LINE
  8
0
 62
7
 10
4.847799999999999
 20
2.992
 30
0
 11
4.847799999999999
 21
2.98
 31
0
  0
LINE
  8
0
 62
7
 10
4.847799999999999
 20
2.98
 30
0
 11
4.842399999999998
 21
2.968
 31
0
  0
LINE
  8
0
 62
7
 10
4.842399999999998
 20
2.968
 30
0
 11
4.782999999999999
 21
2.890000000000001
 31
0
  0
LINE
  8
0
 62
7
 10
4.782999999999999
 20
2.890000000000001
 30
0
 11
4.847799999999999
 21
2.890000000000001
 31
0
  0
LINE
  8
0
 62
7
 10
4.880199999999999
 20
3.01
 30
0
 11
4.917999999999999
 21
2.890000000000001
 31
0
  0
LINE
  8
0
 62
7
 10
4.917999999999999
 20
2.890000000000001
 30
0
 11
4.9558
 21
3.01
 31
0
  0
LINE
  8
0
 62
7
 10
4.988199999999999
 20
2.992
 30
0
 11
4.993599999999998
 21
3.001
 31
0
  0
LINE
  8
0
 62
7
 10
4.993599999999998
 20
3.001
 30
0
 11
5.001699999999999
 21
3.007
 31
0
  0
LINE
  8
0
 62
7
 10
5.001699999999999
 20
3.007
 30
0
 11
5.012499999999999
 21
3.01
 31
0
  0
LINE
  8
0
 62
7
 10
5.012499999999999
 20
3.01
 30
0
 11
5.028699999999998
 21
3.01
 31
0
  0
LINE
  8
0
 62
7
 10
5.028699999999998
 20
3.01
 30
0
 11
5.036799999999998
 21
3.007
 31
0
  0
LINE
  8
0
 62
7
 10
5.036799999999998
 20
3.007
 30
0
 11
5.044899999999998
 21
3.001
 31
0
  0
LINE
  8
0
 62
7
 10
5.044899999999998
 20
3.001
 30
0
 11
5.0503
 21
2.992
 31
0
  0
LINE
  8
0
 62
7
 10
5.0503
 20
2.992
 30
0
 11
5.052999999999998
 21
2.98
 31
0
  0
LINE
  8
0
 62
7
 10
5.052999999999998
 20
2.98
 30
0
 11
5.052999999999998
 21
2.971
 31
0
  0
LINE
  8
0
 62
7
 10
5.052999999999998
 20
2.971
 30
0
 11
5.0503
 21
2.962
 31
0
  0
LINE
  8
0
 62
7
 10
5.0503
 20
2.962
 30
0
 11
5.044899999999998
 21
2.956
 31
0
  0
LINE
  8
0
 62
7
 10
5.044899999999998
 20
2.956
 30
0
 11
5.031399999999998
 21
2.95
 31
0
  0
LINE
  8
0
 62
7
 10
5.012499999999999
 20
2.95
 30
0
 11
5.031399999999998
 21
2.95
 31
0
  0
LINE
  8
0
 62
7
 10
5.031399999999998
 20
2.95
 30
0
 11
5.044899999999998
 21
2.944
 31
0
  0
LINE
  8
0
 62
7
 10
5.044899999999998
 20
2.944
 30
0
 11
5.0503
 21
2.938
 31
0
  0
LINE
  8
0
 62
7
 10
5.0503
 20
2.938
 30
0
 11
5.052999999999998
 21
2.929
 31
0
  0
LINE
  8
0
 62
7
 10
5.052999999999998
 20
2.929
 30
0
 11
5.052999999999998
 21
2.92
 31
0
  0
LINE
  8
0
 62
7
 10
5.052999999999998
 20
2.92
 30
0
 11
5.0503
 21
2.908
 31
0
  0
LINE
  8
0
 62
7
 10
5.0503
 20
2.908
 30
0
 11
5.044899999999998
 21
2.899
 31
0
  0
LINE
  8
0
 62
7
 10
5.044899999999998
 20
2.899
 30
0
 11
5.036799999999998
 21
2.893
 31
0
  0
LINE
  8
0
 62
7
 10
5.036799999999998
 20
2.893
 30
0
 11
5.028699999999998
 21
2.890000000000001
 31
0
  0
LINE
  8
0
 62
7
 10
5.028699999999998
 20
2.890000000000001
 30
0
 11
5.012499999999999
 21
2.890000000000001
 31
0
  0
LINE
  8
0
 62
7
 10
5.012499999999999
 20
2.890000000000001
 30
0
 11
5.001699999999999
 21
2.893
 31
0
  0
LINE
  8
0
 62
7
 10
5.001699999999999
 20
2.893
 30
0
 11
4.993599999999998
 21
2.899
 31
0
  0
LINE
  8
0
 62
7
 10
4.993599999999998
 20
2.899
 30
0
 11
4.988199999999999
 21
2.908
 31
0
  0
LINE
  8
0
 62
7
 10
5.085399999999998
 20
2.992
 30
0
 11
5.090799999999999
 21
3.001
 31
0
  0
LINE
  8
0
 62
7
 10
5.090799999999999
 20
3.001
 30
0
 11
5.098899999999998
 21
3.007
 31
0
  0
LINE
  8
0
 62
7
 10
5.098899999999998
 20
3.007
 30
0
 11
5.109699999999998
 21
3.01
 31
0
  0
LINE
  8
0
 62
7
 10
5.109699999999998
 20
3.01
 30
0
 11
5.125899999999998
 21
3.01
 31
0
  0
LINE
  8
0
 62
7
 10
5.125899999999998
 20
3.01
 30
0
 11
5.133999999999999
 21
3.007
 31
0
  0
LINE
  8
0
 62
7
 10
5.133999999999999
 20
3.007
 30
0
 11
5.142099999999999
 21
3.001
 31
0
  0
LINE
  8
0
 62
7
 10
5.142099999999999
 20
3.001
 30
0
 11
5.1475
 21
2.992
 31
0
  0
LINE
  8
0
 62
7
 10
5.1475
 20
2.992
 30
0
 11
5.150199999999999
 21
2.98
 31
0
  0
LINE
  8
0
 62
7
 10
5.150199999999999
 20
2.98
 30
0
 11
5.150199999999999
 21
2.971
 31
0
  0
LINE
  8
0
 62
7
 10
5.150199999999999
 20
2.971
 30
0
 11
5.1475
 21
2.962
 31
0
  0
LINE
  8
0
 62
7
 10
5.1475
 20
2.962
 30
0
 11
5.142099999999999
 21
2.956
 31
0
  0
LINE
  8
0
 62
7
 10
5.142099999999999
 20
2.956
 30
0
 11
5.128599999999999
 21
2.95
 31
0
  0
LINE
  8
0
 62
7
 10
5.109699999999998
 20
2.95
 30
0
 11
5.128599999999999
 21
2.95
 31
0
  0
LINE
  8
0
 62
7
 10
5.128599999999999
 20
2.95
 30
0
 11
5.142099999999999
 21
2.944
 31
0
  0
LINE
  8
0
 62
7
 10
5.142099999999999
 20
2.944
 30
0
 11
5.1475
 21
2.938
 31
0
  0
LINE
  8
0
 62
7
 10
5.1475
 20
2.938
 30
0
 11
5.150199999999999
 21
2.929
 31
0
  0
LINE
  8
0
 62
7
 10
5.150199999999999
 20
2.929
 30
0
 11
5.150199999999999
 21
2.92
 31
0
  0
LINE
  8
0
 62
7
 10
5.150199999999999
 20
2.92
 30
0
 11
5.1475
 21
2.908
 31
0
  0
LINE
  8
0
 62
7
 10
5.1475
 20
2.908
 30
0
 11
5.142099999999999
 21
2.899
 31
0
  0
LINE
  8
0
 62
7
 10
5.142099999999999
 20
2.899
 30
0
 11
5.133999999999999
 21
2.893
 31
0
  0
LINE
  8
0
 62
7
 10
5.133999999999999
 20
2.893
 30
0
 11
5.125899999999998
 21
2.890000000000001
 31
0
  0
LINE
  8
0
 62
7
 10
5.125899999999998
 20
2.890000000000001
 30
0
 11
5.109699999999998
 21
2.890000000000001
 31
0
  0
LINE
  8
0
 62
7
 10
5.109699999999998
 20
2.890000000000001
 30
0
 11
5.098899999999998
 21
2.893
 31
0
  0
LINE
  8
0
 62
7
 10
5.098899999999998
 20
2.893
 30
0
 11
5.090799999999999
 21
2.899
 31
0
  0
LINE
  8
0
 62
7
 10
5.090799999999999
 20
2.899
 30
0
 11
5.085399999999998
 21
2.908
 31
0
  0
LINE
  8
0
 62
7
 10
5.2096
 20
3.01
 30
0
 11
5.220399999999999
 21
3.01
 31
0
  0
LINE
  8
0
 62
7
 10
5.220399999999999
 20
3.01
 30
0
 11
5.228499999999999
 21
3.007
 31
0
  0
LINE
  8
0
 62
7
 10
5.228499999999999
 20
3.007
 30
0
 11
5.233899999999999
 21
3.001
 31
0
  0
LINE
  8
0
 62
7
 10
5.233899999999999
 20
3.001
 30
0
 11
5.239299999999999
 21
2.992
 31
0
  0
LINE
  8
0
 62
7
 10
5.239299999999999
 20
2.992
 30
0
 11
5.239299999999999
 21
2.98
 31
0
  0
LINE
  8
0
 62
7
 10
5.239299999999999
 20
2.98
 30
0
 11
5.236599999999999
 21
2.974
 31
0
  0
LINE
  8
0
 62
7
 10
5.236599999999999
 20
2.974
 30
0
 11
5.228499999999999
 21
2.965
 31
0
  0
LINE
  8
0
 62
7
 10
5.228499999999999
 20
2.965
 30
0
 11
5.220399999999999
 21
2.962
 31
0
  0
LINE
  8
0
 62
7
 10
5.220399999999999
 20
2.962
 30
0
 11
5.2096
 21
2.962
 31
0
  0
LINE
  8
0
 62
7
 10
5.2096
 20
2.962
 30
0
 11
5.201499999999999
 21
2.965
 31
0
  0
LINE
  8
0
 62
7
 10
5.201499999999999
 20
2.965
 30
0
 11
5.1934
 21
2.974
 31
0
  0
LINE
  8
0
 62
7
 10
5.1934
 20
2.974
 30
0
 11
5.1907
 21
2.98
 31
0
  0
LINE
  8
0
 62
7
 10
5.1907
 20
2.98
 30
0
 11
5.1907
 21
2.992
 31
0
  0
LINE
  8
0
 62
7
 10
5.1907
 20
2.992
 30
0
 11
5.196099999999999
 21
3.001
 31
0
  0
LINE
  8
0
 62
7
 10
5.196099999999999
 20
3.001
 30
0
 11
5.201499999999999
 21
3.007
 31
0
  0
LINE
  8
0
 62
7
 10
5.201499999999999
 20
3.007
 30
0
 11
5.2096
 21
3.01
 31
0
  0
LINE
  8
0
 62
7
 10
5.2096
 20
2.962
 30
0
 11
5.196099999999999
 21
2.956
 31
0
  0
LINE
  8
0
 62
7
 10
5.196099999999999
 20
2.956
 30
0
 11
5.187999999999999
 21
2.947
 31
0
  0
LINE
  8
0
 62
7
 10
5.187999999999999
 20
2.947
 30
0
 11
5.182599999999999
 21
2.935
 31
0
  0
LINE
  8
0
 62
7
 10
5.182599999999999
 20
2.935
 30
0
 11
5.182599999999999
 21
2.917
 31
0
  0
LINE
  8
0
 62
7
 10
5.182599999999999
 20
2.917
 30
0
 11
5.187999999999999
 21
2.905
 31
0
  0
LINE
  8
0
 62
7
 10
5.187999999999999
 20
2.905
 30
0
 11
5.196099999999999
 21
2.896
 31
0
  0
LINE
  8
0
 62
7
 10
5.196099999999999
 20
2.896
 30
0
 11
5.2069
 21
2.890000000000001
 31
0
  0
LINE
  8
0
 62
7
 10
5.2069
 20
2.890000000000001
 30
0
 11
5.223099999999999
 21
2.890000000000001
 31
0
  0
LINE
  8
0
 62
7
 10
5.223099999999999
 20
2.890000000000001
 30
0
 11
5.233899999999999
 21
2.896
 31
0
  0
LINE
  8
0
 62
7
 10
5.233899999999999
 20
2.896
 30
0
 11
5.241999999999998
 21
2.905
 31
0
  0
LINE
  8
0
 62
7
 10
5.241999999999998
 20
2.905
 30
0
 11
5.247399999999999
 21
2.917
 31
0
  0
LINE
  8
0
 62
7
 10
5.247399999999999
 20
2.917
 30
0
 11
5.247399999999999
 21
2.935
 31
0
  0
LINE
  8
0
 62
7
 10
5.247399999999999
 20
2.935
 30
0
 11
5.241999999999998
 21
2.947
 31
0
  0
LINE
  8
0
 62
7
 10
5.241999999999998
 20
2.947
 30
0
 11
5.233899999999999
 21
2.956
 31
0
  0
LINE
  8
0
 62
7
 10
5.233899999999999
 20
2.956
 30
0
 11
5.220399999999999
 21
2.962
 31
0
  0
LINE
  8
0
 62
7
 10
5.290599999999999
 20
2.890000000000001
 30
0
 11
5.290599999999999
 21
3.01
 31
0
  0
LINE
  8
0
 62
7
 10
5.290599999999999
 20
3.01
 30
0
 11
5.3419
 21
3.01
 31
0
  0
LINE
  8
0
 62
7
 10
5.3419
 20
3.01
 30
0
 11
5.352699999999999
 21
3.007
 31
0
  0
LINE
  8
0
 62
7
 10
5.352699999999999
 20
3.007
 30
0
 11
5.360799999999998
 21
3.001
 31
0
  0
LINE
  8
0
 62
7
 10
5.360799999999998
 20
3.001
 30
0
 11
5.363499999999998
 21
2.995
 31
0
  0
LINE
  8
0
 62
7
 10
5.363499999999998
 20
2.995
 30
0
 11
5.366199999999999
 21
2.986
 31
0
  0
LINE
  8
0
 62
7
 10
5.366199999999999
 20
2.986
 30
0
 11
5.366199999999999
 21
2.974
 31
0
  0
LINE
  8
0
 62
7
 10
5.366199999999999
 20
2.974
 30
0
 11
5.363499999999998
 21
2.965
 31
0
  0
LINE
  8
0
 62
7
 10
5.363499999999998
 20
2.965
 30
0
 11
5.360799999999998
 21
2.959
 31
0
  0
LINE
  8
0
 62
7
 10
5.360799999999998
 20
2.959
 30
0
 11
5.352699999999999
 21
2.953
 31
0
  0
LINE
  8
0
 62
7
 10
5.352699999999999
 20
2.953
 30
0
 11
5.3419
 21
2.95
 31
0
  0
LINE
  8
0
 62
7
 10
5.3419
 20
2.95
 30
0
 11
5.3338
 21
2.95
 31
0
  0
LINE
  8
0
 62
7
 10
5.3338
 20
2.95
 30
0
 11
5.366199999999999
 21
2.890000000000001
 31
0
  0
LINE
  8
0
 62
7
 10
5.3338
 20
2.95
 30
0
 11
5.290599999999999
 21
2.95
 31
0
  0
LINE
  8
0
 62
7
 10
5.387799999999999
 20
2.938
 30
0
 11
5.390499999999999
 21
2.95
 31
0
  0
LINE
  8
0
 62
7
 10
5.390499999999999
 20
2.95
 30
0
 11
5.3959
 21
2.959
 31
0
  0
LINE
  8
0
 62
7
 10
5.3959
 20
2.959
 30
0
 11
5.403999999999999
 21
2.965
 31
0
  0
LINE
  8
0
 62
7
 10
5.403999999999999
 20
2.965
 30
0
 11
5.4121
 21
2.968
 31
0
  0
LINE
  8
0
 62
7
 10
5.4121
 20
2.968
 30
0
 11
5.428299999999999
 21
2.968
 31
0
  0
LINE
  8
0
 62
7
 10
5.428299999999999
 20
2.968
 30
0
 11
5.436399999999999
 21
2.965
 31
0
  0
LINE
  8
0
 62
7
 10
5.436399999999999
 20
2.965
 30
0
 11
5.444499999999999
 21
2.959
 31
0
  0
LINE
  8
0
 62
7
 10
5.444499999999999
 20
2.959
 30
0
 11
5.4499
 21
2.95
 31
0
  0
LINE
  8
0
 62
7
 10
5.4499
 20
2.95
 30
0
 11
5.452599999999999
 21
2.938
 31
0
  0
LINE
  8
0
 62
7
 10
5.452599999999999
 20
2.938
 30
0
 11
5.452599999999999
 21
2.92
 31
0
  0
LINE
  8
0
 62
7
 10
5.452599999999999
 20
2.92
 30
0
 11
5.4499
 21
2.908
 31
0
  0
LINE
  8
0
 62
7
 10
5.4499
 20
2.908
 30
0
 11
5.444499999999999
 21
2.899
 31
0
  0
LINE
  8
0
 62
7
 10
5.444499999999999
 20
2.899
 30
0
 11
5.436399999999999
 21
2.893
 31
0
  0
LINE
  8
0
 62
7
 10
5.436399999999999
 20
2.893
 30
0
 11
5.428299999999999
 21
2.890000000000001
 31
0
  0
LINE
  8
0
 62
7
 10
5.428299999999999
 20
2.890000000000001
 30
0
 11
5.4121
 21
2.890000000000001
 31
0
  0
LINE
  8
0
 62
7
 10
5.4121
 20
2.890000000000001
 30
0
 11
5.403999999999999
 21
2.893
 31
0
  0
LINE
  8
0
 62
7
 10
5.403999999999999
 20
2.893
 30
0
 11
5.3959
 21
2.899
 31
0
  0
LINE
  8
0
 62
7
 10
5.3959
 20
2.899
 30
0
 11
5.390499999999999
 21
2.908
 31
0
  0
LINE
  8
0
 62
7
 10
5.390499999999999
 20
2.908
 30
0
 11
5.387799999999999
 21
2.92
 31
0
  0
LINE
  8
0
 62
7
 10
5.387799999999999
 20
2.92
 30
0
 11
5.387799999999999
 21
2.938
 31
0
  0
LINE
  8
0
 62
7
 10
5.387799999999999
 20
2.98
 30
0
 11
5.390499999999999
 21
2.992
 31
0
  0
LINE
  8
0
 62
7
 10
5.390499999999999
 20
2.992
 30
0
 11
5.3959
 21
3.001
 31
0
  0
LINE
  8
0
 62
7
 10
5.3959
 20
3.001
 30
0
 11
5.403999999999999
 21
3.007
 31
0
  0
LINE
  8
0
 62
7
 10
5.403999999999999
 20
3.007
 30
0
 11
5.4121
 21
3.01
 31
0
  0
LINE
  8
0
 62
7
 10
5.4121
 20
3.01
 30
0
 11
5.428299999999999
 21
3.01
 31
0
  0
LINE
  8
0
 62
7
 10
5.428299999999999
 20
3.01
 30
0
 11
5.436399999999999
 21
3.007
 31
0
  0
LINE
  8
0
 62
7
 10
5.436399999999999
 20
3.007
 30
0
 11
5.444499999999999
 21
3.001
 31
0
  0
LINE
  8
0
 62
7
 10
5.444499999999999
 20
3.001
 30
0
 11
5.4499
 21
2.992
 31
0
  0
LINE
  8
0
 62
7
 10
5.387799999999999
 20
2.938
 30
0
 11
5.387799999999999
 21
2.98
 31
0
  0
LINE
  8
0
 62
7
 10
7.174999999999999
 20
2.890000000000001
 30
0
 11
7.174999999999999
 21
2.99
 31
0
  0
LINE
  8
0
 62
7
 10
7.174999999999999
 20
2.99
 30
0
 11
7.237999999999999
 21
2.890000000000001
 31
0
  0
LINE
  8
0
 62
7
 10
7.237999999999999
 20
2.890000000000001
 30
0
 11
7.237999999999999
 21
2.99
 31
0
  0
LINE
  8
0
 62
7
 10
7.318999999999999
 20
2.890000000000001
 30
0
 11
7.265
 21
2.890000000000001
 31
0
  0
LINE
  8
0
 62
7
 10
7.265
 20
2.890000000000001
 30
0
 11
7.265
 21
2.99
 31
0
  0
LINE
  8
0
 62
7
 10
7.346
 20
2.94
 30
0
 11
7.381999999999998
 21
2.94
 31
0
  0
LINE
  8
0
 62
7
 10
7.381999999999998
 20
2.94
 30
0
 11
7.386499999999998
 21
2.94
 31
0
  0
LINE
  8
0
 62
7
 10
7.386499999999998
 20
2.94
 30
0
 11
7.395499999999998
 21
2.935
 31
0
  0
LINE
  8
0
 62
7
 10
7.395499999999998
 20
2.935
 30
0
 11
7.399999999999999
 21
2.93
 31
0
  0
LINE
  8
0
 62
7
 10
7.399999999999999
 20
2.93
 30
0
 11
7.404499999999999
 21
2.92
 31
0
  0
LINE
  8
0
 62
7
 10
7.404499999999999
 20
2.92
 30
0
 11
7.404499999999999
 21
2.91
 31
0
  0
LINE
  8
0
 62
7
 10
7.404499999999999
 20
2.91
 30
0
 11
7.399999999999999
 21
2.9
 31
0
  0
LINE
  8
0
 62
7
 10
7.399999999999999
 20
2.9
 30
0
 11
7.395499999999998
 21
2.895
 31
0
  0
LINE
  8
0
 62
7
 10
7.395499999999998
 20
2.895
 30
0
 11
7.386499999999998
 21
2.890000000000001
 31
0
  0
LINE
  8
0
 62
7
 10
7.386499999999998
 20
2.890000000000001
 30
0
 11
7.346
 21
2.890000000000001
 31
0
  0
LINE
  8
0
 62
7
 10
7.346
 20
2.890000000000001
 30
0
 11
7.346
 21
2.94
 31
0
  0
LINE
  8
0
 62
7
 10
7.346
 20
2.99
 30
0
 11
7.37975
 21
2.99
 31
0
  0
LINE
  8
0
 62
7
 10
7.37975
 20
2.99
 30
0
 11
7.391
 21
2.9875
 31
0
  0
LINE
  8
0
 62
7
 10
7.391
 20
2.9875
 30
0
 11
7.397749999999998
 21
2.98
 31
0
  0
LINE
  8
0
 62
7
 10
7.397749999999998
 20
2.98
 30
0
 11
7.399999999999999
 21
2.97
 31
0
  0
LINE
  8
0
 62
7
 10
7.399999999999999
 20
2.97
 30
0
 11
7.399999999999999
 21
2.96
 31
0
  0
LINE
  8
0
 62
7
 10
7.399999999999999
 20
2.96
 30
0
 11
7.395499999999998
 21
2.95
 31
0
  0
LINE
  8
0
 62
7
 10
7.395499999999998
 20
2.95
 30
0
 11
7.388749999999999
 21
2.9425
 31
0
  0
LINE
  8
0
 62
7
 10
7.388749999999999
 20
2.9425
 30
0
 11
7.381999999999998
 21
2.94
 31
0
  0
LINE
  8
0
 62
7
 10
7.346
 20
2.94
 30
0
 11
7.346
 21
2.99
 31
0
  0
LINE
  8
0
 62
7
 10
7.54625
 20
2.9425
 30
0
 11
7.539499999999999
 21
2.952500000000001
 31
0
  0
LINE
  8
0
 62
7
 10
7.539499999999999
 20
2.952500000000001
 30
0
 11
7.532749999999999
 21
2.9575
 31
0
  0
LINE
  8
0
 62
7
 10
7.532749999999999
 20
2.9575
 30
0
 11
7.526
 21
2.96
 31
0
  0
LINE
  8
0
 62
7
 10
7.526
 20
2.96
 30
0
 11
7.516999999999999
 21
2.96
 31
0
  0
LINE
  8
0
 62
7
 10
7.516999999999999
 20
2.96
 30
0
 11
7.510249999999998
 21
2.9575
 31
0
  0
LINE
  8
0
 62
7
 10
7.510249999999998
 20
2.9575
 30
0
 11
7.5035
 21
2.952500000000001
 31
0
  0
LINE
  8
0
 62
7
 10
7.5035
 20
2.952500000000001
 30
0
 11
7.496749999999999
 21
2.9425
 31
0
  0
LINE
  8
0
 62
7
 10
7.496749999999999
 20
2.9425
 30
0
 11
7.494499999999999
 21
2.935
 31
0
  0
LINE
  8
0
 62
7
 10
7.494499999999999
 20
2.935
 30
0
 11
7.494499999999999
 21
2.915
 31
0
  0
LINE
  8
0
 62
7
 10
7.494499999999999
 20
2.915
 30
0
 11
7.496749999999999
 21
2.9075
 31
0
  0
LINE
  8
0
 62
7
 10
7.496749999999999
 20
2.9075
 30
0
 11
7.5035
 21
2.8975
 31
0
  0
LINE
  8
0
 62
7
 10
7.5035
 20
2.8975
 30
0
 11
7.510249999999998
 21
2.8925
 31
0
  0
LINE
  8
0
 62
7
 10
7.510249999999998
 20
2.8925
 30
0
 11
7.516999999999999
 21
2.890000000000001
 31
0
  0
LINE
  8
0
 62
7
 10
7.516999999999999
 20
2.890000000000001
 30
0
 11
7.526
 21
2.890000000000001
 31
0
  0
LINE
  8
0
 62
7
 10
7.526
 20
2.890000000000001
 30
0
 11
7.532749999999999
 21
2.8925
 31
0
  0
LINE
  8
0
 62
7
 10
7.532749999999999
 20
2.8925
 30
0
 11
7.539499999999999
 21
2.8975
 31
0
  0
LINE
  8
0
 62
7
 10
7.539499999999999
 20
2.8975
 30
0
 11
7.54625
 21
2.9075
 31
0
  0
LINE
  8
0
 62
7
 10
7.61825
 20
2.935
 30
0
 11
7.616
 21
2.9425
 31
0
  0
LINE
  8
0
 62
7
 10
7.616
 20
2.9425
 30
0
 11
7.609249999999999
 21
2.952500000000001
 31
0
  0
LINE
  8
0
 62
7
 10
7.609249999999999
 20
2.952500000000001
 30
0
 11
7.602499999999999
 21
2.9575
 31
0
  0
LINE
  8
0
 62
7
 10
7.602499999999999
 20
2.9575
 30
0
 11
7.595749999999999
 21
2.96
 31
0
  0
LINE
  8
0
 62
7
 10
7.595749999999999
 20
2.96
 30
0
 11
7.586749999999999
 21
2.96
 31
0
  0
LINE
  8
0
 62
7
 10
7.586749999999999
 20
2.96
 30
0
 11
7.58
 21
2.9575
 31
0
  0
LINE
  8
0
 62
7
 10
7.58
 20
2.9575
 30
0
 11
7.573249999999999
 21
2.952500000000001
 31
0
  0
LINE
  8
0
 62
7
 10
7.573249999999999
 20
2.952500000000001
 30
0
 11
7.566499999999998
 21
2.9425
 31
0
  0
LINE
  8
0
 62
7
 10
7.566499999999998
 20
2.9425
 30
0
 11
7.564249999999999
 21
2.935
 31
0
  0
LINE
  8
0
 62
7
 10
7.564249999999999
 20
2.935
 30
0
 11
7.564249999999999
 21
2.915
 31
0
  0
LINE
  8
0
 62
7
 10
7.564249999999999
 20
2.915
 30
0
 11
7.566499999999998
 21
2.9075
 31
0
  0
LINE
  8
0
 62
7
 10
7.566499999999998
 20
2.9075
 30
0
 11
7.573249999999999
 21
2.8975
 31
0
  0
LINE
  8
0
 62
7
 10
7.573249999999999
 20
2.8975
 30
0
 11
7.58
 21
2.8925
 31
0
  0
LINE
  8
0
 62
7
 10
7.58
 20
2.8925
 30
0
 11
7.586749999999999
 21
2.890000000000001
 31
0
  0
LINE
  8
0
 62
7
 10
7.586749999999999
 20
2.890000000000001
 30
0
 11
7.595749999999999
 21
2.890000000000001
 31
0
  0
LINE
  8
0
 62
7
 10
7.595749999999999
 20
2.890000000000001
 30
0
 11
7.602499999999999
 21
2.8925
 31
0
  0
LINE
  8
0
 62
7
 10
7.602499999999999
 20
2.8925
 30
0
 11
7.609249999999999
 21
2.8975
 31
0
  0
LINE
  8
0
 62
7
 10
7.609249999999999
 20
2.8975
 30
0
 11
7.616
 21
2.9075
 31
0
  0
LINE
  8
0
 62
7
 10
7.616
 20
2.9075
 30
0
 11
7.61825
 21
2.915
 31
0
  0
LINE
  8
0
 62
7
 10
7.61825
 20
2.96
 30
0
 11
7.61825
 21
2.935
 31
0
  0
LINE
  8
0
 62
7
 10
7.61825
 20
2.8925
 30
0
 11
7.620499999999999
 21
2.890000000000001
 31
0
  0
LINE
  8
0
 62
7
 10
7.620499999999999
 20
2.890000000000001
 30
0
 11
7.622749999999998
 21
2.890000000000001
 31
0
  0
LINE
  8
0
 62
7
 10
7.61825
 20
2.915
 30
0
 11
7.61825
 21
2.8925
 31
0
  0
LINE
  8
0
 62
7
 10
7.61825
 20
2.935
 30
0
 11
7.61825
 21
2.915
 31
0
  0
LINE
  8
0
 62
7
 10
7.640749999999999
 20
2.890000000000001
 30
0
 11
7.640749999999999
 21
2.8925
 31
0
  0
LINE
  8
0
 62
7
 10
7.640749999999999
 20
2.8925
 30
0
 11
7.642999999999998
 21
2.8925
 31
0
  0
LINE
  8
0
 62
7
 10
7.642999999999998
 20
2.8925
 30
0
 11
7.642999999999998
 21
2.890000000000001
 31
0
  0
LINE
  8
0
 62
7
 10
7.642999999999998
 20
2.890000000000001
 30
0
 11
7.640749999999999
 21
2.890000000000001
 31
0
  0
LINE
  8
0
 62
7
 10
7.766749999999999
 20
2.99
 30
0
 11
7.775749999999999
 21
2.99
 31
0
  0
LINE
  8
0
 62
7
 10
7.775749999999999
 20
2.99
 30
0
 11
7.782499999999999
 21
2.9875
 31
0
  0
LINE
  8
0
 62
7
 10
7.782499999999999
 20
2.9875
 30
0
 11
7.786999999999999
 21
2.9825
 31
0
  0
LINE
  8
0
 62
7
 10
7.786999999999999
 20
2.9825
 30
0
 11
7.791499999999998
 21
2.975
 31
0
  0
LINE
  8
0
 62
7
 10
7.791499999999998
 20
2.975
 30
0
 11
7.791499999999998
 21
2.965
 31
0
  0
LINE
  8
0
 62
7
 10
7.791499999999998
 20
2.965
 30
0
 11
7.789249999999999
 21
2.96
 31
0
  0
LINE
  8
0
 62
7
 10
7.789249999999999
 20
2.96
 30
0
 11
7.782499999999999
 21
2.952500000000001
 31
0
  0
LINE
  8
0
 62
7
 10
7.782499999999999
 20
2.952500000000001
 30
0
 11
7.775749999999999
 21
2.95
 31
0
  0
LINE
  8
0
 62
7
 10
7.775749999999999
 20
2.95
 30
0
 11
7.766749999999999
 21
2.95
 31
0
  0
LINE
  8
0
 62
7
 10
7.766749999999999
 20
2.95
 30
0
 11
7.76
 21
2.952500000000001
 31
0
  0
LINE
  8
0
 62
7
 10
7.76
 20
2.952500000000001
 30
0
 11
7.753249999999999
 21
2.96
 31
0
  0
LINE
  8
0
 62
7
 10
7.753249999999999
 20
2.96
 30
0
 11
7.750999999999999
 21
2.965
 31
0
  0
LINE
  8
0
 62
7
 10
7.750999999999999
 20
2.965
 30
0
 11
7.750999999999999
 21
2.975
 31
0
  0
LINE
  8
0
 62
7
 10
7.750999999999999
 20
2.975
 30
0
 11
7.755499999999998
 21
2.9825
 31
0
  0
LINE
  8
0
 62
7
 10
7.755499999999998
 20
2.9825
 30
0
 11
7.76
 21
2.9875
 31
0
  0
LINE
  8
0
 62
7
 10
7.76
 20
2.9875
 30
0
 11
7.766749999999999
 21
2.99
 31
0
  0
LINE
  8
0
 62
7
 10
7.766749999999999
 20
2.95
 30
0
 11
7.755499999999998
 21
2.945
 31
0
  0
LINE
  8
0
 62
7
 10
7.755499999999998
 20
2.945
 30
0
 11
7.74875
 21
2.9375
 31
0
  0
LINE
  8
0
 62
7
 10
7.74875
 20
2.9375
 30
0
 11
7.744249999999998
 21
2.9275
 31
0
  0
LINE
  8
0
 62
7
 10
7.744249999999998
 20
2.9275
 30
0
 11
7.744249999999998
 21
2.9125
 31
0
  0
LINE
  8
0
 62
7
 10
7.744249999999998
 20
2.9125
 30
0
 11
7.74875
 21
2.9025
 31
0
  0
LINE
  8
0
 62
7
 10
7.74875
 20
2.9025
 30
0
 11
7.755499999999998
 21
2.895
 31
0
  0
LINE
  8
0
 62
7
 10
7.755499999999998
 20
2.895
 30
0
 11
7.764499999999998
 21
2.890000000000001
 31
0
  0
LINE
  8
0
 62
7
 10
7.764499999999998
 20
2.890000000000001
 30
0
 11
7.777999999999999
 21
2.890000000000001
 31
0
  0
LINE
  8
0
 62
7
 10
7.777999999999999
 20
2.890000000000001
 30
0
 11
7.786999999999999
 21
2.895
 31
0
  0
LINE
  8
0
 62
7
 10
7.786999999999999
 20
2.895
 30
0
 11
7.793749999999999
 21
2.9025
 31
0
  0
LINE
  8
0
 62
7
 10
7.793749999999999
 20
2.9025
 30
0
 11
7.798249999999999
 21
2.9125
 31
0
  0
LINE
  8
0
 62
7
 10
7.798249999999999
 20
2.9125
 30
0
 11
7.798249999999999
 21
2.9275
 31
0
  0
LINE
  8
0
 62
7
 10
7.798249999999999
 20
2.9275
 30
0
 11
7.793749999999999
 21
2.9375
 31
0
  0
LINE
  8
0
 62
7
 10
7.793749999999999
 20
2.9375
 30
0
 11
7.786999999999999
 21
2.945
 31
0
  0
LINE
  8
0
 62
7
 10
7.786999999999999
 20
2.945
 30
0
 11
7.775749999999999
 21
2.95
 31
0
  0
LINE
  8
0
 62
7
 10
7.888249999999998
 20
2.95
 30
0
 11
7.886
 21
2.94
 31
0
  0
LINE
  8
0
 62
7
 10
7.886
 20
2.94
 30
0
 11
7.881499999999999
 21
2.9325
 31
0
  0
LINE
  8
0
 62
7
 10
7.881499999999999
 20
2.9325
 30
0
 11
7.874749999999999
 21
2.9275
 31
0
  0
LINE
  8
0
 62
7
 10
7.874749999999999
 20
2.9275
 30
0
 11
7.867999999999999
 21
2.925
 31
0
  0
LINE
  8
0
 62
7
 10
7.867999999999999
 20
2.925
 30
0
 11
7.854499999999999
 21
2.925
 31
0
  0
LINE
  8
0
 62
7
 10
7.854499999999999
 20
2.925
 30
0
 11
7.847749999999998
 21
2.9275
 31
0
  0
LINE
  8
0
 62
7
 10
7.847749999999998
 20
2.9275
 30
0
 11
7.841
 21
2.9325
 31
0
  0
LINE
  8
0
 62
7
 10
7.841
 20
2.9325
 30
0
 11
7.836499999999998
 21
2.94
 31
0
  0
LINE
  8
0
 62
7
 10
7.836499999999998
 20
2.94
 30
0
 11
7.834249999999999
 21
2.95
 31
0
  0
LINE
  8
0
 62
7
 10
7.834249999999999
 20
2.95
 30
0
 11
7.834249999999999
 21
2.965
 31
0
  0
LINE
  8
0
 62
7
 10
7.834249999999999
 20
2.965
 30
0
 11
7.836499999999998
 21
2.975
 31
0
  0
LINE
  8
0
 62
7
 10
7.836499999999998
 20
2.975
 30
0
 11
7.841
 21
2.9825
 31
0
  0
LINE
  8
0
 62
7
 10
7.841
 20
2.9825
 30
0
 11
7.847749999999998
 21
2.9875
 31
0
  0
LINE
  8
0
 62
7
 10
7.847749999999998
 20
2.9875
 30
0
 11
7.854499999999999
 21
2.99
 31
0
  0
LINE
  8
0
 62
7
 10
7.854499999999999
 20
2.99
 30
0
 11
7.867999999999999
 21
2.99
 31
0
  0
LINE
  8
0
 62
7
 10
7.867999999999999
 20
2.99
 30
0
 11
7.874749999999999
 21
2.9875
 31
0
  0
LINE
  8
0
 62
7
 10
7.874749999999999
 20
2.9875
 30
0
 11
7.881499999999999
 21
2.9825
 31
0
  0
LINE
  8
0
 62
7
 10
7.881499999999999
 20
2.9825
 30
0
 11
7.886
 21
2.975
 31
0
  0
LINE
  8
0
 62
7
 10
7.886
 20
2.975
 30
0
 11
7.888249999999998
 21
2.965
 31
0
  0
LINE
  8
0
 62
7
 10
7.888249999999998
 20
2.965
 30
0
 11
7.888249999999998
 21
2.95
 31
0
  0
LINE
  8
0
 62
7
 10
7.888249999999998
 20
2.915
 30
0
 11
7.886
 21
2.905
 31
0
  0
LINE
  8
0
 62
7
 10
7.886
 20
2.905
 30
0
 11
7.881499999999999
 21
2.8975
 31
0
  0
LINE
  8
0
 62
7
 10
7.881499999999999
 20
2.8975
 30
0
 11
7.874749999999999
 21
2.8925
 31
0
  0
LINE
  8
0
 62
7
 10
7.874749999999999
 20
2.8925
 30
0
 11
7.867999999999999
 21
2.890000000000001
 31
0
  0
LINE
  8
0
 62
7
 10
7.867999999999999
 20
2.890000000000001
 30
0
 11
7.854499999999999
 21
2.890000000000001
 31
0
  0
LINE
  8
0
 62
7
 10
7.854499999999999
 20
2.890000000000001
 30
0
 11
7.847749999999998
 21
2.8925
 31
0
  0
LINE
  8
0
 62
7
 10
7.847749999999998
 20
2.8925
 30
0
 11
7.841
 21
2.8975
 31
0
  0
LINE
  8
0
 62
7
 10
7.841
 20
2.8975
 30
0
 11
7.836499999999998
 21
2.905
 31
0
  0
LINE
  8
0
 62
7
 10
7.888249999999998
 20
2.95
 30
0
 11
7.888249999999998
 21
2.915
 31
0
  0
LINE
  8
0
 62
7
 10
8.039
 20
2.9425
 30
0
 11
8.032249999999999
 21
2.952500000000001
 31
0
  0
LINE
  8
0
 62
7
 10
8.032249999999999
 20
2.952500000000001
 30
0
 11
8.025499999999999
 21
2.9575
 31
0
  0
LINE
  8
0
 62
7
 10
8.025499999999999
 20
2.9575
 30
0
 11
8.018749999999999
 21
2.96
 31
0
  0
LINE
  8
0
 62
7
 10
8.018749999999999
 20
2.96
 30
0
 11
8.00975
 21
2.96
 31
0
  0
LINE
  8
0
 62
7
 10
8.00975
 20
2.96
 30
0
 11
8.002999999999998
 21
2.9575
 31
0
  0
LINE
  8
0
 62
7
 10
8.002999999999998
 20
2.9575
 30
0
 11
7.99625
 21
2.952500000000001
 31
0
  0
LINE
  8
0
 62
7
 10
7.99625
 20
2.952500000000001
 30
0
 11
7.989499999999999
 21
2.9425
 31
0
  0
LINE
  8
0
 62
7
 10
7.989499999999999
 20
2.9425
 30
0
 11
7.98725
 21
2.935
 31
0
  0
LINE
  8
0
 62
7
 10
7.98725
 20
2.935
 30
0
 11
7.98725
 21
2.915
 31
0
  0
LINE
  8
0
 62
7
 10
7.98725
 20
2.915
 30
0
 11
7.989499999999999
 21
2.9075
 31
0
  0
LINE
  8
0
 62
7
 10
7.989499999999999
 20
2.9075
 30
0
 11
7.99625
 21
2.8975
 31
0
  0
LINE
  8
0
 62
7
 10
7.99625
 20
2.8975
 30
0
 11
8.002999999999998
 21
2.8925
 31
0
  0
LINE
  8
0
 62
7
 10
8.002999999999998
 20
2.8925
 30
0
 11
8.00975
 21
2.890000000000001
 31
0
  0
LINE
  8
0
 62
7
 10
8.00975
 20
2.890000000000001
 30
0
 11
8.018749999999999
 21
2.890000000000001
 31
0
  0
LINE
  8
0
 62
7
 10
8.018749999999999
 20
2.890000000000001
 30
0
 11
8.025499999999999
 21
2.8925
 31
0
  0
LINE
  8
0
 62
7
 10
8.025499999999999
 20
2.8925
 30
0
 11
8.032249999999999
 21
2.8975
 31
0
  0
LINE
  8
0
 62
7
 10
8.032249999999999
 20
2.8975
 30
0
 11
8.039
 21
2.9075
 31
0
  0
LINE
  8
0
 62
7
 10
8.0975
 20
2.935
 30
0
 11
8.0975
 21
2.890000000000001
 31
0
  0
LINE
  8
0
 62
7
 10
8.056999999999999
 20
2.96
 30
0
 11
8.056999999999999
 21
2.935
 31
0
  0
LINE
  8
0
 62
7
 10
8.056999999999999
 20
2.890000000000001
 30
0
 11
8.056999999999999
 21
2.935
 31
0
  0
LINE
  8
0
 62
7
 10
8.056999999999999
 20
2.935
 30
0
 11
8.059249999999999
 21
2.9475
 31
0
  0
LINE
  8
0
 62
7
 10
8.059249999999999
 20
2.9475
 30
0
 11
8.061499999999999
 21
2.952500000000001
 31
0
  0
LINE
  8
0
 62
7
 10
8.061499999999999
 20
2.952500000000001
 30
0
 11
8.066000000000001
 21
2.9575
 31
0
  0
LINE
  8
0
 62
7
 10
8.066000000000001
 20
2.9575
 30
0
 11
8.072749999999997
 21
2.96
 31
0
  0
LINE
  8
0
 62
7
 10
8.072749999999997
 20
2.96
 30
0
 11
8.081749999999998
 21
2.96
 31
0
  0
LINE
  8
0
 62
7
 10
8.081749999999998
 20
2.96
 30
0
 11
8.0885
 21
2.9575
 31
0
  0
LINE
  8
0
 62
7
 10
8.0885
 20
2.9575
 30
0
 11
8.092999999999998
 21
2.952500000000001
 31
0
  0
LINE
  8
0
 62
7
 10
8.092999999999998
 20
2.952500000000001
 30
0
 11
8.095249999999998
 21
2.9475
 31
0
  0
LINE
  8
0
 62
7
 10
8.095249999999998
 20
2.9475
 30
0
 11
8.0975
 21
2.935
 31
0
  0
LINE
  8
0
 62
7
 10
8.0975
 20
2.935
 30
0
 11
8.099749999999998
 21
2.9475
 31
0
  0
LINE
  8
0
 62
7
 10
8.099749999999998
 20
2.9475
 30
0
 11
8.101999999999999
 21
2.952500000000001
 31
0
  0
LINE
  8
0
 62
7
 10
8.101999999999999
 20
2.952500000000001
 30
0
 11
8.106499999999999
 21
2.9575
 31
0
  0
LINE
  8
0
 62
7
 10
8.106499999999999
 20
2.9575
 30
0
 11
8.113249999999999
 21
2.96
 31
0
  0
LINE
  8
0
 62
7
 10
8.113249999999999
 20
2.96
 30
0
 11
8.122249999999999
 21
2.96
 31
0
  0
LINE
  8
0
 62
7
 10
8.122249999999999
 20
2.96
 30
0
 11
8.128999999999998
 21
2.9575
 31
0
  0
LINE
  8
0
 62
7
 10
8.1335
 20
2.952500000000001
 30
0
 11
8.128999999999998
 21
2.9575
 31
0
  0
LINE
  8
0
 62
7
 10
8.128999999999998
 20
2.9575
 30
0
 11
8.1335
 21
2.952500000000001
 31
0
  0
LINE
  8
0
 62
7
 10
8.1335
 20
2.952500000000001
 30
0
 11
8.13575
 21
2.9475
 31
0
  0
LINE
  8
0
 62
7
 10
8.13575
 20
2.9475
 30
0
 11
8.137999999999998
 21
2.935
 31
0
  0
LINE
  8
0
 62
7
 10
8.137999999999998
 20
2.935
 30
0
 11
8.137999999999998
 21
2.890000000000001
 31
0
  0
ARC
  8
0
 62
7
 10
6.420266704464478
 20
3.6152667044645
 30
0
 40
0.5409999999999946
 50
359.9717540824357
 51
90.02824592229835
  0
ARC
  8
0
 62
7
 10
5.044733295535549
 20
3.61526670446447
 30
0
 40
0.541000000000006
 50
89.97175408244016
 51
180.0282459139379
  0
CIRCLE
  8
0
 62
7
 10
4.503733361276078
 20
3.25
 30
0
 40
0.0600000000000005
  0
DIMENSION
  8
0
  6
CONTINUOUS
 62
7
  2
*D0
  3
DMST_1
 10
8.014472005053049
 20
4.649999999999999
 30
0
 11
8.014472005053049
 21
4.0233336030205
 31
0
 12
0
 22
0
 32
0
 70
0
 13
7.599999999999999
 23
3.35
 33
0
 14
7.599999999999999
 24
4.649999999999999
 34
0
 50
90
 53
0
  0
DIMENSION
  8
0
  6
CONTINUOUS
 62
7
  2
*D1
  3
DMST_1
 10
7.424999999999999
 20
5.552683656957931
 30
0
 11
5.814181282291461
 21
5.552683656957931
 31
0
 12
0
 22
0
 32
0
 70
0
 13
4.039999999999998
 23
5.169999999999995
 33
0
 14
7.424999999999999
 24
5.169999999999995
 34
0
 53
0
  0
DIMENSION
  8
0
  6
CONTINUOUS
 62
7
  2
*D2
  3
DMST_1
 10
3.57442346136373
 20
4.649999999999999
 30
0
 11
3.57442346136373
 21
3.9937332793959
 31
0
 12
0
 22
0
 32
0
 70
0
 13
3.864999999999998
 23
3.25
 33
0
 14
3.864999999999998
 24
4.649999999999999
 34
0
 50
90
 53
0
  0
DIMENSION
  8
0
  6
CONTINUOUS
 62
7
  2
*D3
  3
DMST_2
 10
4.039999999999998
 20
11.5615493527508
 30
0
 11
5.67604643871001
 21
11.5615493527508
 31
0
 12
0
 22
0
 32
0
 70
0
 13
7.424999999999999
 23
11.2
 33
0
 14
4.039999999999998
 24
11.2
 34
0
 53
0
  0
INSERT
  8
0
  2
*D4
 10
0
 20
0
 30
0
  0
ENDSEC
  0
EOF
