  0
SECTION
  2
HEADER
  9
$ACADVER
  1
AC1009
  9
$INSBASE
 10
0
 20
0
  9
$EXTMIN
 10
0.568723312893913
 20
2.890000000000001
  9
$EXTMAX
 10
8.25
 20
11.5691620030658
  9
$LIMMIN
 10
0.568723312893913
 20
2.890000000000001
  9
$LIMMAX
 10
8.25
 20
11.5691620030658
  9
$VIEWCTR
 10
10
 20
10
  9
$VIEWSIZE
 40
10
  9
$SNAPMODE
 70
0
  9
$SNAPUNIT
 10
1
 20
1
  9
$SNAPBASE
 10
0
 20
0
  9
$SNAPANG
 50
0
  9
$SNAPSTYLE
 70
0
  9
$SNAPISOPAIR
 70
0
  9
$GRIDMODE
 70
0
  9
$GRIDUNIT
 10
0
 20
0
  9
$ORTHOMODE
 70
0
  9
$REGENMODE
 70
1
  9
$FILLMODE
 70
1
  9
$QTEXTMODE
 70
0
  9
$DRAGMODE
 70
2
  9
$LTSCALE
 40
1
  9
$OSMODE
 70
0
  9
$ATTMODE
 70
1
  9
$TEXTSIZE
 40
3.5
  9
$TRACEWID
 40
0.5
  9
$TEXTSTYLE
  7
STANDARD
  9
$CLAYER
  8
0
  9
$CELTYPE
  6
BYLAYER
  9
$CECOLOR
 62
256
  9
$DIMSCALE
 40
1
  9
$DIMASZ
 40
0.18
  9
$DIMEXO
 40
0.0625
  9
$DIMDLI
 40
0.38
  9
$DIMRND
 40
0
  9
$DIMDLE
 40
0
  9
$DIMEXE
 40
0.18
  9
$DIMTP
 40
0
  9
$DIMTM
 40
0
  9
$DIMTXT
 40
0.18
  9
$DIMCEN
 40
0.09
  9
$DIMTSZ
 40
0
  9
$DIMTOL
 70
0
  9
$DIMLIM
 70
0
  9
$DIMTIH
 70
1
  9
$DIMTOH
 70
1
  9
$DIMSE1
 70
0
  9
$DIMSE2
 70
0
  9
$DIMTAD
 70
0
  9
$DIMZIN
 70
0
  9
$DIMBLK
  1

  9
$DIMASO
 70
1
  9
$DIMSHO
 70
1
  9
$DIMPOST
  1

  9
$DIMAPOST
  1

  9
$DIMALT
 70
0
  9
$DIMALTD
 70
2
  9
$DIMALTF
 40
25.4
  9
$DIMLFAC
 40
1
  9
$DIMTOFL
 70
0
  9
$DIMTVP
 40
0
  9
$DIMTIX
 70
0
  9
$DIMSOXD
 70
0
  9
$DIMSAH
 70
0
  9
$DIMBLK1
  1

  9
$DIMBLK2
  1

  9
$DIMSTYLE
  2
*UNNAMED
  9
$DIMCLRD
 70
0
  9
$DIMCLRE
 70
0
  9
$DIMCLRT
 70
0
  9
$DIMTFAC
 40
1
  9
$DIMGAP
 40
0.09
  9
$LUNITS
 70
2
  9
$LUPREC
 70
4
  9
$AXISMODE
 70
0
  9
$AXISUNIT
 10
0
 20
0
  9
$SKETCHINC
 40
0.1
  9
$FILLETRAD
 40
2
  9
$AUNITS
 70
0
  9
$AUPREC
 70
0
  9
$MENU
  1
ACAD
  9
$ELEVATION
 40
0
  9
$THICKNESS
 40
0
  9
$VIEWDIR
 10
0
 20
0
 30
1
  9
$LIMCHECK
 70
0
  9
$BLIPMODE
 70
1
  9
$CHAMFERA
 40
0
  9
$CHAMFERB
 40
0
  9
$FASTZOOM
 70
1
  9
$SKPOLY
 70
0
  9
$ANGBASE
 50
0
  9
$ANGDIR
 70
0
  9
$PDMODE
 70
0
  9
$PDSIZE
 40
0
  9
$PLINEWID
 40
0
  9
$COORDS
 70
2
  0
ENDSEC
  0
SECTION
  2
TABLES
  0
TABLE
  2
DIMSTYLE
 70
2
  0
DIMSTYLE
  2
DMST_1
 70
0
  3

  4

  5

  6

  7

 40
1
 41
0.1
 42
0
 43
0.7
 44
0.2
 45
0
 46
0
 47
0
 48
0
140
0.1
141
0
142
0.1
143
25.4
144
1
145
0
146
1
147
0.25
 71
0
 72
0
 73
0
 74
0
 75
0
 76
0
 77
0
 78
9
170
0
171
2
172
0
173
0
174
0
175
0
176
7
177
7
178
7
  0
DIMSTYLE
  2
DMST_2
 70
0
  3

  4

  5

  6

  7

 40
1
 41
0.1
 42
0
 43
0.7
 44
0.2
 45
0
 46
0
 47
0
 48
0
140
0.1
141
0
142
0.1
143
25.4
144
1
145
0
146
1
147
0.2
 71
0
 72
0
 73
0
 74
0
 75
0
 76
0
 77
0
 78
9
170
0
171
2
172
0
173
0
174
0
175
0
176
7
177
7
178
7
  0
ENDTAB
  0
TABLE
  2
LTYPE
 70
9
  0
LTYPE
  2
CONTINUOUS
 70
64
  3
Solid line
 72
65
 73
0
 40
0
  0
LTYPE
  2
BORDER
 70
64
  3
__ __ . __ __ .
 72
65
 73
6
 40
0.3996982501411881
 49
0.1141995000403395
 49
-0.05709975002016974
 49
0.1141995000403395
 49
-0.05709975002016974
 49
0
 49
-0.05709975002016974
  0
LTYPE
  2
CENTER
 70
64
  3
____ _ ____ _
 72
65
 73
4
 40
0.4567980001613579
 49
0.2854987501008487
 49
-0.05709975002016974
 49
0.05709975002016974
 49
-0.05709975002016974
  0
LTYPE
  2
DASHDOT
 70
64
  3
__ . __ . __ .
 72
65
 73
4
 40
0.228399000080679
 49
0.1141995000403395
 49
-0.05709975002016974
 49
0
 49
-0.05709975002016974
  0
LTYPE
  2
DASHED
 70
64
  3
__ __ __ __ __
 72
65
 73
2
 40
0.1712992500605092
 49
0.1141995000403395
 49
-0.05709975002016974
  0
LTYPE
  2
DIVIDE
 70
64
  3
__ . . __ . . 
 72
65
 73
6
 40
0.2854987501008487
 49
0.1141995000403395
 49
-0.05709975002016974
 49
0
 49
-0.05709975002016974
 49
0
 49
-0.05709975002016974
  0
LTYPE
  2
DOT
 70
64
  3
..............
 72
65
 73
4
 40
0.1141995000403395
 49
0
 49
-0.05709975002016974
 49
0
 49
-0.05709975002016974
  0
LTYPE
  2
HIDDEN
 70
64
  3
_ _ _ _ _ _ _
 72
65
 73
2
 40
0.08564962503025461
 49
0.05709975002016974
 49
-0.02854987501008487
  0
LTYPE
  2
PHANTOM
 70
64
  3
_____ _ _ _____ _ _ 
 72
65
 73
6
 40
0.5709975002016974
 49
0.2854987501008487
 49
-0.05709975002016974
 49
0.05709975002016974
 49
-0.05709975002016974
 49
0.05709975002016974
 49
-0.05709975002016974
  0
ENDTAB
  0
TABLE
  2
LAYER
 70
2
  0
LAYER
  2
0
 70
0
 62
7
  6
CONTINUOUS
  0
ENDTAB
  0
TABLE
  2
STYLE
 70
4
  0
STYLE
  2
STANDARD
 70
0
 40
0
 41
1
 50
0
 71
0
 42
3.5
  3
txt
  4

  0
STYLE
  2
SIMPLEX
 70
0
 40
0
 41
1
 50
0
 71
0
 42
3.5
  3
simplex
  4

  0
STYLE
  2
COMPLEX
 70
0
 40
0
 41
1
 50
0
 71
0
 42
3.5
  3
complex
  4

  0
STYLE
  2
ITALIC
 70
0
 40
0
 41
1
 50
0
 71
0
 42
3.5
  3
italic
  4

  0
ENDTAB
  0
TABLE
  2
VIEW
 70
0
  0
ENDTAB
  0
ENDSEC
  0
SECTION
  2
BLOCKS
  0
BLOCK
  8
0
  2
*X0
 70
1
 10
0
 20
0
 30
0
  0
LINE
  8
0
 62
7
  6
DASHED
 10
7.960000000000002
 20
8.278198051533948
 30
0
 11
7.981801948466051
 21
8.299999999999997
 31
0
  0
LINE
  8
0
 62
7
  6
DASHED
 10
7.993933982822019
 20
8.1
 30
0
 11
8.193933982822015
 21
8.299999999999997
 31
0
  0
LINE
  8
0
 62
7
 10
7.960000000000001
 20
8.172132034355965
 30
0
 11
8.087867965644037
 21
8.299999999999999
 31
0
  0
LINE
  8
0
 62
7
 10
8.100000000000001
 20
8.1
 30
0
 11
8.200000000000003
 21
8.200000000000001
 31
0
  0
ENDBLK
  8
0
  0
BLOCK
  8
0
  2
*X1
 70
1
 10
0
 20
0
 30
0
  0
LINE
  8
0
 62
7
  6
DASHED
 10
7.959999999999999
 20
11.03591449816148
 30
0
 11
7.97408550183852
 21
11.05
 31
0
  0
LINE
  8
0
 62
7
  6
DASHED
 10
7.986217536194484
 20
10.85
 30
0
 11
8.186217536194484
 21
11.05
 31
0
  0
LINE
  8
0
 62
7
  6
DASHED
 10
8.198349570550448
 20
10.85
 30
0
 11
8.200000000000001
 21
10.85165042944955
 31
0
  0
LINE
  8
0
 62
7
 10
7.960000000000002
 20
10.9298484809835
 30
0
 11
8.0801515190165
 21
11.05
 31
0
  0
LINE
  8
0
 62
7
 10
8.092283553372464
 20
10.85
 30
0
 11
8.199999999999999
 21
10.95771644662753
 31
0
  0
ENDBLK
  8
0
  0
BLOCK
  8
0
  2
*X2
 70
1
 10
0
 20
0
 30
0
  0
LINE
  8
0
 62
7
  6
DASHED
 10
6.409999999999998
 20
10.97083873865323
 30
0
 11
6.489161261346771
 21
11.05
 31
0
  0
LINE
  8
0
 62
7
  6
DASHED
 10
6.501293295702734
 20
10.85
 30
0
 11
6.701293295702735
 21
11.05
 31
0
  0
LINE
  8
0
 62
7
 10
6.409999999999998
 20
10.86477272147525
 30
0
 11
6.595227278524753
 21
11.05
 31
0
  0
LINE
  8
0
 62
7
 10
6.607359312880718
 20
10.85
 30
0
 11
6.710000000000001
 21
10.95264068711928
 31
0
  0
ENDBLK
  8
0
  0
BLOCK
  8
0
  2
*X3
 70
1
 10
0
 20
0
 30
0
  0
LINE
  8
0
 62
7
  6
DASHED
 10
6.41
 20
8.213122292025695
 30
0
 11
6.496877707974305
 21
8.299999999999999
 31
0
  0
LINE
  8
0
 62
7
  6
DASHED
 10
6.509009742330267
 20
8.099999999999998
 30
0
 11
6.709009742330268
 21
8.299999999999999
 31
0
  0
LINE
  8
0
 62
7
 10
6.410000000000001
 20
8.107056274847713
 30
0
 11
6.602943725152286
 21
8.299999999999999
 31
0
  0
LINE
  8
0
 62
7
 10
6.615075759508251
 20
8.1
 30
0
 11
6.709999999999999
 21
8.194924240491748
 31
0
  0
ENDBLK
  8
0
  0
BLOCK
  8
0
  2
*X4
 70
1
 10
0
 20
0
 30
0
  0
LINE
  8
0
 62
7
 10
7.97408550183852
 20
11.05
 30
0
 11
8.12408550183852
 21
11.2
 31
0
  0
LINE
  8
0
 62
7
 10
8.186217536194484
 20
11.05
 30
0
 11
8.200000000000001
 21
11.06378246380552
 31
0
  0
LINE
  8
0
 62
7
 10
7.960000000000002
 20
11.14198051533946
 30
0
 11
8.018019484660535
 21
11.2
 31
0
  0
LINE
  8
0
 62
7
 10
8.0801515190165
 20
11.05
 30
0
 11
8.199999999999999
 21
11.1698484809835
 31
0
  0
ENDBLK
  8
0
  0
BLOCK
  8
0
  2
*X5
 70
1
 10
0
 20
0
 30
0
  0
LINE
  8
0
 62
7
 10
7.960000000000001
 20
10.82378246380551
 30
0
 11
7.986217536194484
 21
10.85
 31
0
  0
LINE
  8
0
 62
7
 10
7.960000000000001
 20
10.61165042944955
 30
0
 11
8.198349570550448
 21
10.85
 31
0
  0
LINE
  8
0
 62
7
 10
7.960000000000001
 20
10.39951839509358
 30
0
 11
8.200000000000001
 21
10.63951839509359
 31
0
  0
LINE
  8
0
 62
7
 10
7.960000000000001
 20
10.18738636073762
 30
0
 11
8.200000000000001
 21
10.42738636073762
 31
0
  0
LINE
  8
0
 62
7
 10
7.960000000000001
 20
9.975254326381657
 30
0
 11
8.200000000000001
 21
10.21525432638166
 31
0
  0
LINE
  8
0
 62
7
 10
7.960000000000001
 20
9.763122292025693
 30
0
 11
8.200000000000001
 21
10.00312229202569
 31
0
  0
LINE
  8
0
 62
7
 10
7.960000000000001
 20
9.55099025766973
 30
0
 11
8.200000000000001
 21
9.79099025766973
 31
0
  0
LINE
  8
0
 62
7
 10
7.960000000000001
 20
9.338858223313766
 30
0
 11
8.200000000000001
 21
9.578858223313766
 31
0
  0
LINE
  8
0
 62
7
 10
7.960000000000001
 20
9.126726188957802
 30
0
 11
8.200000000000001
 21
9.366726188957802
 31
0
  0
LINE
  8
0
 62
7
 10
7.960000000000001
 20
8.914594154601838
 30
0
 11
8.200000000000001
 21
9.154594154601838
 31
0
  0
LINE
  8
0
 62
7
 10
7.960000000000001
 20
8.702462120245874
 30
0
 11
8.200000000000001
 21
8.942462120245875
 31
0
  0
LINE
  8
0
 62
7
 10
7.960000000000001
 20
8.49033008588991
 30
0
 11
8.200000000000001
 21
8.730330085889911
 31
0
  0
LINE
  8
0
 62
7
 10
7.981801948466051
 20
8.299999999999997
 30
0
 11
8.200000000000001
 21
8.518198051533947
 31
0
  0
LINE
  8
0
 62
7
 10
8.193933982822015
 20
8.299999999999997
 30
0
 11
8.200000000000001
 21
8.306066017177983
 31
0
  0
LINE
  8
0
 62
7
 10
7.960000000000001
 20
10.71771644662753
 30
0
 11
8.092283553372464
 21
10.85
 31
0
  0
LINE
  8
0
 62
7
 10
7.960000000000001
 20
10.50558441227157
 30
0
 11
8.200000000000001
 21
10.74558441227157
 31
0
  0
LINE
  8
0
 62
7
 10
7.960000000000001
 20
10.2934523779156
 30
0
 11
8.200000000000001
 21
10.5334523779156
 31
0
  0
LINE
  8
0
 62
7
 10
7.960000000000001
 20
10.08132034355964
 30
0
 11
8.200000000000001
 21
10.32132034355964
 31
0
  0
LINE
  8
0
 62
7
 10
7.960000000000001
 20
9.869188309203674
 30
0
 11
8.200000000000001
 21
10.10918830920367
 31
0
  0
LINE
  8
0
 62
7
 10
7.960000000000001
 20
9.65705627484771
 30
0
 11
8.200000000000001
 21
9.89705627484771
 31
0
  0
LINE
  8
0
 62
7
 10
7.960000000000001
 20
9.444924240491746
 30
0
 11
8.200000000000001
 21
9.684924240491746
 31
0
  0
LINE
  8
0
 62
7
 10
7.960000000000001
 20
9.232792206135782
 30
0
 11
8.200000000000001
 21
9.472792206135782
 31
0
  0
LINE
  8
0
 62
7
 10
7.960000000000001
 20
9.020660171779818
 30
0
 11
8.200000000000001
 21
9.260660171779818
 31
0
  0
LINE
  8
0
 62
7
 10
7.960000000000001
 20
8.808528137423854
 30
0
 11
8.200000000000001
 21
9.048528137423855
 31
0
  0
LINE
  8
0
 62
7
 10
7.960000000000001
 20
8.596396103067891
 30
0
 11
8.200000000000001
 21
8.836396103067891
 31
0
  0
LINE
  8
0
 62
7
 10
7.960000000000001
 20
8.384264068711927
 30
0
 11
8.200000000000001
 21
8.624264068711927
 31
0
  0
LINE
  8
0
 62
7
 10
8.087867965644037
 20
8.299999999999999
 30
0
 11
8.200000000000001
 21
8.412132034355963
 31
0
  0
ENDBLK
  8
0
  0
BLOCK
  8
0
  2
*X6
 70
1
 10
0
 20
0
 30
0
  0
LINE
  8
0
 62
7
 10
7.960000000000002
 20
8.066066017177983
 30
0
 11
7.993933982822019
 21
8.1
 31
0
  0
LINE
  8
0
 62
7
 10
8.056066017177983
 20
7.95
 30
0
 11
8.200000000000001
 21
8.093933982822016
 31
0
  0
LINE
  8
0
 62
7
 10
7.960000000000001
 20
7.96
 30
0
 11
8.100000000000001
 21
8.1
 31
0
  0
LINE
  8
0
 62
7
 10
8.162132034355965
 20
7.949999999999999
 30
0
 11
8.200000000000001
 21
7.987867965644035
 31
0
  0
ENDBLK
  8
0
  0
BLOCK
  8
0
  2
*X7
 70
1
 10
0
 20
0
 30
0
  0
LINE
  8
0
 62
7
  6
DASHED
 10
0.9500000000000002
 20
11.0262716319083
 30
0
 11
0.973728368091701
 21
11.05
 31
0
  0
LINE
  8
0
 62
7
  6
DASHED
 10
0.9858604024476656
 20
10.85
 30
0
 11
1.185860402447665
 21
11.05
 31
0
  0
LINE
  8
0
 62
7
  6
DASHED
 10
1.19799243680363
 20
10.85
 30
0
 11
1.39799243680363
 21
11.05
 31
0
  0
LINE
  8
0
 62
7
  6
DASHED
 10
1.410124471159594
 20
10.85
 30
0
 11
1.610124471159594
 21
11.05
 31
0
  0
LINE
  8
0
 62
7
  6
DASHED
 10
1.622256505515558
 20
10.85
 30
0
 11
1.822256505515558
 21
11.05
 31
0
  0
LINE
  8
0
 62
7
  6
DASHED
 10
1.834388539871523
 20
10.85
 30
0
 11
2.034388539871522
 21
11.05
 31
0
  0
LINE
  8
0
 62
7
  6
DASHED
 10
2.046520574227487
 20
10.85
 30
0
 11
2.246520574227487
 21
11.05
 31
0
  0
LINE
  8
0
 62
7
  6
DASHED
 10
2.258652608583451
 20
10.85
 30
0
 11
2.458652608583451
 21
11.05
 31
0
  0
LINE
  8
0
 62
7
  6
DASHED
 10
2.470784642939416
 20
10.85
 30
0
 11
2.670784642939415
 21
11.05
 31
0
  0
LINE
  8
0
 62
7
  6
DASHED
 10
2.68291667729538
 20
10.85
 30
0
 11
2.88291667729538
 21
11.05
 31
0
  0
LINE
  8
0
 62
7
  6
DASHED
 10
2.895048711651344
 20
10.85
 30
0
 11
3.095048711651344
 21
11.05
 31
0
  0
LINE
  8
0
 62
7
  6
DASHED
 10
3.107180746007308
 20
10.85
 30
0
 11
3.307180746007308
 21
11.05
 31
0
  0
LINE
  8
0
 62
7
  6
DASHED
 10
3.319312780363273
 20
10.85
 30
0
 11
3.519312780363272
 21
11.05
 31
0
  0
LINE
  8
0
 62
7
  6
DASHED
 10
3.531444814719237
 20
10.85
 30
0
 11
3.731444814719237
 21
11.05
 31
0
  0
LINE
  8
0
 62
7
  6
DASHED
 10
3.743576849075201
 20
10.85
 30
0
 11
3.943576849075201
 21
11.05
 31
0
  0
LINE
  8
0
 62
7
  6
DASHED
 10
3.955708883431166
 20
10.85
 30
0
 11
4.155708883431165
 21
11.05
 31
0
  0
LINE
  8
0
 62
7
  6
DASHED
 10
4.16784091778713
 20
10.85
 30
0
 11
4.367840917787129
 21
11.05
 31
0
  0
LINE
  8
0
 62
7
  6
DASHED
 10
4.379972952143094
 20
10.85
 30
0
 11
4.579972952143093
 21
11.05
 31
0
  0
LINE
  8
0
 62
7
  6
DASHED
 10
4.592104986499058
 20
10.85
 30
0
 11
4.792104986499057
 21
11.05
 31
0
  0
LINE
  8
0
 62
7
  6
DASHED
 10
4.804237020855021
 20
10.85
 30
0
 11
5.004237020855021
 21
11.05
 31
0
  0
LINE
  8
0
 62
7
  6
DASHED
 10
5.016369055210985
 20
10.85
 30
0
 11
5.11
 21
10.94363094478902
 31
0
  0
LINE
  8
0
 62
7
 10
0.9500000000000002
 20
10.92020561473032
 30
0
 11
1.079794385269685
 21
11.05
 31
0
  0
LINE
  8
0
 62
7
 10
1.091926419625647
 20
10.85
 30
0
 11
1.291926419625649
 21
11.05
 31
0
  0
LINE
  8
0
 62
7
 10
1.304058453981611
 20
10.85
 30
0
 11
1.504058453981614
 21
11.05
 31
0
  0
LINE
  8
0
 62
7
 10
1.516190488337576
 20
10.85
 30
0
 11
1.716190488337578
 21
11.05
 31
0
  0
LINE
  8
0
 62
7
 10
1.72832252269354
 20
10.85
 30
0
 11
1.928322522693542
 21
11.05
 31
0
  0
LINE
  8
0
 62
7
 10
1.940454557049504
 20
10.85
 30
0
 11
2.140454557049507
 21
11.05
 31
0
  0
LINE
  8
0
 62
7
 10
2.152586591405468
 20
10.85
 30
0
 11
2.352586591405471
 21
11.05
 31
0
  0
LINE
  8
0
 62
7
 10
2.364718625761433
 20
10.85
 30
0
 11
2.564718625761435
 21
11.05
 31
0
  0
LINE
  8
0
 62
7
 10
2.576850660117397
 20
10.85
 30
0
 11
2.776850660117399
 21
11.05
 31
0
  0
LINE
  8
0
 62
7
 10
2.788982694473361
 20
10.85
 30
0
 11
2.988982694473364
 21
11.05
 31
0
  0
LINE
  8
0
 62
7
 10
3.001114728829326
 20
10.85
 30
0
 11
3.201114728829328
 21
11.05
 31
0
  0
LINE
  8
0
 62
7
 10
3.21324676318529
 20
10.85
 30
0
 11
3.413246763185292
 21
11.05
 31
0
  0
LINE
  8
0
 62
7
 10
3.425378797541254
 20
10.85
 30
0
 11
3.625378797541257
 21
11.05
 31
0
  0
LINE
  8
0
 62
7
 10
3.637510831897218
 20
10.85
 30
0
 11
3.837510831897221
 21
11.05
 31
0
  0
LINE
  8
0
 62
7
 10
3.849642866253183
 20
10.85
 30
0
 11
4.049642866253185
 21
11.05
 31
0
  0
LINE
  8
0
 62
7
 10
4.061774900609147
 20
10.85
 30
0
 11
4.261774900609149
 21
11.05
 31
0
  0
LINE
  8
0
 62
7
 10
4.273906934965111
 20
10.85
 30
0
 11
4.473906934965113
 21
11.05
 31
0
  0
LINE
  8
0
 62
7
 10
4.486038969321075
 20
10.85
 30
0
 11
4.686038969321077
 21
11.05
 31
0
  0
LINE
  8
0
 62
7
 10
4.698171003677039
 20
10.85
 30
0
 11
4.898171003677041
 21
11.05
 31
0
  0
LINE
  8
0
 62
7
 10
4.910303038033002
 20
10.85
 30
0
 11
5.109999999999999
 21
11.049696961967
 31
0
  0
ENDBLK
  8
0
  0
BLOCK
  8
0
  2
*X8
 70
1
 10
0
 20
0
 30
0
  0
LINE
  8
0
 62
7
  6
DASHED
 10
0.9499999999999997
 20
8.268555185280766
 30
0
 11
0.9814448147192345
 21
8.299999999999999
 31
0
  0
LINE
  8
0
 62
7
  6
DASHED
 10
0.9935768490752008
 20
8.100000000000001
 30
0
 11
1.193576849075199
 21
8.299999999999999
 31
0
  0
LINE
  8
0
 62
7
  6
DASHED
 10
1.205708883431165
 20
8.100000000000001
 30
0
 11
1.405708883431163
 21
8.299999999999999
 31
0
  0
LINE
  8
0
 62
7
  6
DASHED
 10
1.417840917787129
 20
8.100000000000001
 30
0
 11
1.617840917787127
 21
8.299999999999999
 31
0
  0
LINE
  8
0
 62
7
  6
DASHED
 10
1.629972952143094
 20
8.100000000000001
 30
0
 11
1.829972952143092
 21
8.299999999999999
 31
0
  0
LINE
  8
0
 62
7
  6
DASHED
 10
1.842104986499058
 20
8.100000000000001
 30
0
 11
2.042104986499056
 21
8.299999999999999
 31
0
  0
LINE
  8
0
 62
7
  6
DASHED
 10
2.054237020855022
 20
8.100000000000001
 30
0
 11
2.25423702085502
 21
8.299999999999999
 31
0
  0
LINE
  8
0
 62
7
  6
DASHED
 10
2.266369055210987
 20
8.100000000000001
 30
0
 11
2.466369055210984
 21
8.299999999999999
 31
0
  0
LINE
  8
0
 62
7
  6
DASHED
 10
2.478501089566951
 20
8.100000000000001
 30
0
 11
2.678501089566949
 21
8.299999999999999
 31
0
  0
LINE
  8
0
 62
7
  6
DASHED
 10
2.690633123922915
 20
8.100000000000001
 30
0
 11
2.890633123922913
 21
8.299999999999999
 31
0
  0
LINE
  8
0
 62
7
  6
DASHED
 10
2.902765158278879
 20
8.100000000000001
 30
0
 11
3.102765158278877
 21
8.299999999999999
 31
0
  0
LINE
  8
0
 62
7
  6
DASHED
 10
3.114897192634844
 20
8.100000000000001
 30
0
 11
3.314897192634842
 21
8.299999999999999
 31
0
  0
LINE
  8
0
 62
7
  6
DASHED
 10
3.327029226990808
 20
8.100000000000001
 30
0
 11
3.527029226990806
 21
8.299999999999999
 31
0
  0
LINE
  8
0
 62
7
  6
DASHED
 10
3.539161261346772
 20
8.100000000000001
 30
0
 11
3.73916126134677
 21
8.299999999999999
 31
0
  0
LINE
  8
0
 62
7
  6
DASHED
 10
3.751293295702737
 20
8.100000000000001
 30
0
 11
3.951293295702734
 21
8.299999999999999
 31
0
  0
LINE
  8
0
 62
7
  6
DASHED
 10
3.963425330058701
 20
8.100000000000001
 30
0
 11
4.163425330058699
 21
8.299999999999999
 31
0
  0
LINE
  8
0
 62
7
  6
DASHED
 10
4.175557364414665
 20
8.100000000000001
 30
0
 11
4.375557364414663
 21
8.299999999999999
 31
0
  0
LINE
  8
0
 62
7
  6
DASHED
 10
4.387689398770629
 20
8.100000000000001
 30
0
 11
4.587689398770626
 21
8.299999999999999
 31
0
  0
LINE
  8
0
 62
7
  6
DASHED
 10
4.599821433126593
 20
8.100000000000001
 30
0
 11
4.79982143312659
 21
8.299999999999999
 31
0
  0
LINE
  8
0
 62
7
  6
DASHED
 10
4.811953467482557
 20
8.100000000000001
 30
0
 11
5.011953467482554
 21
8.299999999999999
 31
0
  0
LINE
  8
0
 62
7
  6
DASHED
 10
5.02408550183852
 20
8.100000000000001
 30
0
 11
5.110000000000001
 21
8.185914498161482
 31
0
  0
LINE
  8
0
 62
7
 10
0.9499999999999997
 20
8.162489168102784
 30
0
 11
1.087510831897217
 21
8.299999999999999
 31
0
  0
LINE
  8
0
 62
7
 10
1.099642866253181
 20
8.099999999999998
 30
0
 11
1.299642866253181
 21
8.299999999999999
 31
0
  0
LINE
  8
0
 62
7
 10
1.311774900609145
 20
8.099999999999998
 30
0
 11
1.511774900609145
 21
8.299999999999999
 31
0
  0
LINE
  8
0
 62
7
 10
1.523906934965109
 20
8.099999999999998
 30
0
 11
1.72390693496511
 21
8.299999999999999
 31
0
  0
LINE
  8
0
 62
7
 10
1.736038969321073
 20
8.099999999999998
 30
0
 11
1.936038969321074
 21
8.299999999999999
 31
0
  0
LINE
  8
0
 62
7
 10
1.948171003677038
 20
8.099999999999998
 30
0
 11
2.148171003677038
 21
8.299999999999999
 31
0
  0
LINE
  8
0
 62
7
 10
2.160303038033002
 20
8.099999999999998
 30
0
 11
2.360303038033003
 21
8.299999999999999
 31
0
  0
LINE
  8
0
 62
7
 10
2.372435072388966
 20
8.099999999999998
 30
0
 11
2.572435072388967
 21
8.299999999999999
 31
0
  0
LINE
  8
0
 62
7
 10
2.584567106744931
 20
8.099999999999998
 30
0
 11
2.784567106744931
 21
8.299999999999999
 31
0
  0
LINE
  8
0
 62
7
 10
2.796699141100895
 20
8.099999999999998
 30
0
 11
2.996699141100895
 21
8.299999999999999
 31
0
  0
LINE
  8
0
 62
7
 10
3.008831175456859
 20
8.099999999999998
 30
0
 11
3.20883117545686
 21
8.299999999999999
 31
0
  0
LINE
  8
0
 62
7
 10
3.220963209812823
 20
8.099999999999998
 30
0
 11
3.420963209812824
 21
8.299999999999999
 31
0
  0
LINE
  8
0
 62
7
 10
3.433095244168788
 20
8.099999999999998
 30
0
 11
3.633095244168788
 21
8.299999999999999
 31
0
  0
LINE
  8
0
 62
7
 10
3.645227278524752
 20
8.099999999999998
 30
0
 11
3.845227278524753
 21
8.299999999999999
 31
0
  0
LINE
  8
0
 62
7
 10
3.857359312880716
 20
8.099999999999998
 30
0
 11
4.057359312880717
 21
8.299999999999999
 31
0
  0
LINE
  8
0
 62
7
 10
4.06949134723668
 20
8.099999999999998
 30
0
 11
4.269491347236681
 21
8.299999999999999
 31
0
  0
LINE
  8
0
 62
7
 10
4.281623381592644
 20
8.099999999999998
 30
0
 11
4.481623381592645
 21
8.299999999999999
 31
0
  0
LINE
  8
0
 62
7
 10
4.493755415948608
 20
8.099999999999998
 30
0
 11
4.693755415948608
 21
8.299999999999999
 31
0
  0
LINE
  8
0
 62
7
 10
4.705887450304572
 20
8.099999999999998
 30
0
 11
4.905887450304572
 21
8.299999999999999
 31
0
  0
LINE
  8
0
 62
7
 10
4.918019484660536
 20
8.099999999999998
 30
0
 11
5.11
 21
8.291980515339462
 31
0
  0
ENDBLK
  8
0
  0
BLOCK
  8
0
  2
*X9
 70
1
 10
0
 20
0
 30
0
  0
LINE
  8
0
 62
7
 10
4.792104986499057
 20
11.05
 30
0
 11
4.942104986499055
 21
11.2
 31
0
  0
LINE
  8
0
 62
7
 10
4.785
 20
11.14896103067893
 30
0
 11
4.836038969321073
 21
11.2
 31
0
  0
LINE
  8
0
 62
7
 10
4.898171003677041
 20
11.05
 30
0
 11
4.960000000000001
 21
11.11182899632296
 31
0
  0
ENDBLK
  8
0
  0
BLOCK
  8
0
  2
*X10
 70
1
 10
0
 20
0
 30
0
  0
LINE
  8
0
 62
7
 10
4.785000000000001
 20
10.83076297914498
 30
0
 11
4.80423702085502
 21
10.85
 31
0
  0
LINE
  8
0
 62
7
 10
4.785000000000001
 20
10.61863094478901
 30
0
 11
4.960000000000002
 21
10.79363094478901
 31
0
  0
LINE
  8
0
 62
7
 10
4.785000000000001
 20
10.40649891043305
 30
0
 11
4.960000000000002
 21
10.58149891043305
 31
0
  0
LINE
  8
0
 62
7
 10
4.785000000000001
 20
10.19436687607709
 30
0
 11
4.960000000000002
 21
10.36936687607708
 31
0
  0
LINE
  8
0
 62
7
 10
4.785000000000001
 20
9.982234841721121
 30
0
 11
4.960000000000002
 21
10.15723484172112
 31
0
  0
LINE
  8
0
 62
7
 10
4.785000000000001
 20
9.770102807365157
 30
0
 11
4.960000000000002
 21
9.945102807365156
 31
0
  0
LINE
  8
0
 62
7
 10
4.785000000000001
 20
9.557970773009194
 30
0
 11
4.960000000000002
 21
9.732970773009193
 31
0
  0
LINE
  8
0
 62
7
 10
4.785000000000001
 20
9.34583873865323
 30
0
 11
4.960000000000002
 21
9.520838738653229
 31
0
  0
LINE
  8
0
 62
7
 10
4.785000000000001
 20
9.133706704297266
 30
0
 11
4.960000000000002
 21
9.308706704297265
 31
0
  0
LINE
  8
0
 62
7
 10
4.785000000000001
 20
8.921574669941302
 30
0
 11
4.960000000000002
 21
9.096574669941301
 31
0
  0
LINE
  8
0
 62
7
 10
4.785000000000001
 20
8.709442635585338
 30
0
 11
4.960000000000002
 21
8.884442635585337
 31
0
  0
LINE
  8
0
 62
7
 10
4.785000000000001
 20
8.497310601229374
 30
0
 11
4.960000000000002
 21
8.672310601229373
 31
0
  0
LINE
  8
0
 62
7
 10
4.79982143312659
 20
8.300000000000001
 30
0
 11
4.960000000000002
 21
8.46017856687341
 31
0
  0
LINE
  8
0
 62
7
 10
4.785
 20
10.72469696196699
 30
0
 11
4.910303038033002
 21
10.85
 31
0
  0
LINE
  8
0
 62
7
 10
4.785
 20
10.51256492761103
 30
0
 11
4.960000000000001
 21
10.68756492761103
 31
0
  0
LINE
  8
0
 62
7
 10
4.785
 20
10.30043289325507
 30
0
 11
4.960000000000001
 21
10.47543289325507
 31
0
  0
LINE
  8
0
 62
7
 10
4.785
 20
10.0883008588991
 30
0
 11
4.960000000000001
 21
10.2633008588991
 31
0
  0
LINE
  8
0
 62
7
 10
4.785
 20
9.876168824543139
 30
0
 11
4.960000000000001
 21
10.05116882454314
 31
0
  0
LINE
  8
0
 62
7
 10
4.785
 20
9.664036790187176
 30
0
 11
4.960000000000001
 21
9.839036790187174
 31
0
  0
LINE
  8
0
 62
7
 10
4.785
 20
9.451904755831212
 30
0
 11
4.960000000000001
 21
9.626904755831211
 31
0
  0
LINE
  8
0
 62
7
 10
4.785
 20
9.239772721475248
 30
0
 11
4.960000000000001
 21
9.414772721475247
 31
0
  0
LINE
  8
0
 62
7
 10
4.785
 20
9.027640687119284
 30
0
 11
4.960000000000001
 21
9.202640687119283
 31
0
  0
LINE
  8
0
 62
7
 10
4.785
 20
8.81550865276332
 30
0
 11
4.960000000000001
 21
8.990508652763319
 31
0
  0
LINE
  8
0
 62
7
 10
4.785
 20
8.603376618407356
 30
0
 11
4.960000000000001
 21
8.778376618407355
 31
0
  0
LINE
  8
0
 62
7
 10
4.785
 20
8.391244584051393
 30
0
 11
4.960000000000001
 21
8.566244584051391
 31
0
  0
LINE
  8
0
 62
7
 10
4.90588745030457
 20
8.299999999999997
 30
0
 11
4.960000000000001
 21
8.354112549695428
 31
0
  0
ENDBLK
  8
0
  0
BLOCK
  8
0
  2
*X11
 70
1
 10
0
 20
0
 30
0
  0
LINE
  8
0
 62
7
 10
4.784999999999998
 20
8.073046532517443
 30
0
 11
4.811953467482555
 21
8.1
 31
0
  0
LINE
  8
0
 62
7
 10
4.874085501838519
 20
7.949999999999999
 30
0
 11
4.960000000000002
 21
8.035914498161482
 31
0
  0
LINE
  8
0
 62
7
 10
4.785
 20
7.966980515339463
 30
0
 11
4.918019484660538
 21
8.1
 31
0
  0
ENDBLK
  8
0
  0
BLOCK
  8
0
  2
*X12
 70
1
 10
0
 20
0
 30
0
  0
LINE
  8
0
 62
7
 10
1.100000000000001
 20
11.1762716319083
 30
0
 11
1.123728368091698
 21
11.2
 31
0
  0
LINE
  8
0
 62
7
 10
1.185860402447664
 20
11.05
 30
0
 11
1.274999999999999
 21
11.13913959755234
 31
0
  0
LINE
  8
0
 62
7
 10
1.1
 20
11.07020561473032
 30
0
 11
1.229794385269681
 21
11.2
 31
0
  0
ENDBLK
  8
0
  0
BLOCK
  8
0
  2
*X13
 70
1
 10
0
 20
0
 30
0
  0
LINE
  8
0
 62
7
 10
1.1
 20
10.75200756319637
 30
0
 11
1.197992436803626
 21
10.85
 31
0
  0
LINE
  8
0
 62
7
 10
1.1
 20
10.5398755288404
 30
0
 11
1.275
 21
10.7148755288404
 31
0
  0
LINE
  8
0
 62
7
 10
1.1
 20
10.32774349448444
 30
0
 11
1.275
 21
10.50274349448444
 31
0
  0
LINE
  8
0
 62
7
 10
1.1
 20
10.11561146012848
 30
0
 11
1.275
 21
10.29061146012848
 31
0
  0
LINE
  8
0
 62
7
 10
1.1
 20
9.903479425772513
 30
0
 11
1.275
 21
10.07847942577251
 31
0
  0
LINE
  8
0
 62
7
 10
1.1
 20
9.691347391416549
 30
0
 11
1.275
 21
9.866347391416548
 31
0
  0
LINE
  8
0
 62
7
 10
1.1
 20
9.479215357060585
 30
0
 11
1.275
 21
9.654215357060584
 31
0
  0
LINE
  8
0
 62
7
 10
1.1
 20
9.267083322704622
 30
0
 11
1.275
 21
9.442083322704621
 31
0
  0
LINE
  8
0
 62
7
 10
1.1
 20
9.054951288348658
 30
0
 11
1.275
 21
9.229951288348657
 31
0
  0
LINE
  8
0
 62
7
 10
1.1
 20
8.842819253992694
 30
0
 11
1.275
 21
9.017819253992693
 31
0
  0
LINE
  8
0
 62
7
 10
1.1
 20
8.63068721963673
 30
0
 11
1.275
 21
8.805687219636729
 31
0
  0
LINE
  8
0
 62
7
 10
1.1
 20
8.418555185280766
 30
0
 11
1.275
 21
8.593555185280765
 31
0
  0
LINE
  8
0
 62
7
 10
1.193576849075199
 20
8.299999999999999
 30
0
 11
1.275
 21
8.381423150924801
 31
0
  0
LINE
  8
0
 62
7
 10
1.100000000000001
 20
10.64594154601838
 30
0
 11
1.274999999999999
 21
10.82094154601838
 31
0
  0
LINE
  8
0
 62
7
 10
1.100000000000001
 20
10.43380951166242
 30
0
 11
1.274999999999999
 21
10.60880951166242
 31
0
  0
LINE
  8
0
 62
7
 10
1.100000000000001
 20
10.22167747730646
 30
0
 11
1.274999999999999
 21
10.39667747730646
 31
0
  0
LINE
  8
0
 62
7
 10
1.100000000000001
 20
10.00954544295049
 30
0
 11
1.274999999999999
 21
10.18454544295049
 31
0
  0
LINE
  8
0
 62
7
 10
1.100000000000001
 20
9.797413408594529
 30
0
 11
1.274999999999999
 21
9.972413408594528
 31
0
  0
LINE
  8
0
 62
7
 10
1.100000000000001
 20
9.585281374238566
 30
0
 11
1.274999999999999
 21
9.760281374238565
 31
0
  0
LINE
  8
0
 62
7
 10
1.100000000000001
 20
9.373149339882602
 30
0
 11
1.274999999999999
 21
9.548149339882601
 31
0
  0
LINE
  8
0
 62
7
 10
1.100000000000001
 20
9.161017305526638
 30
0
 11
1.274999999999999
 21
9.336017305526637
 31
0
  0
LINE
  8
0
 62
7
 10
1.100000000000001
 20
8.948885271170674
 30
0
 11
1.274999999999999
 21
9.123885271170673
 31
0
  0
LINE
  8
0
 62
7
 10
1.100000000000001
 20
8.73675323681471
 30
0
 11
1.274999999999999
 21
8.911753236814709
 31
0
  0
LINE
  8
0
 62
7
 10
1.100000000000001
 20
8.524621202458746
 30
0
 11
1.274999999999999
 21
8.699621202458745
 31
0
  0
LINE
  8
0
 62
7
 10
1.100000000000001
 20
8.312489168102783
 30
0
 11
1.274999999999999
 21
8.487489168102782
 31
0
  0
ENDBLK
  8
0
  0
BLOCK
  8
0
  2
*X14
 70
1
 10
0
 20
0
 30
0
  0
LINE
  8
0
 62
7
 10
1.099999999999999
 20
7.994291116568838
 30
0
 11
1.205708883431162
 21
8.1
 31
0
  0
LINE
  8
0
 62
7
 10
1.267840917787126
 20
7.949999999999999
 30
0
 11
1.275
 21
7.957159082212874
 31
0
  0
LINE
  8
0
 62
7
 10
1.161774900609143
 20
7.949999999999999
 30
0
 11
1.274999999999999
 21
8.063225099390854
 31
0
  0
ENDBLK
  8
0
  0
BLOCK
  8
0
  2
*X15
 70
1
 10
0
 20
0
 30
0
  0
LINE
  8
0
 62
7
 10
1.100000000000001
 20
5.236574669941302
 30
0
 11
1.133425330058695
 21
5.269999999999996
 31
0
  0
LINE
  8
0
 62
7
 10
0.9350000000000005
 20
5.071574669941302
 30
0
 11
0.9834253300586955
 21
5.119999999999997
 31
0
  0
LINE
  8
0
 62
7
 10
0.955557364414664
 20
4.880000000000001
 30
0
 11
1.275000000000001
 21
5.199442635585339
 31
0
  0
LINE
  8
0
 62
7
 10
1.167689398770628
 20
4.880000000000001
 30
0
 11
1.407689398770624
 21
5.119999999999998
 31
0
  0
LINE
  8
0
 62
7
 10
1.379821433126593
 20
4.880000000000001
 30
0
 11
1.619821433126589
 21
5.119999999999998
 31
0
  0
LINE
  8
0
 62
7
 10
1.591953467482557
 20
4.880000000000001
 30
0
 11
1.831953467482553
 21
5.119999999999998
 31
0
  0
LINE
  8
0
 62
7
 10
1.804085501838521
 20
4.880000000000001
 30
0
 11
2.044085501838517
 21
5.119999999999998
 31
0
  0
LINE
  8
0
 62
7
 10
2.016217536194485
 20
4.880000000000001
 30
0
 11
2.256217536194482
 21
5.119999999999998
 31
0
  0
LINE
  8
0
 62
7
 10
2.22834957055045
 20
4.880000000000001
 30
0
 11
2.468349570550446
 21
5.119999999999998
 31
0
  0
LINE
  8
0
 62
7
 10
2.440481604906414
 20
4.880000000000001
 30
0
 11
2.68048160490641
 21
5.119999999999998
 31
0
  0
LINE
  8
0
 62
7
 10
2.652613639262378
 20
4.880000000000001
 30
0
 11
2.892613639262374
 21
5.119999999999998
 31
0
  0
LINE
  8
0
 62
7
 10
2.864745673618343
 20
4.880000000000001
 30
0
 11
3.104745673618339
 21
5.119999999999998
 31
0
  0
LINE
  8
0
 62
7
 10
3.076877707974307
 20
4.880000000000001
 30
0
 11
3.316877707974303
 21
5.119999999999998
 31
0
  0
LINE
  8
0
 62
7
 10
3.289009742330271
 20
4.880000000000001
 30
0
 11
3.529009742330267
 21
5.119999999999998
 31
0
  0
LINE
  8
0
 62
7
 10
3.501141776686235
 20
4.880000000000001
 30
0
 11
3.741141776686232
 21
5.119999999999998
 31
0
  0
LINE
  8
0
 62
7
 10
3.7132738110422
 20
4.880000000000001
 30
0
 11
3.953273811042196
 21
5.119999999999998
 31
0
  0
LINE
  8
0
 62
7
 10
3.925405845398164
 20
4.880000000000001
 30
0
 11
4.16540584539816
 21
5.119999999999998
 31
0
  0
LINE
  8
0
 62
7
 10
4.137537879754128
 20
4.880000000000001
 30
0
 11
4.377537879754124
 21
5.119999999999998
 31
0
  0
LINE
  8
0
 62
7
 10
4.349669914110092
 20
4.880000000000001
 30
0
 11
4.589669914110088
 21
5.119999999999998
 31
0
  0
LINE
  8
0
 62
7
 10
4.561801948466056
 20
4.880000000000001
 30
0
 11
4.951801948466052
 21
5.269999999999997
 31
0
  0
LINE
  8
0
 62
7
 10
4.77393398282202
 20
4.880000000000001
 30
0
 11
5.013933982822016
 21
5.119999999999997
 31
0
  0
LINE
  8
0
 62
7
 10
4.986066017177984
 20
4.880000000000001
 30
0
 11
5.11
 21
5.003933982822018
 31
0
  0
LINE
  8
0
 62
7
 10
1.1
 20
5.13050865276332
 30
0
 11
1.239491347236677
 21
5.269999999999998
 31
0
  0
LINE
  8
0
 62
7
 10
0.9349999999999996
 20
4.96550865276332
 30
0
 11
1.089491347236677
 21
5.119999999999997
 31
0
  0
LINE
  8
0
 62
7
 10
1.061623381592645
 20
4.88
 30
0
 11
1.301623381592643
 21
5.119999999999997
 31
0
  0
LINE
  8
0
 62
7
 10
1.27375541594861
 20
4.88
 30
0
 11
1.513755415948608
 21
5.119999999999997
 31
0
  0
LINE
  8
0
 62
7
 10
1.485887450304574
 20
4.88
 30
0
 11
1.725887450304572
 21
5.119999999999997
 31
0
  0
LINE
  8
0
 62
7
 10
1.698019484660538
 20
4.88
 30
0
 11
1.938019484660536
 21
5.119999999999997
 31
0
  0
LINE
  8
0
 62
7
 10
1.910151519016503
 20
4.88
 30
0
 11
2.150151519016501
 21
5.119999999999997
 31
0
  0
LINE
  8
0
 62
7
 10
2.122283553372467
 20
4.88
 30
0
 11
2.362283553372465
 21
5.119999999999997
 31
0
  0
LINE
  8
0
 62
7
 10
2.334415587728431
 20
4.88
 30
0
 11
2.574415587728429
 21
5.119999999999997
 31
0
  0
LINE
  8
0
 62
7
 10
2.546547622084395
 20
4.88
 30
0
 11
2.786547622084393
 21
5.119999999999997
 31
0
  0
LINE
  8
0
 62
7
 10
2.75867965644036
 20
4.88
 30
0
 11
2.998679656440358
 21
5.119999999999997
 31
0
  0
LINE
  8
0
 62
7
 10
2.970811690796324
 20
4.88
 30
0
 11
3.210811690796322
 21
5.119999999999997
 31
0
  0
LINE
  8
0
 62
7
 10
3.182943725152288
 20
4.88
 30
0
 11
3.422943725152286
 21
5.119999999999997
 31
0
  0
LINE
  8
0
 62
7
 10
3.395075759508253
 20
4.88
 30
0
 11
3.635075759508251
 21
5.119999999999997
 31
0
  0
LINE
  8
0
 62
7
 10
3.607207793864217
 20
4.88
 30
0
 11
3.847207793864215
 21
5.119999999999997
 31
0
  0
LINE
  8
0
 62
7
 10
3.819339828220181
 20
4.88
 30
0
 11
4.059339828220179
 21
5.119999999999997
 31
0
  0
LINE
  8
0
 62
7
 10
4.031471862576145
 20
4.88
 30
0
 11
4.271471862576143
 21
5.119999999999997
 31
0
  0
LINE
  8
0
 62
7
 10
4.243603896932109
 20
4.88
 30
0
 11
4.483603896932107
 21
5.119999999999997
 31
0
  0
LINE
  8
0
 62
7
 10
4.785
 20
5.209264068711927
 30
0
 11
4.84573593128807
 21
5.269999999999997
 31
0
  0
LINE
  8
0
 62
7
 10
4.455735931288073
 20
4.88
 30
0
 11
4.695735931288071
 21
5.119999999999997
 31
0
  0
LINE
  8
0
 62
7
 10
4.667867965644037
 20
4.88
 30
0
 11
4.960000000000001
 21
5.172132034355964
 31
0
  0
LINE
  8
0
 62
7
 10
4.880000000000001
 20
4.88
 30
0
 11
5.110000000000001
 21
5.11
 31
0
  0
LINE
  8
0
 62
7
 10
5.092132034355965
 20
4.88
 30
0
 11
5.110000000000001
 21
4.897867965644036
 31
0
  0
ENDBLK
  8
0
  0
BLOCK
  8
0
  2
*X16
 70
1
 10
0
 20
0
 30
0
  0
LINE
  8
0
 62
7
 10
0.9350000000000001
 20
4.647310601229374
 30
0
 11
1.127689398770627
 21
4.84
 31
0
  0
LINE
  8
0
 62
7
 10
1.099821433126592
 20
4.600000000000002
 30
0
 11
1.339821433126592
 21
4.84
 31
0
  0
LINE
  8
0
 62
7
 10
1.311953467482557
 20
4.600000000000001
 30
0
 11
1.551953467482556
 21
4.84
 31
0
  0
LINE
  8
0
 62
7
 10
1.1
 20
4.388046532517444
 30
0
 11
1.275
 21
4.563046532517444
 31
0
  0
LINE
  8
0
 62
7
 10
1.524085501838521
 20
4.600000000000001
 30
0
 11
1.76408550183852
 21
4.84
 31
0
  0
LINE
  8
0
 62
7
 10
1.1
 20
4.175914498161481
 30
0
 11
1.275
 21
4.35091449816148
 31
0
  0
LINE
  8
0
 62
7
 10
1.736217536194486
 20
4.600000000000001
 30
0
 11
1.976217536194484
 21
4.84
 31
0
  0
LINE
  8
0
 62
7
 10
1.1
 20
3.963782463805517
 30
0
 11
1.275
 21
4.138782463805517
 31
0
  0
LINE
  8
0
 62
7
 10
1.94834957055045
 20
4.600000000000001
 30
0
 11
2.188349570550449
 21
4.84
 31
0
  0
LINE
  8
0
 62
7
 10
1.1
 20
3.751650429449553
 30
0
 11
1.275
 21
3.926650429449553
 31
0
  0
LINE
  8
0
 62
7
 10
2.160481604906414
 20
4.600000000000001
 30
0
 11
2.400481604906413
 21
4.84
 31
0
  0
LINE
  8
0
 62
7
 10
1.1
 20
3.539518395093588
 30
0
 11
1.275
 21
3.714518395093588
 31
0
  0
LINE
  8
0
 62
7
 10
2.372613639262378
 20
4.600000000000001
 30
0
 11
2.612613639262377
 21
4.84
 31
0
  0
LINE
  8
0
 62
7
 10
1.122613639262376
 20
3.350000000000001
 30
0
 11
1.275
 21
3.502386360737624
 31
0
  0
LINE
  8
0
 62
7
 10
2.584745673618343
 20
4.600000000000001
 30
0
 11
2.824745673618342
 21
4.84
 31
0
  0
LINE
  8
0
 62
7
 10
2.796877707974307
 20
4.600000000000001
 30
0
 11
3.036877707974306
 21
4.84
 31
0
  0
LINE
  8
0
 62
7
 10
3.009009742330271
 20
4.600000000000001
 30
0
 11
3.24900974233027
 21
4.84
 31
0
  0
LINE
  8
0
 62
7
 10
3.221141776686236
 20
4.600000000000001
 30
0
 11
3.461141776686234
 21
4.84
 31
0
  0
LINE
  8
0
 62
7
 10
3.4332738110422
 20
4.600000000000001
 30
0
 11
3.673273811042199
 21
4.84
 31
0
  0
LINE
  8
0
 62
7
 10
3.645405845398164
 20
4.600000000000001
 30
0
 11
3.885405845398163
 21
4.84
 31
0
  0
LINE
  8
0
 62
7
 10
3.857537879754128
 20
4.600000000000001
 30
0
 11
4.097537879754127
 21
4.84
 31
0
  0
LINE
  8
0
 62
7
 10
4.069669914110093
 20
4.600000000000001
 30
0
 11
4.309669914110091
 21
4.84
 31
0
  0
LINE
  8
0
 62
7
 10
4.281801948466057
 20
4.600000000000001
 30
0
 11
4.521801948466055
 21
4.84
 31
0
  0
LINE
  8
0
 62
7
 10
4.49393398282202
 20
4.600000000000001
 30
0
 11
4.733933982822019
 21
4.84
 31
0
  0
LINE
  8
0
 62
7
 10
4.706066017177984
 20
4.600000000000001
 30
0
 11
4.946066017177983
 21
4.84
 31
0
  0
LINE
  8
0
 62
7
 10
4.785
 20
4.466801948466053
 30
0
 11
5.11
 21
4.791801948466054
 31
0
  0
LINE
  8
0
 62
7
 10
4.785
 20
4.25466991411009
 30
0
 11
4.960000000000001
 21
4.429669914110089
 31
0
  0
LINE
  8
0
 62
7
 10
4.785
 20
4.042537879754126
 30
0
 11
4.960000000000001
 21
4.217537879754125
 31
0
  0
LINE
  8
0
 62
7
 10
4.785
 20
3.830405845398162
 30
0
 11
4.960000000000001
 21
4.005405845398161
 31
0
  0
LINE
  8
0
 62
7
 10
4.785
 20
3.618273811042197
 30
0
 11
4.960000000000001
 21
3.793273811042197
 31
0
  0
LINE
  8
0
 62
7
 10
4.785
 20
3.406141776686233
 30
0
 11
4.960000000000001
 21
3.581141776686233
 31
0
  0
LINE
  8
0
 62
7
 10
4.840990257669732
 20
3.25
 30
0
 11
4.960000000000001
 21
3.369009742330269
 31
0
  0
LINE
  8
0
 62
7
 10
0.9350000000000005
 20
4.753376618407357
 30
0
 11
1.021623381592644
 21
4.84
 31
0
  0
LINE
  8
0
 62
7
 10
0.9937554159486091
 20
4.600000000000001
 30
0
 11
1.233755415948608
 21
4.84
 31
0
  0
LINE
  8
0
 62
7
 10
1.1
 20
4.494112549695427
 30
0
 11
1.445887450304573
 21
4.84
 31
0
  0
LINE
  8
0
 62
7
 10
1.418019484660539
 20
4.600000000000001
 30
0
 11
1.658019484660537
 21
4.84
 31
0
  0
LINE
  8
0
 62
7
 10
1.1
 20
4.281980515339463
 30
0
 11
1.275
 21
4.456980515339463
 31
0
  0
LINE
  8
0
 62
7
 10
1.630151519016503
 20
4.600000000000001
 30
0
 11
1.870151519016501
 21
4.84
 31
0
  0
LINE
  8
0
 62
7
 10
1.1
 20
4.0698484809835
 30
0
 11
1.275
 21
4.244848480983499
 31
0
  0
LINE
  8
0
 62
7
 10
1.842283553372468
 20
4.600000000000001
 30
0
 11
2.082283553372466
 21
4.84
 31
0
  0
LINE
  8
0
 62
7
 10
1.1
 20
3.857716446627535
 30
0
 11
1.275
 21
4.032716446627536
 31
0
  0
LINE
  8
0
 62
7
 10
2.054415587728432
 20
4.600000000000001
 30
0
 11
2.29441558772843
 21
4.84
 31
0
  0
LINE
  8
0
 62
7
 10
1.1
 20
3.645584412271571
 30
0
 11
1.275
 21
3.820584412271571
 31
0
  0
LINE
  8
0
 62
7
 10
2.266547622084396
 20
4.600000000000001
 30
0
 11
2.506547622084394
 21
4.84
 31
0
  0
LINE
  8
0
 62
7
 10
1.1
 20
3.433452377915607
 30
0
 11
1.275
 21
3.608452377915607
 31
0
  0
LINE
  8
0
 62
7
 10
2.47867965644036
 20
4.600000000000001
 30
0
 11
2.718679656440358
 21
4.84
 31
0
  0
LINE
  8
0
 62
7
 10
1.228679656440357
 20
3.35
 30
0
 11
1.275
 21
3.396320343559642
 31
0
  0
LINE
  8
0
 62
7
 10
2.690811690796325
 20
4.600000000000001
 30
0
 11
2.930811690796323
 21
4.84
 31
0
  0
LINE
  8
0
 62
7
 10
2.902943725152289
 20
4.600000000000001
 30
0
 11
3.142943725152287
 21
4.84
 31
0
  0
LINE
  8
0
 62
7
 10
3.115075759508253
 20
4.600000000000001
 30
0
 11
3.355075759508251
 21
4.84
 31
0
  0
LINE
  8
0
 62
7
 10
3.327207793864217
 20
4.600000000000001
 30
0
 11
3.567207793864215
 21
4.84
 31
0
  0
LINE
  8
0
 62
7
 10
3.539339828220182
 20
4.600000000000001
 30
0
 11
3.77933982822018
 21
4.84
 31
0
  0
LINE
  8
0
 62
7
 10
3.751471862576146
 20
4.600000000000001
 30
0
 11
3.991471862576144
 21
4.84
 31
0
  0
LINE
  8
0
 62
7
 10
3.96360389693211
 20
4.600000000000001
 30
0
 11
4.203603896932108
 21
4.84
 31
0
  0
LINE
  8
0
 62
7
 10
4.175735931288075
 20
4.600000000000001
 30
0
 11
4.415735931288072
 21
4.84
 31
0
  0
LINE
  8
0
 62
7
 10
4.387867965644038
 20
4.600000000000001
 30
0
 11
4.627867965644036
 21
4.84
 31
0
  0
LINE
  8
0
 62
7
 10
4.600000000000002
 20
4.600000000000001
 30
0
 11
4.84
 21
4.84
 31
0
  0
LINE
  8
0
 62
7
 10
4.785
 20
4.572867965644035
 30
0
 11
5.052132034355964
 21
4.84
 31
0
  0
LINE
  8
0
 62
7
 10
5.024264068711931
 20
4.600000000000002
 30
0
 11
5.110000000000001
 21
4.685735931288073
 31
0
  0
LINE
  8
0
 62
7
 10
4.785
 20
4.360735931288071
 30
0
 11
4.960000000000001
 21
4.535735931288071
 31
0
  0
LINE
  8
0
 62
7
 10
4.785
 20
4.148603896932107
 30
0
 11
4.960000000000001
 21
4.323603896932107
 31
0
  0
LINE
  8
0
 62
7
 10
4.785
 20
3.936471862576143
 30
0
 11
4.960000000000001
 21
4.111471862576143
 31
0
  0
LINE
  8
0
 62
7
 10
4.785
 20
3.724339828220178
 30
0
 11
4.960000000000001
 21
3.899339828220179
 31
0
  0
LINE
  8
0
 62
7
 10
4.785
 20
3.512207793864214
 30
0
 11
4.960000000000001
 21
3.687207793864214
 31
0
  0
LINE
  8
0
 62
7
 10
4.785
 20
3.300075759508249
 30
0
 11
4.960000000000001
 21
3.47507575950825
 31
0
  0
LINE
  8
0
 62
7
 10
4.947056274847715
 20
3.25
 30
0
 11
4.960000000000001
 21
3.262943725152286
 31
0
  0
ENDBLK
  8
0
  0
BLOCK
  8
0
  2
*D0
 70
1
 10
0
 20
0
 30
0
  0
LINE
  8
0
 62
7
 10
0.7564591670925161
 20
4.32326510304887
 30
0
 11
0.7564591670925161
 21
4.6
 31
0
  0
LINE
  8
0
 62
7
 10
0.7564591670925161
 20
3.35
 30
0
 11
0.7564591670925161
 21
3.57826510304887
 31
0
  0
LINE
  8
0
 62
7
 10
1.1
 20
4.6
 30
0
 11
0.7064591670925161
 21
4.6
 31
0
  0
LINE
  8
0
 62
7
 10
1.1
 20
3.35
 30
0
 11
0.7064591670925161
 21
3.35
 31
0
  0
LINE
  8
0
 62
7
 10
0.7918145061518436
 20
4.564644660940672
 30
0
 11
0.7211038280331887
 21
4.635355339059327
 31
0
  0
LINE
  8
0
 62
7
 10
0.7211038280331887
 20
3.385355339059327
 30
0
 11
0.7918145061518436
 21
3.314644660940672
 31
0
  0
TEXT
  8
0
 62
7
 10
0.8014591670925162
 20
3.82826510304887
 30
0
 40
0.1
  1
1,25
 50
90
 41
0.9
  0
ENDBLK
  8
0
  0
BLOCK
  8
0
  2
*D1
 70
1
 10
0
 20
0
 30
0
  0
LINE
  8
0
 62
7
 10
3.346015968318861
 20
5.440350141372831
 30
0
 11
4.785000000000001
 21
5.440350141372831
 31
0
  0
LINE
  8
0
 62
7
 10
1.275000000000001
 20
5.440350141372831
 30
0
 11
2.601015968318861
 21
5.440350141372831
 31
0
  0
LINE
  8
0
 62
7
 10
4.785000000000001
 20
5.119999999999998
 30
0
 11
4.785000000000001
 21
5.490350141372831
 31
0
  0
LINE
  8
0
 62
7
 10
1.275000000000001
 20
5.119999999999998
 30
0
 11
1.275000000000001
 21
5.490350141372831
 31
0
  0
LINE
  8
0
 62
7
 10
4.749644660940674
 20
5.404994802313504
 30
0
 11
4.820355339059328
 21
5.475705480432159
 31
0
  0
LINE
  8
0
 62
7
 10
1.310355339059328
 20
5.475705480432159
 30
0
 11
1.239644660940674
 21
5.404994802313504
 31
0
  0
TEXT
  8
0
 62
7
 10
2.851015968318861
 20
5.395350141372831
 30
0
 40
0.1
  1
3,51
 41
0.9
  0
ENDBLK
  8
0
  0
BLOCK
  8
0
  2
*D2
 70
1
 10
0
 20
0
 30
0
  0
LINE
  8
0
 62
7
 10
5.329138819621861
 20
4.27707641968999
 30
0
 11
5.329138819621861
 21
4.600000000000001
 31
0
  0
LINE
  8
0
 62
7
 10
5.329138819621861
 20
3.25
 30
0
 11
5.329138819621861
 21
3.53207641968999
 31
0
  0
LINE
  8
0
 62
7
 10
4.960000000000002
 20
4.600000000000001
 30
0
 11
5.379138819621861
 21
4.600000000000001
 31
0
  0
LINE
  8
0
 62
7
 10
4.960000000000002
 20
3.25
 30
0
 11
5.379138819621861
 21
3.25
 31
0
  0
LINE
  8
0
 62
7
 10
5.293783480562534
 20
3.285355339059328
 30
0
 11
5.364494158681189
 21
3.214644660940673
 31
0
  0
LINE
  8
0
 62
7
 10
5.364494158681189
 20
4.564644660940673
 30
0
 11
5.293783480562534
 21
4.635355339059328
 31
0
  0
TEXT
  8
0
 62
7
 10
5.374138819621861
 20
3.78207641968999
 30
0
 40
0.1
  1
1,35
 50
90
 41
0.9
  0
ENDBLK
  8
0
  0
BLOCK
  8
0
  2
*D3
 70
1
 10
0
 20
0
 30
0
  0
LINE
  8
0
 62
7
 10
3.44612918923523
 20
11.5141620030658
 30
0
 11
4.785
 21
11.5141620030658
 31
0
  0
LINE
  8
0
 62
7
 10
1.275
 20
11.5141620030658
 30
0
 11
2.80112918923523
 21
11.5141620030658
 31
0
  0
LINE
  8
0
 62
7
 10
4.785
 20
11.2
 30
0
 11
4.785
 21
11.5641620030658
 31
0
  0
LINE
  8
0
 62
7
 10
1.275
 20
11.2
 30
0
 11
1.275
 21
11.5641620030658
 31
0
  0
LINE
  8
0
 62
7
 10
1.310355339059327
 20
11.54951734212513
 30
0
 11
1.239644660940673
 21
11.47880666400647
 31
0
  0
LINE
  8
0
 62
7
 10
4.749644660940673
 20
11.47880666400647
 30
0
 11
4.820355339059327
 21
11.54951734212513
 31
0
  0
TEXT
  8
0
 62
7
 10
3.00112918923523
 20
11.4691620030658
 30
0
 40
0.1
  1
3,51
 41
0.9
  0
ENDBLK
  8
0
  0
BLOCK
  8
0
  2
*D4
 70
1
 10
0
 20
0
 30
0
  0
LINE
  8
0
 62
7
 10
0.698723312893913
 20
10.19506749787084
 30
0
 11
0.698723312893913
 21
11.05
 31
0
  0
LINE
  8
0
 62
7
 10
0.698723312893913
 20
8.299999999999999
 30
0
 11
0.698723312893913
 21
9.115067497870839
 31
0
  0
LINE
  8
0
 62
7
 10
0.9500000000000001
 20
11.05
 30
0
 11
0.6487233128939129
 21
11.05
 31
0
  0
LINE
  8
0
 62
7
 10
0.9500000000000001
 20
8.299999999999999
 30
0
 11
0.6487233128939129
 21
8.299999999999999
 31
0
  0
LINE
  8
0
 62
7
 10
0.6633679738345856
 20
8.335355339059326
 30
0
 11
0.7340786519532404
 21
8.264644660940672
 31
0
  0
LINE
  8
0
 62
7
 10
0.7340786519532404
 20
11.01464466094067
 30
0
 11
0.6633679738345856
 21
11.08535533905933
 31
0
  0
TEXT
  8
0
 62
7
 10
0.668723312893913
 20
9.517567497870841
 30
0
 40
0.1
  1
2,75
 50
90
 41
0.9
  0
TEXT
  8
0
 62
7
 10
0.828723312893913
 20
9.315067497870841
 30
0
 40
0.1
  1
(260-280)
 50
90
 41
0.9
  0
ENDBLK
  8
0
  0
ENDSEC
  0
SECTION
  2
ENTITIES
  0
INSERT
  8
0
  2
*X0
 10
0
 20
0
 30
0
  0
INSERT
  8
0
  2
*X1
 10
0
 20
0
 30
0
  0
INSERT
  8
0
  2
*X2
 10
0
 20
0
 30
0
  0
INSERT
  8
0
  2
*X3
 10
0
 20
0
 30
0
  0
INSERT
  8
0
  2
*X4
 10
0
 20
0
 30
0
  0
INSERT
  8
0
  2
*X5
 10
0
 20
0
 30
0
  0
INSERT
  8
0
  2
*X6
 10
0
 20
0
 30
0
  0
INSERT
  8
0
  2
*X7
 10
0
 20
0
 30
0
  0
INSERT
  8
0
  2
*X8
 10
0
 20
0
 30
0
  0
INSERT
  8
0
  2
*X9
 10
0
 20
0
 30
0
  0
INSERT
  8
0
  2
*X10
 10
0
 20
0
 30
0
  0
INSERT
  8
0
  2
*X11
 10
0
 20
0
 30
0
  0
INSERT
  8
0
  2
*X12
 10
0
 20
0
 30
0
  0
INSERT
  8
0
  2
*X13
 10
0
 20
0
 30
0
  0
INSERT
  8
0
  2
*X14
 10
0
 20
0
 30
0
  0
INSERT
  8
0
  2
*X15
 10
0
 20
0
 30
0
  0
INSERT
  8
0
  2
*X16
 10
0
 20
0
 30
0
  0
LINE
  8
0
 62
7
 10
2.28
 20
3.418966571929841
 30
0
 11
2.28
 21
3.549680824714255
 31
0
  0
LINE
  8
0
 62
7
 10
2.28
 20
3.549680824714255
 30
0
 11
2.348092417025935
 21
3.595000000000001
 31
0
  0
LINE
  8
0
 62
7
 10
2.442891635046673
 20
3.595000000000001
 30
0
 11
2.54047828298849
 21
3.595000000000001
 31
0
  0
LINE
  8
0
 62
7
 10
2.348092417025935
 20
3.595000000000001
 30
0
 11
2.54047828298849
 21
3.595000000000001
 31
0
  0
LINE
  8
0
 62
7
 10
3.52103090586774
 20
3.595000000000001
 30
0
 11
3.717904481056299
 21
3.595000000000001
 31
0
  0
LINE
  8
0
 62
7
 10
3.717904481056299
 20
3.595000000000001
 30
0
 11
3.780000000000001
 21
3.53980895792305
 31
0
  0
LINE
  8
0
 62
7
 10
3.780000000000001
 20
3.46065850150142
 30
0
 11
3.780000000000001
 21
3.367255452538
 31
0
  0
LINE
  8
0
 62
7
 10
3.780000000000001
 20
3.53980895792305
 30
0
 11
3.780000000000001
 21
3.367255452538
 31
0
  0
LINE
  8
0
 62
7
 10
3.780000000000001
 20
3.25
 30
0
 11
4.73
 21
3.25
 31
0
  0
LINE
  8
0
 62
7
 10
3.780000000000001
 20
3.367255452538
 30
0
 11
3.780000000000001
 21
3.25
 31
0
  0
LINE
  8
0
 62
7
 10
4.73
 20
3.25
 30
0
 11
4.73
 21
3.72436356589344
 31
0
  0
LINE
  8
0
 62
7
 10
3.780000000000001
 20
3.367255452538
 30
0
 11
4.73
 21
3.63096051693002
 31
0
  0
LINE
  8
0
 62
7
 10
4.73
 20
3.63096051693002
 30
0
 11
4.73
 21
4.152964828044371
 31
0
  0
LINE
  8
0
 62
7
 10
3.821853804902699
 20
3.502608928891012
 30
0
 11
4.73
 21
4.047982893007991
 31
0
  0
LINE
  8
0
 62
7
 10
3.780000000000001
 20
3.53980895792305
 30
0
 11
3.821853804902699
 21
3.502608928891012
 31
0
  0
LINE
  8
0
 62
7
 10
4.73
 20
4.545000000000001
 30
0
 11
4.53600654981247
 21
4.545000000000001
 31
0
  0
LINE
  8
0
 62
7
 10
4.73
 20
4.047982893007991
 30
0
 11
4.73
 21
4.545000000000001
 31
0
  0
LINE
  8
0
 62
7
 10
3.742351426127378
 20
3.595000000000001
 30
0
 11
4.661217509864479
 21
4.545000000000001
 31
0
  0
LINE
  8
0
 62
7
 10
3.717904481056299
 20
3.595000000000001
 30
0
 11
3.742351426127378
 21
3.595000000000001
 31
0
  0
LINE
  8
0
 62
7
 10
4.661217509864479
 20
4.545000000000001
 30
0
 11
4.015745208750399
 21
4.545000000000001
 31
0
  0
LINE
  8
0
 62
7
 10
3.622502963923949
 20
3.595000000000001
 30
0
 11
4.117217266806597
 21
4.545000000000001
 31
0
  0
LINE
  8
0
 62
7
 10
3.405974784280859
 20
3.595000000000001
 30
0
 11
3.622502963923949
 21
3.595000000000001
 31
0
  0
LINE
  8
0
 62
7
 10
4.117217266806597
 20
4.545000000000001
 30
0
 11
3.639262590743261
 21
4.545000000000001
 31
0
  0
LINE
  8
0
 62
7
 10
3.49864868564851
 20
3.595000000000001
 30
0
 11
3.73193649211091
 21
4.545000000000001
 31
0
  0
LINE
  8
0
 62
7
 10
3.195947744095192
 20
3.595000000000001
 30
0
 11
3.49864868564851
 21
3.595000000000001
 31
0
  0
LINE
  8
0
 62
7
 10
3.73193649211091
 20
4.545000000000001
 30
0
 11
3.3399562267819
 21
4.545000000000001
 31
0
  0
LINE
  8
0
 62
7
 10
3.286975920847641
 20
3.595000000000001
 30
0
 11
3.430984403534338
 21
4.545000000000001
 31
0
  0
LINE
  8
0
 62
7
 10
2.98559448131755
 20
3.595000000000001
 30
0
 11
3.286975920847641
 21
3.595000000000001
 31
0
  0
LINE
  8
0
 62
7
 10
3.430984403534338
 20
4.545000000000001
 30
0
 11
3.03951782231152
 21
4.545000000000001
 31
0
  0
LINE
  8
0
 62
7
 10
3.075739348329121
 20
3.595000000000001
 30
0
 11
3.12966268932309
 21
4.545000000000001
 31
0
  0
LINE
  8
0
 62
7
 10
2.77489638210553
 20
3.595000000000001
 30
0
 11
3.075739348329121
 21
3.595000000000001
 31
0
  0
LINE
  8
0
 62
7
 10
3.12966268932309
 20
4.545000000000001
 30
0
 11
2.737881277705081
 21
4.545000000000011
 31
0
  0
LINE
  8
0
 62
7
 10
2.864964672327551
 20
3.595000000000001
 30
0
 11
2.827949567927101
 21
4.54499999999999
 31
0
  0
LINE
  8
0
 62
7
 10
2.563842305511111
 20
3.595000000000001
 30
0
 11
2.864964672327551
 21
3.595000000000001
 31
0
  0
LINE
  8
0
 62
7
 10
2.827949567927101
 20
4.54499999999999
 30
0
 11
2.4350091406027
 21
4.545000000000001
 31
0
  0
LINE
  8
0
 62
7
 10
2.654666135309562
 20
3.595000000000001
 30
0
 11
2.525832970401153
 21
4.545000000000001
 31
0
  0
LINE
  8
0
 62
7
 10
2.54047828298849
 20
3.595000000000001
 30
0
 11
2.654666135309562
 21
3.595000000000001
 31
0
  0
LINE
  8
0
 62
7
 10
2.525832970401153
 20
4.545000000000001
 30
0
 11
2.044686347164201
 21
4.545000000000001
 31
0
  0
LINE
  8
0
 62
7
 10
2.54047828298849
 20
3.595000000000001
 30
0
 11
2.142272995106019
 21
4.545000000000001
 31
0
  0
LINE
  8
0
 62
7
 10
2.142272995106019
 20
4.545000000000001
 30
0
 11
1.57737677470189
 21
4.545000000000001
 31
0
  0
LINE
  8
0
 62
7
 10
2.40624117230495
 20
3.63370113219999
 30
0
 11
1.69174149859498
 21
4.545000000000001
 31
0
  0
LINE
  8
0
 62
7
 10
2.348092417025935
 20
3.595000000000001
 30
0
 11
2.40624117230495
 21
3.63370113219999
 31
0
  0
LINE
  8
0
 62
7
 10
1.33
 20
4.545000000000001
 30
0
 11
1.33
 21
4.18893571436627
 31
0
  0
LINE
  8
0
 62
7
 10
1.69174149859498
 20
4.545000000000001
 30
0
 11
1.33
 21
4.545000000000001
 31
0
  0
LINE
  8
0
 62
7
 10
2.28
 20
3.59213580494668
 30
0
 11
1.33
 21
4.301243163848121
 31
0
  0
LINE
  8
0
 62
7
 10
2.28
 20
3.549680824714255
 30
0
 11
2.28
 21
3.59213580494668
 31
0
  0
LINE
  8
0
 62
7
 10
1.33
 20
4.301243163848121
 30
0
 11
1.33
 21
3.69237472933836
 31
0
  0
LINE
  8
0
 62
7
 10
2.28
 20
3.512619679518741
 30
0
 11
1.33
 21
3.78602783692725
 31
0
  0
LINE
  8
0
 62
7
 10
2.28
 20
3.39
 30
0
 11
2.28
 21
3.512619679518741
 31
0
  0
LINE
  8
0
 62
7
 10
1.33
 20
3.78602783692725
 30
0
 11
1.33
 21
3.39
 31
0
  0
LINE
  8
0
 62
7
 10
4.294238588483498
 20
3.59499999999098
 30
0
 11
4.294238588483498
 21
3.25
 31
0
  0
LINE
  8
0
 62
7
 10
2.279999999946589
 20
4.109238588483501
 30
0
 11
3.779999999990221
 21
4.109238588483501
 31
0
  0
LINE
  8
0
 62
7
 10
1.871416510778201
 20
3.461
 30
0
 11
1.7657614115165
 21
3.4
 31
0
  0
LINE
  8
0
 62
7
 10
1.660106312254799
 20
3.461
 30
0
 11
1.871416510778201
 21
3.461
 31
0
  0
LINE
  8
0
 62
7
 10
1.7657614115165
 20
3.4
 30
0
 11
1.660106312254799
 21
3.461
 31
0
  0
LINE
  8
0
 62
7
 10
1.7657614115165
 20
3.4
 30
0
 11
1.7657614115165
 21
3.594999999990221
 31
0
  0
LINE
  8
0
 62
7
 10
6.61000027
 20
8.583333226666666
 30
0
 11
7.08436386
 21
8.583333226666666
 31
0
  0
LINE
  8
0
 62
7
 10
7.08436386
 20
8.518333226666666
 30
0
 11
6.61000027
 21
8.518333226666666
 31
0
  0
LINE
  8
0
 62
7
 10
6.61000027
 20
8.518333226666666
 30
0
 11
6.61000027
 21
8.583333226666666
 31
0
  0
LINE
  8
0
 62
7
 10
7.08436386
 20
8.583333226666666
 30
0
 11
7.08436386
 21
8.518333226666666
 31
0
  0
LINE
  8
0
 62
7
 10
7.51296517
 20
8.701666566666665
 30
0
 11
6.727255629999999
 21
8.701666566666665
 31
0
  0
LINE
  8
0
 62
7
 10
6.727255629999999
 20
8.766666566666663
 30
0
 11
7.51296517
 21
8.766666566666663
 31
0
  0
LINE
  8
0
 62
7
 10
6.727255629999999
 20
8.701666566666665
 30
0
 11
6.727255629999999
 21
8.766666566666663
 31
0
  0
LINE
  8
0
 62
7
 10
7.51296517
 20
8.766666566666663
 30
0
 11
7.51296517
 21
8.701666566666665
 31
0
  0
LINE
  8
0
 62
7
 10
7.905000459999998
 20
8.884999906666664
 30
0
 11
6.862609410000001
 21
8.884999906666664
 31
0
  0
LINE
  8
0
 62
7
 10
6.862609410000001
 20
8.949999906666665
 30
0
 11
7.905000459999998
 21
8.949999906666665
 31
0
  0
LINE
  8
0
 62
7
 10
6.862609410000001
 20
8.884999906666664
 30
0
 11
6.862609410000001
 21
8.949999906666665
 31
0
  0
LINE
  8
0
 62
7
 10
7.905000459999998
 20
8.949999906666665
 30
0
 11
7.905000459999998
 21
8.884999906666664
 31
0
  0
LINE
  8
0
 62
7
 10
6.955000459999998
 20
9.133333226666664
 30
0
 11
7.905000459999998
 21
9.133333226666664
 31
0
  0
LINE
  8
0
 62
7
 10
6.955000459999998
 20
9.068333226666665
 30
0
 11
6.955000459999998
 21
9.133333226666664
 31
0
  0
LINE
  8
0
 62
7
 10
7.905000459999998
 20
9.133333226666664
 30
0
 11
7.905000459999998
 21
9.068333226666665
 31
0
  0
LINE
  8
0
 62
7
 10
7.905000459999998
 20
9.068333226666665
 30
0
 11
6.955000459999998
 21
9.068333226666665
 31
0
  0
LINE
  8
0
 62
7
 10
6.955000310000002
 20
9.316666586666663
 30
0
 11
7.905000609999999
 21
9.316666586666663
 31
0
  0
LINE
  8
0
 62
7
 10
6.955000310000002
 20
9.251666586666664
 30
0
 11
6.955000310000002
 21
9.316666586666663
 31
0
  0
LINE
  8
0
 62
7
 10
7.905000609999999
 20
9.316666586666663
 30
0
 11
7.905000609999999
 21
9.251666586666664
 31
0
  0
LINE
  8
0
 62
7
 10
7.905000609999999
 20
9.251666586666664
 30
0
 11
6.955000310000002
 21
9.251666586666664
 31
0
  0
LINE
  8
0
 62
7
 10
6.955000379999999
 20
9.499999946666664
 30
0
 11
7.905000609999999
 21
9.499999946666664
 31
0
  0
LINE
  8
0
 62
7
 10
6.955000379999999
 20
9.434999946666663
 30
0
 11
6.955000379999999
 21
9.499999946666664
 31
0
  0
LINE
  8
0
 62
7
 10
7.905000609999999
 20
9.499999946666664
 30
0
 11
7.905000609999999
 21
9.434999946666663
 31
0
  0
LINE
  8
0
 62
7
 10
7.905000609999999
 20
9.434999946666663
 30
0
 11
6.955000379999999
 21
9.434999946666663
 31
0
  0
LINE
  8
0
 62
7
 10
6.95500023
 20
9.683333226666665
 30
0
 11
7.905000459999998
 21
9.683333226666665
 31
0
  0
LINE
  8
0
 62
7
 10
6.95500023
 20
9.618333226666664
 30
0
 11
6.95500023
 21
9.683333226666665
 31
0
  0
LINE
  8
0
 62
7
 10
7.905000459999998
 20
9.683333226666665
 30
0
 11
7.905000459999998
 21
9.618333226666664
 31
0
  0
LINE
  8
0
 62
7
 10
7.905000459999998
 20
9.618333226666664
 30
0
 11
6.95500023
 21
9.618333226666664
 31
0
  0
LINE
  8
0
 62
7
 10
6.955000160000001
 20
9.866666666666665
 30
0
 11
7.905000459999998
 21
9.866666666666665
 31
0
  0
LINE
  8
0
 62
7
 10
6.955000160000001
 20
9.801666666666666
 30
0
 11
6.955000160000001
 21
9.866666666666665
 31
0
  0
LINE
  8
0
 62
7
 10
7.905000459999998
 20
9.866666666666665
 30
0
 11
7.905000459999998
 21
9.801666666666666
 31
0
  0
LINE
  8
0
 62
7
 10
7.905000459999998
 20
9.801666666666666
 30
0
 11
6.955000160000001
 21
9.801666666666666
 31
0
  0
LINE
  8
0
 62
7
 10
6.955000540000002
 20
10.04999994666667
 30
0
 11
7.905000459999998
 21
10.04999994666667
 31
0
  0
LINE
  8
0
 62
7
 10
6.955000540000002
 20
9.984999946666665
 30
0
 11
6.955000540000002
 21
10.04999994666667
 31
0
  0
LINE
  8
0
 62
7
 10
7.905000459999998
 20
10.04999994666667
 30
0
 11
7.905000459999998
 21
9.984999946666665
 31
0
  0
LINE
  8
0
 62
7
 10
7.905000459999998
 20
9.984999946666665
 30
0
 11
6.955000540000002
 21
9.984999946666665
 31
0
  0
LINE
  8
0
 62
7
 10
6.955000459999998
 20
10.23333322666666
 30
0
 11
7.90500077
 21
10.23333322666666
 31
0
  0
LINE
  8
0
 62
7
 10
6.955000459999998
 20
10.16833322666666
 30
0
 11
6.955000459999998
 21
10.23333322666666
 31
0
  0
LINE
  8
0
 62
7
 10
7.90500077
 20
10.23333322666666
 30
0
 11
7.90500077
 21
10.16833322666666
 31
0
  0
LINE
  8
0
 62
7
 10
7.90500077
 20
10.16833322666666
 30
0
 11
6.955000459999998
 21
10.16833322666666
 31
0
  0
LINE
  8
0
 62
7
 10
6.95499993
 20
10.41666666666667
 30
0
 11
7.905000310000002
 21
10.41666666666667
 31
0
  0
LINE
  8
0
 62
7
 10
6.95499993
 20
10.35166666666667
 30
0
 11
6.95499993
 21
10.41666666666667
 31
0
  0
LINE
  8
0
 62
7
 10
7.905000310000002
 20
10.41666666666667
 30
0
 11
7.905000310000002
 21
10.35166666666667
 31
0
  0
LINE
  8
0
 62
7
 10
7.905000310000002
 20
10.35166666666667
 30
0
 11
6.95499993
 21
10.35166666666667
 31
0
  0
LINE
  8
0
 62
7
 10
7.905
 20
10.53499994666666
 30
0
 11
6.876755300000001
 21
10.53499994666666
 31
0
  0
LINE
  8
0
 62
7
 10
6.876755300000001
 20
10.59999994666666
 30
0
 11
7.905
 21
10.59999994666666
 31
0
  0
LINE
  8
0
 62
7
 10
6.876755300000001
 20
10.53499994666666
 30
0
 11
6.876755300000001
 21
10.59999994666666
 31
0
  0
LINE
  8
0
 62
7
 10
7.905
 20
10.59999994666666
 30
0
 11
7.905
 21
10.53499994666666
 31
0
  0
LINE
  8
0
 62
7
 10
7.661242979999999
 20
10.71833322666666
 30
0
 11
6.77896576
 21
10.71833322666666
 31
0
  0
LINE
  8
0
 62
7
 10
6.77896576
 20
10.78333322666666
 30
0
 11
7.661242979999999
 21
10.78333322666666
 31
0
  0
LINE
  8
0
 62
7
 10
6.77896576
 20
10.71833322666666
 30
0
 11
6.77896576
 21
10.78333322666666
 31
0
  0
LINE
  8
0
 62
7
 10
7.661242979999999
 20
10.78333322666666
 30
0
 11
7.661242979999999
 21
10.71833322666666
 31
0
  0
LINE
  8
0
 62
7
 10
6.749999549999998
 20
10.96666666666667
 30
0
 11
7.146027609999997
 21
10.96666666666667
 31
0
  0
LINE
  8
0
 62
7
 10
7.146027609999997
 20
10.90166666666667
 30
0
 11
6.749999549999998
 21
10.90166666666667
 31
0
  0
LINE
  8
0
 62
7
 10
6.749999549999998
 20
10.90166666666667
 30
0
 11
6.749999549999998
 21
10.96666666666667
 31
0
  0
LINE
  8
0
 62
7
 10
7.146027609999997
 20
10.96666666666667
 30
0
 11
7.146027609999997
 21
10.90166666666667
 31
0
  0
LINE
  8
0
 62
7
 10
3.78000015
 20
8.583333226666666
 30
0
 11
4.73000009
 21
8.583333226666666
 31
0
  0
LINE
  8
0
 62
7
 10
4.73000009
 20
8.583333226666666
 30
0
 11
4.73000009
 21
8.518333226666666
 31
0
  0
LINE
  8
0
 62
7
 10
3.78000015
 20
8.518333226666666
 30
0
 11
3.78000015
 21
8.583333226666666
 31
0
  0
LINE
  8
0
 62
7
 10
4.73000009
 20
8.518333226666666
 30
0
 11
3.78000015
 21
8.518333226666666
 31
0
  0
LINE
  8
0
 62
7
 10
3.779999919999998
 20
8.766666566666665
 30
0
 11
4.73000007
 21
8.766666566666665
 31
0
  0
LINE
  8
0
 62
7
 10
4.73000007
 20
8.766666566666665
 30
0
 11
4.73000007
 21
8.701666566666665
 31
0
  0
LINE
  8
0
 62
7
 10
3.779999919999998
 20
8.701666566666665
 30
0
 11
3.779999919999998
 21
8.766666566666665
 31
0
  0
LINE
  8
0
 62
7
 10
4.73000007
 20
8.701666566666665
 30
0
 11
3.779999919999998
 21
8.701666566666665
 31
0
  0
LINE
  8
0
 62
7
 10
4.73000007
 20
8.884999906666664
 30
0
 11
3.663721009999998
 21
8.884999906666664
 31
0
  0
LINE
  8
0
 62
7
 10
3.663721009999998
 20
8.949999906666665
 30
0
 11
4.73000007
 21
8.949999906666665
 31
0
  0
LINE
  8
0
 62
7
 10
4.73000007
 20
8.949999906666665
 30
0
 11
4.73000007
 21
8.884999906666664
 31
0
  0
LINE
  8
0
 62
7
 10
3.663721009999998
 20
8.884999906666664
 30
0
 11
3.663721009999998
 21
8.949999906666665
 31
0
  0
LINE
  8
0
 62
7
 10
4.661217609999998
 20
9.068333226666665
 30
0
 11
3.521030879999998
 21
9.068333226666665
 31
0
  0
LINE
  8
0
 62
7
 10
3.521030879999998
 20
9.133333226666666
 30
0
 11
4.661217609999998
 21
9.133333226666666
 31
0
  0
LINE
  8
0
 62
7
 10
4.661217609999998
 20
9.133333226666666
 30
0
 11
4.661217609999998
 21
9.068333226666665
 31
0
  0
LINE
  8
0
 62
7
 10
3.521030879999998
 20
9.068333226666665
 30
0
 11
3.521030879999998
 21
9.133333226666666
 31
0
  0
LINE
  8
0
 62
7
 10
4.11721741
 20
9.251666586666667
 30
0
 11
3.40597473
 21
9.251666586666667
 31
0
  0
LINE
  8
0
 62
7
 10
3.40597473
 20
9.316666586666667
 30
0
 11
4.11721741
 21
9.316666586666667
 31
0
  0
LINE
  8
0
 62
7
 10
4.11721741
 20
9.316666586666667
 30
0
 11
4.11721741
 21
9.251666586666667
 31
0
  0
LINE
  8
0
 62
7
 10
3.40597473
 20
9.251666586666667
 30
0
 11
3.40597473
 21
9.316666586666667
 31
0
  0
LINE
  8
0
 62
7
 10
3.731936490000001
 20
9.434999946666668
 30
0
 11
3.195948030000002
 21
9.434999946666668
 31
0
  0
LINE
  8
0
 62
7
 10
3.195948030000002
 20
9.499999946666668
 30
0
 11
3.731936490000001
 21
9.499999946666668
 31
0
  0
LINE
  8
0
 62
7
 10
3.731936490000001
 20
9.499999946666668
 30
0
 11
3.731936490000001
 21
9.434999946666668
 31
0
  0
LINE
  8
0
 62
7
 10
3.195948030000002
 20
9.434999946666668
 30
0
 11
3.195948030000002
 21
9.499999946666668
 31
0
  0
LINE
  8
0
 62
7
 10
3.430984649999999
 20
9.618333226666666
 30
0
 11
2.985594330000004
 21
9.618333226666666
 31
0
  0
LINE
  8
0
 62
7
 10
2.985594330000004
 20
9.683333226666667
 30
0
 11
3.430984649999999
 21
9.683333226666667
 31
0
  0
LINE
  8
0
 62
7
 10
3.430984649999999
 20
9.683333226666667
 30
0
 11
3.430984649999999
 21
9.618333226666666
 31
0
  0
LINE
  8
0
 62
7
 10
2.985594330000004
 20
9.618333226666666
 30
0
 11
2.985594330000004
 21
9.683333226666667
 31
0
  0
LINE
  8
0
 62
7
 10
3.129662780000003
 20
9.801666666666666
 30
0
 11
2.737881160000001
 21
9.801666666666666
 31
0
  0
LINE
  8
0
 62
7
 10
2.737881160000001
 20
9.866666666666665
 30
0
 11
3.129662780000003
 21
9.866666666666665
 31
0
  0
LINE
  8
0
 62
7
 10
3.129662780000003
 20
9.866666666666665
 30
0
 11
3.129662780000003
 21
9.801666666666666
 31
0
  0
LINE
  8
0
 62
7
 10
2.737881160000001
 20
9.801666666666666
 30
0
 11
2.737881160000001
 21
9.866666666666665
 31
0
  0
LINE
  8
0
 62
7
 10
2.864964600000003
 20
9.984999946666669
 30
0
 11
2.435009150000002
 21
9.984999946666669
 31
0
  0
LINE
  8
0
 62
7
 10
2.435009150000002
 20
10.04999994666667
 30
0
 11
2.864964600000003
 21
10.04999994666667
 31
0
  0
LINE
  8
0
 62
7
 10
2.864964600000003
 20
10.04999994666667
 30
0
 11
2.864964600000003
 21
9.984999946666669
 31
0
  0
LINE
  8
0
 62
7
 10
2.435009150000002
 20
9.984999946666669
 30
0
 11
2.435009150000002
 21
10.04999994666667
 31
0
  0
LINE
  8
0
 62
7
 10
2.654665980000001
 20
10.16833322666667
 30
0
 11
2.044686280000002
 21
10.16833322666667
 31
0
  0
LINE
  8
0
 62
7
 10
2.044686280000002
 20
10.23333322666667
 30
0
 11
2.654665980000001
 21
10.23333322666667
 31
0
  0
LINE
  8
0
 62
7
 10
2.654665980000001
 20
10.23333322666667
 30
0
 11
2.654665980000001
 21
10.16833322666667
 31
0
  0
LINE
  8
0
 62
7
 10
2.044686280000002
 20
10.16833322666667
 30
0
 11
2.044686280000002
 21
10.23333322666667
 31
0
  0
LINE
  8
0
 62
7
 10
2.540478360000001
 20
10.35166666666667
 30
0
 11
1.577376710000001
 21
10.35166666666667
 31
0
  0
LINE
  8
0
 62
7
 10
1.577376710000001
 20
10.41666666666667
 30
0
 11
2.540478360000001
 21
10.41666666666667
 31
0
  0
LINE
  8
0
 62
7
 10
2.540478360000001
 20
10.41666666666667
 30
0
 11
2.540478360000001
 21
10.35166666666667
 31
0
  0
LINE
  8
0
 62
7
 10
1.577376710000001
 20
10.35166666666667
 30
0
 11
1.577376710000001
 21
10.41666666666667
 31
0
  0
LINE
  8
0
 62
7
 10
2.406241150000002
 20
10.53499994666667
 30
0
 11
1.330000000000003
 21
10.53499994666667
 31
0
  0
LINE
  8
0
 62
7
 10
1.330000000000003
 20
10.59999994666667
 30
0
 11
2.406241150000002
 21
10.59999994666667
 31
0
  0
LINE
  8
0
 62
7
 10
2.406241150000002
 20
10.59999994666667
 30
0
 11
2.406241150000002
 21
10.53499994666667
 31
0
  0
LINE
  8
0
 62
7
 10
1.330000000000003
 20
10.53499994666667
 30
0
 11
1.330000000000003
 21
10.59999994666667
 31
0
  0
LINE
  8
0
 62
7
 10
1.330000000000003
 20
10.78333322666667
 30
0
 11
2.280000000000002
 21
10.78333322666667
 31
0
  0
LINE
  8
0
 62
7
 10
2.280000000000002
 20
10.78333322666667
 30
0
 11
2.280000000000002
 21
10.71833322666667
 31
0
  0
LINE
  8
0
 62
7
 10
1.330000000000003
 20
10.71833322666667
 30
0
 11
1.330000000000003
 21
10.78333322666667
 31
0
  0
LINE
  8
0
 62
7
 10
2.280000000000002
 20
10.71833322666667
 30
0
 11
1.330000000000003
 21
10.71833322666667
 31
0
  0
LINE
  8
0
 62
7
  6
DASHED
 10
1.330000000000003
 20
10.96666666666667
 30
0
 11
2.280000000000002
 21
10.96666666666667
 31
0
  0
LINE
  8
0
 62
7
  6
DASHED
 10
2.280000000000002
 20
10.96666666666667
 30
0
 11
2.280000000000002
 21
10.90166666666667
 31
0
  0
LINE
  8
0
 62
7
  6
DASHED
 10
1.330000000000003
 20
10.90166666666667
 30
0
 11
1.330000000000003
 21
10.96666666666667
 31
0
  0
LINE
  8
0
 62
7
  6
DASHED
 10
2.280000000000002
 20
10.90166666666667
 30
0
 11
1.330000000000003
 21
10.90166666666667
 31
0
  0
LINE
  8
0
 62
7
  6
DASHDOT
 10
1.1
 20
5.269999999999997
 30
0
 11
1.275
 21
5.269999999999997
 31
0
  0
LINE
  8
0
 62
7
  6
DASHDOT
 10
1.05
 20
5.269999999999997
 30
0
 11
1.1
 21
5.269999999999997
 31
0
  0
LINE
  8
0
 62
7
  6
DASHDOT
 10
5.11
 20
4.600000000000001
 30
0
 11
5.11
 21
4.84
 31
0
  0
LINE
  8
0
 62
7
  6
DASHDOT
 10
0.9350000000000001
 20
4.600000000000001
 30
0
 11
0.9350000000000001
 21
4.84
 31
0
  0
LINE
  8
0
 62
7
  6
DASHDOT
 10
5.11
 20
4.84
 30
0
 11
5.11
 21
4.880000000000001
 31
0
  0
LINE
  8
0
 62
7
  6
DASHDOT
 10
0.9350000000000001
 20
4.84
 30
0
 11
0.9350000000000001
 21
4.880000000000001
 31
0
  0
LINE
  8
0
 62
7
  6
DASHDOT
 10
5.11
 20
4.55
 30
0
 11
5.11
 21
4.600000000000001
 31
0
  0
LINE
  8
0
 62
7
  6
DASHDOT
 10
5.11
 20
4.880000000000001
 30
0
 11
5.11
 21
5.119999999999997
 31
0
  0
LINE
  8
0
 62
7
  6
DASHDOT
 10
4.735
 20
5.269999999999997
 30
0
 11
4.785
 21
5.269999999999997
 31
0
  0
LINE
  8
0
 62
7
  6
DASHDOT
 10
4.785
 20
5.269999999999997
 30
0
 11
4.960000000000001
 21
5.269999999999997
 31
0
  0
LINE
  8
0
 62
7
  6
DASHDOT
 10
0.9350000000000001
 20
4.55
 30
0
 11
0.9350000000000001
 21
4.600000000000001
 31
0
  0
LINE
  8
0
 62
7
  6
DASHDOT
 10
0.9350000000000001
 20
4.880000000000001
 30
0
 11
0.9350000000000001
 21
5.119999999999997
 31
0
  0
LINE
  8
0
 62
7
  6
DASHDOT
 10
0.9350000000000001
 20
5.119999999999997
 30
0
 11
0.9350000000000001
 21
5.169999999999997
 31
0
  0
LINE
  8
0
 62
7
  6
DASHDOT
 10
5.11
 20
5.119999999999997
 30
0
 11
5.11
 21
5.169999999999997
 31
0
  0
LINE
  8
0
 62
7
  6
DASHDOT
 10
1.275
 20
5.269999999999997
 30
0
 11
1.325
 21
5.269999999999997
 31
0
  0
LINE
  8
0
 62
7
  6
DASHDOT
 10
4.960000000000001
 20
5.269999999999997
 30
0
 11
5.010000000000001
 21
5.269999999999997
 31
0
  0
LINE
  8
0
 62
7
 10
4.785
 20
3.4
 30
0
 11
4.785
 21
3.35
 31
0
  0
LINE
  8
0
 62
7
  6
DASHDOT
 10
4.785
 20
3.35
 30
0
 11
1.275
 21
3.35
 31
0
  0
LINE
  8
0
 62
7
 10
1.275
 20
3.35
 30
0
 11
1.275
 21
3.4
 31
0
  0
LINE
  8
0
 62
7
 10
4.785
 20
4.600000000000001
 30
0
 11
4.785
 21
3.4
 31
0
  0
LINE
  8
0
 62
7
 10
4.785
 20
3.4
 30
0
 11
1.275
 21
3.4
 31
0
  0
LINE
  8
0
 62
7
 10
1.1
 20
3.35
 30
0
 11
1.275
 21
3.35
 31
0
  0
LINE
  8
0
 62
7
 10
0.9350000000000001
 20
4.600000000000001
 30
0
 11
1.1
 21
4.600000000000001
 31
0
  0
LINE
  8
0
 62
7
 10
1.1
 20
4.600000000000001
 30
0
 11
1.1
 21
3.35
 31
0
  0
LINE
  8
0
 62
7
 10
1.275
 20
3.4
 30
0
 11
1.275
 21
4.600000000000001
 31
0
  0
LINE
  8
0
 62
7
 10
1.275
 20
4.600000000000001
 30
0
 11
4.785
 21
4.600000000000001
 31
0
  0
LINE
  8
0
 62
7
 10
4.960000000000001
 20
3.25
 30
0
 11
4.960000000000001
 21
4.600000000000001
 31
0
  0
LINE
  8
0
 62
7
 10
4.785
 20
3.25
 30
0
 11
4.960000000000001
 21
3.25
 31
0
  0
LINE
  8
0
 62
7
 10
4.785
 20
3.35
 30
0
 11
4.785
 21
3.25
 31
0
  0
LINE
  8
0
 62
7
 10
4.960000000000001
 20
4.600000000000001
 30
0
 11
5.11
 21
4.600000000000001
 31
0
  0
LINE
  8
0
 62
7
 10
0.9350000000000001
 20
4.84
 30
0
 11
5.11
 21
4.84
 31
0
  0
LINE
  8
0
 62
7
 10
0.9350000000000001
 20
4.880000000000001
 30
0
 11
5.11
 21
4.880000000000001
 31
0
  0
LINE
  8
0
 62
7
 10
0.9350000000000001
 20
5.119999999999997
 30
0
 11
1.1
 21
5.119999999999997
 31
0
  0
LINE
  8
0
 62
7
 10
1.1
 20
5.119999999999997
 30
0
 11
1.1
 21
5.269999999999997
 31
0
  0
LINE
  8
0
 62
7
 10
1.275
 20
5.269999999999997
 30
0
 11
1.275
 21
5.119999999999997
 31
0
  0
LINE
  8
0
 62
7
 10
1.275
 20
5.119999999999997
 30
0
 11
4.785
 21
5.119999999999997
 31
0
  0
LINE
  8
0
 62
7
 10
4.785
 20
5.119999999999997
 30
0
 11
4.785
 21
5.269999999999997
 31
0
  0
LINE
  8
0
 62
7
 10
4.960000000000001
 20
5.269999999999997
 30
0
 11
4.960000000000001
 21
5.119999999999997
 31
0
  0
LINE
  8
0
 62
7
 10
4.960000000000001
 20
5.119999999999997
 30
0
 11
5.11
 21
5.119999999999997
 31
0
  0
LINE
  8
0
 62
7
  6
DASHED
 10
6.71
 20
8.1
 30
0
 11
7.960000000000001
 21
8.1
 31
0
  0
LINE
  8
0
 62
7
  6
DASHED
 10
6.71
 20
8.299999999999999
 30
0
 11
7.960000000000001
 21
8.299999999999999
 31
0
  0
LINE
  8
0
 62
7
  6
DASHED
 10
6.71
 20
10.85
 30
0
 11
7.960000000000001
 21
10.85
 31
0
  0
LINE
  8
0
 62
7
  6
DASHED
 10
6.71
 20
11.05
 30
0
 11
7.960000000000001
 21
11.05
 31
0
  0
LINE
  8
0
 62
7
  6
DASHDOT
 10
6.41
 20
10.85
 30
0
 11
6.41
 21
11.05
 31
0
  0
LINE
  8
0
 62
7
  6
DASHDOT
 10
6.41
 20
10.8
 30
0
 11
6.41
 21
10.85
 31
0
  0
LINE
  8
0
 62
7
  6
DASHDOT
 10
7.960000000000001
 20
11.2
 30
0
 11
8.200000000000001
 21
11.2
 31
0
  0
LINE
  8
0
 62
7
  6
DASHDOT
 10
7.910000000000001
 20
11.2
 30
0
 11
7.960000000000001
 21
11.2
 31
0
  0
LINE
  8
0
 62
7
  6
DASHDOT
 10
7.910000000000001
 20
7.949999999999999
 30
0
 11
7.960000000000001
 21
7.949999999999999
 31
0
  0
LINE
  8
0
 62
7
  6
DASHDOT
 10
7.960000000000001
 20
7.949999999999999
 30
0
 11
8.200000000000001
 21
7.949999999999999
 31
0
  0
LINE
  8
0
 62
7
  6
DASHDOT
 10
6.41
 20
8.299999999999999
 30
0
 11
6.41
 21
8.1
 31
0
  0
LINE
  8
0
 62
7
  6
DASHDOT
 10
6.41
 20
8.399999999999999
 30
0
 11
6.41
 21
8.299999999999999
 31
0
  0
LINE
  8
0
 62
7
  6
DASHDOT
 10
6.41
 20
11.05
 30
0
 11
6.41
 21
11.15
 31
0
  0
LINE
  8
0
 62
7
 10
6.41
 20
11.15
 30
0
 11
6.71
 21
11.15
 31
0
  0
LINE
  8
0
 62
7
  6
DASHDOT
 10
6.41
 20
8.449999999999999
 30
0
 11
6.41
 21
8.399999999999999
 31
0
  0
LINE
  8
0
 62
7
 10
6.41
 20
8.399999999999999
 30
0
 11
6.71
 21
8.399999999999999
 31
0
  0
LINE
  8
0
 62
7
  6
DASHDOT
 10
8.200000000000001
 20
7.949999999999999
 30
0
 11
8.25
 21
7.949999999999999
 31
0
  0
LINE
  8
0
 62
7
  6
DASHDOT
 10
6.41
 20
8.1
 30
0
 11
6.41
 21
8.049999999999999
 31
0
  0
LINE
  8
0
 62
7
  6
DASHDOT
 10
6.41
 20
11.15
 30
0
 11
6.41
 21
11.2
 31
0
  0
LINE
  8
0
 62
7
  6
DASHDOT
 10
8.200000000000001
 20
11.2
 30
0
 11
8.25
 21
11.2
 31
0
  0
LINE
  8
0
 62
7
 10
6.41
 20
8.1
 30
0
 11
6.71
 21
8.1
 31
0
  0
LINE
  8
0
 62
7
 10
6.71
 20
8.1
 30
0
 11
6.71
 21
8.299999999999999
 31
0
  0
LINE
  8
0
 62
7
 10
6.41
 20
8.299999999999999
 30
0
 11
6.71
 21
8.299999999999999
 31
0
  0
LINE
  8
0
 62
7
 10
6.41
 20
11.05
 30
0
 11
6.71
 21
11.05
 31
0
  0
LINE
  8
0
 62
7
 10
6.41
 20
10.85
 30
0
 11
6.71
 21
10.85
 31
0
  0
LINE
  8
0
 62
7
 10
6.71
 20
10.85
 30
0
 11
6.71
 21
11.05
 31
0
  0
LINE
  8
0
 62
7
 10
7.960000000000001
 20
7.949999999999999
 30
0
 11
7.960000000000001
 21
8.1
 31
0
  0
LINE
  8
0
 62
7
 10
8.200000000000001
 20
8.299999999999999
 30
0
 11
8.200000000000001
 21
8.1
 31
0
  0
LINE
  8
0
 62
7
 10
7.960000000000001
 20
8.1
 30
0
 11
8.200000000000001
 21
8.1
 31
0
  0
LINE
  8
0
 62
7
 10
7.960000000000001
 20
8.1
 30
0
 11
7.960000000000001
 21
8.299999999999999
 31
0
  0
LINE
  8
0
 62
7
 10
8.200000000000001
 20
10.85
 30
0
 11
8.200000000000001
 21
8.299999999999999
 31
0
  0
LINE
  8
0
 62
7
 10
7.960000000000001
 20
8.299999999999999
 30
0
 11
8.200000000000001
 21
8.299999999999999
 31
0
  0
LINE
  8
0
 62
7
 10
7.960000000000001
 20
8.299999999999999
 30
0
 11
7.960000000000001
 21
10.85
 31
0
  0
LINE
  8
0
 62
7
 10
8.200000000000001
 20
11.05
 30
0
 11
8.200000000000001
 21
10.85
 31
0
  0
LINE
  8
0
 62
7
 10
7.960000000000001
 20
10.85
 30
0
 11
8.200000000000001
 21
10.85
 31
0
  0
LINE
  8
0
 62
7
 10
7.960000000000001
 20
10.85
 30
0
 11
7.960000000000001
 21
11.05
 31
0
  0
LINE
  8
0
 62
7
 10
8.200000000000001
 20
11.2
 30
0
 11
8.200000000000001
 21
11.05
 31
0
  0
LINE
  8
0
 62
7
 10
7.960000000000001
 20
11.05
 30
0
 11
8.200000000000001
 21
11.05
 31
0
  0
LINE
  8
0
 62
7
 10
7.960000000000001
 20
11.05
 30
0
 11
7.960000000000001
 21
11.2
 31
0
  0
LINE
  8
0
 62
7
 10
8.200000000000001
 20
8.1
 30
0
 11
8.200000000000001
 21
7.949999999999999
 31
0
  0
LINE
  8
0
 62
7
  6
DASHDOT
 10
4.960000000000001
 20
11.2
 30
0
 11
5.010000000000001
 21
11.2
 31
0
  0
LINE
  8
0
 62
7
  6
DASHDOT
 10
4.785
 20
11.2
 30
0
 11
4.960000000000001
 21
11.2
 31
0
  0
LINE
  8
0
 62
7
  6
DASHDOT
 10
5.11
 20
11.05
 30
0
 11
5.11
 21
11.15
 31
0
  0
LINE
  8
0
 62
7
  6
DASHDOT
 10
5.11
 20
10.85
 30
0
 11
5.11
 21
11.05
 31
0
  0
LINE
  8
0
 62
7
  6
DASHDOT
 10
1.275
 20
11.2
 30
0
 11
1.325
 21
11.2
 31
0
  0
LINE
  8
0
 62
7
  6
DASHDOT
 10
1.1
 20
11.2
 30
0
 11
1.275
 21
11.2
 31
0
  0
LINE
  8
0
 62
7
  6
DASHDOT
 10
0.9500000000000001
 20
11.05
 30
0
 11
0.9500000000000001
 21
11.15
 31
0
  0
LINE
  8
0
 62
7
  6
DASHDOT
 10
0.9500000000000001
 20
10.85
 30
0
 11
0.9500000000000001
 21
11.05
 31
0
  0
LINE
  8
0
 62
7
  6
DASHDOT
 10
1.275
 20
7.949999999999999
 30
0
 11
1.325
 21
7.949999999999999
 31
0
  0
LINE
  8
0
 62
7
  6
DASHDOT
 10
1.1
 20
7.949999999999999
 30
0
 11
1.275
 21
7.949999999999999
 31
0
  0
LINE
  8
0
 62
7
  6
DASHDOT
 10
0.9500000000000001
 20
8.299999999999999
 30
0
 11
0.9500000000000001
 21
8.399999999999999
 31
0
  0
LINE
  8
0
 62
7
  6
DASHDOT
 10
0.9500000000000001
 20
8.1
 30
0
 11
0.9500000000000001
 21
8.299999999999999
 31
0
  0
LINE
  8
0
 62
7
  6
DASHDOT
 10
4.960000000000001
 20
7.949999999999999
 30
0
 11
5.010000000000001
 21
7.949999999999999
 31
0
  0
LINE
  8
0
 62
7
  6
DASHDOT
 10
4.785
 20
7.949999999999999
 30
0
 11
4.960000000000001
 21
7.949999999999999
 31
0
  0
LINE
  8
0
 62
7
  6
DASHDOT
 10
5.11
 20
8.299999999999999
 30
0
 11
5.11
 21
8.399999999999999
 31
0
  0
LINE
  8
0
 62
7
  6
DASHDOT
 10
5.11
 20
8.1
 30
0
 11
5.11
 21
8.299999999999999
 31
0
  0
LINE
  8
0
 62
7
  6
DASHDOT
 10
5.11
 20
11.15
 30
0
 11
5.11
 21
11.2
 31
0
  0
LINE
  8
0
 62
7
 10
4.960000000000001
 20
11.15
 30
0
 11
4.960000000000001
 21
11.2
 31
0
  0
LINE
  8
0
 62
7
 10
4.960000000000001
 20
11.15
 30
0
 11
5.11
 21
11.15
 31
0
  0
LINE
  8
0
 62
7
 10
4.785
 20
11.15
 30
0
 11
4.785
 21
11.2
 31
0
  0
LINE
  8
0
 62
7
 10
1.275
 20
11.15
 30
0
 11
1.275
 21
11.2
 31
0
  0
LINE
  8
0
 62
7
 10
1.275
 20
11.15
 30
0
 11
4.785
 21
11.15
 31
0
  0
LINE
  8
0
 62
7
  6
DASHDOT
 10
0.9500000000000001
 20
11.15
 30
0
 11
0.9500000000000001
 21
11.2
 31
0
  0
LINE
  8
0
 62
7
 10
1.1
 20
11.15
 30
0
 11
1.1
 21
11.2
 31
0
  0
LINE
  8
0
 62
7
 10
0.9500000000000001
 20
11.15
 30
0
 11
1.1
 21
11.15
 31
0
  0
LINE
  8
0
 62
7
  6
DASHDOT
 10
5.11
 20
8.399999999999999
 30
0
 11
5.11
 21
8.449999999999999
 31
0
  0
LINE
  8
0
 62
7
 10
4.960000000000001
 20
8.399999999999999
 30
0
 11
4.960000000000001
 21
10.85
 31
0
  0
LINE
  8
0
 62
7
 10
4.960000000000001
 20
8.399999999999999
 30
0
 11
5.11
 21
8.399999999999999
 31
0
  0
LINE
  8
0
 62
7
 10
4.785
 20
8.399999999999999
 30
0
 11
4.785
 21
10.85
 31
0
  0
LINE
  8
0
 62
7
 10
1.275
 20
8.399999999999999
 30
0
 11
1.275
 21
10.85
 31
0
  0
LINE
  8
0
 62
7
 10
1.275
 20
8.399999999999999
 30
0
 11
4.785
 21
8.399999999999999
 31
0
  0
LINE
  8
0
 62
7
  6
DASHDOT
 10
0.9500000000000001
 20
8.399999999999999
 30
0
 11
0.9500000000000001
 21
8.449999999999999
 31
0
  0
LINE
  8
0
 62
7
 10
1.1
 20
8.399999999999999
 30
0
 11
1.1
 21
10.85
 31
0
  0
LINE
  8
0
 62
7
 10
0.9500000000000001
 20
8.399999999999999
 30
0
 11
1.1
 21
8.399999999999999
 31
0
  0
LINE
  8
0
 62
7
  6
DASHDOT
 10
4.735
 20
7.949999999999999
 30
0
 11
4.785
 21
7.949999999999999
 31
0
  0
LINE
  8
0
 62
7
  6
DASHDOT
 10
4.735
 20
11.2
 30
0
 11
4.785
 21
11.2
 31
0
  0
LINE
  8
0
 62
7
  6
DASHDOT
 10
1.05
 20
7.949999999999999
 30
0
 11
1.1
 21
7.949999999999999
 31
0
  0
LINE
  8
0
 62
7
  6
DASHDOT
 10
1.05
 20
11.2
 30
0
 11
1.1
 21
11.2
 31
0
  0
LINE
  8
0
 62
7
  6
DASHDOT
 10
5.11
 20
10.8
 30
0
 11
5.11
 21
10.85
 31
0
  0
LINE
  8
0
 62
7
  6
DASHDOT
 10
5.11
 20
8.049999999999999
 30
0
 11
5.11
 21
8.1
 31
0
  0
LINE
  8
0
 62
7
  6
DASHDOT
 10
0.9500000000000001
 20
10.8
 30
0
 11
0.9500000000000001
 21
10.85
 31
0
  0
LINE
  8
0
 62
7
  6
DASHDOT
 10
0.9500000000000001
 20
8.049999999999999
 30
0
 11
0.9500000000000001
 21
8.1
 31
0
  0
LINE
  8
0
 62
7
 10
4.960000000000001
 20
11.05
 30
0
 11
5.11
 21
11.05
 31
0
  0
LINE
  8
0
 62
7
 10
4.960000000000001
 20
11.05
 30
0
 11
4.960000000000001
 21
11.15
 31
0
  0
LINE
  8
0
 62
7
 10
4.960000000000001
 20
10.85
 30
0
 11
5.11
 21
10.85
 31
0
  0
LINE
  8
0
 62
7
 10
4.960000000000001
 20
8.299999999999999
 30
0
 11
5.11
 21
8.299999999999999
 31
0
  0
LINE
  8
0
 62
7
 10
4.960000000000001
 20
8.299999999999999
 30
0
 11
4.960000000000001
 21
8.399999999999999
 31
0
  0
LINE
  8
0
 62
7
 10
4.960000000000001
 20
8.1
 30
0
 11
5.11
 21
8.1
 31
0
  0
LINE
  8
0
 62
7
 10
4.960000000000001
 20
7.949999999999999
 30
0
 11
4.960000000000001
 21
8.1
 31
0
  0
LINE
  8
0
 62
7
 10
4.785
 20
11.05
 30
0
 11
4.960000000000001
 21
11.05
 31
0
  0
LINE
  8
0
 62
7
 10
4.785
 20
11.05
 30
0
 11
4.785
 21
11.15
 31
0
  0
LINE
  8
0
 62
7
 10
4.785
 20
10.85
 30
0
 11
4.960000000000001
 21
10.85
 31
0
  0
LINE
  8
0
 62
7
 10
4.785
 20
8.299999999999999
 30
0
 11
4.960000000000001
 21
8.299999999999999
 31
0
  0
LINE
  8
0
 62
7
 10
4.785
 20
8.299999999999999
 30
0
 11
4.785
 21
8.399999999999999
 31
0
  0
LINE
  8
0
 62
7
 10
4.785
 20
8.1
 30
0
 11
4.960000000000001
 21
8.1
 31
0
  0
LINE
  8
0
 62
7
 10
4.785
 20
7.949999999999999
 30
0
 11
4.785
 21
8.1
 31
0
  0
LINE
  8
0
 62
7
 10
1.275
 20
11.05
 30
0
 11
4.785
 21
11.05
 31
0
  0
LINE
  8
0
 62
7
 10
1.275
 20
11.05
 30
0
 11
1.275
 21
11.15
 31
0
  0
LINE
  8
0
 62
7
 10
1.275
 20
10.85
 30
0
 11
4.785
 21
10.85
 31
0
  0
LINE
  8
0
 62
7
 10
1.275
 20
8.299999999999999
 30
0
 11
4.785
 21
8.299999999999999
 31
0
  0
LINE
  8
0
 62
7
 10
1.275
 20
8.299999999999999
 30
0
 11
1.275
 21
8.399999999999999
 31
0
  0
LINE
  8
0
 62
7
 10
1.275
 20
8.1
 30
0
 11
4.785
 21
8.1
 31
0
  0
LINE
  8
0
 62
7
 10
1.275
 20
7.949999999999999
 30
0
 11
1.275
 21
8.1
 31
0
  0
LINE
  8
0
 62
7
 10
1.1
 20
11.05
 30
0
 11
1.275
 21
11.05
 31
0
  0
LINE
  8
0
 62
7
 10
1.1
 20
11.05
 30
0
 11
1.1
 21
11.15
 31
0
  0
LINE
  8
0
 62
7
 10
1.1
 20
10.85
 30
0
 11
1.275
 21
10.85
 31
0
  0
LINE
  8
0
 62
7
 10
1.1
 20
8.299999999999999
 30
0
 11
1.275
 21
8.299999999999999
 31
0
  0
LINE
  8
0
 62
7
 10
1.1
 20
8.299999999999999
 30
0
 11
1.1
 21
8.399999999999999
 31
0
  0
LINE
  8
0
 62
7
 10
1.1
 20
8.1
 30
0
 11
1.275
 21
8.1
 31
0
  0
LINE
  8
0
 62
7
 10
1.1
 20
7.949999999999999
 30
0
 11
1.1
 21
8.1
 31
0
  0
LINE
  8
0
 62
7
 10
0.9500000000000001
 20
11.05
 30
0
 11
1.1
 21
11.05
 31
0
  0
LINE
  8
0
 62
7
 10
0.9500000000000001
 20
10.85
 30
0
 11
1.1
 21
10.85
 31
0
  0
LINE
  8
0
 62
7
 10
0.9500000000000001
 20
8.299999999999999
 30
0
 11
1.1
 21
8.299999999999999
 31
0
  0
LINE
  8
0
 62
7
 10
0.9500000000000001
 20
8.1
 30
0
 11
1.1
 21
8.1
 31
0
  0
LINE
  8
0
 62
7
 10
2.147967135797241
 20
4.27012525028249
 30
0
 11
2.147967135797241
 21
4.39012525028249
 31
0
  0
LINE
  8
0
 62
7
 10
2.223567135797241
 20
4.39012525028249
 30
0
 11
2.169567135797241
 21
4.330125250282491
 31
0
  0
LINE
  8
0
 62
7
 10
2.169567135797241
 20
4.330125250282491
 30
0
 11
2.223567135797241
 21
4.27012525028249
 31
0
  0
LINE
  8
0
 62
7
 10
2.169567135797241
 20
4.330125250282491
 30
0
 11
2.147967135797241
 21
4.30612525028249
 31
0
  0
LINE
  8
0
 62
7
 10
2.331567135797241
 20
4.39012525028249
 30
0
 11
2.255967135797242
 21
4.39012525028249
 31
0
  0
LINE
  8
0
 62
7
 10
2.255967135797242
 20
4.39012525028249
 30
0
 11
2.255967135797242
 21
4.330125250282491
 31
0
  0
LINE
  8
0
 62
7
 10
2.255967135797242
 20
4.27012525028249
 30
0
 11
2.331567135797241
 21
4.27012525028249
 31
0
  0
LINE
  8
0
 62
7
 10
2.320767135797241
 20
4.330125250282491
 30
0
 11
2.255967135797242
 21
4.330125250282491
 31
0
  0
LINE
  8
0
 62
7
 10
2.255967135797242
 20
4.330125250282491
 30
0
 11
2.255967135797242
 21
4.27012525028249
 31
0
  0
LINE
  8
0
 62
7
 10
2.363967135797241
 20
4.27012525028249
 30
0
 11
2.363967135797241
 21
4.39012525028249
 31
0
  0
LINE
  8
0
 62
7
 10
2.363967135797241
 20
4.39012525028249
 30
0
 11
2.439567135797241
 21
4.27012525028249
 31
0
  0
LINE
  8
0
 62
7
 10
2.439567135797241
 20
4.27012525028249
 30
0
 11
2.439567135797241
 21
4.39012525028249
 31
0
  0
LINE
  8
0
 62
7
 10
2.471967135797241
 20
4.27012525028249
 30
0
 11
2.471967135797241
 21
4.39012525028249
 31
0
  0
LINE
  8
0
 62
7
 10
2.471967135797241
 20
4.39012525028249
 30
0
 11
2.547567135797241
 21
4.27012525028249
 31
0
  0
LINE
  8
0
 62
7
 10
2.547567135797241
 20
4.27012525028249
 30
0
 11
2.547567135797241
 21
4.39012525028249
 31
0
  0
LINE
  8
0
 62
7
 10
2.655567135797241
 20
4.354125250282491
 30
0
 11
2.652867135797242
 21
4.36612525028249
 31
0
  0
LINE
  8
0
 62
7
 10
2.652867135797242
 20
4.36612525028249
 30
0
 11
2.647467135797241
 21
4.37512525028249
 31
0
  0
LINE
  8
0
 62
7
 10
2.647467135797241
 20
4.37512525028249
 30
0
 11
2.642067135797242
 21
4.38112525028249
 31
0
  0
LINE
  8
0
 62
7
 10
2.642067135797242
 20
4.38112525028249
 30
0
 11
2.633967135797241
 21
4.38712525028249
 31
0
  0
LINE
  8
0
 62
7
 10
2.633967135797241
 20
4.38712525028249
 30
0
 11
2.625867135797241
 21
4.39012525028249
 31
0
  0
LINE
  8
0
 62
7
 10
2.625867135797241
 20
4.39012525028249
 30
0
 11
2.609667135797241
 21
4.39012525028249
 31
0
  0
LINE
  8
0
 62
7
 10
2.609667135797241
 20
4.39012525028249
 30
0
 11
2.601567135797241
 21
4.38712525028249
 31
0
  0
LINE
  8
0
 62
7
 10
2.601567135797241
 20
4.38712525028249
 30
0
 11
2.593467135797241
 21
4.38112525028249
 31
0
  0
LINE
  8
0
 62
7
 10
2.593467135797241
 20
4.38112525028249
 30
0
 11
2.588067135797241
 21
4.37512525028249
 31
0
  0
LINE
  8
0
 62
7
 10
2.588067135797241
 20
4.37512525028249
 30
0
 11
2.582667135797242
 21
4.36612525028249
 31
0
  0
LINE
  8
0
 62
7
 10
2.582667135797242
 20
4.36612525028249
 30
0
 11
2.579967135797241
 21
4.354125250282491
 31
0
  0
LINE
  8
0
 62
7
 10
2.579967135797241
 20
4.354125250282491
 30
0
 11
2.579967135797241
 21
4.30612525028249
 31
0
  0
LINE
  8
0
 62
7
 10
2.579967135797241
 20
4.30612525028249
 30
0
 11
2.582667135797242
 21
4.29412525028249
 31
0
  0
LINE
  8
0
 62
7
 10
2.582667135797242
 20
4.29412525028249
 30
0
 11
2.588067135797241
 21
4.28512525028249
 31
0
  0
LINE
  8
0
 62
7
 10
2.588067135797241
 20
4.28512525028249
 30
0
 11
2.593467135797241
 21
4.27912525028249
 31
0
  0
LINE
  8
0
 62
7
 10
2.593467135797241
 20
4.27912525028249
 30
0
 11
2.601567135797241
 21
4.27312525028249
 31
0
  0
LINE
  8
0
 62
7
 10
2.601567135797241
 20
4.27312525028249
 30
0
 11
2.609667135797241
 21
4.27012525028249
 31
0
  0
LINE
  8
0
 62
7
 10
2.609667135797241
 20
4.27012525028249
 30
0
 11
2.625867135797241
 21
4.27012525028249
 31
0
  0
LINE
  8
0
 62
7
 10
2.625867135797241
 20
4.27012525028249
 30
0
 11
2.633967135797241
 21
4.27312525028249
 31
0
  0
LINE
  8
0
 62
7
 10
2.633967135797241
 20
4.27312525028249
 30
0
 11
2.642067135797242
 21
4.27912525028249
 31
0
  0
LINE
  8
0
 62
7
 10
2.642067135797242
 20
4.27912525028249
 30
0
 11
2.647467135797241
 21
4.28512525028249
 31
0
  0
LINE
  8
0
 62
7
 10
2.647467135797241
 20
4.28512525028249
 30
0
 11
2.652867135797242
 21
4.29412525028249
 31
0
  0
LINE
  8
0
 62
7
 10
2.652867135797242
 20
4.29412525028249
 30
0
 11
2.655567135797241
 21
4.30612525028249
 31
0
  0
LINE
  8
0
 62
7
 10
2.655567135797241
 20
4.30612525028249
 30
0
 11
2.655567135797241
 21
4.330125250282491
 31
0
  0
LINE
  8
0
 62
7
 10
2.655567135797241
 20
4.330125250282491
 30
0
 11
2.623167135797241
 21
4.330125250282491
 31
0
  0
LINE
  8
0
 62
7
 10
2.733867135797241
 20
4.39012525028249
 30
0
 11
2.717667135797242
 21
4.39012525028249
 31
0
  0
LINE
  8
0
 62
7
 10
2.717667135797242
 20
4.39012525028249
 30
0
 11
2.709567135797242
 21
4.38712525028249
 31
0
  0
LINE
  8
0
 62
7
 10
2.709567135797242
 20
4.38712525028249
 30
0
 11
2.701467135797241
 21
4.38112525028249
 31
0
  0
LINE
  8
0
 62
7
 10
2.701467135797241
 20
4.38112525028249
 30
0
 11
2.696067135797241
 21
4.37512525028249
 31
0
  0
LINE
  8
0
 62
7
 10
2.696067135797241
 20
4.37512525028249
 30
0
 11
2.690667135797241
 21
4.36612525028249
 31
0
  0
LINE
  8
0
 62
7
 10
2.690667135797241
 20
4.36612525028249
 30
0
 11
2.687967135797241
 21
4.354125250282491
 31
0
  0
LINE
  8
0
 62
7
 10
2.687967135797241
 20
4.354125250282491
 30
0
 11
2.687967135797241
 21
4.30612525028249
 31
0
  0
LINE
  8
0
 62
7
 10
2.687967135797241
 20
4.30612525028249
 30
0
 11
2.690667135797241
 21
4.29412525028249
 31
0
  0
LINE
  8
0
 62
7
 10
2.690667135797241
 20
4.29412525028249
 30
0
 11
2.696067135797241
 21
4.28512525028249
 31
0
  0
LINE
  8
0
 62
7
 10
2.696067135797241
 20
4.28512525028249
 30
0
 11
2.701467135797241
 21
4.27912525028249
 31
0
  0
LINE
  8
0
 62
7
 10
2.701467135797241
 20
4.27912525028249
 30
0
 11
2.709567135797242
 21
4.27312525028249
 31
0
  0
LINE
  8
0
 62
7
 10
2.709567135797242
 20
4.27312525028249
 30
0
 11
2.717667135797242
 21
4.27012525028249
 31
0
  0
LINE
  8
0
 62
7
 10
2.717667135797242
 20
4.27012525028249
 30
0
 11
2.733867135797241
 21
4.27012525028249
 31
0
  0
LINE
  8
0
 62
7
 10
2.733867135797241
 20
4.27012525028249
 30
0
 11
2.741967135797241
 21
4.27312525028249
 31
0
  0
LINE
  8
0
 62
7
 10
2.741967135797241
 20
4.27312525028249
 30
0
 11
2.750067135797241
 21
4.27912525028249
 31
0
  0
LINE
  8
0
 62
7
 10
2.750067135797241
 20
4.27912525028249
 30
0
 11
2.755467135797241
 21
4.28512525028249
 31
0
  0
LINE
  8
0
 62
7
 10
2.755467135797241
 20
4.28512525028249
 30
0
 11
2.760867135797241
 21
4.29412525028249
 31
0
  0
LINE
  8
0
 62
7
 10
2.760867135797241
 20
4.29412525028249
 30
0
 11
2.763567135797241
 21
4.30612525028249
 31
0
  0
LINE
  8
0
 62
7
 10
2.763567135797241
 20
4.30612525028249
 30
0
 11
2.763567135797241
 21
4.354125250282491
 31
0
  0
LINE
  8
0
 62
7
 10
2.763567135797241
 20
4.354125250282491
 30
0
 11
2.760867135797241
 21
4.36612525028249
 31
0
  0
LINE
  8
0
 62
7
 10
2.760867135797241
 20
4.36612525028249
 30
0
 11
2.755467135797241
 21
4.37512525028249
 31
0
  0
LINE
  8
0
 62
7
 10
2.755467135797241
 20
4.37512525028249
 30
0
 11
2.750067135797241
 21
4.38112525028249
 31
0
  0
LINE
  8
0
 62
7
 10
2.750067135797241
 20
4.38112525028249
 30
0
 11
2.741967135797241
 21
4.38712525028249
 31
0
  0
LINE
  8
0
 62
7
 10
2.741967135797241
 20
4.38712525028249
 30
0
 11
2.733867135797241
 21
4.39012525028249
 31
0
  0
LINE
  8
0
 62
7
 10
2.785167135797241
 20
4.39012525028249
 30
0
 11
2.822967135797241
 21
4.39012525028249
 31
0
  0
LINE
  8
0
 62
7
 10
2.822967135797241
 20
4.39012525028249
 30
0
 11
2.822967135797241
 21
4.27012525028249
 31
0
  0
LINE
  8
0
 62
7
 10
2.822967135797241
 20
4.39012525028249
 30
0
 11
2.860767135797242
 21
4.39012525028249
 31
0
  0
LINE
  8
0
 62
7
 10
2.893167135797241
 20
4.39012525028249
 30
0
 11
2.930967135797241
 21
4.39012525028249
 31
0
  0
LINE
  8
0
 62
7
 10
2.930967135797241
 20
4.39012525028249
 30
0
 11
2.930967135797241
 21
4.27012525028249
 31
0
  0
LINE
  8
0
 62
7
 10
2.930967135797241
 20
4.39012525028249
 30
0
 11
2.968767135797241
 21
4.39012525028249
 31
0
  0
LINE
  8
0
 62
7
 10
3.087567135797241
 20
4.312125250282491
 30
0
 11
3.141567135797241
 21
4.312125250282491
 31
0
  0
LINE
  8
0
 62
7
 10
3.249567135797242
 20
4.39012525028249
 30
0
 11
3.287367135797242
 21
4.39012525028249
 31
0
  0
LINE
  8
0
 62
7
 10
3.287367135797242
 20
4.39012525028249
 30
0
 11
3.287367135797242
 21
4.27012525028249
 31
0
  0
LINE
  8
0
 62
7
 10
3.287367135797242
 20
4.39012525028249
 30
0
 11
3.325167135797242
 21
4.39012525028249
 31
0
  0
LINE
  8
0
 62
7
 10
3.357567135797242
 20
4.27012525028249
 30
0
 11
3.357567135797242
 21
4.39012525028249
 31
0
  0
LINE
  8
0
 62
7
 10
3.357567135797242
 20
4.39012525028249
 30
0
 11
3.408867135797242
 21
4.39012525028249
 31
0
  0
LINE
  8
0
 62
7
 10
3.408867135797242
 20
4.39012525028249
 30
0
 11
3.419667135797243
 21
4.38712525028249
 31
0
  0
LINE
  8
0
 62
7
 10
3.419667135797243
 20
4.38712525028249
 30
0
 11
3.427767135797242
 21
4.38112525028249
 31
0
  0
LINE
  8
0
 62
7
 10
3.427767135797242
 20
4.38112525028249
 30
0
 11
3.430467135797242
 21
4.37512525028249
 31
0
  0
LINE
  8
0
 62
7
 10
3.430467135797242
 20
4.37512525028249
 30
0
 11
3.433167135797241
 21
4.36612525028249
 31
0
  0
LINE
  8
0
 62
7
 10
3.433167135797241
 20
4.36612525028249
 30
0
 11
3.433167135797241
 21
4.354125250282491
 31
0
  0
LINE
  8
0
 62
7
 10
3.433167135797241
 20
4.354125250282491
 30
0
 11
3.430467135797242
 21
4.34512525028249
 31
0
  0
LINE
  8
0
 62
7
 10
3.430467135797242
 20
4.34512525028249
 30
0
 11
3.427767135797242
 21
4.33912525028249
 31
0
  0
LINE
  8
0
 62
7
 10
3.427767135797242
 20
4.33912525028249
 30
0
 11
3.419667135797243
 21
4.333125250282491
 31
0
  0
LINE
  8
0
 62
7
 10
3.419667135797243
 20
4.333125250282491
 30
0
 11
3.408867135797242
 21
4.330125250282491
 31
0
  0
LINE
  8
0
 62
7
 10
3.408867135797242
 20
4.330125250282491
 30
0
 11
3.400767135797242
 21
4.330125250282491
 31
0
  0
LINE
  8
0
 62
7
 10
3.400767135797242
 20
4.330125250282491
 30
0
 11
3.433167135797241
 21
4.27012525028249
 31
0
  0
LINE
  8
0
 62
7
 10
3.400767135797242
 20
4.330125250282491
 30
0
 11
3.357567135797242
 21
4.330125250282491
 31
0
  0
LINE
  8
0
 62
7
 10
3.530367135797242
 20
4.39012525028249
 30
0
 11
3.454767135797243
 21
4.39012525028249
 31
0
  0
LINE
  8
0
 62
7
 10
3.454767135797243
 20
4.39012525028249
 30
0
 11
3.454767135797243
 21
4.330125250282491
 31
0
  0
LINE
  8
0
 62
7
 10
3.454767135797243
 20
4.27012525028249
 30
0
 11
3.530367135797242
 21
4.27012525028249
 31
0
  0
LINE
  8
0
 62
7
 10
3.519567135797242
 20
4.330125250282491
 30
0
 11
3.454767135797243
 21
4.330125250282491
 31
0
  0
LINE
  8
0
 62
7
 10
3.454767135797243
 20
4.330125250282491
 30
0
 11
3.454767135797243
 21
4.27012525028249
 31
0
  0
LINE
  8
0
 62
7
 10
3.562767135797242
 20
4.27012525028249
 30
0
 11
3.562767135797242
 21
4.330125250282491
 31
0
  0
LINE
  8
0
 62
7
 10
3.562767135797242
 20
4.39012525028249
 30
0
 11
3.614067135797242
 21
4.39012525028249
 31
0
  0
LINE
  8
0
 62
7
 10
3.614067135797242
 20
4.39012525028249
 30
0
 11
3.624867135797242
 21
4.38712525028249
 31
0
  0
LINE
  8
0
 62
7
 10
3.624867135797242
 20
4.38712525028249
 30
0
 11
3.632967135797243
 21
4.38112525028249
 31
0
  0
LINE
  8
0
 62
7
 10
3.632967135797243
 20
4.38112525028249
 30
0
 11
3.635667135797241
 21
4.37512525028249
 31
0
  0
LINE
  8
0
 62
7
 10
3.635667135797241
 20
4.37512525028249
 30
0
 11
3.638367135797241
 21
4.36612525028249
 31
0
  0
LINE
  8
0
 62
7
 10
3.638367135797241
 20
4.36612525028249
 30
0
 11
3.638367135797241
 21
4.354125250282491
 31
0
  0
LINE
  8
0
 62
7
 10
3.638367135797241
 20
4.354125250282491
 30
0
 11
3.635667135797241
 21
4.34512525028249
 31
0
  0
LINE
  8
0
 62
7
 10
3.635667135797241
 20
4.34512525028249
 30
0
 11
3.632967135797243
 21
4.33912525028249
 31
0
  0
LINE
  8
0
 62
7
 10
3.632967135797243
 20
4.33912525028249
 30
0
 11
3.624867135797242
 21
4.333125250282491
 31
0
  0
LINE
  8
0
 62
7
 10
3.624867135797242
 20
4.333125250282491
 30
0
 11
3.614067135797242
 21
4.330125250282491
 31
0
  0
LINE
  8
0
 62
7
 10
3.614067135797242
 20
4.330125250282491
 30
0
 11
3.562767135797242
 21
4.330125250282491
 31
0
  0
LINE
  8
0
 62
7
 10
3.562767135797242
 20
4.330125250282491
 30
0
 11
3.562767135797242
 21
4.39012525028249
 31
0
  0
LINE
  8
0
 62
7
 10
3.659967135797241
 20
4.27012525028249
 30
0
 11
3.659967135797241
 21
4.330125250282491
 31
0
  0
LINE
  8
0
 62
7
 10
3.659967135797241
 20
4.39012525028249
 30
0
 11
3.711267135797241
 21
4.39012525028249
 31
0
  0
LINE
  8
0
 62
7
 10
3.711267135797241
 20
4.39012525028249
 30
0
 11
3.722067135797241
 21
4.38712525028249
 31
0
  0
LINE
  8
0
 62
7
 10
3.722067135797241
 20
4.38712525028249
 30
0
 11
3.730167135797242
 21
4.38112525028249
 31
0
  0
LINE
  8
0
 62
7
 10
3.730167135797242
 20
4.38112525028249
 30
0
 11
3.732867135797242
 21
4.37512525028249
 31
0
  0
LINE
  8
0
 62
7
 10
3.732867135797242
 20
4.37512525028249
 30
0
 11
3.735567135797242
 21
4.36612525028249
 31
0
  0
LINE
  8
0
 62
7
 10
3.735567135797242
 20
4.36612525028249
 30
0
 11
3.735567135797242
 21
4.354125250282491
 31
0
  0
LINE
  8
0
 62
7
 10
3.735567135797242
 20
4.354125250282491
 30
0
 11
3.732867135797242
 21
4.34512525028249
 31
0
  0
LINE
  8
0
 62
7
 10
3.732867135797242
 20
4.34512525028249
 30
0
 11
3.730167135797242
 21
4.33912525028249
 31
0
  0
LINE
  8
0
 62
7
 10
3.730167135797242
 20
4.33912525028249
 30
0
 11
3.722067135797241
 21
4.333125250282491
 31
0
  0
LINE
  8
0
 62
7
 10
3.722067135797241
 20
4.333125250282491
 30
0
 11
3.711267135797241
 21
4.330125250282491
 31
0
  0
LINE
  8
0
 62
7
 10
3.711267135797241
 20
4.330125250282491
 30
0
 11
3.659967135797241
 21
4.330125250282491
 31
0
  0
LINE
  8
0
 62
7
 10
3.659967135797241
 20
4.330125250282491
 30
0
 11
3.659967135797241
 21
4.39012525028249
 31
0
  0
LINE
  8
0
 62
7
 10
3.832767135797242
 20
4.39012525028249
 30
0
 11
3.757167135797243
 21
4.39012525028249
 31
0
  0
LINE
  8
0
 62
7
 10
3.757167135797243
 20
4.39012525028249
 30
0
 11
3.757167135797243
 21
4.330125250282491
 31
0
  0
LINE
  8
0
 62
7
 10
3.757167135797243
 20
4.27012525028249
 30
0
 11
3.832767135797242
 21
4.27012525028249
 31
0
  0
LINE
  8
0
 62
7
 10
3.821967135797243
 20
4.330125250282491
 30
0
 11
3.757167135797243
 21
4.330125250282491
 31
0
  0
LINE
  8
0
 62
7
 10
3.757167135797243
 20
4.330125250282491
 30
0
 11
3.757167135797243
 21
4.27012525028249
 31
0
  0
LINE
  8
0
 62
7
 10
0.625
 20
3.01
 30
0
 11
0.7006000000000001
 21
3.01
 31
0
  0
LINE
  8
0
 62
7
 10
0.7006000000000001
 20
3.01
 30
0
 11
0.625
 21
2.890000000000001
 31
0
  0
LINE
  8
0
 62
7
 10
0.625
 20
2.890000000000001
 30
0
 11
0.7006000000000001
 21
2.890000000000001
 31
0
  0
LINE
  8
0
 62
7
 10
0.7330000000000001
 20
2.992
 30
0
 11
0.7384000000000002
 21
3.001
 31
0
  0
LINE
  8
0
 62
7
 10
0.7384000000000002
 20
3.001
 30
0
 11
0.7465000000000001
 21
3.007
 31
0
  0
LINE
  8
0
 62
7
 10
0.7465000000000001
 20
3.007
 30
0
 11
0.7573000000000001
 21
3.01
 31
0
  0
LINE
  8
0
 62
7
 10
0.7573000000000001
 20
3.01
 30
0
 11
0.7735000000000002
 21
3.01
 31
0
  0
LINE
  8
0
 62
7
 10
0.7735000000000002
 20
3.01
 30
0
 11
0.7843000000000001
 21
3.007
 31
0
  0
LINE
  8
0
 62
7
 10
0.7843000000000001
 20
3.007
 30
0
 11
0.7924000000000002
 21
3.001
 31
0
  0
LINE
  8
0
 62
7
 10
0.7924000000000002
 20
3.001
 30
0
 11
0.7978000000000001
 21
2.992
 31
0
  0
LINE
  8
0
 62
7
 10
0.7978000000000001
 20
2.992
 30
0
 11
0.7978000000000001
 21
2.98
 31
0
  0
LINE
  8
0
 62
7
 10
0.7978000000000001
 20
2.98
 30
0
 11
0.7924000000000002
 21
2.968
 31
0
  0
LINE
  8
0
 62
7
 10
0.7924000000000002
 20
2.968
 30
0
 11
0.7330000000000001
 21
2.890000000000001
 31
0
  0
LINE
  8
0
 62
7
 10
0.7330000000000001
 20
2.890000000000001
 30
0
 11
0.7978000000000001
 21
2.890000000000001
 31
0
  0
LINE
  8
0
 62
7
 10
0.8302000000000002
 20
3.01
 30
0
 11
0.8680000000000002
 21
2.890000000000001
 31
0
  0
LINE
  8
0
 62
7
 10
0.8680000000000002
 20
2.890000000000001
 30
0
 11
0.9058000000000002
 21
3.01
 31
0
  0
LINE
  8
0
 62
7
 10
0.9382000000000001
 20
2.992
 30
0
 11
0.9436000000000002
 21
3.001
 31
0
  0
LINE
  8
0
 62
7
 10
0.9436000000000002
 20
3.001
 30
0
 11
0.9517000000000002
 21
3.007
 31
0
  0
LINE
  8
0
 62
7
 10
0.9517000000000002
 20
3.007
 30
0
 11
0.9625
 21
3.01
 31
0
  0
LINE
  8
0
 62
7
 10
0.9625
 20
3.01
 30
0
 11
0.9787000000000001
 21
3.01
 31
0
  0
LINE
  8
0
 62
7
 10
0.9787000000000001
 20
3.01
 30
0
 11
0.9868000000000001
 21
3.007
 31
0
  0
LINE
  8
0
 62
7
 10
0.9868000000000001
 20
3.007
 30
0
 11
0.9949000000000002
 21
3.001
 31
0
  0
LINE
  8
0
 62
7
 10
0.9949000000000002
 20
3.001
 30
0
 11
1.0003
 21
2.992
 31
0
  0
LINE
  8
0
 62
7
 10
1.0003
 20
2.992
 30
0
 11
1.003
 21
2.98
 31
0
  0
LINE
  8
0
 62
7
 10
1.003
 20
2.98
 30
0
 11
1.003
 21
2.971
 31
0
  0
LINE
  8
0
 62
7
 10
1.003
 20
2.971
 30
0
 11
1.0003
 21
2.962
 31
0
  0
LINE
  8
0
 62
7
 10
1.0003
 20
2.962
 30
0
 11
0.9949000000000002
 21
2.956
 31
0
  0
LINE
  8
0
 62
7
 10
0.9949000000000002
 20
2.956
 30
0
 11
0.9814000000000003
 21
2.95
 31
0
  0
LINE
  8
0
 62
7
 10
0.9625
 20
2.95
 30
0
 11
0.9814000000000003
 21
2.95
 31
0
  0
LINE
  8
0
 62
7
 10
0.9814000000000003
 20
2.95
 30
0
 11
0.9949000000000002
 21
2.944
 31
0
  0
LINE
  8
0
 62
7
 10
0.9949000000000002
 20
2.944
 30
0
 11
1.0003
 21
2.938
 31
0
  0
LINE
  8
0
 62
7
 10
1.0003
 20
2.938
 30
0
 11
1.003
 21
2.929
 31
0
  0
LINE
  8
0
 62
7
 10
1.003
 20
2.929
 30
0
 11
1.003
 21
2.92
 31
0
  0
LINE
  8
0
 62
7
 10
1.003
 20
2.92
 30
0
 11
1.0003
 21
2.908
 31
0
  0
LINE
  8
0
 62
7
 10
1.0003
 20
2.908
 30
0
 11
0.9949000000000002
 21
2.899
 31
0
  0
LINE
  8
0
 62
7
 10
0.9949000000000002
 20
2.899
 30
0
 11
0.9868000000000001
 21
2.893
 31
0
  0
LINE
  8
0
 62
7
 10
0.9868000000000001
 20
2.893
 30
0
 11
0.9787000000000001
 21
2.890000000000001
 31
0
  0
LINE
  8
0
 62
7
 10
0.9787000000000001
 20
2.890000000000001
 30
0
 11
0.9625
 21
2.890000000000001
 31
0
  0
LINE
  8
0
 62
7
 10
0.9625
 20
2.890000000000001
 30
0
 11
0.9517000000000002
 21
2.893
 31
0
  0
LINE
  8
0
 62
7
 10
0.9517000000000002
 20
2.893
 30
0
 11
0.9436000000000002
 21
2.899
 31
0
  0
LINE
  8
0
 62
7
 10
0.9436000000000002
 20
2.899
 30
0
 11
0.9382000000000001
 21
2.908
 31
0
  0
LINE
  8
0
 62
7
 10
1.0948
 20
3.01
 30
0
 11
1.0354
 21
3.01
 31
0
  0
LINE
  8
0
 62
7
 10
1.0354
 20
3.01
 30
0
 11
1.0354
 21
2.95
 31
0
  0
LINE
  8
0
 62
7
 10
1.0354
 20
2.95
 30
0
 11
1.0408
 21
2.959
 31
0
  0
LINE
  8
0
 62
7
 10
1.0408
 20
2.959
 30
0
 11
1.0489
 21
2.965
 31
0
  0
LINE
  8
0
 62
7
 10
1.0489
 20
2.965
 30
0
 11
1.0597
 21
2.968
 31
0
  0
LINE
  8
0
 62
7
 10
1.0597
 20
2.968
 30
0
 11
1.0759
 21
2.968
 31
0
  0
LINE
  8
0
 62
7
 10
1.0759
 20
2.968
 30
0
 11
1.084
 21
2.965
 31
0
  0
LINE
  8
0
 62
7
 10
1.084
 20
2.965
 30
0
 11
1.0921
 21
2.959
 31
0
  0
LINE
  8
0
 62
7
 10
1.0921
 20
2.959
 30
0
 11
1.0975
 21
2.95
 31
0
  0
LINE
  8
0
 62
7
 10
1.0975
 20
2.95
 30
0
 11
1.1002
 21
2.938
 31
0
  0
LINE
  8
0
 62
7
 10
1.1002
 20
2.938
 30
0
 11
1.1002
 21
2.92
 31
0
  0
LINE
  8
0
 62
7
 10
1.1002
 20
2.92
 30
0
 11
1.0975
 21
2.908
 31
0
  0
LINE
  8
0
 62
7
 10
1.0975
 20
2.908
 30
0
 11
1.0921
 21
2.899
 31
0
  0
LINE
  8
0
 62
7
 10
1.0921
 20
2.899
 30
0
 11
1.084
 21
2.893
 31
0
  0
LINE
  8
0
 62
7
 10
1.084
 20
2.893
 30
0
 11
1.0759
 21
2.890000000000001
 31
0
  0
LINE
  8
0
 62
7
 10
1.0759
 20
2.890000000000001
 30
0
 11
1.0597
 21
2.890000000000001
 31
0
  0
LINE
  8
0
 62
7
 10
1.0597
 20
2.890000000000001
 30
0
 11
1.0489
 21
2.893
 31
0
  0
LINE
  8
0
 62
7
 10
1.0489
 20
2.893
 30
0
 11
1.0408
 21
2.899
 31
0
  0
LINE
  8
0
 62
7
 10
1.0408
 20
2.899
 30
0
 11
1.0354
 21
2.908
 31
0
  0
LINE
  8
0
 62
7
 10
1.1326
 20
2.974
 30
0
 11
1.165
 21
3.01
 31
0
  0
LINE
  8
0
 62
7
 10
1.165
 20
3.01
 30
0
 11
1.165
 21
2.890000000000001
 31
0
  0
LINE
  8
0
 62
7
 10
1.2622
 20
2.890000000000001
 30
0
 11
1.1974
 21
2.890000000000001
 31
0
  0
LINE
  8
0
 62
7
 10
1.1974
 20
2.890000000000001
 30
0
 11
1.1974
 21
3.01
 31
0
  0
LINE
  8
0
 62
7
 10
1.2946
 20
2.938
 30
0
 11
1.2973
 21
2.95
 31
0
  0
LINE
  8
0
 62
7
 10
1.2973
 20
2.95
 30
0
 11
1.3027
 21
2.959
 31
0
  0
LINE
  8
0
 62
7
 10
1.3027
 20
2.959
 30
0
 11
1.3108
 21
2.965
 31
0
  0
LINE
  8
0
 62
7
 10
1.3108
 20
2.965
 30
0
 11
1.3189
 21
2.968
 31
0
  0
LINE
  8
0
 62
7
 10
1.3189
 20
2.968
 30
0
 11
1.3351
 21
2.968
 31
0
  0
LINE
  8
0
 62
7
 10
1.3351
 20
2.968
 30
0
 11
1.3432
 21
2.965
 31
0
  0
LINE
  8
0
 62
7
 10
1.3432
 20
2.965
 30
0
 11
1.3513
 21
2.959
 31
0
  0
LINE
  8
0
 62
7
 10
1.3513
 20
2.959
 30
0
 11
1.3567
 21
2.95
 31
0
  0
LINE
  8
0
 62
7
 10
1.3567
 20
2.95
 30
0
 11
1.3594
 21
2.938
 31
0
  0
LINE
  8
0
 62
7
 10
1.3594
 20
2.938
 30
0
 11
1.3594
 21
2.92
 31
0
  0
LINE
  8
0
 62
7
 10
1.3594
 20
2.92
 30
0
 11
1.3567
 21
2.908
 31
0
  0
LINE
  8
0
 62
7
 10
1.3567
 20
2.908
 30
0
 11
1.3513
 21
2.899
 31
0
  0
LINE
  8
0
 62
7
 10
1.3513
 20
2.899
 30
0
 11
1.3432
 21
2.893
 31
0
  0
LINE
  8
0
 62
7
 10
1.3432
 20
2.893
 30
0
 11
1.3351
 21
2.890000000000001
 31
0
  0
LINE
  8
0
 62
7
 10
1.3351
 20
2.890000000000001
 30
0
 11
1.3189
 21
2.890000000000001
 31
0
  0
LINE
  8
0
 62
7
 10
1.3189
 20
2.890000000000001
 30
0
 11
1.3108
 21
2.893
 31
0
  0
LINE
  8
0
 62
7
 10
1.3108
 20
2.893
 30
0
 11
1.3027
 21
2.899
 31
0
  0
LINE
  8
0
 62
7
 10
1.3027
 20
2.899
 30
0
 11
1.2973
 21
2.908
 31
0
  0
LINE
  8
0
 62
7
 10
1.2973
 20
2.908
 30
0
 11
1.2946
 21
2.92
 31
0
  0
LINE
  8
0
 62
7
 10
1.2946
 20
2.92
 30
0
 11
1.2946
 21
2.938
 31
0
  0
LINE
  8
0
 62
7
 10
1.2946
 20
2.98
 30
0
 11
1.2973
 21
2.992
 31
0
  0
LINE
  8
0
 62
7
 10
1.2973
 20
2.992
 30
0
 11
1.3027
 21
3.001
 31
0
  0
LINE
  8
0
 62
7
 10
1.3027
 20
3.001
 30
0
 11
1.3108
 21
3.007
 31
0
  0
LINE
  8
0
 62
7
 10
1.3108
 20
3.007
 30
0
 11
1.3189
 21
3.01
 31
0
  0
LINE
  8
0
 62
7
 10
1.3189
 20
3.01
 30
0
 11
1.3351
 21
3.01
 31
0
  0
LINE
  8
0
 62
7
 10
1.3351
 20
3.01
 30
0
 11
1.3432
 21
3.007
 31
0
  0
LINE
  8
0
 62
7
 10
1.3432
 20
3.007
 30
0
 11
1.3513
 21
3.001
 31
0
  0
LINE
  8
0
 62
7
 10
1.3513
 20
3.001
 30
0
 11
1.3567
 21
2.992
 31
0
  0
LINE
  8
0
 62
7
 10
1.2946
 20
2.938
 30
0
 11
1.2946
 21
2.98
 31
0
  0
LINE
  8
0
 62
7
 10
3.125
 20
2.890000000000001
 30
0
 11
3.125
 21
2.99
 31
0
  0
LINE
  8
0
 62
7
 10
3.125
 20
2.99
 30
0
 11
3.188
 21
2.890000000000001
 31
0
  0
LINE
  8
0
 62
7
 10
3.188
 20
2.890000000000001
 30
0
 11
3.188
 21
2.99
 31
0
  0
LINE
  8
0
 62
7
 10
3.269
 20
2.890000000000001
 30
0
 11
3.215
 21
2.890000000000001
 31
0
  0
LINE
  8
0
 62
7
 10
3.215
 20
2.890000000000001
 30
0
 11
3.215
 21
2.99
 31
0
  0
LINE
  8
0
 62
7
 10
3.296
 20
2.94
 30
0
 11
3.332
 21
2.94
 31
0
  0
LINE
  8
0
 62
7
 10
3.332
 20
2.94
 30
0
 11
3.3365
 21
2.94
 31
0
  0
LINE
  8
0
 62
7
 10
3.3365
 20
2.94
 30
0
 11
3.3455
 21
2.935
 31
0
  0
LINE
  8
0
 62
7
 10
3.3455
 20
2.935
 30
0
 11
3.35
 21
2.93
 31
0
  0
LINE
  8
0
 62
7
 10
3.35
 20
2.93
 30
0
 11
3.3545
 21
2.92
 31
0
  0
LINE
  8
0
 62
7
 10
3.3545
 20
2.92
 30
0
 11
3.3545
 21
2.91
 31
0
  0
LINE
  8
0
 62
7
 10
3.3545
 20
2.91
 30
0
 11
3.35
 21
2.9
 31
0
  0
LINE
  8
0
 62
7
 10
3.35
 20
2.9
 30
0
 11
3.3455
 21
2.895
 31
0
  0
LINE
  8
0
 62
7
 10
3.3455
 20
2.895
 30
0
 11
3.3365
 21
2.890000000000001
 31
0
  0
LINE
  8
0
 62
7
 10
3.3365
 20
2.890000000000001
 30
0
 11
3.296
 21
2.890000000000001
 31
0
  0
LINE
  8
0
 62
7
 10
3.296
 20
2.890000000000001
 30
0
 11
3.296
 21
2.94
 31
0
  0
LINE
  8
0
 62
7
 10
3.296
 20
2.99
 30
0
 11
3.32975
 21
2.99
 31
0
  0
LINE
  8
0
 62
7
 10
3.32975
 20
2.99
 30
0
 11
3.341000000000001
 21
2.9875
 31
0
  0
LINE
  8
0
 62
7
 10
3.341000000000001
 20
2.9875
 30
0
 11
3.34775
 21
2.98
 31
0
  0
LINE
  8
0
 62
7
 10
3.34775
 20
2.98
 30
0
 11
3.35
 21
2.97
 31
0
  0
LINE
  8
0
 62
7
 10
3.35
 20
2.97
 30
0
 11
3.35
 21
2.96
 31
0
  0
LINE
  8
0
 62
7
 10
3.35
 20
2.96
 30
0
 11
3.3455
 21
2.95
 31
0
  0
LINE
  8
0
 62
7
 10
3.3455
 20
2.95
 30
0
 11
3.338750000000001
 21
2.9425
 31
0
  0
LINE
  8
0
 62
7
 10
3.338750000000001
 20
2.9425
 30
0
 11
3.332
 21
2.94
 31
0
  0
LINE
  8
0
 62
7
 10
3.296
 20
2.94
 30
0
 11
3.296
 21
2.99
 31
0
  0
LINE
  8
0
 62
7
 10
3.49625
 20
2.9425
 30
0
 11
3.4895
 21
2.952500000000001
 31
0
  0
LINE
  8
0
 62
7
 10
3.4895
 20
2.952500000000001
 30
0
 11
3.48275
 21
2.9575
 31
0
  0
LINE
  8
0
 62
7
 10
3.48275
 20
2.9575
 30
0
 11
3.476
 21
2.96
 31
0
  0
LINE
  8
0
 62
7
 10
3.476
 20
2.96
 30
0
 11
3.467000000000001
 21
2.96
 31
0
  0
LINE
  8
0
 62
7
 10
3.467000000000001
 20
2.96
 30
0
 11
3.46025
 21
2.9575
 31
0
  0
LINE
  8
0
 62
7
 10
3.46025
 20
2.9575
 30
0
 11
3.4535
 21
2.952500000000001
 31
0
  0
LINE
  8
0
 62
7
 10
3.4535
 20
2.952500000000001
 30
0
 11
3.44675
 21
2.9425
 31
0
  0
LINE
  8
0
 62
7
 10
3.44675
 20
2.9425
 30
0
 11
3.4445
 21
2.935
 31
0
  0
LINE
  8
0
 62
7
 10
3.4445
 20
2.935
 30
0
 11
3.4445
 21
2.915
 31
0
  0
LINE
  8
0
 62
7
 10
3.4445
 20
2.915
 30
0
 11
3.44675
 21
2.9075
 31
0
  0
LINE
  8
0
 62
7
 10
3.44675
 20
2.9075
 30
0
 11
3.4535
 21
2.8975
 31
0
  0
LINE
  8
0
 62
7
 10
3.4535
 20
2.8975
 30
0
 11
3.46025
 21
2.8925
 31
0
  0
LINE
  8
0
 62
7
 10
3.46025
 20
2.8925
 30
0
 11
3.467000000000001
 21
2.890000000000001
 31
0
  0
LINE
  8
0
 62
7
 10
3.467000000000001
 20
2.890000000000001
 30
0
 11
3.476
 21
2.890000000000001
 31
0
  0
LINE
  8
0
 62
7
 10
3.476
 20
2.890000000000001
 30
0
 11
3.48275
 21
2.8925
 31
0
  0
LINE
  8
0
 62
7
 10
3.48275
 20
2.8925
 30
0
 11
3.4895
 21
2.8975
 31
0
  0
LINE
  8
0
 62
7
 10
3.4895
 20
2.8975
 30
0
 11
3.49625
 21
2.9075
 31
0
  0
LINE
  8
0
 62
7
 10
3.56825
 20
2.935
 30
0
 11
3.566000000000001
 21
2.9425
 31
0
  0
LINE
  8
0
 62
7
 10
3.566000000000001
 20
2.9425
 30
0
 11
3.55925
 21
2.952500000000001
 31
0
  0
LINE
  8
0
 62
7
 10
3.55925
 20
2.952500000000001
 30
0
 11
3.5525
 21
2.9575
 31
0
  0
LINE
  8
0
 62
7
 10
3.5525
 20
2.9575
 30
0
 11
3.54575
 21
2.96
 31
0
  0
LINE
  8
0
 62
7
 10
3.54575
 20
2.96
 30
0
 11
3.53675
 21
2.96
 31
0
  0
LINE
  8
0
 62
7
 10
3.53675
 20
2.96
 30
0
 11
3.530000000000001
 21
2.9575
 31
0
  0
LINE
  8
0
 62
7
 10
3.530000000000001
 20
2.9575
 30
0
 11
3.52325
 21
2.952500000000001
 31
0
  0
LINE
  8
0
 62
7
 10
3.52325
 20
2.952500000000001
 30
0
 11
3.5165
 21
2.9425
 31
0
  0
LINE
  8
0
 62
7
 10
3.5165
 20
2.9425
 30
0
 11
3.51425
 21
2.935
 31
0
  0
LINE
  8
0
 62
7
 10
3.51425
 20
2.935
 30
0
 11
3.51425
 21
2.915
 31
0
  0
LINE
  8
0
 62
7
 10
3.51425
 20
2.915
 30
0
 11
3.5165
 21
2.9075
 31
0
  0
LINE
  8
0
 62
7
 10
3.5165
 20
2.9075
 30
0
 11
3.52325
 21
2.8975
 31
0
  0
LINE
  8
0
 62
7
 10
3.52325
 20
2.8975
 30
0
 11
3.530000000000001
 21
2.8925
 31
0
  0
LINE
  8
0
 62
7
 10
3.530000000000001
 20
2.8925
 30
0
 11
3.53675
 21
2.890000000000001
 31
0
  0
LINE
  8
0
 62
7
 10
3.53675
 20
2.890000000000001
 30
0
 11
3.54575
 21
2.890000000000001
 31
0
  0
LINE
  8
0
 62
7
 10
3.54575
 20
2.890000000000001
 30
0
 11
3.5525
 21
2.8925
 31
0
  0
LINE
  8
0
 62
7
 10
3.5525
 20
2.8925
 30
0
 11
3.55925
 21
2.8975
 31
0
  0
LINE
  8
0
 62
7
 10
3.55925
 20
2.8975
 30
0
 11
3.566000000000001
 21
2.9075
 31
0
  0
LINE
  8
0
 62
7
 10
3.566000000000001
 20
2.9075
 30
0
 11
3.56825
 21
2.915
 31
0
  0
LINE
  8
0
 62
7
 10
3.56825
 20
2.96
 30
0
 11
3.56825
 21
2.935
 31
0
  0
LINE
  8
0
 62
7
 10
3.56825
 20
2.8925
 30
0
 11
3.5705
 21
2.890000000000001
 31
0
  0
LINE
  8
0
 62
7
 10
3.5705
 20
2.890000000000001
 30
0
 11
3.57275
 21
2.890000000000001
 31
0
  0
LINE
  8
0
 62
7
 10
3.56825
 20
2.915
 30
0
 11
3.56825
 21
2.8925
 31
0
  0
LINE
  8
0
 62
7
 10
3.56825
 20
2.935
 30
0
 11
3.56825
 21
2.915
 31
0
  0
LINE
  8
0
 62
7
 10
3.59075
 20
2.890000000000001
 30
0
 11
3.59075
 21
2.8925
 31
0
  0
LINE
  8
0
 62
7
 10
3.59075
 20
2.8925
 30
0
 11
3.593
 21
2.8925
 31
0
  0
LINE
  8
0
 62
7
 10
3.593
 20
2.8925
 30
0
 11
3.593
 21
2.890000000000001
 31
0
  0
LINE
  8
0
 62
7
 10
3.593
 20
2.890000000000001
 30
0
 11
3.59075
 21
2.890000000000001
 31
0
  0
LINE
  8
0
 62
7
 10
3.716750000000001
 20
2.99
 30
0
 11
3.72575
 21
2.99
 31
0
  0
LINE
  8
0
 62
7
 10
3.72575
 20
2.99
 30
0
 11
3.7325
 21
2.9875
 31
0
  0
LINE
  8
0
 62
7
 10
3.7325
 20
2.9875
 30
0
 11
3.737
 21
2.9825
 31
0
  0
LINE
  8
0
 62
7
 10
3.737
 20
2.9825
 30
0
 11
3.7415
 21
2.975
 31
0
  0
LINE
  8
0
 62
7
 10
3.7415
 20
2.975
 30
0
 11
3.7415
 21
2.965
 31
0
  0
LINE
  8
0
 62
7
 10
3.7415
 20
2.965
 30
0
 11
3.73925
 21
2.96
 31
0
  0
LINE
  8
0
 62
7
 10
3.73925
 20
2.96
 30
0
 11
3.7325
 21
2.952500000000001
 31
0
  0
LINE
  8
0
 62
7
 10
3.7325
 20
2.952500000000001
 30
0
 11
3.72575
 21
2.95
 31
0
  0
LINE
  8
0
 62
7
 10
3.72575
 20
2.95
 30
0
 11
3.716750000000001
 21
2.95
 31
0
  0
LINE
  8
0
 62
7
 10
3.716750000000001
 20
2.95
 30
0
 11
3.71
 21
2.952500000000001
 31
0
  0
LINE
  8
0
 62
7
 10
3.71
 20
2.952500000000001
 30
0
 11
3.70325
 21
2.96
 31
0
  0
LINE
  8
0
 62
7
 10
3.70325
 20
2.96
 30
0
 11
3.701
 21
2.965
 31
0
  0
LINE
  8
0
 62
7
 10
3.701
 20
2.965
 30
0
 11
3.701
 21
2.975
 31
0
  0
LINE
  8
0
 62
7
 10
3.701
 20
2.975
 30
0
 11
3.7055
 21
2.9825
 31
0
  0
LINE
  8
0
 62
7
 10
3.7055
 20
2.9825
 30
0
 11
3.71
 21
2.9875
 31
0
  0
LINE
  8
0
 62
7
 10
3.71
 20
2.9875
 30
0
 11
3.716750000000001
 21
2.99
 31
0
  0
LINE
  8
0
 62
7
 10
3.716750000000001
 20
2.95
 30
0
 11
3.7055
 21
2.945
 31
0
  0
LINE
  8
0
 62
7
 10
3.7055
 20
2.945
 30
0
 11
3.69875
 21
2.9375
 31
0
  0
LINE
  8
0
 62
7
 10
3.69875
 20
2.9375
 30
0
 11
3.69425
 21
2.9275
 31
0
  0
LINE
  8
0
 62
7
 10
3.69425
 20
2.9275
 30
0
 11
3.69425
 21
2.9125
 31
0
  0
LINE
  8
0
 62
7
 10
3.69425
 20
2.9125
 30
0
 11
3.69875
 21
2.9025
 31
0
  0
LINE
  8
0
 62
7
 10
3.69875
 20
2.9025
 30
0
 11
3.7055
 21
2.895
 31
0
  0
LINE
  8
0
 62
7
 10
3.7055
 20
2.895
 30
0
 11
3.714500000000001
 21
2.890000000000001
 31
0
  0
LINE
  8
0
 62
7
 10
3.714500000000001
 20
2.890000000000001
 30
0
 11
3.728
 21
2.890000000000001
 31
0
  0
LINE
  8
0
 62
7
 10
3.728
 20
2.890000000000001
 30
0
 11
3.737
 21
2.895
 31
0
  0
LINE
  8
0
 62
7
 10
3.737
 20
2.895
 30
0
 11
3.74375
 21
2.9025
 31
0
  0
LINE
  8
0
 62
7
 10
3.74375
 20
2.9025
 30
0
 11
3.748250000000001
 21
2.9125
 31
0
  0
LINE
  8
0
 62
7
 10
3.748250000000001
 20
2.9125
 30
0
 11
3.748250000000001
 21
2.9275
 31
0
  0
LINE
  8
0
 62
7
 10
3.748250000000001
 20
2.9275
 30
0
 11
3.74375
 21
2.9375
 31
0
  0
LINE
  8
0
 62
7
 10
3.74375
 20
2.9375
 30
0
 11
3.737
 21
2.945
 31
0
  0
LINE
  8
0
 62
7
 10
3.737
 20
2.945
 30
0
 11
3.72575
 21
2.95
 31
0
  0
LINE
  8
0
 62
7
 10
3.83825
 20
2.95
 30
0
 11
3.836
 21
2.94
 31
0
  0
LINE
  8
0
 62
7
 10
3.836
 20
2.94
 30
0
 11
3.8315
 21
2.9325
 31
0
  0
LINE
  8
0
 62
7
 10
3.8315
 20
2.9325
 30
0
 11
3.82475
 21
2.9275
 31
0
  0
LINE
  8
0
 62
7
 10
3.82475
 20
2.9275
 30
0
 11
3.818
 21
2.925
 31
0
  0
LINE
  8
0
 62
7
 10
3.818
 20
2.925
 30
0
 11
3.8045
 21
2.925
 31
0
  0
LINE
  8
0
 62
7
 10
3.8045
 20
2.925
 30
0
 11
3.79775
 21
2.9275
 31
0
  0
LINE
  8
0
 62
7
 10
3.79775
 20
2.9275
 30
0
 11
3.791
 21
2.9325
 31
0
  0
LINE
  8
0
 62
7
 10
3.791
 20
2.9325
 30
0
 11
3.7865
 21
2.94
 31
0
  0
LINE
  8
0
 62
7
 10
3.7865
 20
2.94
 30
0
 11
3.78425
 21
2.95
 31
0
  0
LINE
  8
0
 62
7
 10
3.78425
 20
2.95
 30
0
 11
3.78425
 21
2.965
 31
0
  0
LINE
  8
0
 62
7
 10
3.78425
 20
2.965
 30
0
 11
3.7865
 21
2.975
 31
0
  0
LINE
  8
0
 62
7
 10
3.7865
 20
2.975
 30
0
 11
3.791
 21
2.9825
 31
0
  0
LINE
  8
0
 62
7
 10
3.791
 20
2.9825
 30
0
 11
3.79775
 21
2.9875
 31
0
  0
LINE
  8
0
 62
7
 10
3.79775
 20
2.9875
 30
0
 11
3.8045
 21
2.99
 31
0
  0
LINE
  8
0
 62
7
 10
3.8045
 20
2.99
 30
0
 11
3.818
 21
2.99
 31
0
  0
LINE
  8
0
 62
7
 10
3.818
 20
2.99
 30
0
 11
3.82475
 21
2.9875
 31
0
  0
LINE
  8
0
 62
7
 10
3.82475
 20
2.9875
 30
0
 11
3.8315
 21
2.9825
 31
0
  0
LINE
  8
0
 62
7
 10
3.8315
 20
2.9825
 30
0
 11
3.836
 21
2.975
 31
0
  0
LINE
  8
0
 62
7
 10
3.836
 20
2.975
 30
0
 11
3.83825
 21
2.965
 31
0
  0
LINE
  8
0
 62
7
 10
3.83825
 20
2.965
 30
0
 11
3.83825
 21
2.95
 31
0
  0
LINE
  8
0
 62
7
 10
3.83825
 20
2.915
 30
0
 11
3.836
 21
2.905
 31
0
  0
LINE
  8
0
 62
7
 10
3.836
 20
2.905
 30
0
 11
3.8315
 21
2.8975
 31
0
  0
LINE
  8
0
 62
7
 10
3.8315
 20
2.8975
 30
0
 11
3.82475
 21
2.8925
 31
0
  0
LINE
  8
0
 62
7
 10
3.82475
 20
2.8925
 30
0
 11
3.818
 21
2.890000000000001
 31
0
  0
LINE
  8
0
 62
7
 10
3.818
 20
2.890000000000001
 30
0
 11
3.8045
 21
2.890000000000001
 31
0
  0
LINE
  8
0
 62
7
 10
3.8045
 20
2.890000000000001
 30
0
 11
3.79775
 21
2.8925
 31
0
  0
LINE
  8
0
 62
7
 10
3.79775
 20
2.8925
 30
0
 11
3.791
 21
2.8975
 31
0
  0
LINE
  8
0
 62
7
 10
3.791
 20
2.8975
 30
0
 11
3.7865
 21
2.905
 31
0
  0
LINE
  8
0
 62
7
 10
3.83825
 20
2.95
 30
0
 11
3.83825
 21
2.915
 31
0
  0
LINE
  8
0
 62
7
 10
3.989
 20
2.9425
 30
0
 11
3.98225
 21
2.952500000000001
 31
0
  0
LINE
  8
0
 62
7
 10
3.98225
 20
2.952500000000001
 30
0
 11
3.9755
 21
2.9575
 31
0
  0
LINE
  8
0
 62
7
 10
3.9755
 20
2.9575
 30
0
 11
3.96875
 21
2.96
 31
0
  0
LINE
  8
0
 62
7
 10
3.96875
 20
2.96
 30
0
 11
3.959750000000001
 21
2.96
 31
0
  0
LINE
  8
0
 62
7
 10
3.959750000000001
 20
2.96
 30
0
 11
3.953
 21
2.9575
 31
0
  0
LINE
  8
0
 62
7
 10
3.953
 20
2.9575
 30
0
 11
3.94625
 21
2.952500000000001
 31
0
  0
LINE
  8
0
 62
7
 10
3.94625
 20
2.952500000000001
 30
0
 11
3.939500000000001
 21
2.9425
 31
0
  0
LINE
  8
0
 62
7
 10
3.939500000000001
 20
2.9425
 30
0
 11
3.937250000000001
 21
2.935
 31
0
  0
LINE
  8
0
 62
7
 10
3.937250000000001
 20
2.935
 30
0
 11
3.937250000000001
 21
2.915
 31
0
  0
LINE
  8
0
 62
7
 10
3.937250000000001
 20
2.915
 30
0
 11
3.939500000000001
 21
2.9075
 31
0
  0
LINE
  8
0
 62
7
 10
3.939500000000001
 20
2.9075
 30
0
 11
3.94625
 21
2.8975
 31
0
  0
LINE
  8
0
 62
7
 10
3.94625
 20
2.8975
 30
0
 11
3.953
 21
2.8925
 31
0
  0
LINE
  8
0
 62
7
 10
3.953
 20
2.8925
 30
0
 11
3.959750000000001
 21
2.890000000000001
 31
0
  0
LINE
  8
0
 62
7
 10
3.959750000000001
 20
2.890000000000001
 30
0
 11
3.96875
 21
2.890000000000001
 31
0
  0
LINE
  8
0
 62
7
 10
3.96875
 20
2.890000000000001
 30
0
 11
3.9755
 21
2.8925
 31
0
  0
LINE
  8
0
 62
7
 10
3.9755
 20
2.8925
 30
0
 11
3.98225
 21
2.8975
 31
0
  0
LINE
  8
0
 62
7
 10
3.98225
 20
2.8975
 30
0
 11
3.989
 21
2.9075
 31
0
  0
LINE
  8
0
 62
7
 10
4.0475
 20
2.935
 30
0
 11
4.0475
 21
2.890000000000001
 31
0
  0
LINE
  8
0
 62
7
 10
4.007000000000001
 20
2.96
 30
0
 11
4.007000000000001
 21
2.935
 31
0
  0
LINE
  8
0
 62
7
 10
4.007000000000001
 20
2.890000000000001
 30
0
 11
4.007000000000001
 21
2.935
 31
0
  0
LINE
  8
0
 62
7
 10
4.007000000000001
 20
2.935
 30
0
 11
4.009250000000001
 21
2.9475
 31
0
  0
LINE
  8
0
 62
7
 10
4.009250000000001
 20
2.9475
 30
0
 11
4.011500000000001
 21
2.952500000000001
 31
0
  0
LINE
  8
0
 62
7
 10
4.011500000000001
 20
2.952500000000001
 30
0
 11
4.016000000000001
 21
2.9575
 31
0
  0
LINE
  8
0
 62
7
 10
4.016000000000001
 20
2.9575
 30
0
 11
4.02275
 21
2.96
 31
0
  0
LINE
  8
0
 62
7
 10
4.02275
 20
2.96
 30
0
 11
4.031750000000001
 21
2.96
 31
0
  0
LINE
  8
0
 62
7
 10
4.031750000000001
 20
2.96
 30
0
 11
4.0385
 21
2.9575
 31
0
  0
LINE
  8
0
 62
7
 10
4.0385
 20
2.9575
 30
0
 11
4.043
 21
2.952500000000001
 31
0
  0
LINE
  8
0
 62
7
 10
4.043
 20
2.952500000000001
 30
0
 11
4.04525
 21
2.9475
 31
0
  0
LINE
  8
0
 62
7
 10
4.04525
 20
2.9475
 30
0
 11
4.0475
 21
2.935
 31
0
  0
LINE
  8
0
 62
7
 10
4.0475
 20
2.935
 30
0
 11
4.04975
 21
2.9475
 31
0
  0
LINE
  8
0
 62
7
 10
4.04975
 20
2.9475
 30
0
 11
4.052
 21
2.952500000000001
 31
0
  0
LINE
  8
0
 62
7
 10
4.052
 20
2.952500000000001
 30
0
 11
4.0565
 21
2.9575
 31
0
  0
LINE
  8
0
 62
7
 10
4.0565
 20
2.9575
 30
0
 11
4.06325
 21
2.96
 31
0
  0
LINE
  8
0
 62
7
 10
4.06325
 20
2.96
 30
0
 11
4.07225
 21
2.96
 31
0
  0
LINE
  8
0
 62
7
 10
4.07225
 20
2.96
 30
0
 11
4.079
 21
2.9575
 31
0
  0
LINE
  8
0
 62
7
 10
4.0835
 20
2.952500000000001
 30
0
 11
4.079
 21
2.9575
 31
0
  0
LINE
  8
0
 62
7
 10
4.079
 20
2.9575
 30
0
 11
4.0835
 21
2.952500000000001
 31
0
  0
LINE
  8
0
 62
7
 10
4.0835
 20
2.952500000000001
 30
0
 11
4.08575
 21
2.9475
 31
0
  0
LINE
  8
0
 62
7
 10
4.08575
 20
2.9475
 30
0
 11
4.088
 21
2.935
 31
0
  0
LINE
  8
0
 62
7
 10
4.088
 20
2.935
 30
0
 11
4.088
 21
2.890000000000001
 31
0
  0
ARC
  8
0
 62
7
 10
3.780238643883218
 20
3.59523864388322
 30
0
 40
0.5139999999999986
 50
359.9733982717448
 51
90.02660172833959
  0
ARC
  8
0
 62
7
 10
2.27976135611678
 20
3.59523864388319
 30
0
 40
0.5140000000000006
 50
89.97339827870402
 51
180.0266017283365
  0
CIRCLE
  8
0
 62
7
 10
4.294238588483498
 20
3.25
 30
0
 40
0.05999999999999961
  0
DIMENSION
  8
0
  6
CONTINUOUS
 62
7
  2
*D0
  3
DMST_1
 10
0.7564591670925161
 20
3.35
 30
0
 11
0.7564591670925161
 21
3.95076510304887
 31
0
 12
0
 22
0
 32
0
 70
0
 13
1.1
 23
4.600000000000001
 33
0
 14
1.1
 24
3.35
 34
0
 50
90
 53
0
  0
DIMENSION
  8
0
  6
CONTINUOUS
 62
7
  2
*D1
  3
DMST_1
 10
1.275000000000001
 20
5.440350141372831
 30
0
 11
2.973515968318861
 21
5.440350141372831
 31
0
 12
0
 22
0
 32
0
 70
0
 13
4.785
 23
5.119999999999997
 33
0
 14
1.275
 24
5.119999999999997
 34
0
 53
0
  0
DIMENSION
  8
0
  6
CONTINUOUS
 62
7
  2
*D2
  3
DMST_1
 10
5.329138819621861
 20
3.25
 30
0
 11
5.329138819621861
 21
3.90457641968999
 31
0
 12
0
 22
0
 32
0
 70
0
 13
4.960000000000001
 23
4.600000000000001
 33
0
 14
4.960000000000001
 24
3.25
 34
0
 50
90
 53
0
  0
DIMENSION
  8
0
  6
CONTINUOUS
 62
7
  2
*D3
  3
DMST_2
 10
4.785
 20
11.5141620030658
 30
0
 11
3.12362918923523
 21
11.5141620030658
 31
0
 12
0
 22
0
 32
0
 70
0
 13
1.275
 23
11.2
 33
0
 14
4.785
 24
11.2
 34
0
 53
0
  0
INSERT
  8
0
  2
*D4
 10
0
 20
0
 30
0
  0
ENDSEC
  0
EOF
