  0
SECTION
  2
HEADER
  9
$ACADVER
  1
AC1009
  9
$INSBASE
 10
0
 20
0
  9
$EXTMIN
 10
0.45
 20
2.890000000000001
  9
$EXTMAX
 10
8.331691524672429
 20
11.5460676613865
  9
$LIMMIN
 10
0.45
 20
2.890000000000001
  9
$LIMMAX
 10
8.331691524672429
 20
11.5460676613865
  9
$VIEWCTR
 10
10
 20
10
  9
$VIEWSIZE
 40
10
  9
$SNAPMODE
 70
0
  9
$SNAPUNIT
 10
1
 20
1
  9
$SNAPBASE
 10
0
 20
0
  9
$SNAPANG
 50
0
  9
$SNAPSTYLE
 70
0
  9
$SNAPISOPAIR
 70
0
  9
$GRIDMODE
 70
0
  9
$GRIDUNIT
 10
0
 20
0
  9
$ORTHOMODE
 70
0
  9
$REGENMODE
 70
1
  9
$FILLMODE
 70
1
  9
$QTEXTMODE
 70
0
  9
$DRAGMODE
 70
2
  9
$LTSCALE
 40
1
  9
$OSMODE
 70
0
  9
$ATTMODE
 70
1
  9
$TEXTSIZE
 40
3.5
  9
$TRACEWID
 40
0.5
  9
$TEXTSTYLE
  7
STANDARD
  9
$CLAYER
  8
0
  9
$CELTYPE
  6
BYLAYER
  9
$CECOLOR
 62
256
  9
$DIMSCALE
 40
1
  9
$DIMASZ
 40
0.18
  9
$DIMEXO
 40
0.0625
  9
$DIMDLI
 40
0.38
  9
$DIMRND
 40
0
  9
$DIMDLE
 40
0
  9
$DIMEXE
 40
0.18
  9
$DIMTP
 40
0
  9
$DIMTM
 40
0
  9
$DIMTXT
 40
0.18
  9
$DIMCEN
 40
0.09
  9
$DIMTSZ
 40
0
  9
$DIMTOL
 70
0
  9
$DIMLIM
 70
0
  9
$DIMTIH
 70
1
  9
$DIMTOH
 70
1
  9
$DIMSE1
 70
0
  9
$DIMSE2
 70
0
  9
$DIMTAD
 70
0
  9
$DIMZIN
 70
0
  9
$DIMBLK
  1

  9
$DIMASO
 70
1
  9
$DIMSHO
 70
1
  9
$DIMPOST
  1

  9
$DIMAPOST
  1

  9
$DIMALT
 70
0
  9
$DIMALTD
 70
2
  9
$DIMALTF
 40
25.4
  9
$DIMLFAC
 40
1
  9
$DIMTOFL
 70
0
  9
$DIMTVP
 40
0
  9
$DIMTIX
 70
0
  9
$DIMSOXD
 70
0
  9
$DIMSAH
 70
0
  9
$DIMBLK1
  1

  9
$DIMBLK2
  1

  9
$DIMSTYLE
  2
*UNNAMED
  9
$DIMCLRD
 70
0
  9
$DIMCLRE
 70
0
  9
$DIMCLRT
 70
0
  9
$DIMTFAC
 40
1
  9
$DIMGAP
 40
0.09
  9
$LUNITS
 70
2
  9
$LUPREC
 70
4
  9
$AXISMODE
 70
0
  9
$AXISUNIT
 10
0
 20
0
  9
$SKETCHINC
 40
0.1
  9
$FILLETRAD
 40
2
  9
$AUNITS
 70
0
  9
$AUPREC
 70
0
  9
$MENU
  1
ACAD
  9
$ELEVATION
 40
0
  9
$THICKNESS
 40
0
  9
$VIEWDIR
 10
0
 20
0
 30
1
  9
$LIMCHECK
 70
0
  9
$BLIPMODE
 70
1
  9
$CHAMFERA
 40
0
  9
$CHAMFERB
 40
0
  9
$FASTZOOM
 70
1
  9
$SKPOLY
 70
0
  9
$ANGBASE
 50
0
  9
$ANGDIR
 70
0
  9
$PDMODE
 70
0
  9
$PDSIZE
 40
0
  9
$PLINEWID
 40
0
  9
$COORDS
 70
2
  0
ENDSEC
  0
SECTION
  2
TABLES
  0
TABLE
  2
DIMSTYLE
 70
2
  0
DIMSTYLE
  2
DMST_1
 70
0
  3

  4

  5

  6

  7

 40
1
 41
0.1
 42
0
 43
0.7
 44
0.2
 45
0
 46
0
 47
0
 48
0
140
0.1
141
0
142
0.1
143
25.4
144
1
145
0
146
1
147
0.25
 71
0
 72
0
 73
0
 74
0
 75
0
 76
0
 77
0
 78
9
170
0
171
2
172
0
173
0
174
0
175
0
176
7
177
7
178
7
  0
DIMSTYLE
  2
DMST_2
 70
0
  3

  4

  5

  6

  7

 40
1
 41
0.1
 42
0
 43
0.7
 44
0.2
 45
0
 46
0
 47
0
 48
0
140
0.1
141
0
142
0.1
143
25.4
144
1
145
0
146
1
147
0.2
 71
0
 72
0
 73
0
 74
0
 75
0
 76
0
 77
0
 78
9
170
0
171
2
172
0
173
0
174
0
175
0
176
7
177
7
178
7
  0
ENDTAB
  0
TABLE
  2
LTYPE
 70
9
  0
LTYPE
  2
CONTINUOUS
 70
64
  3
Solid line
 72
65
 73
0
 40
0
  0
LTYPE
  2
BORDER
 70
64
  3
__ __ . __ __ .
 72
65
 73
6
 40
0.398634694932273
 49
0.1138956271235066
 49
-0.05694781356175329
 49
0.1138956271235066
 49
-0.05694781356175329
 49
0
 49
-0.05694781356175329
  0
LTYPE
  2
CENTER
 70
64
  3
____ _ ____ _
 72
65
 73
4
 40
0.4555825084940263
 49
0.2847390678087665
 49
-0.05694781356175329
 49
0.05694781356175329
 49
-0.05694781356175329
  0
LTYPE
  2
DASHDOT
 70
64
  3
__ . __ . __ .
 72
65
 73
4
 40
0.2277912542470132
 49
0.1138956271235066
 49
-0.05694781356175329
 49
0
 49
-0.05694781356175329
  0
LTYPE
  2
DASHED
 70
64
  3
__ __ __ __ __
 72
65
 73
2
 40
0.1708434406852599
 49
0.1138956271235066
 49
-0.05694781356175329
  0
LTYPE
  2
DIVIDE
 70
64
  3
__ . . __ . . 
 72
65
 73
6
 40
0.2847390678087665
 49
0.1138956271235066
 49
-0.05694781356175329
 49
0
 49
-0.05694781356175329
 49
0
 49
-0.05694781356175329
  0
LTYPE
  2
DOT
 70
64
  3
..............
 72
65
 73
4
 40
0.1138956271235066
 49
0
 49
-0.05694781356175329
 49
0
 49
-0.05694781356175329
  0
LTYPE
  2
HIDDEN
 70
64
  3
_ _ _ _ _ _ _
 72
65
 73
2
 40
0.08542172034262993
 49
0.05694781356175329
 49
-0.02847390678087664
  0
LTYPE
  2
PHANTOM
 70
64
  3
_____ _ _ _____ _ _ 
 72
65
 73
6
 40
0.5694781356175329
 49
0.2847390678087665
 49
-0.05694781356175329
 49
0.05694781356175329
 49
-0.05694781356175329
 49
0.05694781356175329
 49
-0.05694781356175329
  0
ENDTAB
  0
TABLE
  2
LAYER
 70
2
  0
LAYER
  2
0
 70
0
 62
7
  6
CONTINUOUS
  0
ENDTAB
  0
TABLE
  2
STYLE
 70
4
  0
STYLE
  2
STANDARD
 70
0
 40
0
 41
1
 50
0
 71
0
 42
3.5
  3
txt
  4

  0
STYLE
  2
SIMPLEX
 70
0
 40
0
 41
1
 50
0
 71
0
 42
3.5
  3
simplex
  4

  0
STYLE
  2
COMPLEX
 70
0
 40
0
 41
1
 50
0
 71
0
 42
3.5
  3
complex
  4

  0
STYLE
  2
ITALIC
 70
0
 40
0
 41
1
 50
0
 71
0
 42
3.5
  3
italic
  4

  0
ENDTAB
  0
TABLE
  2
VIEW
 70
0
  0
ENDTAB
  0
ENDSEC
  0
SECTION
  2
BLOCKS
  0
BLOCK
  8
0
  2
*X0
 70
1
 10
0
 20
0
 30
0
  0
LINE
  8
0
 62
7
  6
DASHED
 10
0.5
 20
8.242819253992694
 30
0
 11
0.5571807460073046
 21
8.299999999999999
 31
0
  0
LINE
  8
0
 62
7
  6
DASHED
 10
0.5693127803632705
 20
8.100000000000001
 30
0
 11
0.7399999999999998
 21
8.270687219636729
 31
0
  0
LINE
  8
0
 62
7
 10
0.5
 20
8.136753236814712
 30
0
 11
0.6632467631852874
 21
8.299999999999999
 31
0
  0
LINE
  8
0
 62
7
 10
0.6753787975412515
 20
8.099999999999998
 30
0
 11
0.7399999999999998
 21
8.164621202458747
 31
0
  0
ENDBLK
  8
0
  0
BLOCK
  8
0
  2
*X1
 70
1
 10
0
 20
0
 30
0
  0
LINE
  8
0
 62
7
  6
DASHED
 10
0.4999999999999991
 20
11.00053570062023
 30
0
 11
0.5494642993797729
 21
11.05
 31
0
  0
LINE
  8
0
 62
7
  6
DASHED
 10
0.5615963337357357
 20
10.85
 30
0
 11
0.7399999999999993
 21
11.02840366626426
 31
0
  0
LINE
  8
0
 62
7
 10
0.5000000000000009
 20
10.89446968344225
 30
0
 11
0.655530316557754
 21
11.05
 31
0
  0
LINE
  8
0
 62
7
 10
0.6676623509137176
 20
10.85
 30
0
 11
0.7400000000000002
 21
10.92233764908628
 31
0
  0
ENDBLK
  8
0
  0
BLOCK
  8
0
  2
*X2
 70
1
 10
0
 20
0
 30
0
  0
LINE
  8
0
 62
7
  6
DASHED
 10
1.989999999999999
 20
11.00561146012848
 30
0
 11
2.034388539871521
 21
11.05
 31
0
  0
LINE
  8
0
 62
7
  6
DASHED
 10
2.046520574227485
 20
10.85
 30
0
 11
2.246520574227485
 21
11.05
 31
0
  0
LINE
  8
0
 62
7
  6
DASHED
 10
2.258652608583449
 20
10.85
 30
0
 11
2.289999999999998
 21
10.88134739141655
 31
0
  0
LINE
  8
0
 62
7
 10
1.99
 20
10.8995454429505
 30
0
 11
2.140454557049504
 21
11.05
 31
0
  0
LINE
  8
0
 62
7
 10
2.152586591405467
 20
10.85
 30
0
 11
2.289999999999999
 21
10.98741340859453
 31
0
  0
ENDBLK
  8
0
  0
BLOCK
  8
0
  2
*X3
 70
1
 10
0
 20
0
 30
0
  0
LINE
  8
0
 62
7
  6
DASHED
 10
1.99
 20
8.247895013500944
 30
0
 11
2.042104986499054
 21
8.299999999999999
 31
0
  0
LINE
  8
0
 62
7
  6
DASHED
 10
2.054237020855018
 20
8.099999999999998
 30
0
 11
2.254237020855018
 21
8.299999999999999
 31
0
  0
LINE
  8
0
 62
7
  6
DASHED
 10
2.266369055210983
 20
8.099999999999998
 30
0
 11
2.29
 21
8.123630944789015
 31
0
  0
LINE
  8
0
 62
7
 10
1.990000000000001
 20
8.141828996322964
 30
0
 11
2.148171003677037
 21
8.299999999999999
 31
0
  0
LINE
  8
0
 62
7
 10
2.160303038033001
 20
8.1
 30
0
 11
2.29
 21
8.229696961966997
 31
0
  0
ENDBLK
  8
0
  0
BLOCK
  8
0
  2
*X4
 70
1
 10
0
 20
0
 30
0
  0
LINE
  8
0
 62
7
 10
0.549464299379772
 20
11.05
 30
0
 11
0.6994642993797706
 21
11.2
 31
0
  0
LINE
  8
0
 62
7
 10
0.5
 20
11.10660171779821
 30
0
 11
0.5933982822017896
 21
11.2
 31
0
  0
LINE
  8
0
 62
7
 10
0.655530316557754
 20
11.05
 30
0
 11
0.7400000000000002
 21
11.13446968344225
 31
0
  0
ENDBLK
  8
0
  0
BLOCK
  8
0
  2
*X5
 70
1
 10
0
 20
0
 30
0
  0
LINE
  8
0
 62
7
 10
0.5000000000000004
 20
10.78840366626426
 30
0
 11
0.5615963337357339
 21
10.85
 31
0
  0
LINE
  8
0
 62
7
 10
0.5000000000000004
 20
10.5762716319083
 30
0
 11
0.7400000000000002
 21
10.8162716319083
 31
0
  0
LINE
  8
0
 62
7
 10
0.5000000000000004
 20
10.36413959755233
 30
0
 11
0.7400000000000002
 21
10.60413959755233
 31
0
  0
LINE
  8
0
 62
7
 10
0.5000000000000004
 20
10.15200756319637
 30
0
 11
0.7400000000000002
 21
10.39200756319637
 31
0
  0
LINE
  8
0
 62
7
 10
0.5000000000000004
 20
9.939875528840407
 30
0
 11
0.7400000000000002
 21
10.17987552884041
 31
0
  0
LINE
  8
0
 62
7
 10
0.5000000000000004
 20
9.727743494484443
 30
0
 11
0.7400000000000002
 21
9.967743494484441
 31
0
  0
LINE
  8
0
 62
7
 10
0.5000000000000004
 20
9.515611460128479
 30
0
 11
0.7400000000000002
 21
9.755611460128478
 31
0
  0
LINE
  8
0
 62
7
 10
0.5000000000000004
 20
9.303479425772515
 30
0
 11
0.7400000000000002
 21
9.543479425772514
 31
0
  0
LINE
  8
0
 62
7
 10
0.5000000000000004
 20
9.091347391416551
 30
0
 11
0.7400000000000002
 21
9.33134739141655
 31
0
  0
LINE
  8
0
 62
7
 10
0.5000000000000004
 20
8.879215357060588
 30
0
 11
0.7400000000000002
 21
9.119215357060586
 31
0
  0
LINE
  8
0
 62
7
 10
0.5000000000000004
 20
8.667083322704624
 30
0
 11
0.7400000000000002
 21
8.907083322704622
 31
0
  0
LINE
  8
0
 62
7
 10
0.5000000000000004
 20
8.45495128834866
 30
0
 11
0.7400000000000002
 21
8.694951288348658
 31
0
  0
LINE
  8
0
 62
7
 10
0.5571807460073046
 20
8.299999999999999
 30
0
 11
0.7400000000000002
 21
8.482819253992695
 31
0
  0
LINE
  8
0
 62
7
 10
0.5
 20
10.68233764908628
 30
0
 11
0.6676623509137176
 21
10.85
 31
0
  0
LINE
  8
0
 62
7
 10
0.5
 20
10.47020561473031
 30
0
 11
0.7399999999999998
 21
10.71020561473031
 31
0
  0
LINE
  8
0
 62
7
 10
0.5
 20
10.25807358037435
 30
0
 11
0.7399999999999998
 21
10.49807358037435
 31
0
  0
LINE
  8
0
 62
7
 10
0.5
 20
10.04594154601839
 30
0
 11
0.7399999999999998
 21
10.28594154601839
 31
0
  0
LINE
  8
0
 62
7
 10
0.5
 20
9.833809511662423
 30
0
 11
0.7399999999999998
 21
10.07380951166242
 31
0
  0
LINE
  8
0
 62
7
 10
0.5
 20
9.621677477306459
 30
0
 11
0.7399999999999998
 21
9.861677477306458
 31
0
  0
LINE
  8
0
 62
7
 10
0.5
 20
9.409545442950495
 30
0
 11
0.7399999999999998
 21
9.649545442950494
 31
0
  0
LINE
  8
0
 62
7
 10
0.5
 20
9.197413408594532
 30
0
 11
0.7399999999999998
 21
9.43741340859453
 31
0
  0
LINE
  8
0
 62
7
 10
0.5
 20
8.985281374238568
 30
0
 11
0.7399999999999998
 21
9.225281374238566
 31
0
  0
LINE
  8
0
 62
7
 10
0.5
 20
8.773149339882604
 30
0
 11
0.7399999999999998
 21
9.013149339882602
 31
0
  0
LINE
  8
0
 62
7
 10
0.5
 20
8.56101730552664
 30
0
 11
0.7399999999999998
 21
8.801017305526639
 31
0
  0
LINE
  8
0
 62
7
 10
0.5
 20
8.348885271170676
 30
0
 11
0.7399999999999998
 21
8.588885271170675
 31
0
  0
LINE
  8
0
 62
7
 10
0.6632467631852879
 20
8.299999999999999
 30
0
 11
0.7399999999999998
 21
8.376753236814711
 31
0
  0
ENDBLK
  8
0
  0
BLOCK
  8
0
  2
*X6
 70
1
 10
0
 20
0
 30
0
  0
LINE
  8
0
 62
7
 10
0.4999999999999991
 20
8.030687219636729
 30
0
 11
0.5693127803632692
 21
8.1
 31
0
  0
LINE
  8
0
 62
7
 10
0.6314448147192331
 20
7.949999999999999
 30
0
 11
0.7399999999999989
 21
8.058555185280763
 31
0
  0
LINE
  8
0
 62
7
 10
0.5253787975412521
 20
7.949999999999999
 30
0
 11
0.6753787975412515
 21
8.099999999999998
 31
0
  0
LINE
  8
0
 62
7
 10
0.7375108318972163
 20
7.949999999999999
 30
0
 11
0.7400000000000002
 21
7.952489168102783
 31
0
  0
ENDBLK
  8
0
  0
BLOCK
  8
0
  2
*X7
 70
1
 10
0
 20
0
 30
0
  0
LINE
  8
0
 62
7
  6
DASHED
 10
3.589999999999997
 20
10.90855518528076
 30
0
 11
3.731444814719241
 21
11.05
 31
0
  0
LINE
  8
0
 62
7
  6
DASHED
 10
3.743576849075205
 20
10.85
 30
0
 11
3.943576849075205
 21
11.05
 31
0
  0
LINE
  8
0
 62
7
  6
DASHED
 10
3.955708883431169
 20
10.85
 30
0
 11
4.15570888343117
 21
11.05
 31
0
  0
LINE
  8
0
 62
7
  6
DASHED
 10
4.167840917787133
 20
10.85
 30
0
 11
4.367840917787134
 21
11.05
 31
0
  0
LINE
  8
0
 62
7
  6
DASHED
 10
4.379972952143097
 20
10.85
 30
0
 11
4.579972952143097
 21
11.05
 31
0
  0
LINE
  8
0
 62
7
  6
DASHED
 10
4.592104986499061
 20
10.85
 30
0
 11
4.792104986499061
 21
11.05
 31
0
  0
LINE
  8
0
 62
7
  6
DASHED
 10
4.804237020855025
 20
10.85
 30
0
 11
5.004237020855025
 21
11.05
 31
0
  0
LINE
  8
0
 62
7
  6
DASHED
 10
5.016369055210989
 20
10.85
 30
0
 11
5.216369055210989
 21
11.05
 31
0
  0
LINE
  8
0
 62
7
  6
DASHED
 10
5.228501089566953
 20
10.85
 30
0
 11
5.428501089566953
 21
11.05
 31
0
  0
LINE
  8
0
 62
7
  6
DASHED
 10
5.440633123922916
 20
10.85
 30
0
 11
5.640633123922917
 21
11.05
 31
0
  0
LINE
  8
0
 62
7
  6
DASHED
 10
5.65276515827888
 20
10.85
 30
0
 11
5.85276515827888
 21
11.05
 31
0
  0
LINE
  8
0
 62
7
  6
DASHED
 10
5.864897192634844
 20
10.85
 30
0
 11
6.064897192634844
 21
11.05
 31
0
  0
LINE
  8
0
 62
7
  6
DASHED
 10
6.077029226990808
 20
10.85
 30
0
 11
6.277029226990808
 21
11.05
 31
0
  0
LINE
  8
0
 62
7
  6
DASHED
 10
6.289161261346772
 20
10.85
 30
0
 11
6.489161261346772
 21
11.05
 31
0
  0
LINE
  8
0
 62
7
  6
DASHED
 10
6.501293295702736
 20
10.85
 30
0
 11
6.701293295702736
 21
11.05
 31
0
  0
LINE
  8
0
 62
7
  6
DASHED
 10
6.713425330058699
 20
10.85
 30
0
 11
6.9134253300587
 21
11.05
 31
0
  0
LINE
  8
0
 62
7
  6
DASHED
 10
6.925557364414663
 20
10.85
 30
0
 11
7.125557364414663
 21
11.05
 31
0
  0
LINE
  8
0
 62
7
  6
DASHED
 10
7.137689398770627
 20
10.85
 30
0
 11
7.337689398770627
 21
11.05
 31
0
  0
LINE
  8
0
 62
7
  6
DASHED
 10
7.349821433126591
 20
10.85
 30
0
 11
7.549821433126591
 21
11.05
 31
0
  0
LINE
  8
0
 62
7
  6
DASHED
 10
7.561953467482555
 20
10.85
 30
0
 11
7.75
 21
11.03804653251744
 31
0
  0
LINE
  8
0
 62
7
 10
3.589999999999999
 20
11.01462120245874
 30
0
 11
3.62537879754126
 21
11.05
 31
0
  0
LINE
  8
0
 62
7
 10
3.637510831897222
 20
10.85
 30
0
 11
3.837510831897224
 21
11.05
 31
0
  0
LINE
  8
0
 62
7
 10
3.849642866253186
 20
10.85
 30
0
 11
4.049642866253189
 21
11.05
 31
0
  0
LINE
  8
0
 62
7
 10
4.061774900609151
 20
10.85
 30
0
 11
4.261774900609153
 21
11.05
 31
0
  0
LINE
  8
0
 62
7
 10
4.273906934965114
 20
10.85
 30
0
 11
4.473906934965116
 21
11.05
 31
0
  0
LINE
  8
0
 62
7
 10
4.486038969321078
 20
10.85
 30
0
 11
4.68603896932108
 21
11.05
 31
0
  0
LINE
  8
0
 62
7
 10
4.698171003677042
 20
10.85
 30
0
 11
4.898171003677044
 21
11.05
 31
0
  0
LINE
  8
0
 62
7
 10
4.910303038033006
 20
10.85
 30
0
 11
5.110303038033008
 21
11.05
 31
0
  0
LINE
  8
0
 62
7
 10
5.12243507238897
 20
10.85
 30
0
 11
5.322435072388972
 21
11.05
 31
0
  0
LINE
  8
0
 62
7
 10
5.334567106744934
 20
10.85
 30
0
 11
5.534567106744936
 21
11.05
 31
0
  0
LINE
  8
0
 62
7
 10
5.546699141100897
 20
10.85
 30
0
 11
5.746699141100899
 21
11.05
 31
0
  0
LINE
  8
0
 62
7
 10
5.758831175456861
 20
10.85
 30
0
 11
5.958831175456863
 21
11.05
 31
0
  0
LINE
  8
0
 62
7
 10
5.970963209812825
 20
10.85
 30
0
 11
6.170963209812827
 21
11.05
 31
0
  0
LINE
  8
0
 62
7
 10
6.183095244168789
 20
10.85
 30
0
 11
6.383095244168791
 21
11.05
 31
0
  0
LINE
  8
0
 62
7
 10
6.395227278524753
 20
10.85
 30
0
 11
6.595227278524755
 21
11.05
 31
0
  0
LINE
  8
0
 62
7
 10
6.607359312880717
 20
10.85
 30
0
 11
6.807359312880719
 21
11.05
 31
0
  0
LINE
  8
0
 62
7
 10
6.81949134723668
 20
10.85
 30
0
 11
7.019491347236682
 21
11.05
 31
0
  0
LINE
  8
0
 62
7
 10
7.031623381592644
 20
10.85
 30
0
 11
7.231623381592646
 21
11.05
 31
0
  0
LINE
  8
0
 62
7
 10
7.243755415948608
 20
10.85
 30
0
 11
7.44375541594861
 21
11.05
 31
0
  0
LINE
  8
0
 62
7
 10
7.455887450304572
 20
10.85
 30
0
 11
7.655887450304574
 21
11.05
 31
0
  0
LINE
  8
0
 62
7
 10
7.668019484660536
 20
10.85
 30
0
 11
7.749999999999999
 21
10.93198051533946
 31
0
  0
ENDBLK
  8
0
  0
BLOCK
  8
0
  2
*X8
 70
1
 10
0
 20
0
 30
0
  0
LINE
  8
0
 62
7
  6
DASHED
 10
3.589999999999998
 20
8.150838738653229
 30
0
 11
3.739161261346776
 21
8.299999999999999
 31
0
  0
LINE
  8
0
 62
7
  6
DASHED
 10
3.751293295702738
 20
8.099999999999998
 30
0
 11
3.95129329570274
 21
8.299999999999999
 31
0
  0
LINE
  8
0
 62
7
  6
DASHED
 10
3.963425330058703
 20
8.099999999999998
 30
0
 11
4.163425330058704
 21
8.299999999999999
 31
0
  0
LINE
  8
0
 62
7
  6
DASHED
 10
4.175557364414667
 20
8.099999999999998
 30
0
 11
4.375557364414668
 21
8.299999999999999
 31
0
  0
LINE
  8
0
 62
7
  6
DASHED
 10
4.387689398770631
 20
8.099999999999998
 30
0
 11
4.587689398770632
 21
8.299999999999999
 31
0
  0
LINE
  8
0
 62
7
  6
DASHED
 10
4.599821433126595
 20
8.099999999999998
 30
0
 11
4.799821433126596
 21
8.299999999999999
 31
0
  0
LINE
  8
0
 62
7
  6
DASHED
 10
4.811953467482558
 20
8.099999999999998
 30
0
 11
5.011953467482559
 21
8.299999999999999
 31
0
  0
LINE
  8
0
 62
7
  6
DASHED
 10
5.024085501838522
 20
8.099999999999998
 30
0
 11
5.224085501838523
 21
8.299999999999999
 31
0
  0
LINE
  8
0
 62
7
  6
DASHED
 10
5.236217536194486
 20
8.099999999999998
 30
0
 11
5.436217536194487
 21
8.299999999999999
 31
0
  0
LINE
  8
0
 62
7
  6
DASHED
 10
5.44834957055045
 20
8.099999999999998
 30
0
 11
5.648349570550451
 21
8.299999999999999
 31
0
  0
LINE
  8
0
 62
7
  6
DASHED
 10
5.660481604906414
 20
8.099999999999998
 30
0
 11
5.860481604906415
 21
8.299999999999999
 31
0
  0
LINE
  8
0
 62
7
  6
DASHED
 10
5.872613639262378
 20
8.099999999999998
 30
0
 11
6.072613639262379
 21
8.299999999999999
 31
0
  0
LINE
  8
0
 62
7
  6
DASHED
 10
6.084745673618341
 20
8.099999999999998
 30
0
 11
6.284745673618342
 21
8.299999999999999
 31
0
  0
LINE
  8
0
 62
7
  6
DASHED
 10
6.296877707974305
 20
8.099999999999998
 30
0
 11
6.496877707974306
 21
8.299999999999999
 31
0
  0
LINE
  8
0
 62
7
  6
DASHED
 10
6.509009742330269
 20
8.099999999999998
 30
0
 11
6.70900974233027
 21
8.299999999999999
 31
0
  0
LINE
  8
0
 62
7
  6
DASHED
 10
6.721141776686233
 20
8.099999999999998
 30
0
 11
6.921141776686234
 21
8.299999999999999
 31
0
  0
LINE
  8
0
 62
7
  6
DASHED
 10
6.933273811042197
 20
8.099999999999998
 30
0
 11
7.133273811042198
 21
8.299999999999999
 31
0
  0
LINE
  8
0
 62
7
  6
DASHED
 10
7.145405845398161
 20
8.099999999999998
 30
0
 11
7.345405845398162
 21
8.299999999999999
 31
0
  0
LINE
  8
0
 62
7
  6
DASHED
 10
7.357537879754124
 20
8.099999999999998
 30
0
 11
7.557537879754125
 21
8.299999999999999
 31
0
  0
LINE
  8
0
 62
7
  6
DASHED
 10
7.569669914110088
 20
8.099999999999998
 30
0
 11
7.749999999999998
 21
8.28033008588991
 31
0
  0
LINE
  8
0
 62
7
 10
3.589999999999998
 20
8.256904755831208
 30
0
 11
3.633095244168793
 21
8.299999999999999
 31
0
  0
LINE
  8
0
 62
7
 10
3.645227278524758
 20
8.1
 30
0
 11
3.845227278524757
 21
8.299999999999999
 31
0
  0
LINE
  8
0
 62
7
 10
3.857359312880722
 20
8.1
 30
0
 11
4.057359312880721
 21
8.299999999999999
 31
0
  0
LINE
  8
0
 62
7
 10
4.069491347236687
 20
8.1
 30
0
 11
4.269491347236685
 21
8.299999999999999
 31
0
  0
LINE
  8
0
 62
7
 10
4.281623381592651
 20
8.1
 30
0
 11
4.481623381592649
 21
8.299999999999999
 31
0
  0
LINE
  8
0
 62
7
 10
4.493755415948614
 20
8.1
 30
0
 11
4.693755415948613
 21
8.299999999999999
 31
0
  0
LINE
  8
0
 62
7
 10
4.705887450304578
 20
8.1
 30
0
 11
4.905887450304577
 21
8.299999999999999
 31
0
  0
LINE
  8
0
 62
7
 10
4.918019484660542
 20
8.1
 30
0
 11
5.11801948466054
 21
8.299999999999999
 31
0
  0
LINE
  8
0
 62
7
 10
5.130151519016506
 20
8.1
 30
0
 11
5.330151519016504
 21
8.299999999999999
 31
0
  0
LINE
  8
0
 62
7
 10
5.34228355337247
 20
8.1
 30
0
 11
5.542283553372468
 21
8.299999999999999
 31
0
  0
LINE
  8
0
 62
7
 10
5.554415587728434
 20
8.1
 30
0
 11
5.754415587728432
 21
8.299999999999999
 31
0
  0
LINE
  8
0
 62
7
 10
5.766547622084397
 20
8.1
 30
0
 11
5.966547622084396
 21
8.299999999999999
 31
0
  0
LINE
  8
0
 62
7
 10
5.978679656440361
 20
8.1
 30
0
 11
6.17867965644036
 21
8.299999999999999
 31
0
  0
LINE
  8
0
 62
7
 10
6.190811690796325
 20
8.1
 30
0
 11
6.390811690796323
 21
8.299999999999999
 31
0
  0
LINE
  8
0
 62
7
 10
6.402943725152289
 20
8.1
 30
0
 11
6.602943725152287
 21
8.299999999999999
 31
0
  0
LINE
  8
0
 62
7
 10
6.615075759508253
 20
8.1
 30
0
 11
6.815075759508251
 21
8.299999999999999
 31
0
  0
LINE
  8
0
 62
7
 10
6.827207793864217
 20
8.1
 30
0
 11
7.027207793864215
 21
8.299999999999999
 31
0
  0
LINE
  8
0
 62
7
 10
7.03933982822018
 20
8.1
 30
0
 11
7.239339828220179
 21
8.299999999999999
 31
0
  0
LINE
  8
0
 62
7
 10
7.251471862576144
 20
8.1
 30
0
 11
7.451471862576143
 21
8.299999999999999
 31
0
  0
LINE
  8
0
 62
7
 10
7.463603896932108
 20
8.1
 30
0
 11
7.663603896932107
 21
8.299999999999999
 31
0
  0
LINE
  8
0
 62
7
 10
7.675735931288072
 20
8.1
 30
0
 11
7.749999999999999
 21
8.174264068711926
 31
0
  0
ENDBLK
  8
0
  0
BLOCK
  8
0
  2
*X9
 70
1
 10
0
 20
0
 30
0
  0
LINE
  8
0
 62
7
 10
3.739999999999998
 20
11.05855518528076
 30
0
 11
3.881444814719234
 21
11.2
 31
0
  0
LINE
  8
0
 62
7
 10
3.739999999999999
 20
11.16462120245875
 30
0
 11
3.775378797541253
 21
11.2
 31
0
  0
LINE
  8
0
 62
7
 10
3.837510831897218
 20
11.05
 30
0
 11
3.914999999999999
 21
11.12748916810278
 31
0
  0
ENDBLK
  8
0
  0
BLOCK
  8
0
  2
*X10
 70
1
 10
0
 20
0
 30
0
  0
LINE
  8
0
 62
7
 10
3.739999999999997
 20
10.84642315092479
 30
0
 11
3.743576849075198
 21
10.85
 31
0
  0
LINE
  8
0
 62
7
 10
3.739999999999997
 20
10.63429111656883
 30
0
 11
3.914999999999998
 21
10.80929111656883
 31
0
  0
LINE
  8
0
 62
7
 10
3.739999999999997
 20
10.42215908221286
 30
0
 11
3.914999999999998
 21
10.59715908221287
 31
0
  0
LINE
  8
0
 62
7
 10
3.739999999999997
 20
10.2100270478569
 30
0
 11
3.914999999999998
 21
10.3850270478569
 31
0
  0
LINE
  8
0
 62
7
 10
3.739999999999997
 20
9.997895013500937
 30
0
 11
3.914999999999998
 21
10.17289501350094
 31
0
  0
LINE
  8
0
 62
7
 10
3.739999999999997
 20
9.785762979144973
 30
0
 11
3.914999999999998
 21
9.960762979144974
 31
0
  0
LINE
  8
0
 62
7
 10
3.739999999999997
 20
9.573630944789009
 30
0
 11
3.914999999999998
 21
9.74863094478901
 31
0
  0
LINE
  8
0
 62
7
 10
3.739999999999997
 20
9.361498910433045
 30
0
 11
3.914999999999998
 21
9.536498910433046
 31
0
  0
LINE
  8
0
 62
7
 10
3.739999999999997
 20
9.149366876077082
 30
0
 11
3.914999999999998
 21
9.324366876077082
 31
0
  0
LINE
  8
0
 62
7
 10
3.739999999999997
 20
8.937234841721118
 30
0
 11
3.914999999999998
 21
9.112234841721119
 31
0
  0
LINE
  8
0
 62
7
 10
3.739999999999997
 20
8.725102807365154
 30
0
 11
3.914999999999998
 21
8.900102807365155
 31
0
  0
LINE
  8
0
 62
7
 10
3.739999999999997
 20
8.51297077300919
 30
0
 11
3.914999999999998
 21
8.687970773009191
 31
0
  0
LINE
  8
0
 62
7
 10
3.739999999999997
 20
8.300838738653226
 30
0
 11
3.914999999999998
 21
8.475838738653227
 31
0
  0
LINE
  8
0
 62
7
 10
3.739999999999998
 20
10.74035713374681
 30
0
 11
3.849642866253181
 21
10.85
 31
0
  0
LINE
  8
0
 62
7
 10
3.739999999999998
 20
10.52822509939085
 30
0
 11
3.914999999999997
 21
10.70322509939085
 31
0
  0
LINE
  8
0
 62
7
 10
3.739999999999998
 20
10.31609306503488
 30
0
 11
3.914999999999997
 21
10.49109306503488
 31
0
  0
LINE
  8
0
 62
7
 10
3.739999999999998
 20
10.10396103067892
 30
0
 11
3.914999999999997
 21
10.27896103067892
 31
0
  0
LINE
  8
0
 62
7
 10
3.739999999999998
 20
9.891828996322957
 30
0
 11
3.914999999999997
 21
10.06682899632296
 31
0
  0
LINE
  8
0
 62
7
 10
3.739999999999998
 20
9.679696961966993
 30
0
 11
3.914999999999997
 21
9.854696961966992
 31
0
  0
LINE
  8
0
 62
7
 10
3.739999999999998
 20
9.467564927611029
 30
0
 11
3.914999999999997
 21
9.642564927611028
 31
0
  0
LINE
  8
0
 62
7
 10
3.739999999999998
 20
9.255432893255065
 30
0
 11
3.914999999999997
 21
9.430432893255064
 31
0
  0
LINE
  8
0
 62
7
 10
3.739999999999998
 20
9.043300858899102
 30
0
 11
3.914999999999997
 21
9.2183008588991
 31
0
  0
LINE
  8
0
 62
7
 10
3.739999999999998
 20
8.831168824543138
 30
0
 11
3.914999999999997
 21
9.006168824543137
 31
0
  0
LINE
  8
0
 62
7
 10
3.739999999999998
 20
8.619036790187174
 30
0
 11
3.914999999999997
 21
8.794036790187173
 31
0
  0
LINE
  8
0
 62
7
 10
3.739999999999998
 20
8.40690475583121
 30
0
 11
3.914999999999997
 21
8.581904755831209
 31
0
  0
LINE
  8
0
 62
7
 10
3.845227278524751
 20
8.299999999999999
 30
0
 11
3.914999999999997
 21
8.369772721475245
 31
0
  0
ENDBLK
  8
0
  0
BLOCK
  8
0
  2
*X11
 70
1
 10
0
 20
0
 30
0
  0
LINE
  8
0
 62
7
 10
3.739999999999998
 20
8.088706704297264
 30
0
 11
3.751293295702733
 21
8.1
 31
0
  0
LINE
  8
0
 62
7
 10
3.813425330058696
 20
7.949999999999998
 30
0
 11
3.914999999999997
 21
8.051574669941299
 31
0
  0
LINE
  8
0
 62
7
 10
3.739999999999998
 20
7.982640687119281
 30
0
 11
3.857359312880717
 21
8.1
 31
0
  0
ENDBLK
  8
0
  0
BLOCK
  8
0
  2
*X12
 70
1
 10
0
 20
0
 30
0
  0
LINE
  8
0
 62
7
 10
7.424999999999998
 20
11.13731060122937
 30
0
 11
7.487689398770626
 21
11.2
 31
0
  0
LINE
  8
0
 62
7
 10
7.549821433126593
 20
11.05
 30
0
 11
7.599999999999997
 21
11.10017856687341
 31
0
  0
LINE
  8
0
 62
7
 10
7.44375541594861
 20
11.05
 30
0
 11
7.593755415948609
 21
11.2
 31
0
  0
ENDBLK
  8
0
  0
BLOCK
  8
0
  2
*X13
 70
1
 10
0
 20
0
 30
0
  0
LINE
  8
0
 62
7
 10
7.424999999999999
 20
10.71304653251744
 30
0
 11
7.561953467482555
 21
10.85
 31
0
  0
LINE
  8
0
 62
7
 10
7.424999999999999
 20
10.50091449816147
 30
0
 11
7.6
 21
10.67591449816148
 31
0
  0
LINE
  8
0
 62
7
 10
7.424999999999999
 20
10.28878246380551
 30
0
 11
7.6
 21
10.46378246380551
 31
0
  0
LINE
  8
0
 62
7
 10
7.424999999999999
 20
10.07665042944955
 30
0
 11
7.6
 21
10.25165042944955
 31
0
  0
LINE
  8
0
 62
7
 10
7.424999999999999
 20
9.864518395093583
 30
0
 11
7.6
 21
10.03951839509358
 31
0
  0
LINE
  8
0
 62
7
 10
7.424999999999999
 20
9.652386360737619
 30
0
 11
7.6
 21
9.82738636073762
 31
0
  0
LINE
  8
0
 62
7
 10
7.424999999999999
 20
9.440254326381655
 30
0
 11
7.6
 21
9.615254326381656
 31
0
  0
LINE
  8
0
 62
7
 10
7.424999999999999
 20
9.228122292025692
 30
0
 11
7.6
 21
9.403122292025692
 31
0
  0
LINE
  8
0
 62
7
 10
7.424999999999999
 20
9.015990257669728
 30
0
 11
7.6
 21
9.190990257669728
 31
0
  0
LINE
  8
0
 62
7
 10
7.424999999999999
 20
8.803858223313764
 30
0
 11
7.6
 21
8.978858223313765
 31
0
  0
LINE
  8
0
 62
7
 10
7.424999999999999
 20
8.5917261889578
 30
0
 11
7.6
 21
8.766726188957801
 31
0
  0
LINE
  8
0
 62
7
 10
7.424999999999999
 20
8.379594154601836
 30
0
 11
7.6
 21
8.554594154601837
 31
0
  0
LINE
  8
0
 62
7
 10
7.557537879754124
 20
8.299999999999997
 30
0
 11
7.6
 21
8.342462120245873
 31
0
  0
LINE
  8
0
 62
7
 10
7.424999999999999
 20
10.81911254969542
 30
0
 11
7.455887450304571
 21
10.85
 31
0
  0
LINE
  8
0
 62
7
 10
7.424999999999999
 20
10.60698051533946
 30
0
 11
7.599999999999999
 21
10.78198051533946
 31
0
  0
LINE
  8
0
 62
7
 10
7.424999999999999
 20
10.39484848098349
 30
0
 11
7.599999999999999
 21
10.56984848098349
 31
0
  0
LINE
  8
0
 62
7
 10
7.424999999999999
 20
10.18271644662753
 30
0
 11
7.599999999999999
 21
10.35771644662753
 31
0
  0
LINE
  8
0
 62
7
 10
7.424999999999999
 20
9.970584412271565
 30
0
 11
7.599999999999999
 21
10.14558441227156
 31
0
  0
LINE
  8
0
 62
7
 10
7.424999999999999
 20
9.758452377915601
 30
0
 11
7.599999999999999
 21
9.9334523779156
 31
0
  0
LINE
  8
0
 62
7
 10
7.424999999999999
 20
9.546320343559637
 30
0
 11
7.599999999999999
 21
9.721320343559636
 31
0
  0
LINE
  8
0
 62
7
 10
7.424999999999999
 20
9.334188309203673
 30
0
 11
7.599999999999999
 21
9.509188309203672
 31
0
  0
LINE
  8
0
 62
7
 10
7.424999999999999
 20
9.12205627484771
 30
0
 11
7.599999999999999
 21
9.297056274847709
 31
0
  0
LINE
  8
0
 62
7
 10
7.424999999999999
 20
8.909924240491746
 30
0
 11
7.599999999999999
 21
9.084924240491745
 31
0
  0
LINE
  8
0
 62
7
 10
7.424999999999999
 20
8.697792206135782
 30
0
 11
7.599999999999999
 21
8.872792206135781
 31
0
  0
LINE
  8
0
 62
7
 10
7.424999999999999
 20
8.485660171779818
 30
0
 11
7.599999999999999
 21
8.660660171779817
 31
0
  0
LINE
  8
0
 62
7
 10
7.451471862576143
 20
8.299999999999997
 30
0
 11
7.599999999999999
 21
8.448528137423853
 31
0
  0
ENDBLK
  8
0
  0
BLOCK
  8
0
  2
*X14
 70
1
 10
0
 20
0
 30
0
  0
LINE
  8
0
 62
7
 10
7.424999999999999
 20
7.955330085889909
 30
0
 11
7.569669914110088
 21
8.099999999999998
 31
0
  0
LINE
  8
0
 62
7
 10
7.424999999999999
 20
8.06139610306789
 30
0
 11
7.463603896932107
 21
8.099999999999998
 31
0
  0
LINE
  8
0
 62
7
 10
7.525735931288072
 20
7.949999999999999
 30
0
 11
7.599999999999999
 21
8.024264068711926
 31
0
  0
ENDBLK
  8
0
  0
BLOCK
  8
0
  2
*X15
 70
1
 10
0
 20
0
 30
0
  0
LINE
  8
0
 62
7
 10
3.589999999999998
 20
4.968858223313765
 30
0
 11
3.89114177668623
 21
5.269999999999997
 31
0
  0
LINE
  8
0
 62
7
 10
3.713273811042205
 20
4.880000000000001
 30
0
 11
3.9532738110422
 21
5.119999999999997
 31
0
  0
LINE
  8
0
 62
7
 10
3.925405845398169
 20
4.880000000000001
 30
0
 11
4.165405845398165
 21
5.119999999999997
 31
0
  0
LINE
  8
0
 62
7
 10
4.137537879754134
 20
4.880000000000001
 30
0
 11
4.377537879754128
 21
5.119999999999997
 31
0
  0
LINE
  8
0
 62
7
 10
4.349669914110097
 20
4.880000000000001
 30
0
 11
4.589669914110092
 21
5.119999999999997
 31
0
  0
LINE
  8
0
 62
7
 10
4.561801948466061
 20
4.880000000000001
 30
0
 11
4.801801948466056
 21
5.119999999999997
 31
0
  0
LINE
  8
0
 62
7
 10
4.773933982822025
 20
4.880000000000001
 30
0
 11
5.01393398282202
 21
5.119999999999997
 31
0
  0
LINE
  8
0
 62
7
 10
4.986066017177989
 20
4.880000000000001
 30
0
 11
5.226066017177984
 21
5.119999999999997
 31
0
  0
LINE
  8
0
 62
7
 10
5.198198051533953
 20
4.880000000000001
 30
0
 11
5.438198051533948
 21
5.119999999999997
 31
0
  0
LINE
  8
0
 62
7
 10
5.410330085889917
 20
4.880000000000001
 30
0
 11
5.650330085889911
 21
5.119999999999997
 31
0
  0
LINE
  8
0
 62
7
 10
5.62246212024588
 20
4.880000000000001
 30
0
 11
5.862462120245875
 21
5.119999999999997
 31
0
  0
LINE
  8
0
 62
7
 10
5.834594154601844
 20
4.880000000000001
 30
0
 11
6.074594154601839
 21
5.119999999999997
 31
0
  0
LINE
  8
0
 62
7
 10
6.046726188957808
 20
4.880000000000001
 30
0
 11
6.286726188957803
 21
5.119999999999997
 31
0
  0
LINE
  8
0
 62
7
 10
6.258858223313772
 20
4.880000000000001
 30
0
 11
6.498858223313767
 21
5.119999999999997
 31
0
  0
LINE
  8
0
 62
7
 10
6.470990257669736
 20
4.880000000000001
 30
0
 11
6.710990257669731
 21
5.119999999999997
 31
0
  0
LINE
  8
0
 62
7
 10
6.6831222920257
 20
4.880000000000001
 30
0
 11
6.923122292025695
 21
5.119999999999997
 31
0
  0
LINE
  8
0
 62
7
 10
6.895254326381663
 20
4.880000000000001
 30
0
 11
7.135254326381658
 21
5.119999999999997
 31
0
  0
LINE
  8
0
 62
7
 10
7.425
 20
5.197613639262375
 30
0
 11
7.497386360737621
 21
5.269999999999996
 31
0
  0
LINE
  8
0
 62
7
 10
7.107386360737627
 20
4.880000000000001
 30
0
 11
7.347386360737622
 21
5.119999999999997
 31
0
  0
LINE
  8
0
 62
7
 10
7.319518395093591
 20
4.880000000000001
 30
0
 11
7.6
 21
5.16048160490641
 31
0
  0
LINE
  8
0
 62
7
 10
7.531650429449555
 20
4.880000000000001
 30
0
 11
7.765
 21
5.113349570550445
 31
0
  0
LINE
  8
0
 62
7
 10
7.743782463805519
 20
4.880000000000001
 30
0
 11
7.765
 21
4.901217536194482
 31
0
  0
LINE
  8
0
 62
7
 10
3.739999999999998
 20
5.224924240491747
 30
0
 11
3.785075759508248
 21
5.269999999999997
 31
0
  0
LINE
  8
0
 62
7
 10
3.589999999999999
 20
5.074924240491748
 30
0
 11
3.635075759508247
 21
5.119999999999997
 31
0
  0
LINE
  8
0
 62
7
 10
3.607207793864222
 20
4.88
 30
0
 11
3.914999999999998
 21
5.187792206135783
 31
0
  0
LINE
  8
0
 62
7
 10
3.819339828220186
 20
4.88
 30
0
 11
4.059339828220182
 21
5.119999999999997
 31
0
  0
LINE
  8
0
 62
7
 10
4.031471862576151
 20
4.88
 30
0
 11
4.271471862576146
 21
5.119999999999997
 31
0
  0
LINE
  8
0
 62
7
 10
4.243603896932115
 20
4.88
 30
0
 11
4.483603896932109
 21
5.119999999999997
 31
0
  0
LINE
  8
0
 62
7
 10
4.455735931288078
 20
4.88
 30
0
 11
4.695735931288073
 21
5.119999999999997
 31
0
  0
LINE
  8
0
 62
7
 10
4.667867965644042
 20
4.88
 30
0
 11
4.907867965644037
 21
5.119999999999997
 31
0
  0
LINE
  8
0
 62
7
 10
4.880000000000006
 20
4.88
 30
0
 11
5.120000000000001
 21
5.119999999999997
 31
0
  0
LINE
  8
0
 62
7
 10
5.09213203435597
 20
4.88
 30
0
 11
5.332132034355965
 21
5.119999999999997
 31
0
  0
LINE
  8
0
 62
7
 10
5.304264068711934
 20
4.88
 30
0
 11
5.544264068711929
 21
5.119999999999997
 31
0
  0
LINE
  8
0
 62
7
 10
5.516396103067898
 20
4.88
 30
0
 11
5.756396103067893
 21
5.119999999999997
 31
0
  0
LINE
  8
0
 62
7
 10
5.728528137423861
 20
4.88
 30
0
 11
5.968528137423856
 21
5.119999999999997
 31
0
  0
LINE
  8
0
 62
7
 10
5.940660171779825
 20
4.88
 30
0
 11
6.18066017177982
 21
5.119999999999997
 31
0
  0
LINE
  8
0
 62
7
 10
6.152792206135789
 20
4.88
 30
0
 11
6.392792206135784
 21
5.119999999999997
 31
0
  0
LINE
  8
0
 62
7
 10
6.364924240491753
 20
4.88
 30
0
 11
6.604924240491748
 21
5.119999999999997
 31
0
  0
LINE
  8
0
 62
7
 10
6.577056274847717
 20
4.88
 30
0
 11
6.817056274847712
 21
5.119999999999997
 31
0
  0
LINE
  8
0
 62
7
 10
6.789188309203681
 20
4.88
 30
0
 11
7.029188309203676
 21
5.119999999999997
 31
0
  0
LINE
  8
0
 62
7
 10
7.001320343559644
 20
4.88
 30
0
 11
7.241320343559639
 21
5.119999999999997
 31
0
  0
LINE
  8
0
 62
7
 10
7.213452377915608
 20
4.88
 30
0
 11
7.6
 21
5.266547622084392
 31
0
  0
LINE
  8
0
 62
7
 10
7.425584412271572
 20
4.88
 30
0
 11
7.665584412271571
 21
5.119999999999998
 31
0
  0
LINE
  8
0
 62
7
 10
7.637716446627536
 20
4.88
 30
0
 11
7.765
 21
5.007283553372464
 31
0
  0
ENDBLK
  8
0
  0
BLOCK
  8
0
  2
*X16
 70
1
 10
0
 20
0
 30
0
  0
LINE
  8
0
 62
7
 10
3.589999999999998
 20
4.756726188957801
 30
0
 11
3.673273811042204
 21
4.839999999999999
 31
0
  0
LINE
  8
0
 62
7
 10
3.645405845398163
 20
4.600000000000001
 30
0
 11
3.885405845398168
 21
4.839999999999999
 31
0
  0
LINE
  8
0
 62
7
 10
3.739999999999998
 20
4.482462120245872
 30
0
 11
4.097537879754133
 21
4.839999999999999
 31
0
  0
LINE
  8
0
 62
7
 10
4.069669914110097
 20
4.600000000000001
 30
0
 11
4.309669914110096
 21
4.839999999999999
 31
0
  0
LINE
  8
0
 62
7
 10
3.739999999999998
 20
4.270330085889908
 30
0
 11
3.914999999999998
 21
4.445330085889908
 31
0
  0
LINE
  8
0
 62
7
 10
4.281801948466061
 20
4.600000000000001
 30
0
 11
4.52180194846606
 21
4.839999999999999
 31
0
  0
LINE
  8
0
 62
7
 10
3.739999999999998
 20
4.058198051533944
 30
0
 11
3.914999999999998
 21
4.233198051533944
 31
0
  0
LINE
  8
0
 62
7
 10
4.493933982822025
 20
4.600000000000001
 30
0
 11
4.733933982822024
 21
4.839999999999999
 31
0
  0
LINE
  8
0
 62
7
 10
3.739999999999998
 20
3.84606601717798
 30
0
 11
3.914999999999998
 21
4.02106601717798
 31
0
  0
LINE
  8
0
 62
7
 10
4.706066017177989
 20
4.600000000000001
 30
0
 11
4.946066017177988
 21
4.839999999999999
 31
0
  0
LINE
  8
0
 62
7
 10
3.739999999999998
 20
3.633933982822016
 30
0
 11
3.914999999999998
 21
3.808933982822016
 31
0
  0
LINE
  8
0
 62
7
 10
4.918198051533953
 20
4.600000000000001
 30
0
 11
5.158198051533952
 21
4.839999999999999
 31
0
  0
LINE
  8
0
 62
7
 10
3.739999999999998
 20
3.421801948466052
 30
0
 11
3.914999999999998
 21
3.596801948466052
 31
0
  0
LINE
  8
0
 62
7
 10
5.130330085889916
 20
4.600000000000001
 30
0
 11
5.370330085889916
 21
4.839999999999999
 31
0
  0
LINE
  8
0
 62
7
 10
3.78033008588991
 20
3.25
 30
0
 11
3.914999999999998
 21
3.384669914110087
 31
0
  0
LINE
  8
0
 62
7
 10
5.34246212024588
 20
4.600000000000001
 30
0
 11
5.58246212024588
 21
4.839999999999999
 31
0
  0
LINE
  8
0
 62
7
 10
5.554594154601844
 20
4.600000000000001
 30
0
 11
5.794594154601843
 21
4.839999999999999
 31
0
  0
LINE
  8
0
 62
7
 10
5.766726188957808
 20
4.600000000000001
 30
0
 11
6.006726188957807
 21
4.839999999999999
 31
0
  0
LINE
  8
0
 62
7
 10
5.978858223313772
 20
4.600000000000001
 30
0
 11
6.218858223313771
 21
4.839999999999999
 31
0
  0
LINE
  8
0
 62
7
 10
6.190990257669736
 20
4.600000000000001
 30
0
 11
6.430990257669735
 21
4.839999999999999
 31
0
  0
LINE
  8
0
 62
7
 10
6.403122292025699
 20
4.600000000000001
 30
0
 11
6.643122292025699
 21
4.839999999999999
 31
0
  0
LINE
  8
0
 62
7
 10
6.615254326381663
 20
4.600000000000001
 30
0
 11
6.855254326381663
 21
4.839999999999999
 31
0
  0
LINE
  8
0
 62
7
 10
6.827386360737627
 20
4.600000000000001
 30
0
 11
7.067386360737626
 21
4.839999999999999
 31
0
  0
LINE
  8
0
 62
7
 10
7.039518395093591
 20
4.600000000000001
 30
0
 11
7.27951839509359
 21
4.839999999999999
 31
0
  0
LINE
  8
0
 62
7
 10
7.251650429449555
 20
4.600000000000001
 30
0
 11
7.491650429449554
 21
4.839999999999999
 31
0
  0
LINE
  8
0
 62
7
 10
7.424999999999999
 20
4.56121753619448
 30
0
 11
7.703782463805518
 21
4.839999999999999
 31
0
  0
LINE
  8
0
 62
7
 10
7.675914498161483
 20
4.600000000000001
 30
0
 11
7.765
 21
4.689085501838518
 31
0
  0
LINE
  8
0
 62
7
 10
7.424999999999999
 20
4.349085501838516
 30
0
 11
7.599999999999999
 21
4.524085501838516
 31
0
  0
LINE
  8
0
 62
7
 10
7.424999999999999
 20
4.136953467482552
 30
0
 11
7.599999999999999
 21
4.311953467482552
 31
0
  0
LINE
  8
0
 62
7
 10
7.424999999999999
 20
3.924821433126588
 30
0
 11
7.599999999999999
 21
4.099821433126588
 31
0
  0
LINE
  8
0
 62
7
 10
7.424999999999999
 20
3.712689398770624
 30
0
 11
7.599999999999999
 21
3.887689398770624
 31
0
  0
LINE
  8
0
 62
7
 10
7.424999999999999
 20
3.50055736441466
 30
0
 11
7.599999999999999
 21
3.67555736441466
 31
0
  0
LINE
  8
0
 62
7
 10
7.486574669941303
 20
3.35
 30
0
 11
7.599999999999999
 21
3.463425330058695
 31
0
  0
LINE
  8
0
 62
7
 10
3.589999999999998
 20
4.650660171779819
 30
0
 11
3.779339828220186
 21
4.84
 31
0
  0
LINE
  8
0
 62
7
 10
3.739999999999998
 20
4.588528137423854
 30
0
 11
3.99147186257615
 21
4.84
 31
0
  0
LINE
  8
0
 62
7
 10
3.963603896932116
 20
4.600000000000001
 30
0
 11
4.203603896932115
 21
4.84
 31
0
  0
LINE
  8
0
 62
7
 10
3.739999999999998
 20
4.37639610306789
 30
0
 11
3.914999999999998
 21
4.55139610306789
 31
0
  0
LINE
  8
0
 62
7
 10
4.17573593128808
 20
4.600000000000001
 30
0
 11
4.415735931288078
 21
4.84
 31
0
  0
LINE
  8
0
 62
7
 10
3.739999999999998
 20
4.164264068711926
 30
0
 11
3.914999999999998
 21
4.339264068711926
 31
0
  0
LINE
  8
0
 62
7
 10
4.387867965644044
 20
4.600000000000001
 30
0
 11
4.627867965644042
 21
4.84
 31
0
  0
LINE
  8
0
 62
7
 10
3.739999999999998
 20
3.952132034355962
 30
0
 11
3.914999999999998
 21
4.127132034355962
 31
0
  0
LINE
  8
0
 62
7
 10
4.600000000000008
 20
4.600000000000001
 30
0
 11
4.840000000000006
 21
4.84
 31
0
  0
LINE
  8
0
 62
7
 10
3.739999999999998
 20
3.739999999999998
 30
0
 11
3.914999999999998
 21
3.914999999999998
 31
0
  0
LINE
  8
0
 62
7
 10
4.812132034355971
 20
4.600000000000001
 30
0
 11
5.05213203435597
 21
4.84
 31
0
  0
LINE
  8
0
 62
7
 10
3.739999999999998
 20
3.527867965644033
 30
0
 11
3.914999999999998
 21
3.702867965644034
 31
0
  0
LINE
  8
0
 62
7
 10
5.024264068711935
 20
4.600000000000001
 30
0
 11
5.264264068711934
 21
4.84
 31
0
  0
LINE
  8
0
 62
7
 10
3.739999999999998
 20
3.315735931288069
 30
0
 11
3.914999999999998
 21
3.490735931288069
 31
0
  0
LINE
  8
0
 62
7
 10
5.236396103067899
 20
4.600000000000001
 30
0
 11
5.476396103067898
 21
4.84
 31
0
  0
LINE
  8
0
 62
7
 10
3.886396103067893
 20
3.25
 30
0
 11
3.914999999999997
 21
3.278603896932105
 31
0
  0
LINE
  8
0
 62
7
 10
5.448528137423863
 20
4.600000000000001
 30
0
 11
5.688528137423861
 21
4.84
 31
0
  0
LINE
  8
0
 62
7
 10
5.660660171779827
 20
4.600000000000001
 30
0
 11
5.900660171779825
 21
4.84
 31
0
  0
LINE
  8
0
 62
7
 10
5.872792206135791
 20
4.600000000000001
 30
0
 11
6.112792206135789
 21
4.84
 31
0
  0
LINE
  8
0
 62
7
 10
6.084924240491755
 20
4.600000000000001
 30
0
 11
6.324924240491753
 21
4.84
 31
0
  0
LINE
  8
0
 62
7
 10
6.297056274847718
 20
4.600000000000001
 30
0
 11
6.537056274847717
 21
4.84
 31
0
  0
LINE
  8
0
 62
7
 10
6.509188309203682
 20
4.600000000000001
 30
0
 11
6.749188309203681
 21
4.84
 31
0
  0
LINE
  8
0
 62
7
 10
6.721320343559646
 20
4.600000000000001
 30
0
 11
6.961320343559644
 21
4.84
 31
0
  0
LINE
  8
0
 62
7
 10
6.93345237791561
 20
4.600000000000001
 30
0
 11
7.173452377915608
 21
4.84
 31
0
  0
LINE
  8
0
 62
7
 10
7.145584412271574
 20
4.600000000000001
 30
0
 11
7.385584412271572
 21
4.84
 31
0
  0
LINE
  8
0
 62
7
 10
7.357716446627538
 20
4.600000000000001
 30
0
 11
7.597716446627536
 21
4.84
 31
0
  0
LINE
  8
0
 62
7
 10
7.424999999999999
 20
4.455151519016498
 30
0
 11
7.764999999999999
 21
4.795151519016499
 31
0
  0
LINE
  8
0
 62
7
 10
7.424999999999999
 20
4.243019484660534
 30
0
 11
7.599999999999998
 21
4.418019484660532
 31
0
  0
LINE
  8
0
 62
7
 10
7.424999999999999
 20
4.03088745030457
 30
0
 11
7.599999999999998
 21
4.205887450304568
 31
0
  0
LINE
  8
0
 62
7
 10
7.424999999999999
 20
3.818755415948606
 30
0
 11
7.599999999999998
 21
3.993755415948605
 31
0
  0
LINE
  8
0
 62
7
 10
7.424999999999999
 20
3.606623381592642
 30
0
 11
7.599999999999998
 21
3.78162338159264
 31
0
  0
LINE
  8
0
 62
7
 10
7.424999999999999
 20
3.394491347236678
 30
0
 11
7.599999999999998
 21
3.569491347236676
 31
0
  0
LINE
  8
0
 62
7
 10
7.592640687119285
 20
3.35
 30
0
 11
7.599999999999998
 21
3.357359312880712
 31
0
  0
ENDBLK
  8
0
  0
BLOCK
  8
0
  2
*D0
 70
1
 10
0
 20
0
 30
0
  0
LINE
  8
0
 62
7
 10
7.956826893203921
 20
4.392548128087211
 30
0
 11
7.956826893203921
 21
4.6
 31
0
  0
LINE
  8
0
 62
7
 10
7.956826893203921
 20
3.35
 30
0
 11
7.956826893203921
 21
3.64754812808721
 31
0
  0
LINE
  8
0
 62
7
 10
7.6
 20
4.6
 30
0
 11
8.006826893203922
 21
4.6
 31
0
  0
LINE
  8
0
 62
7
 10
7.6
 20
3.35
 30
0
 11
8.006826893203922
 21
3.35
 31
0
  0
LINE
  8
0
 62
7
 10
7.992182232263248
 20
4.564644660940672
 30
0
 11
7.921471554144594
 21
4.635355339059327
 31
0
  0
LINE
  8
0
 62
7
 10
7.921471554144594
 20
3.385355339059327
 30
0
 11
7.992182232263248
 21
3.314644660940672
 31
0
  0
TEXT
  8
0
 62
7
 10
8.001826893203921
 20
3.89754812808721
 30
0
 40
0.1
  1
1,25
 50
90
 41
0.9
  0
ENDBLK
  8
0
  0
BLOCK
  8
0
  2
*D1
 70
1
 10
0
 20
0
 30
0
  0
LINE
  8
0
 62
7
 10
6.10072292113783
 20
5.4634444830523
 30
0
 11
7.424999999999999
 21
5.4634444830523
 31
0
  0
LINE
  8
0
 62
7
 10
3.914999999999998
 20
5.4634444830523
 30
0
 11
5.355722921137829
 21
5.4634444830523
 31
0
  0
LINE
  8
0
 62
7
 10
7.424999999999999
 20
5.119999999999997
 30
0
 11
7.424999999999999
 21
5.5134444830523
 31
0
  0
LINE
  8
0
 62
7
 10
3.914999999999998
 20
5.119999999999997
 30
0
 11
3.914999999999998
 21
5.5134444830523
 31
0
  0
LINE
  8
0
 62
7
 10
3.950355339059325
 20
5.498799822111628
 30
0
 11
3.879644660940671
 21
5.428089143992973
 31
0
  0
LINE
  8
0
 62
7
 10
7.389644660940672
 20
5.428089143992973
 30
0
 11
7.460355339059326
 21
5.498799822111628
 31
0
  0
TEXT
  8
0
 62
7
 10
5.60572292113783
 20
5.4184444830523
 30
0
 40
0.1
  1
3,51
 41
0.9
  0
ENDBLK
  8
0
  0
BLOCK
  8
0
  2
*D2
 70
1
 10
0
 20
0
 30
0
  0
LINE
  8
0
 62
7
 10
3.37260006983481
 20
4.32326510304889
 30
0
 11
3.37260006983481
 21
4.6
 31
0
  0
LINE
  8
0
 62
7
 10
3.37260006983481
 20
3.25
 30
0
 11
3.37260006983481
 21
3.57826510304889
 31
0
  0
LINE
  8
0
 62
7
 10
3.739999999999998
 20
4.6
 30
0
 11
3.32260006983481
 21
4.6
 31
0
  0
LINE
  8
0
 62
7
 10
3.739999999999998
 20
3.25
 30
0
 11
3.32260006983481
 21
3.25
 31
0
  0
LINE
  8
0
 62
7
 10
3.337244730775483
 20
3.285355339059327
 30
0
 11
3.407955408894138
 21
3.214644660940673
 31
0
  0
LINE
  8
0
 62
7
 10
3.407955408894138
 20
4.564644660940672
 30
0
 11
3.337244730775483
 21
4.635355339059327
 31
0
  0
TEXT
  8
0
 62
7
 10
3.41760006983481
 20
3.82826510304889
 30
0
 40
0.1
  1
1,35
 50
90
 41
0.9
  0
ENDBLK
  8
0
  0
BLOCK
  8
0
  2
*D3
 70
1
 10
0
 20
0
 30
0
  0
LINE
  8
0
 62
7
 10
6.016081408618669
 20
11.4910676613865
 30
0
 11
7.424999999999999
 21
11.4910676613865
 31
0
  0
LINE
  8
0
 62
7
 10
3.914999999999997
 20
11.4910676613865
 30
0
 11
5.37108140861867
 21
11.4910676613865
 31
0
  0
LINE
  8
0
 62
7
 10
7.424999999999999
 20
11.2
 30
0
 11
7.424999999999999
 21
11.5410676613865
 31
0
  0
LINE
  8
0
 62
7
 10
3.914999999999997
 20
11.2
 30
0
 11
3.914999999999997
 21
11.5410676613865
 31
0
  0
LINE
  8
0
 62
7
 10
7.389644660940672
 20
11.45571232232717
 30
0
 11
7.460355339059326
 21
11.52642300044583
 31
0
  0
LINE
  8
0
 62
7
 10
3.950355339059325
 20
11.52642300044583
 30
0
 11
3.87964466094067
 21
11.45571232232717
 31
0
  0
TEXT
  8
0
 62
7
 10
5.57108140861867
 20
11.4460676613865
 30
0
 40
0.1
  1
3,51
 41
0.9
  0
ENDBLK
  8
0
  0
BLOCK
  8
0
  2
*D4
 70
1
 10
0
 20
0
 30
0
  0
LINE
  8
0
 62
7
 10
8.20169152467243
 20
10.20778501835749
 30
0
 11
8.20169152467243
 21
11.05
 31
0
  0
LINE
  8
0
 62
7
 10
8.20169152467243
 20
8.300000000000001
 30
0
 11
8.20169152467243
 21
9.127785018357491
 31
0
  0
LINE
  8
0
 62
7
 10
7.749999999999999
 20
11.05
 30
0
 11
8.251691524672431
 21
11.05
 31
0
  0
LINE
  8
0
 62
7
 10
7.749999999999999
 20
8.300000000000001
 30
0
 11
8.251691524672431
 21
8.300000000000001
 31
0
  0
LINE
  8
0
 62
7
 10
8.166336185613103
 20
8.335355339059328
 30
0
 11
8.237046863731758
 21
8.264644660940673
 31
0
  0
LINE
  8
0
 62
7
 10
8.237046863731758
 20
11.01464466094068
 30
0
 11
8.166336185613103
 21
11.08535533905933
 31
0
  0
TEXT
  8
0
 62
7
 10
8.171691524672431
 20
9.530285018357493
 30
0
 40
0.1
  1
2,75
 50
90
 41
0.9
  0
TEXT
  8
0
 62
7
 10
8.331691524672431
 20
9.327785018357492
 30
0
 40
0.1
  1
(260-280)
 50
90
 41
0.9
  0
ENDBLK
  8
0
  0
ENDSEC
  0
SECTION
  2
ENTITIES
  0
INSERT
  8
0
  2
*X0
 10
0
 20
0
 30
0
  0
INSERT
  8
0
  2
*X1
 10
0
 20
0
 30
0
  0
INSERT
  8
0
  2
*X2
 10
0
 20
0
 30
0
  0
INSERT
  8
0
  2
*X3
 10
0
 20
0
 30
0
  0
INSERT
  8
0
  2
*X4
 10
0
 20
0
 30
0
  0
INSERT
  8
0
  2
*X5
 10
0
 20
0
 30
0
  0
INSERT
  8
0
  2
*X6
 10
0
 20
0
 30
0
  0
INSERT
  8
0
  2
*X7
 10
0
 20
0
 30
0
  0
INSERT
  8
0
  2
*X8
 10
0
 20
0
 30
0
  0
INSERT
  8
0
  2
*X9
 10
0
 20
0
 30
0
  0
INSERT
  8
0
  2
*X10
 10
0
 20
0
 30
0
  0
INSERT
  8
0
  2
*X11
 10
0
 20
0
 30
0
  0
INSERT
  8
0
  2
*X12
 10
0
 20
0
 30
0
  0
INSERT
  8
0
  2
*X13
 10
0
 20
0
 30
0
  0
INSERT
  8
0
  2
*X14
 10
0
 20
0
 30
0
  0
INSERT
  8
0
  2
*X15
 10
0
 20
0
 30
0
  0
INSERT
  8
0
  2
*X16
 10
0
 20
0
 30
0
  0
LINE
  8
0
 62
7
 10
6.419999999999999
 20
3.549680824714255
 30
0
 11
6.419999999999999
 21
3.418966571929841
 31
0
  0
LINE
  8
0
 62
7
 10
6.351907582974069
 20
3.595000000000001
 30
0
 11
6.419999999999999
 21
3.549680824714255
 31
0
  0
LINE
  8
0
 62
7
 10
6.159521717011511
 20
3.595000000000001
 30
0
 11
6.257108364953329
 21
3.595000000000001
 31
0
  0
LINE
  8
0
 62
7
 10
6.159521717011511
 20
3.595000000000001
 30
0
 11
6.351907582974069
 21
3.595000000000001
 31
0
  0
LINE
  8
0
 62
7
 10
4.98209551894371
 20
3.595000000000001
 30
0
 11
5.17896909413226
 21
3.595000000000001
 31
0
  0
LINE
  8
0
 62
7
 10
4.919999999999998
 20
3.53980895792305
 30
0
 11
4.98209551894371
 21
3.595000000000001
 31
0
  0
LINE
  8
0
 62
7
 10
4.919999999999998
 20
3.367255452538
 30
0
 11
4.919999999999998
 21
3.46065850150142
 31
0
  0
LINE
  8
0
 62
7
 10
4.919999999999998
 20
3.367255452538
 30
0
 11
4.919999999999998
 21
3.53980895792305
 31
0
  0
LINE
  8
0
 62
7
 10
3.969999999999998
 20
3.25
 30
0
 11
4.919999999999998
 21
3.25
 31
0
  0
LINE
  8
0
 62
7
 10
4.919999999999998
 20
3.25
 30
0
 11
4.919999999999998
 21
3.367255452538
 31
0
  0
LINE
  8
0
 62
7
 10
3.969999999999998
 20
3.72436356589344
 30
0
 11
3.969999999999998
 21
3.25
 31
0
  0
LINE
  8
0
 62
7
 10
3.969999999999998
 20
3.63096051693002
 30
0
 11
4.919999999999998
 21
3.367255452538
 31
0
  0
LINE
  8
0
 62
7
 10
3.969999999999998
 20
4.152964828044371
 30
0
 11
3.969999999999998
 21
3.63096051693002
 31
0
  0
LINE
  8
0
 62
7
 10
3.969999999999998
 20
4.047982893007991
 30
0
 11
4.878146195097299
 21
3.502608928891012
 31
0
  0
LINE
  8
0
 62
7
 10
4.878146195097299
 20
3.502608928891012
 30
0
 11
4.919999999999998
 21
3.53980895792305
 31
0
  0
LINE
  8
0
 62
7
 10
4.163993450187529
 20
4.545000000000001
 30
0
 11
3.969999999999998
 21
4.545000000000001
 31
0
  0
LINE
  8
0
 62
7
 10
3.969999999999998
 20
4.545000000000001
 30
0
 11
3.969999999999998
 21
4.047982893007991
 31
0
  0
LINE
  8
0
 62
7
 10
4.038782490135518
 20
4.545000000000001
 30
0
 11
4.957648573872619
 21
3.595000000000001
 31
0
  0
LINE
  8
0
 62
7
 10
4.957648573872619
 20
3.595000000000001
 30
0
 11
4.98209551894371
 21
3.595000000000001
 31
0
  0
LINE
  8
0
 62
7
 10
4.684254791249598
 20
4.545000000000001
 30
0
 11
4.038782490135518
 21
4.545000000000001
 31
0
  0
LINE
  8
0
 62
7
 10
4.5827827331934
 20
4.545000000000001
 30
0
 11
5.07749703607605
 21
3.595000000000001
 31
0
  0
LINE
  8
0
 62
7
 10
5.07749703607605
 20
3.595000000000001
 30
0
 11
5.294025215719139
 21
3.595000000000001
 31
0
  0
LINE
  8
0
 62
7
 10
5.060737409256741
 20
4.545000000000001
 30
0
 11
4.5827827331934
 21
4.545000000000001
 31
0
  0
LINE
  8
0
 62
7
 10
4.968063507889091
 20
4.545000000000001
 30
0
 11
5.201351314351489
 21
3.595000000000001
 31
0
  0
LINE
  8
0
 62
7
 10
5.201351314351489
 20
3.595000000000001
 30
0
 11
5.504052255904808
 21
3.595000000000001
 31
0
  0
LINE
  8
0
 62
7
 10
5.360043773218099
 20
4.545000000000001
 30
0
 11
4.968063507889091
 21
4.545000000000001
 31
0
  0
LINE
  8
0
 62
7
 10
5.26901559646566
 20
4.545000000000001
 30
0
 11
5.413024079152358
 21
3.595000000000001
 31
0
  0
LINE
  8
0
 62
7
 10
5.413024079152358
 20
3.595000000000001
 30
0
 11
5.714405518682451
 21
3.595000000000001
 31
0
  0
LINE
  8
0
 62
7
 10
5.660482177688482
 20
4.545000000000001
 30
0
 11
5.26901559646566
 21
4.545000000000001
 31
0
  0
LINE
  8
0
 62
7
 10
5.570337310676911
 20
4.545000000000001
 30
0
 11
5.62426065167088
 21
3.595000000000001
 31
0
  0
LINE
  8
0
 62
7
 10
5.62426065167088
 20
3.595000000000001
 30
0
 11
5.925103617894472
 21
3.595000000000001
 31
0
  0
LINE
  8
0
 62
7
 10
5.96211872229492
 20
4.545000000000011
 30
0
 11
5.570337310676911
 21
4.545000000000001
 31
0
  0
LINE
  8
0
 62
7
 10
5.872050432072901
 20
4.54499999999999
 30
0
 11
5.83503532767245
 21
3.595000000000001
 31
0
  0
LINE
  8
0
 62
7
 10
5.83503532767245
 20
3.595000000000001
 30
0
 11
6.136157694488888
 21
3.595000000000001
 31
0
  0
LINE
  8
0
 62
7
 10
6.264990859397299
 20
4.545000000000001
 30
0
 11
5.872050432072901
 21
4.54499999999999
 31
0
  0
LINE
  8
0
 62
7
 10
6.174167029598848
 20
4.545000000000001
 30
0
 11
6.045333864690438
 21
3.595000000000001
 31
0
  0
LINE
  8
0
 62
7
 10
6.045333864690438
 20
3.595000000000001
 30
0
 11
6.159521717011511
 21
3.595000000000001
 31
0
  0
LINE
  8
0
 62
7
 10
6.655313652835798
 20
4.545000000000001
 30
0
 11
6.174167029598848
 21
4.545000000000001
 31
0
  0
LINE
  8
0
 62
7
 10
6.55772700489398
 20
4.545000000000001
 30
0
 11
6.159521717011511
 21
3.595000000000001
 31
0
  0
LINE
  8
0
 62
7
 10
7.122623225298111
 20
4.545000000000001
 30
0
 11
6.55772700489398
 21
4.545000000000001
 31
0
  0
LINE
  8
0
 62
7
 10
7.008258501405018
 20
4.545000000000001
 30
0
 11
6.293758827695049
 21
3.63370113219999
 31
0
  0
LINE
  8
0
 62
7
 10
6.293758827695049
 20
3.63370113219999
 30
0
 11
6.351907582974069
 21
3.595000000000001
 31
0
  0
LINE
  8
0
 62
7
 10
7.369999999999999
 20
4.18893571436627
 30
0
 11
7.369999999999999
 21
4.545000000000001
 31
0
  0
LINE
  8
0
 62
7
 10
7.369999999999999
 20
4.545000000000001
 30
0
 11
7.008258501405018
 21
4.545000000000001
 31
0
  0
LINE
  8
0
 62
7
 10
7.369999999999999
 20
4.301243163848121
 30
0
 11
6.419999999999999
 21
3.59213580494668
 31
0
  0
LINE
  8
0
 62
7
 10
6.419999999999999
 20
3.59213580494668
 30
0
 11
6.419999999999999
 21
3.549680824714255
 31
0
  0
LINE
  8
0
 62
7
 10
7.369999999999999
 20
3.69237472933836
 30
0
 11
7.369999999999999
 21
4.301243163848121
 31
0
  0
LINE
  8
0
 62
7
 10
7.369999999999999
 20
3.78602783692725
 30
0
 11
6.419999999999999
 21
3.512619679518741
 31
0
  0
LINE
  8
0
 62
7
 10
6.419999999999999
 20
3.512619679518741
 30
0
 11
6.419999999999999
 21
3.39
 31
0
  0
LINE
  8
0
 62
7
 10
7.369999999999999
 20
3.39
 30
0
 11
7.369999999999999
 21
3.78602783692725
 31
0
  0
LINE
  8
0
 62
7
 10
4.405761411516498
 20
3.25
 30
0
 11
4.405761411516498
 21
3.59499999999098
 31
0
  0
LINE
  8
0
 62
7
 10
4.920000000009779
 20
4.109238588483501
 30
0
 11
6.420000000053408
 21
4.109238588483501
 31
0
  0
LINE
  8
0
 62
7
 10
6.9342385884835
 20
3.4
 30
0
 11
6.828583489221801
 21
3.461
 31
0
  0
LINE
  8
0
 62
7
 10
6.828583489221801
 20
3.461
 30
0
 11
7.039893687745199
 21
3.461
 31
0
  0
LINE
  8
0
 62
7
 10
7.039893687745199
 20
3.461
 30
0
 11
6.9342385884835
 21
3.4
 31
0
  0
LINE
  8
0
 62
7
 10
6.9342385884835
 20
3.594999999990221
 30
0
 11
6.9342385884835
 21
3.4
 31
0
  0
LINE
  8
0
 62
7
 10
1.615636140000003
 20
8.583333226666666
 30
0
 11
2.08999973
 21
8.583333226666666
 31
0
  0
LINE
  8
0
 62
7
 10
2.08999973
 20
8.518333226666666
 30
0
 11
1.615636140000003
 21
8.518333226666666
 31
0
  0
LINE
  8
0
 62
7
 10
2.08999973
 20
8.583333226666666
 30
0
 11
2.08999973
 21
8.518333226666666
 31
0
  0
LINE
  8
0
 62
7
 10
1.615636140000003
 20
8.518333226666666
 30
0
 11
1.615636140000003
 21
8.583333226666666
 31
0
  0
LINE
  8
0
 62
7
 10
1.97274437
 20
8.701666566666665
 30
0
 11
1.187034830000001
 21
8.701666566666665
 31
0
  0
LINE
  8
0
 62
7
 10
1.187034830000001
 20
8.766666566666663
 30
0
 11
1.97274437
 21
8.766666566666663
 31
0
  0
LINE
  8
0
 62
7
 10
1.97274437
 20
8.766666566666663
 30
0
 11
1.97274437
 21
8.701666566666665
 31
0
  0
LINE
  8
0
 62
7
 10
1.187034830000001
 20
8.701666566666665
 30
0
 11
1.187034830000001
 21
8.766666566666663
 31
0
  0
LINE
  8
0
 62
7
 10
1.837390590000001
 20
8.884999906666664
 30
0
 11
0.7949995400000001
 21
8.884999906666664
 31
0
  0
LINE
  8
0
 62
7
 10
0.7949995400000001
 20
8.949999906666665
 30
0
 11
1.837390590000001
 21
8.949999906666665
 31
0
  0
LINE
  8
0
 62
7
 10
1.837390590000001
 20
8.949999906666665
 30
0
 11
1.837390590000001
 21
8.884999906666664
 31
0
  0
LINE
  8
0
 62
7
 10
0.7949995400000001
 20
8.884999906666664
 30
0
 11
0.7949995400000001
 21
8.949999906666665
 31
0
  0
LINE
  8
0
 62
7
 10
0.7949995400000001
 20
9.133333226666664
 30
0
 11
1.744999540000001
 21
9.133333226666664
 31
0
  0
LINE
  8
0
 62
7
 10
1.744999540000001
 20
9.133333226666664
 30
0
 11
1.744999540000001
 21
9.068333226666665
 31
0
  0
LINE
  8
0
 62
7
 10
0.7949995400000001
 20
9.068333226666665
 30
0
 11
0.7949995400000001
 21
9.133333226666664
 31
0
  0
LINE
  8
0
 62
7
 10
1.744999540000001
 20
9.068333226666665
 30
0
 11
0.7949995400000001
 21
9.068333226666665
 31
0
  0
LINE
  8
0
 62
7
 10
0.794999390000001
 20
9.316666586666663
 30
0
 11
1.744999690000001
 21
9.316666586666663
 31
0
  0
LINE
  8
0
 62
7
 10
1.744999690000001
 20
9.316666586666663
 30
0
 11
1.744999690000001
 21
9.251666586666664
 31
0
  0
LINE
  8
0
 62
7
 10
0.794999390000001
 20
9.251666586666664
 30
0
 11
0.794999390000001
 21
9.316666586666663
 31
0
  0
LINE
  8
0
 62
7
 10
1.744999690000001
 20
9.251666586666664
 30
0
 11
0.794999390000001
 21
9.251666586666664
 31
0
  0
LINE
  8
0
 62
7
 10
0.794999390000001
 20
9.499999946666664
 30
0
 11
1.744999620000001
 21
9.499999946666664
 31
0
  0
LINE
  8
0
 62
7
 10
1.744999620000001
 20
9.499999946666664
 30
0
 11
1.744999620000001
 21
9.434999946666663
 31
0
  0
LINE
  8
0
 62
7
 10
0.794999390000001
 20
9.434999946666663
 30
0
 11
0.794999390000001
 21
9.499999946666664
 31
0
  0
LINE
  8
0
 62
7
 10
1.744999620000001
 20
9.434999946666663
 30
0
 11
0.794999390000001
 21
9.434999946666663
 31
0
  0
LINE
  8
0
 62
7
 10
0.7949995400000001
 20
9.683333226666665
 30
0
 11
1.744999770000001
 21
9.683333226666665
 31
0
  0
LINE
  8
0
 62
7
 10
1.744999770000001
 20
9.683333226666665
 30
0
 11
1.744999770000001
 21
9.618333226666664
 31
0
  0
LINE
  8
0
 62
7
 10
0.7949995400000001
 20
9.618333226666664
 30
0
 11
0.7949995400000001
 21
9.683333226666665
 31
0
  0
LINE
  8
0
 62
7
 10
1.744999770000001
 20
9.618333226666664
 30
0
 11
0.7949995400000001
 21
9.618333226666664
 31
0
  0
LINE
  8
0
 62
7
 10
0.7949995400000001
 20
9.866666666666665
 30
0
 11
1.74499984
 21
9.866666666666665
 31
0
  0
LINE
  8
0
 62
7
 10
1.74499984
 20
9.866666666666665
 30
0
 11
1.74499984
 21
9.801666666666666
 31
0
  0
LINE
  8
0
 62
7
 10
0.7949995400000001
 20
9.801666666666666
 30
0
 11
0.7949995400000001
 21
9.866666666666665
 31
0
  0
LINE
  8
0
 62
7
 10
1.74499984
 20
9.801666666666666
 30
0
 11
0.7949995400000001
 21
9.801666666666666
 31
0
  0
LINE
  8
0
 62
7
 10
0.7949995400000001
 20
10.04999994666667
 30
0
 11
1.744999460000001
 21
10.04999994666667
 31
0
  0
LINE
  8
0
 62
7
 10
1.744999460000001
 20
10.04999994666667
 30
0
 11
1.744999460000001
 21
9.984999946666665
 31
0
  0
LINE
  8
0
 62
7
 10
0.7949995400000001
 20
9.984999946666665
 30
0
 11
0.7949995400000001
 21
10.04999994666667
 31
0
  0
LINE
  8
0
 62
7
 10
1.744999460000001
 20
9.984999946666665
 30
0
 11
0.7949995400000001
 21
9.984999946666665
 31
0
  0
LINE
  8
0
 62
7
 10
0.7949992299999996
 20
10.23333322666666
 30
0
 11
1.744999540000001
 21
10.23333322666666
 31
0
  0
LINE
  8
0
 62
7
 10
1.744999540000001
 20
10.23333322666666
 30
0
 11
1.744999540000001
 21
10.16833322666666
 31
0
  0
LINE
  8
0
 62
7
 10
0.7949992299999996
 20
10.16833322666666
 30
0
 11
0.7949992299999996
 21
10.23333322666666
 31
0
  0
LINE
  8
0
 62
7
 10
1.744999540000001
 20
10.16833322666666
 30
0
 11
0.7949992299999996
 21
10.16833322666666
 31
0
  0
LINE
  8
0
 62
7
 10
0.7949996899999997
 20
10.41666666666667
 30
0
 11
1.745000070000002
 21
10.41666666666667
 31
0
  0
LINE
  8
0
 62
7
 10
1.745000070000002
 20
10.41666666666667
 30
0
 11
1.745000070000002
 21
10.35166666666667
 31
0
  0
LINE
  8
0
 62
7
 10
0.7949996899999997
 20
10.35166666666667
 30
0
 11
0.7949996899999997
 21
10.41666666666667
 31
0
  0
LINE
  8
0
 62
7
 10
1.745000070000002
 20
10.35166666666667
 30
0
 11
0.7949996899999997
 21
10.35166666666667
 31
0
  0
LINE
  8
0
 62
7
 10
1.823244700000001
 20
10.53499994666666
 30
0
 11
0.795
 21
10.53499994666666
 31
0
  0
LINE
  8
0
 62
7
 10
0.795
 20
10.59999994666666
 30
0
 11
1.823244700000001
 21
10.59999994666666
 31
0
  0
LINE
  8
0
 62
7
 10
1.823244700000001
 20
10.59999994666666
 30
0
 11
1.823244700000001
 21
10.53499994666666
 31
0
  0
LINE
  8
0
 62
7
 10
0.795
 20
10.53499994666666
 30
0
 11
0.795
 21
10.59999994666666
 31
0
  0
LINE
  8
0
 62
7
 10
1.921034240000001
 20
10.71833322666666
 30
0
 11
1.038757020000001
 21
10.71833322666666
 31
0
  0
LINE
  8
0
 62
7
 10
1.038757020000001
 20
10.78333322666666
 30
0
 11
1.921034240000001
 21
10.78333322666666
 31
0
  0
LINE
  8
0
 62
7
 10
1.921034240000001
 20
10.78333322666666
 30
0
 11
1.921034240000001
 21
10.71833322666666
 31
0
  0
LINE
  8
0
 62
7
 10
1.038757020000001
 20
10.71833322666666
 30
0
 11
1.038757020000001
 21
10.78333322666666
 31
0
  0
LINE
  8
0
 62
7
 10
1.553972390000001
 20
10.96666666666667
 30
0
 11
1.950000450000003
 21
10.96666666666667
 31
0
  0
LINE
  8
0
 62
7
 10
1.95000045
 20
10.90166666666667
 30
0
 11
1.553972390000001
 21
10.90166666666667
 31
0
  0
LINE
  8
0
 62
7
 10
1.950000450000003
 20
10.96666666666667
 30
0
 11
1.95000045
 21
10.90166666666667
 31
0
  0
LINE
  8
0
 62
7
 10
1.553972390000001
 20
10.90166666666667
 30
0
 11
1.553972390000001
 21
10.96666666666667
 31
0
  0
LINE
  8
0
 62
7
 10
3.969999909999999
 20
8.583333226666666
 30
0
 11
4.91999985
 21
8.583333226666666
 31
0
  0
LINE
  8
0
 62
7
 10
3.969999909999999
 20
8.518333226666666
 30
0
 11
3.969999909999999
 21
8.583333226666666
 31
0
  0
LINE
  8
0
 62
7
 10
4.91999985
 20
8.583333226666666
 30
0
 11
4.91999985
 21
8.518333226666666
 31
0
  0
LINE
  8
0
 62
7
 10
4.91999985
 20
8.518333226666666
 30
0
 11
3.969999909999999
 21
8.518333226666666
 31
0
  0
LINE
  8
0
 62
7
 10
3.969999929999998
 20
8.766666566666665
 30
0
 11
4.92000008
 21
8.766666566666665
 31
0
  0
LINE
  8
0
 62
7
 10
3.969999929999998
 20
8.701666566666665
 30
0
 11
3.969999929999998
 21
8.766666566666665
 31
0
  0
LINE
  8
0
 62
7
 10
4.92000008
 20
8.766666566666665
 30
0
 11
4.92000008
 21
8.701666566666665
 31
0
  0
LINE
  8
0
 62
7
 10
4.92000008
 20
8.701666566666665
 30
0
 11
3.969999929999998
 21
8.701666566666665
 31
0
  0
LINE
  8
0
 62
7
 10
5.03627899
 20
8.884999906666664
 30
0
 11
3.969999929999998
 21
8.884999906666664
 31
0
  0
LINE
  8
0
 62
7
 10
3.969999929999998
 20
8.949999906666665
 30
0
 11
5.03627899
 21
8.949999906666665
 31
0
  0
LINE
  8
0
 62
7
 10
3.969999929999998
 20
8.884999906666664
 30
0
 11
3.969999929999998
 21
8.949999906666665
 31
0
  0
LINE
  8
0
 62
7
 10
5.03627899
 20
8.949999906666665
 30
0
 11
5.03627899
 21
8.884999906666664
 31
0
  0
LINE
  8
0
 62
7
 10
5.178969120000001
 20
9.068333226666665
 30
0
 11
4.03878239
 21
9.068333226666665
 31
0
  0
LINE
  8
0
 62
7
 10
4.03878239
 20
9.133333226666666
 30
0
 11
5.178969120000001
 21
9.133333226666666
 31
0
  0
LINE
  8
0
 62
7
 10
4.03878239
 20
9.068333226666665
 30
0
 11
4.03878239
 21
9.133333226666666
 31
0
  0
LINE
  8
0
 62
7
 10
5.178969120000001
 20
9.133333226666666
 30
0
 11
5.178969120000001
 21
9.068333226666665
 31
0
  0
LINE
  8
0
 62
7
 10
5.294025270000001
 20
9.251666586666667
 30
0
 11
4.582782589999999
 21
9.251666586666667
 31
0
  0
LINE
  8
0
 62
7
 10
4.582782589999999
 20
9.316666586666667
 30
0
 11
5.294025270000001
 21
9.316666586666667
 31
0
  0
LINE
  8
0
 62
7
 10
4.582782589999999
 20
9.251666586666667
 30
0
 11
4.582782589999999
 21
9.316666586666667
 31
0
  0
LINE
  8
0
 62
7
 10
5.294025270000001
 20
9.316666586666667
 30
0
 11
5.294025270000001
 21
9.251666586666667
 31
0
  0
LINE
  8
0
 62
7
 10
5.50405197
 20
9.434999946666668
 30
0
 11
4.96806351
 21
9.434999946666668
 31
0
  0
LINE
  8
0
 62
7
 10
4.96806351
 20
9.499999946666668
 30
0
 11
5.50405197
 21
9.499999946666668
 31
0
  0
LINE
  8
0
 62
7
 10
4.96806351
 20
9.434999946666668
 30
0
 11
4.96806351
 21
9.499999946666668
 31
0
  0
LINE
  8
0
 62
7
 10
5.50405197
 20
9.499999946666668
 30
0
 11
5.50405197
 21
9.434999946666668
 31
0
  0
LINE
  8
0
 62
7
 10
5.714405669999999
 20
9.618333226666666
 30
0
 11
5.26901535
 21
9.618333226666666
 31
0
  0
LINE
  8
0
 62
7
 10
5.26901535
 20
9.683333226666667
 30
0
 11
5.714405669999999
 21
9.683333226666667
 31
0
  0
LINE
  8
0
 62
7
 10
5.26901535
 20
9.618333226666666
 30
0
 11
5.26901535
 21
9.683333226666667
 31
0
  0
LINE
  8
0
 62
7
 10
5.714405669999999
 20
9.683333226666667
 30
0
 11
5.714405669999999
 21
9.618333226666666
 31
0
  0
LINE
  8
0
 62
7
 10
5.96211884
 20
9.801666666666666
 30
0
 11
5.570337220000001
 21
9.801666666666666
 31
0
  0
LINE
  8
0
 62
7
 10
5.570337220000001
 20
9.866666666666665
 30
0
 11
5.96211884
 21
9.866666666666665
 31
0
  0
LINE
  8
0
 62
7
 10
5.570337220000001
 20
9.801666666666666
 30
0
 11
5.570337220000001
 21
9.866666666666665
 31
0
  0
LINE
  8
0
 62
7
 10
5.96211884
 20
9.866666666666665
 30
0
 11
5.96211884
 21
9.801666666666666
 31
0
  0
LINE
  8
0
 62
7
 10
6.26499085
 20
9.984999946666669
 30
0
 11
5.835035399999999
 21
9.984999946666669
 31
0
  0
LINE
  8
0
 62
7
 10
5.835035399999999
 20
10.04999994666667
 30
0
 11
6.26499085
 21
10.04999994666667
 31
0
  0
LINE
  8
0
 62
7
 10
5.835035399999999
 20
9.984999946666669
 30
0
 11
5.835035399999999
 21
10.04999994666667
 31
0
  0
LINE
  8
0
 62
7
 10
6.26499085
 20
10.04999994666667
 30
0
 11
6.26499085
 21
9.984999946666669
 31
0
  0
LINE
  8
0
 62
7
 10
6.65531372
 20
10.16833322666667
 30
0
 11
6.045334019999999
 21
10.16833322666667
 31
0
  0
LINE
  8
0
 62
7
 10
6.045334019999999
 20
10.23333322666667
 30
0
 11
6.65531372
 21
10.23333322666667
 31
0
  0
LINE
  8
0
 62
7
 10
6.045334019999999
 20
10.16833322666667
 30
0
 11
6.045334019999999
 21
10.23333322666667
 31
0
  0
LINE
  8
0
 62
7
 10
6.65531372
 20
10.23333322666667
 30
0
 11
6.65531372
 21
10.16833322666667
 31
0
  0
LINE
  8
0
 62
7
 10
7.12262329
 20
10.35166666666667
 30
0
 11
6.159521639999999
 21
10.35166666666667
 31
0
  0
LINE
  8
0
 62
7
 10
6.159521639999999
 20
10.41666666666667
 30
0
 11
7.12262329
 21
10.41666666666667
 31
0
  0
LINE
  8
0
 62
7
 10
6.159521639999999
 20
10.35166666666667
 30
0
 11
6.159521639999999
 21
10.41666666666667
 31
0
  0
LINE
  8
0
 62
7
 10
7.12262329
 20
10.41666666666667
 30
0
 11
7.12262329
 21
10.35166666666667
 31
0
  0
LINE
  8
0
 62
7
 10
7.369999999999999
 20
10.53499994666667
 30
0
 11
6.29375885
 21
10.53499994666667
 31
0
  0
LINE
  8
0
 62
7
 10
6.29375885
 20
10.59999994666667
 30
0
 11
7.369999999999999
 21
10.59999994666667
 31
0
  0
LINE
  8
0
 62
7
 10
6.29375885
 20
10.53499994666667
 30
0
 11
6.29375885
 21
10.59999994666667
 31
0
  0
LINE
  8
0
 62
7
 10
7.369999999999999
 20
10.59999994666667
 30
0
 11
7.369999999999999
 21
10.53499994666667
 31
0
  0
LINE
  8
0
 62
7
 10
6.419999999999999
 20
10.78333322666667
 30
0
 11
7.369999999999999
 21
10.78333322666667
 31
0
  0
LINE
  8
0
 62
7
 10
6.419999999999999
 20
10.71833322666667
 30
0
 11
6.419999999999999
 21
10.78333322666667
 31
0
  0
LINE
  8
0
 62
7
 10
7.369999999999999
 20
10.78333322666667
 30
0
 11
7.369999999999999
 21
10.71833322666667
 31
0
  0
LINE
  8
0
 62
7
 10
7.369999999999999
 20
10.71833322666667
 30
0
 11
6.419999999999999
 21
10.71833322666667
 31
0
  0
LINE
  8
0
 62
7
  6
DASHED
 10
6.419999999999999
 20
10.96666666666667
 30
0
 11
7.369999999999999
 21
10.96666666666667
 31
0
  0
LINE
  8
0
 62
7
  6
DASHED
 10
6.419999999999999
 20
10.90166666666667
 30
0
 11
6.419999999999999
 21
10.96666666666667
 31
0
  0
LINE
  8
0
 62
7
  6
DASHED
 10
7.369999999999999
 20
10.96666666666667
 30
0
 11
7.369999999999999
 21
10.90166666666667
 31
0
  0
LINE
  8
0
 62
7
  6
DASHED
 10
7.369999999999999
 20
10.90166666666667
 30
0
 11
6.419999999999999
 21
10.90166666666667
 31
0
  0
LINE
  8
0
 62
7
  6
DASHDOT
 10
7.424999999999999
 20
5.269999999999997
 30
0
 11
7.599999999999999
 21
5.269999999999997
 31
0
  0
LINE
  8
0
 62
7
  6
DASHDOT
 10
7.599999999999999
 20
5.269999999999997
 30
0
 11
7.649999999999999
 21
5.269999999999997
 31
0
  0
LINE
  8
0
 62
7
  6
DASHDOT
 10
3.589999999999998
 20
4.84
 30
0
 11
3.589999999999998
 21
4.600000000000001
 31
0
  0
LINE
  8
0
 62
7
  6
DASHDOT
 10
7.765
 20
4.84
 30
0
 11
7.765
 21
4.600000000000001
 31
0
  0
LINE
  8
0
 62
7
  6
DASHDOT
 10
3.589999999999998
 20
4.880000000000001
 30
0
 11
3.589999999999998
 21
4.84
 31
0
  0
LINE
  8
0
 62
7
  6
DASHDOT
 10
7.765
 20
4.880000000000001
 30
0
 11
7.765
 21
4.84
 31
0
  0
LINE
  8
0
 62
7
  6
DASHDOT
 10
3.589999999999998
 20
4.600000000000001
 30
0
 11
3.589999999999998
 21
4.55
 31
0
  0
LINE
  8
0
 62
7
  6
DASHDOT
 10
3.589999999999998
 20
5.119999999999997
 30
0
 11
3.589999999999998
 21
4.880000000000001
 31
0
  0
LINE
  8
0
 62
7
  6
DASHDOT
 10
3.914999999999998
 20
5.269999999999997
 30
0
 11
3.964999999999998
 21
5.269999999999997
 31
0
  0
LINE
  8
0
 62
7
  6
DASHDOT
 10
3.739999999999998
 20
5.269999999999997
 30
0
 11
3.914999999999998
 21
5.269999999999997
 31
0
  0
LINE
  8
0
 62
7
  6
DASHDOT
 10
7.765
 20
4.600000000000001
 30
0
 11
7.765
 21
4.55
 31
0
  0
LINE
  8
0
 62
7
  6
DASHDOT
 10
7.765
 20
5.119999999999997
 30
0
 11
7.765
 21
4.880000000000001
 31
0
  0
LINE
  8
0
 62
7
  6
DASHDOT
 10
7.765
 20
5.169999999999997
 30
0
 11
7.765
 21
5.119999999999997
 31
0
  0
LINE
  8
0
 62
7
  6
DASHDOT
 10
3.589999999999998
 20
5.169999999999997
 30
0
 11
3.589999999999998
 21
5.119999999999997
 31
0
  0
LINE
  8
0
 62
7
  6
DASHDOT
 10
7.374999999999999
 20
5.269999999999997
 30
0
 11
7.424999999999999
 21
5.269999999999997
 31
0
  0
LINE
  8
0
 62
7
  6
DASHDOT
 10
3.689999999999998
 20
5.269999999999997
 30
0
 11
3.739999999999998
 21
5.269999999999997
 31
0
  0
LINE
  8
0
 62
7
 10
3.914999999999998
 20
3.35
 30
0
 11
3.914999999999998
 21
3.4
 31
0
  0
LINE
  8
0
 62
7
  6
DASHDOT
 10
7.424999999999999
 20
3.35
 30
0
 11
3.914999999999998
 21
3.35
 31
0
  0
LINE
  8
0
 62
7
 10
7.424999999999999
 20
3.4
 30
0
 11
7.424999999999999
 21
3.35
 31
0
  0
LINE
  8
0
 62
7
 10
3.914999999999998
 20
3.4
 30
0
 11
3.914999999999998
 21
4.600000000000001
 31
0
  0
LINE
  8
0
 62
7
 10
7.424999999999999
 20
3.4
 30
0
 11
3.914999999999998
 21
3.4
 31
0
  0
LINE
  8
0
 62
7
 10
7.424999999999999
 20
3.35
 30
0
 11
7.599999999999999
 21
3.35
 31
0
  0
LINE
  8
0
 62
7
 10
7.599999999999999
 20
4.600000000000001
 30
0
 11
7.765
 21
4.600000000000001
 31
0
  0
LINE
  8
0
 62
7
 10
7.599999999999999
 20
3.35
 30
0
 11
7.599999999999999
 21
4.600000000000001
 31
0
  0
LINE
  8
0
 62
7
 10
7.424999999999999
 20
4.600000000000001
 30
0
 11
7.424999999999999
 21
3.4
 31
0
  0
LINE
  8
0
 62
7
 10
3.914999999999998
 20
4.600000000000001
 30
0
 11
7.424999999999999
 21
4.600000000000001
 31
0
  0
LINE
  8
0
 62
7
 10
3.739999999999998
 20
4.600000000000001
 30
0
 11
3.739999999999998
 21
3.25
 31
0
  0
LINE
  8
0
 62
7
 10
3.739999999999998
 20
3.25
 30
0
 11
3.914999999999998
 21
3.25
 31
0
  0
LINE
  8
0
 62
7
 10
3.914999999999998
 20
3.25
 30
0
 11
3.914999999999998
 21
3.35
 31
0
  0
LINE
  8
0
 62
7
 10
3.589999999999998
 20
4.600000000000001
 30
0
 11
3.739999999999998
 21
4.600000000000001
 31
0
  0
LINE
  8
0
 62
7
 10
3.589999999999998
 20
4.84
 30
0
 11
7.765
 21
4.84
 31
0
  0
LINE
  8
0
 62
7
 10
3.589999999999998
 20
4.880000000000001
 30
0
 11
7.765
 21
4.880000000000001
 31
0
  0
LINE
  8
0
 62
7
 10
7.599999999999999
 20
5.119999999999997
 30
0
 11
7.765
 21
5.119999999999997
 31
0
  0
LINE
  8
0
 62
7
 10
7.599999999999999
 20
5.269999999999997
 30
0
 11
7.599999999999999
 21
5.119999999999997
 31
0
  0
LINE
  8
0
 62
7
 10
7.424999999999999
 20
5.119999999999997
 30
0
 11
7.424999999999999
 21
5.269999999999997
 31
0
  0
LINE
  8
0
 62
7
 10
3.914999999999998
 20
5.119999999999997
 30
0
 11
7.424999999999999
 21
5.119999999999997
 31
0
  0
LINE
  8
0
 62
7
 10
3.914999999999998
 20
5.269999999999997
 30
0
 11
3.914999999999998
 21
5.119999999999997
 31
0
  0
LINE
  8
0
 62
7
 10
3.739999999999998
 20
5.119999999999997
 30
0
 11
3.739999999999998
 21
5.269999999999997
 31
0
  0
LINE
  8
0
 62
7
 10
3.589999999999998
 20
5.119999999999997
 30
0
 11
3.739999999999998
 21
5.119999999999997
 31
0
  0
LINE
  8
0
 62
7
  6
DASHED
 10
0.7399999999999992
 20
8.1
 30
0
 11
1.99
 21
8.1
 31
0
  0
LINE
  8
0
 62
7
  6
DASHED
 10
0.7400000000000001
 20
8.299999999999999
 30
0
 11
1.99
 21
8.299999999999999
 31
0
  0
LINE
  8
0
 62
7
  6
DASHED
 10
0.7400000000000001
 20
10.85
 30
0
 11
1.99
 21
10.85
 31
0
  0
LINE
  8
0
 62
7
  6
DASHED
 10
0.7400000000000001
 20
11.05
 30
0
 11
1.99
 21
11.05
 31
0
  0
LINE
  8
0
 62
7
  6
DASHDOT
 10
2.29
 20
11.05
 30
0
 11
2.29
 21
10.85
 31
0
  0
LINE
  8
0
 62
7
  6
DASHDOT
 10
2.29
 20
10.85
 30
0
 11
2.29
 21
10.8
 31
0
  0
LINE
  8
0
 62
7
  6
DASHDOT
 10
0.5
 20
11.2
 30
0
 11
0.7400000000000001
 21
11.2
 31
0
  0
LINE
  8
0
 62
7
  6
DASHDOT
 10
0.7400000000000001
 20
11.2
 30
0
 11
0.79
 21
11.2
 31
0
  0
LINE
  8
0
 62
7
  6
DASHDOT
 10
0.7400000000000001
 20
7.949999999999999
 30
0
 11
0.79
 21
7.949999999999999
 31
0
  0
LINE
  8
0
 62
7
  6
DASHDOT
 10
0.5
 20
7.949999999999999
 30
0
 11
0.7400000000000001
 21
7.949999999999999
 31
0
  0
LINE
  8
0
 62
7
  6
DASHDOT
 10
2.29
 20
8.1
 30
0
 11
2.29
 21
8.299999999999999
 31
0
  0
LINE
  8
0
 62
7
  6
DASHDOT
 10
2.29
 20
8.299999999999999
 30
0
 11
2.29
 21
8.399999999999999
 31
0
  0
LINE
  8
0
 62
7
  6
DASHDOT
 10
2.29
 20
11.15
 30
0
 11
2.29
 21
11.05
 31
0
  0
LINE
  8
0
 62
7
 10
1.99
 20
11.15
 30
0
 11
2.29
 21
11.15
 31
0
  0
LINE
  8
0
 62
7
  6
DASHDOT
 10
2.29
 20
8.399999999999999
 30
0
 11
2.289999999999999
 21
8.449999999999999
 31
0
  0
LINE
  8
0
 62
7
 10
1.99
 20
8.399999999999999
 30
0
 11
2.29
 21
8.399999999999999
 31
0
  0
LINE
  8
0
 62
7
  6
DASHDOT
 10
0.45
 20
7.949999999999999
 30
0
 11
0.5
 21
7.949999999999999
 31
0
  0
LINE
  8
0
 62
7
  6
DASHDOT
 10
2.29
 20
8.049999999999999
 30
0
 11
2.29
 21
8.1
 31
0
  0
LINE
  8
0
 62
7
  6
DASHDOT
 10
2.29
 20
11.2
 30
0
 11
2.29
 21
11.15
 31
0
  0
LINE
  8
0
 62
7
  6
DASHDOT
 10
0.45
 20
11.2
 30
0
 11
0.5
 21
11.2
 31
0
  0
LINE
  8
0
 62
7
 10
1.99
 20
8.1
 30
0
 11
2.29
 21
8.1
 31
0
  0
LINE
  8
0
 62
7
 10
1.99
 20
8.299999999999999
 30
0
 11
1.99
 21
8.1
 31
0
  0
LINE
  8
0
 62
7
 10
1.99
 20
8.299999999999999
 30
0
 11
2.29
 21
8.299999999999999
 31
0
  0
LINE
  8
0
 62
7
 10
1.99
 20
11.05
 30
0
 11
2.29
 21
11.05
 31
0
  0
LINE
  8
0
 62
7
 10
1.99
 20
10.85
 30
0
 11
2.29
 21
10.85
 31
0
  0
LINE
  8
0
 62
7
 10
1.99
 20
11.05
 30
0
 11
1.99
 21
10.85
 31
0
  0
LINE
  8
0
 62
7
 10
0.7399999999999992
 20
8.1
 30
0
 11
0.7400000000000001
 21
7.949999999999999
 31
0
  0
LINE
  8
0
 62
7
 10
0.4999999999999991
 20
8.1
 30
0
 11
0.5
 21
8.299999999999999
 31
0
  0
LINE
  8
0
 62
7
 10
0.4999999999999991
 20
8.1
 30
0
 11
0.7399999999999992
 21
8.1
 31
0
  0
LINE
  8
0
 62
7
 10
0.7400000000000001
 20
8.299999999999999
 30
0
 11
0.7399999999999992
 21
8.1
 31
0
  0
LINE
  8
0
 62
7
 10
0.5
 20
8.299999999999999
 30
0
 11
0.5
 21
10.85
 31
0
  0
LINE
  8
0
 62
7
 10
0.5
 20
8.299999999999999
 30
0
 11
0.7400000000000001
 21
8.299999999999999
 31
0
  0
LINE
  8
0
 62
7
 10
0.7400000000000001
 20
10.85
 30
0
 11
0.7400000000000001
 21
8.299999999999999
 31
0
  0
LINE
  8
0
 62
7
 10
0.5
 20
10.85
 30
0
 11
0.5
 21
11.05
 31
0
  0
LINE
  8
0
 62
7
 10
0.5
 20
10.85
 30
0
 11
0.7400000000000001
 21
10.85
 31
0
  0
LINE
  8
0
 62
7
 10
0.7400000000000001
 20
11.05
 30
0
 11
0.7400000000000001
 21
10.85
 31
0
  0
LINE
  8
0
 62
7
 10
0.5
 20
11.05
 30
0
 11
0.5
 21
11.2
 31
0
  0
LINE
  8
0
 62
7
 10
0.5
 20
11.05
 30
0
 11
0.7400000000000001
 21
11.05
 31
0
  0
LINE
  8
0
 62
7
 10
0.7400000000000001
 20
11.2
 30
0
 11
0.7400000000000001
 21
11.05
 31
0
  0
LINE
  8
0
 62
7
 10
0.5
 20
7.949999999999999
 30
0
 11
0.4999999999999991
 21
8.1
 31
0
  0
LINE
  8
0
 62
7
  6
DASHDOT
 10
3.689999999999998
 20
11.2
 30
0
 11
3.739999999999998
 21
11.2
 31
0
  0
LINE
  8
0
 62
7
  6
DASHDOT
 10
3.739999999999998
 20
11.2
 30
0
 11
3.914999999999998
 21
11.2
 31
0
  0
LINE
  8
0
 62
7
  6
DASHDOT
 10
3.589999999999998
 20
11.15
 30
0
 11
3.589999999999998
 21
11.05
 31
0
  0
LINE
  8
0
 62
7
  6
DASHDOT
 10
3.589999999999998
 20
11.05
 30
0
 11
3.589999999999998
 21
10.85
 31
0
  0
LINE
  8
0
 62
7
  6
DASHDOT
 10
7.374999999999999
 20
11.2
 30
0
 11
7.424999999999999
 21
11.2
 31
0
  0
LINE
  8
0
 62
7
  6
DASHDOT
 10
7.424999999999999
 20
11.2
 30
0
 11
7.599999999999999
 21
11.2
 31
0
  0
LINE
  8
0
 62
7
  6
DASHDOT
 10
7.749999999999999
 20
11.15
 30
0
 11
7.749999999999999
 21
11.05
 31
0
  0
LINE
  8
0
 62
7
  6
DASHDOT
 10
7.749999999999999
 20
11.05
 30
0
 11
7.749999999999999
 21
10.85
 31
0
  0
LINE
  8
0
 62
7
  6
DASHDOT
 10
7.374999999999999
 20
7.949999999999999
 30
0
 11
7.424999999999999
 21
7.949999999999999
 31
0
  0
LINE
  8
0
 62
7
  6
DASHDOT
 10
7.424999999999999
 20
7.949999999999999
 30
0
 11
7.599999999999999
 21
7.949999999999999
 31
0
  0
LINE
  8
0
 62
7
  6
DASHDOT
 10
7.749999999999999
 20
8.399999999999999
 30
0
 11
7.749999999999999
 21
8.299999999999999
 31
0
  0
LINE
  8
0
 62
7
  6
DASHDOT
 10
7.749999999999999
 20
8.299999999999999
 30
0
 11
7.749999999999999
 21
8.1
 31
0
  0
LINE
  8
0
 62
7
  6
DASHDOT
 10
3.689999999999998
 20
7.949999999999999
 30
0
 11
3.739999999999998
 21
7.949999999999999
 31
0
  0
LINE
  8
0
 62
7
  6
DASHDOT
 10
3.739999999999998
 20
7.949999999999999
 30
0
 11
3.914999999999998
 21
7.949999999999999
 31
0
  0
LINE
  8
0
 62
7
  6
DASHDOT
 10
3.589999999999998
 20
8.399999999999999
 30
0
 11
3.589999999999998
 21
8.299999999999999
 31
0
  0
LINE
  8
0
 62
7
  6
DASHDOT
 10
3.589999999999998
 20
8.299999999999999
 30
0
 11
3.589999999999998
 21
8.1
 31
0
  0
LINE
  8
0
 62
7
  6
DASHDOT
 10
3.589999999999998
 20
11.2
 30
0
 11
3.589999999999998
 21
11.15
 31
0
  0
LINE
  8
0
 62
7
 10
3.739999999999998
 20
11.2
 30
0
 11
3.739999999999998
 21
11.15
 31
0
  0
LINE
  8
0
 62
7
 10
3.589999999999998
 20
11.15
 30
0
 11
3.739999999999998
 21
11.15
 31
0
  0
LINE
  8
0
 62
7
 10
3.914999999999998
 20
11.2
 30
0
 11
3.914999999999998
 21
11.15
 31
0
  0
LINE
  8
0
 62
7
 10
7.424999999999999
 20
11.2
 30
0
 11
7.424999999999999
 21
11.15
 31
0
  0
LINE
  8
0
 62
7
 10
3.914999999999998
 20
11.15
 30
0
 11
7.424999999999999
 21
11.15
 31
0
  0
LINE
  8
0
 62
7
  6
DASHDOT
 10
7.749999999999999
 20
11.2
 30
0
 11
7.749999999999999
 21
11.15
 31
0
  0
LINE
  8
0
 62
7
 10
7.599999999999999
 20
11.2
 30
0
 11
7.599999999999999
 21
11.15
 31
0
  0
LINE
  8
0
 62
7
 10
7.599999999999999
 20
11.15
 30
0
 11
7.749999999999999
 21
11.15
 31
0
  0
LINE
  8
0
 62
7
  6
DASHDOT
 10
3.589999999999998
 20
8.449999999999999
 30
0
 11
3.589999999999998
 21
8.399999999999999
 31
0
  0
LINE
  8
0
 62
7
 10
3.739999999999998
 20
10.85
 30
0
 11
3.739999999999998
 21
8.399999999999999
 31
0
  0
LINE
  8
0
 62
7
 10
3.589999999999998
 20
8.399999999999999
 30
0
 11
3.739999999999998
 21
8.399999999999999
 31
0
  0
LINE
  8
0
 62
7
 10
3.914999999999998
 20
10.85
 30
0
 11
3.914999999999998
 21
8.399999999999999
 31
0
  0
LINE
  8
0
 62
7
 10
7.424999999999999
 20
10.85
 30
0
 11
7.424999999999999
 21
8.399999999999999
 31
0
  0
LINE
  8
0
 62
7
 10
3.914999999999998
 20
8.399999999999999
 30
0
 11
7.424999999999999
 21
8.399999999999999
 31
0
  0
LINE
  8
0
 62
7
  6
DASHDOT
 10
7.749999999999999
 20
8.449999999999999
 30
0
 11
7.749999999999999
 21
8.399999999999999
 31
0
  0
LINE
  8
0
 62
7
 10
7.599999999999999
 20
10.85
 30
0
 11
7.599999999999999
 21
8.399999999999999
 31
0
  0
LINE
  8
0
 62
7
 10
7.599999999999999
 20
8.399999999999999
 30
0
 11
7.749999999999999
 21
8.399999999999999
 31
0
  0
LINE
  8
0
 62
7
  6
DASHDOT
 10
3.914999999999998
 20
7.949999999999999
 30
0
 11
3.964999999999998
 21
7.949999999999999
 31
0
  0
LINE
  8
0
 62
7
  6
DASHDOT
 10
3.914999999999998
 20
11.2
 30
0
 11
3.964999999999998
 21
11.2
 31
0
  0
LINE
  8
0
 62
7
  6
DASHDOT
 10
7.599999999999999
 20
7.949999999999999
 30
0
 11
7.649999999999999
 21
7.949999999999999
 31
0
  0
LINE
  8
0
 62
7
  6
DASHDOT
 10
7.599999999999999
 20
11.2
 30
0
 11
7.649999999999999
 21
11.2
 31
0
  0
LINE
  8
0
 62
7
  6
DASHDOT
 10
3.589999999999998
 20
10.85
 30
0
 11
3.589999999999998
 21
10.8
 31
0
  0
LINE
  8
0
 62
7
  6
DASHDOT
 10
3.589999999999998
 20
8.1
 30
0
 11
3.589999999999998
 21
8.049999999999999
 31
0
  0
LINE
  8
0
 62
7
  6
DASHDOT
 10
7.749999999999999
 20
10.85
 30
0
 11
7.749999999999999
 21
10.8
 31
0
  0
LINE
  8
0
 62
7
  6
DASHDOT
 10
7.749999999999999
 20
8.1
 30
0
 11
7.749999999999999
 21
8.049999999999999
 31
0
  0
LINE
  8
0
 62
7
 10
3.589999999999998
 20
11.05
 30
0
 11
3.739999999999998
 21
11.05
 31
0
  0
LINE
  8
0
 62
7
 10
3.739999999999998
 20
11.15
 30
0
 11
3.739999999999998
 21
11.05
 31
0
  0
LINE
  8
0
 62
7
 10
3.589999999999998
 20
10.85
 30
0
 11
3.739999999999998
 21
10.85
 31
0
  0
LINE
  8
0
 62
7
 10
3.589999999999998
 20
8.299999999999999
 30
0
 11
3.739999999999998
 21
8.299999999999999
 31
0
  0
LINE
  8
0
 62
7
 10
3.739999999999998
 20
8.399999999999999
 30
0
 11
3.739999999999998
 21
8.299999999999999
 31
0
  0
LINE
  8
0
 62
7
 10
3.589999999999998
 20
8.1
 30
0
 11
3.739999999999998
 21
8.1
 31
0
  0
LINE
  8
0
 62
7
 10
3.739999999999998
 20
8.1
 30
0
 11
3.739999999999998
 21
7.949999999999999
 31
0
  0
LINE
  8
0
 62
7
 10
3.739999999999998
 20
11.05
 30
0
 11
3.914999999999998
 21
11.05
 31
0
  0
LINE
  8
0
 62
7
 10
3.914999999999998
 20
11.15
 30
0
 11
3.914999999999998
 21
11.05
 31
0
  0
LINE
  8
0
 62
7
 10
3.739999999999998
 20
10.85
 30
0
 11
3.914999999999998
 21
10.85
 31
0
  0
LINE
  8
0
 62
7
 10
3.739999999999998
 20
8.299999999999999
 30
0
 11
3.914999999999998
 21
8.299999999999999
 31
0
  0
LINE
  8
0
 62
7
 10
3.914999999999998
 20
8.399999999999999
 30
0
 11
3.914999999999998
 21
8.299999999999999
 31
0
  0
LINE
  8
0
 62
7
 10
3.739999999999998
 20
8.1
 30
0
 11
3.914999999999998
 21
8.1
 31
0
  0
LINE
  8
0
 62
7
 10
3.914999999999998
 20
8.1
 30
0
 11
3.914999999999998
 21
7.949999999999999
 31
0
  0
LINE
  8
0
 62
7
 10
3.914999999999998
 20
11.05
 30
0
 11
7.424999999999999
 21
11.05
 31
0
  0
LINE
  8
0
 62
7
 10
7.424999999999999
 20
11.15
 30
0
 11
7.424999999999999
 21
11.05
 31
0
  0
LINE
  8
0
 62
7
 10
3.914999999999998
 20
10.85
 30
0
 11
7.424999999999999
 21
10.85
 31
0
  0
LINE
  8
0
 62
7
 10
3.914999999999998
 20
8.299999999999999
 30
0
 11
7.424999999999999
 21
8.299999999999999
 31
0
  0
LINE
  8
0
 62
7
 10
7.424999999999999
 20
8.399999999999999
 30
0
 11
7.424999999999999
 21
8.299999999999999
 31
0
  0
LINE
  8
0
 62
7
 10
3.914999999999998
 20
8.1
 30
0
 11
7.424999999999999
 21
8.1
 31
0
  0
LINE
  8
0
 62
7
 10
7.424999999999999
 20
8.1
 30
0
 11
7.424999999999999
 21
7.949999999999999
 31
0
  0
LINE
  8
0
 62
7
 10
7.424999999999999
 20
11.05
 30
0
 11
7.599999999999999
 21
11.05
 31
0
  0
LINE
  8
0
 62
7
 10
7.599999999999999
 20
11.15
 30
0
 11
7.599999999999999
 21
11.05
 31
0
  0
LINE
  8
0
 62
7
 10
7.424999999999999
 20
10.85
 30
0
 11
7.599999999999999
 21
10.85
 31
0
  0
LINE
  8
0
 62
7
 10
7.424999999999999
 20
8.299999999999999
 30
0
 11
7.599999999999999
 21
8.299999999999999
 31
0
  0
LINE
  8
0
 62
7
 10
7.599999999999999
 20
8.399999999999999
 30
0
 11
7.599999999999999
 21
8.299999999999999
 31
0
  0
LINE
  8
0
 62
7
 10
7.424999999999999
 20
8.1
 30
0
 11
7.599999999999999
 21
8.1
 31
0
  0
LINE
  8
0
 62
7
 10
7.599999999999999
 20
8.1
 30
0
 11
7.599999999999999
 21
7.949999999999999
 31
0
  0
LINE
  8
0
 62
7
 10
7.599999999999999
 20
11.05
 30
0
 11
7.749999999999999
 21
11.05
 31
0
  0
LINE
  8
0
 62
7
 10
7.599999999999999
 20
10.85
 30
0
 11
7.749999999999999
 21
10.85
 31
0
  0
LINE
  8
0
 62
7
 10
7.599999999999999
 20
8.299999999999999
 30
0
 11
7.749999999999999
 21
8.299999999999999
 31
0
  0
LINE
  8
0
 62
7
 10
7.599999999999999
 20
8.1
 30
0
 11
7.749999999999999
 21
8.1
 31
0
  0
LINE
  8
0
 62
7
 10
4.82095192826322
 20
4.268151974110031
 30
0
 11
4.82095192826322
 21
4.388151974110031
 31
0
  0
LINE
  8
0
 62
7
 10
4.89655192826322
 20
4.388151974110031
 30
0
 11
4.842551928263219
 21
4.328151974110031
 31
0
  0
LINE
  8
0
 62
7
 10
4.842551928263219
 20
4.328151974110031
 30
0
 11
4.89655192826322
 21
4.268151974110031
 31
0
  0
LINE
  8
0
 62
7
 10
4.842551928263219
 20
4.328151974110031
 30
0
 11
4.82095192826322
 21
4.304151974110031
 31
0
  0
LINE
  8
0
 62
7
 10
5.00455192826322
 20
4.388151974110031
 30
0
 11
4.92895192826322
 21
4.388151974110031
 31
0
  0
LINE
  8
0
 62
7
 10
4.92895192826322
 20
4.388151974110031
 30
0
 11
4.92895192826322
 21
4.328151974110031
 31
0
  0
LINE
  8
0
 62
7
 10
4.92895192826322
 20
4.268151974110031
 30
0
 11
5.00455192826322
 21
4.268151974110031
 31
0
  0
LINE
  8
0
 62
7
 10
4.99375192826322
 20
4.328151974110031
 30
0
 11
4.92895192826322
 21
4.328151974110031
 31
0
  0
LINE
  8
0
 62
7
 10
4.92895192826322
 20
4.328151974110031
 30
0
 11
4.92895192826322
 21
4.268151974110031
 31
0
  0
LINE
  8
0
 62
7
 10
5.036951928263219
 20
4.268151974110031
 30
0
 11
5.036951928263219
 21
4.388151974110031
 31
0
  0
LINE
  8
0
 62
7
 10
5.036951928263219
 20
4.388151974110031
 30
0
 11
5.112551928263219
 21
4.268151974110031
 31
0
  0
LINE
  8
0
 62
7
 10
5.112551928263219
 20
4.268151974110031
 30
0
 11
5.112551928263219
 21
4.388151974110031
 31
0
  0
LINE
  8
0
 62
7
 10
5.14495192826322
 20
4.268151974110031
 30
0
 11
5.14495192826322
 21
4.388151974110031
 31
0
  0
LINE
  8
0
 62
7
 10
5.14495192826322
 20
4.388151974110031
 30
0
 11
5.22055192826322
 21
4.268151974110031
 31
0
  0
LINE
  8
0
 62
7
 10
5.22055192826322
 20
4.268151974110031
 30
0
 11
5.22055192826322
 21
4.388151974110031
 31
0
  0
LINE
  8
0
 62
7
 10
5.32855192826322
 20
4.352151974110032
 30
0
 11
5.325851928263219
 21
4.364151974110031
 31
0
  0
LINE
  8
0
 62
7
 10
5.325851928263219
 20
4.364151974110031
 30
0
 11
5.320451928263219
 21
4.373151974110032
 31
0
  0
LINE
  8
0
 62
7
 10
5.320451928263219
 20
4.373151974110032
 30
0
 11
5.31505192826322
 21
4.379151974110031
 31
0
  0
LINE
  8
0
 62
7
 10
5.31505192826322
 20
4.379151974110031
 30
0
 11
5.30695192826322
 21
4.385151974110031
 31
0
  0
LINE
  8
0
 62
7
 10
5.30695192826322
 20
4.385151974110031
 30
0
 11
5.29885192826322
 21
4.388151974110031
 31
0
  0
LINE
  8
0
 62
7
 10
5.29885192826322
 20
4.388151974110031
 30
0
 11
5.28265192826322
 21
4.388151974110031
 31
0
  0
LINE
  8
0
 62
7
 10
5.28265192826322
 20
4.388151974110031
 30
0
 11
5.27455192826322
 21
4.385151974110031
 31
0
  0
LINE
  8
0
 62
7
 10
5.27455192826322
 20
4.385151974110031
 30
0
 11
5.266451928263219
 21
4.379151974110031
 31
0
  0
LINE
  8
0
 62
7
 10
5.266451928263219
 20
4.379151974110031
 30
0
 11
5.26105192826322
 21
4.373151974110032
 31
0
  0
LINE
  8
0
 62
7
 10
5.26105192826322
 20
4.373151974110032
 30
0
 11
5.255651928263219
 21
4.364151974110031
 31
0
  0
LINE
  8
0
 62
7
 10
5.255651928263219
 20
4.364151974110031
 30
0
 11
5.25295192826322
 21
4.352151974110032
 31
0
  0
LINE
  8
0
 62
7
 10
5.25295192826322
 20
4.352151974110032
 30
0
 11
5.25295192826322
 21
4.304151974110031
 31
0
  0
LINE
  8
0
 62
7
 10
5.25295192826322
 20
4.304151974110031
 30
0
 11
5.255651928263219
 21
4.292151974110031
 31
0
  0
LINE
  8
0
 62
7
 10
5.255651928263219
 20
4.292151974110031
 30
0
 11
5.26105192826322
 21
4.283151974110031
 31
0
  0
LINE
  8
0
 62
7
 10
5.26105192826322
 20
4.283151974110031
 30
0
 11
5.266451928263219
 21
4.277151974110032
 31
0
  0
LINE
  8
0
 62
7
 10
5.266451928263219
 20
4.277151974110032
 30
0
 11
5.27455192826322
 21
4.271151974110031
 31
0
  0
LINE
  8
0
 62
7
 10
5.27455192826322
 20
4.271151974110031
 30
0
 11
5.28265192826322
 21
4.268151974110031
 31
0
  0
LINE
  8
0
 62
7
 10
5.28265192826322
 20
4.268151974110031
 30
0
 11
5.29885192826322
 21
4.268151974110031
 31
0
  0
LINE
  8
0
 62
7
 10
5.29885192826322
 20
4.268151974110031
 30
0
 11
5.30695192826322
 21
4.271151974110031
 31
0
  0
LINE
  8
0
 62
7
 10
5.30695192826322
 20
4.271151974110031
 30
0
 11
5.31505192826322
 21
4.277151974110032
 31
0
  0
LINE
  8
0
 62
7
 10
5.31505192826322
 20
4.277151974110032
 30
0
 11
5.320451928263219
 21
4.283151974110031
 31
0
  0
LINE
  8
0
 62
7
 10
5.320451928263219
 20
4.283151974110031
 30
0
 11
5.325851928263219
 21
4.292151974110031
 31
0
  0
LINE
  8
0
 62
7
 10
5.325851928263219
 20
4.292151974110031
 30
0
 11
5.32855192826322
 21
4.304151974110031
 31
0
  0
LINE
  8
0
 62
7
 10
5.32855192826322
 20
4.304151974110031
 30
0
 11
5.32855192826322
 21
4.328151974110031
 31
0
  0
LINE
  8
0
 62
7
 10
5.32855192826322
 20
4.328151974110031
 30
0
 11
5.29615192826322
 21
4.328151974110031
 31
0
  0
LINE
  8
0
 62
7
 10
5.406851928263219
 20
4.388151974110031
 30
0
 11
5.390651928263219
 21
4.388151974110031
 31
0
  0
LINE
  8
0
 62
7
 10
5.390651928263219
 20
4.388151974110031
 30
0
 11
5.382551928263219
 21
4.385151974110031
 31
0
  0
LINE
  8
0
 62
7
 10
5.382551928263219
 20
4.385151974110031
 30
0
 11
5.37445192826322
 21
4.379151974110031
 31
0
  0
LINE
  8
0
 62
7
 10
5.37445192826322
 20
4.379151974110031
 30
0
 11
5.36905192826322
 21
4.373151974110032
 31
0
  0
LINE
  8
0
 62
7
 10
5.36905192826322
 20
4.373151974110032
 30
0
 11
5.36365192826322
 21
4.364151974110031
 31
0
  0
LINE
  8
0
 62
7
 10
5.36365192826322
 20
4.364151974110031
 30
0
 11
5.36095192826322
 21
4.352151974110032
 31
0
  0
LINE
  8
0
 62
7
 10
5.36095192826322
 20
4.352151974110032
 30
0
 11
5.36095192826322
 21
4.304151974110031
 31
0
  0
LINE
  8
0
 62
7
 10
5.36095192826322
 20
4.304151974110031
 30
0
 11
5.36365192826322
 21
4.292151974110031
 31
0
  0
LINE
  8
0
 62
7
 10
5.36365192826322
 20
4.292151974110031
 30
0
 11
5.36905192826322
 21
4.283151974110031
 31
0
  0
LINE
  8
0
 62
7
 10
5.36905192826322
 20
4.283151974110031
 30
0
 11
5.37445192826322
 21
4.277151974110032
 31
0
  0
LINE
  8
0
 62
7
 10
5.37445192826322
 20
4.277151974110032
 30
0
 11
5.382551928263219
 21
4.271151974110031
 31
0
  0
LINE
  8
0
 62
7
 10
5.382551928263219
 20
4.271151974110031
 30
0
 11
5.390651928263219
 21
4.268151974110031
 31
0
  0
LINE
  8
0
 62
7
 10
5.390651928263219
 20
4.268151974110031
 30
0
 11
5.406851928263219
 21
4.268151974110031
 31
0
  0
LINE
  8
0
 62
7
 10
5.406851928263219
 20
4.268151974110031
 30
0
 11
5.414951928263219
 21
4.271151974110031
 31
0
  0
LINE
  8
0
 62
7
 10
5.414951928263219
 20
4.271151974110031
 30
0
 11
5.42305192826322
 21
4.277151974110032
 31
0
  0
LINE
  8
0
 62
7
 10
5.42305192826322
 20
4.277151974110032
 30
0
 11
5.428451928263221
 21
4.283151974110031
 31
0
  0
LINE
  8
0
 62
7
 10
5.428451928263221
 20
4.283151974110031
 30
0
 11
5.43385192826322
 21
4.292151974110031
 31
0
  0
LINE
  8
0
 62
7
 10
5.43385192826322
 20
4.292151974110031
 30
0
 11
5.43655192826322
 21
4.304151974110031
 31
0
  0
LINE
  8
0
 62
7
 10
5.43655192826322
 20
4.304151974110031
 30
0
 11
5.43655192826322
 21
4.352151974110032
 31
0
  0
LINE
  8
0
 62
7
 10
5.43655192826322
 20
4.352151974110032
 30
0
 11
5.43385192826322
 21
4.364151974110031
 31
0
  0
LINE
  8
0
 62
7
 10
5.43385192826322
 20
4.364151974110031
 30
0
 11
5.428451928263221
 21
4.373151974110032
 31
0
  0
LINE
  8
0
 62
7
 10
5.428451928263221
 20
4.373151974110032
 30
0
 11
5.42305192826322
 21
4.379151974110031
 31
0
  0
LINE
  8
0
 62
7
 10
5.42305192826322
 20
4.379151974110031
 30
0
 11
5.414951928263219
 21
4.385151974110031
 31
0
  0
LINE
  8
0
 62
7
 10
5.414951928263219
 20
4.385151974110031
 30
0
 11
5.406851928263219
 21
4.388151974110031
 31
0
  0
LINE
  8
0
 62
7
 10
5.45815192826322
 20
4.388151974110031
 30
0
 11
5.495951928263221
 21
4.388151974110031
 31
0
  0
LINE
  8
0
 62
7
 10
5.495951928263221
 20
4.388151974110031
 30
0
 11
5.495951928263221
 21
4.268151974110031
 31
0
  0
LINE
  8
0
 62
7
 10
5.495951928263221
 20
4.388151974110031
 30
0
 11
5.533751928263221
 21
4.388151974110031
 31
0
  0
LINE
  8
0
 62
7
 10
5.566151928263221
 20
4.388151974110031
 30
0
 11
5.603951928263221
 21
4.388151974110031
 31
0
  0
LINE
  8
0
 62
7
 10
5.603951928263221
 20
4.388151974110031
 30
0
 11
5.603951928263221
 21
4.268151974110031
 31
0
  0
LINE
  8
0
 62
7
 10
5.603951928263221
 20
4.388151974110031
 30
0
 11
5.641751928263221
 21
4.388151974110031
 31
0
  0
LINE
  8
0
 62
7
 10
5.76055192826322
 20
4.310151974110031
 30
0
 11
5.81455192826322
 21
4.310151974110031
 31
0
  0
LINE
  8
0
 62
7
 10
5.92255192826322
 20
4.388151974110031
 30
0
 11
5.960351928263221
 21
4.388151974110031
 31
0
  0
LINE
  8
0
 62
7
 10
5.960351928263221
 20
4.388151974110031
 30
0
 11
5.960351928263221
 21
4.268151974110031
 31
0
  0
LINE
  8
0
 62
7
 10
5.960351928263221
 20
4.388151974110031
 30
0
 11
5.99815192826322
 21
4.388151974110031
 31
0
  0
LINE
  8
0
 62
7
 10
6.030551928263221
 20
4.268151974110031
 30
0
 11
6.030551928263221
 21
4.388151974110031
 31
0
  0
LINE
  8
0
 62
7
 10
6.030551928263221
 20
4.388151974110031
 30
0
 11
6.081851928263221
 21
4.388151974110031
 31
0
  0
LINE
  8
0
 62
7
 10
6.081851928263221
 20
4.388151974110031
 30
0
 11
6.092651928263221
 21
4.385151974110031
 31
0
  0
LINE
  8
0
 62
7
 10
6.092651928263221
 20
4.385151974110031
 30
0
 11
6.100751928263221
 21
4.379151974110031
 31
0
  0
LINE
  8
0
 62
7
 10
6.100751928263221
 20
4.379151974110031
 30
0
 11
6.103451928263221
 21
4.373151974110032
 31
0
  0
LINE
  8
0
 62
7
 10
6.103451928263221
 20
4.373151974110032
 30
0
 11
6.10615192826322
 21
4.364151974110031
 31
0
  0
LINE
  8
0
 62
7
 10
6.10615192826322
 20
4.364151974110031
 30
0
 11
6.10615192826322
 21
4.352151974110032
 31
0
  0
LINE
  8
0
 62
7
 10
6.10615192826322
 20
4.352151974110032
 30
0
 11
6.103451928263221
 21
4.343151974110032
 31
0
  0
LINE
  8
0
 62
7
 10
6.103451928263221
 20
4.343151974110032
 30
0
 11
6.100751928263221
 21
4.337151974110031
 31
0
  0
LINE
  8
0
 62
7
 10
6.100751928263221
 20
4.337151974110031
 30
0
 11
6.092651928263221
 21
4.331151974110031
 31
0
  0
LINE
  8
0
 62
7
 10
6.092651928263221
 20
4.331151974110031
 30
0
 11
6.081851928263221
 21
4.328151974110031
 31
0
  0
LINE
  8
0
 62
7
 10
6.081851928263221
 20
4.328151974110031
 30
0
 11
6.07375192826322
 21
4.328151974110031
 31
0
  0
LINE
  8
0
 62
7
 10
6.07375192826322
 20
4.328151974110031
 30
0
 11
6.10615192826322
 21
4.268151974110031
 31
0
  0
LINE
  8
0
 62
7
 10
6.07375192826322
 20
4.328151974110031
 30
0
 11
6.030551928263221
 21
4.328151974110031
 31
0
  0
LINE
  8
0
 62
7
 10
6.203351928263221
 20
4.388151974110031
 30
0
 11
6.127751928263221
 21
4.388151974110031
 31
0
  0
LINE
  8
0
 62
7
 10
6.127751928263221
 20
4.388151974110031
 30
0
 11
6.127751928263221
 21
4.328151974110031
 31
0
  0
LINE
  8
0
 62
7
 10
6.127751928263221
 20
4.268151974110031
 30
0
 11
6.203351928263221
 21
4.268151974110031
 31
0
  0
LINE
  8
0
 62
7
 10
6.192551928263221
 20
4.328151974110031
 30
0
 11
6.127751928263221
 21
4.328151974110031
 31
0
  0
LINE
  8
0
 62
7
 10
6.127751928263221
 20
4.328151974110031
 30
0
 11
6.127751928263221
 21
4.268151974110031
 31
0
  0
LINE
  8
0
 62
7
 10
6.235751928263221
 20
4.268151974110031
 30
0
 11
6.235751928263221
 21
4.328151974110031
 31
0
  0
LINE
  8
0
 62
7
 10
6.235751928263221
 20
4.388151974110031
 30
0
 11
6.287051928263222
 21
4.388151974110031
 31
0
  0
LINE
  8
0
 62
7
 10
6.287051928263222
 20
4.388151974110031
 30
0
 11
6.297851928263221
 21
4.385151974110031
 31
0
  0
LINE
  8
0
 62
7
 10
6.297851928263221
 20
4.385151974110031
 30
0
 11
6.305951928263221
 21
4.379151974110031
 31
0
  0
LINE
  8
0
 62
7
 10
6.305951928263221
 20
4.379151974110031
 30
0
 11
6.308651928263221
 21
4.373151974110032
 31
0
  0
LINE
  8
0
 62
7
 10
6.308651928263221
 20
4.373151974110032
 30
0
 11
6.311351928263221
 21
4.364151974110031
 31
0
  0
LINE
  8
0
 62
7
 10
6.311351928263221
 20
4.364151974110031
 30
0
 11
6.311351928263221
 21
4.352151974110032
 31
0
  0
LINE
  8
0
 62
7
 10
6.311351928263221
 20
4.352151974110032
 30
0
 11
6.308651928263221
 21
4.343151974110032
 31
0
  0
LINE
  8
0
 62
7
 10
6.308651928263221
 20
4.343151974110032
 30
0
 11
6.305951928263221
 21
4.337151974110031
 31
0
  0
LINE
  8
0
 62
7
 10
6.305951928263221
 20
4.337151974110031
 30
0
 11
6.297851928263221
 21
4.331151974110031
 31
0
  0
LINE
  8
0
 62
7
 10
6.297851928263221
 20
4.331151974110031
 30
0
 11
6.287051928263222
 21
4.328151974110031
 31
0
  0
LINE
  8
0
 62
7
 10
6.287051928263222
 20
4.328151974110031
 30
0
 11
6.235751928263221
 21
4.328151974110031
 31
0
  0
LINE
  8
0
 62
7
 10
6.235751928263221
 20
4.328151974110031
 30
0
 11
6.235751928263221
 21
4.388151974110031
 31
0
  0
LINE
  8
0
 62
7
 10
6.332951928263221
 20
4.268151974110031
 30
0
 11
6.332951928263221
 21
4.328151974110031
 31
0
  0
LINE
  8
0
 62
7
 10
6.332951928263221
 20
4.388151974110031
 30
0
 11
6.384251928263221
 21
4.388151974110031
 31
0
  0
LINE
  8
0
 62
7
 10
6.384251928263221
 20
4.388151974110031
 30
0
 11
6.395051928263221
 21
4.385151974110031
 31
0
  0
LINE
  8
0
 62
7
 10
6.395051928263221
 20
4.385151974110031
 30
0
 11
6.40315192826322
 21
4.379151974110031
 31
0
  0
LINE
  8
0
 62
7
 10
6.40315192826322
 20
4.379151974110031
 30
0
 11
6.405851928263221
 21
4.373151974110032
 31
0
  0
LINE
  8
0
 62
7
 10
6.405851928263221
 20
4.373151974110032
 30
0
 11
6.408551928263222
 21
4.364151974110031
 31
0
  0
LINE
  8
0
 62
7
 10
6.408551928263222
 20
4.364151974110031
 30
0
 11
6.408551928263222
 21
4.352151974110032
 31
0
  0
LINE
  8
0
 62
7
 10
6.408551928263222
 20
4.352151974110032
 30
0
 11
6.405851928263221
 21
4.343151974110032
 31
0
  0
LINE
  8
0
 62
7
 10
6.405851928263221
 20
4.343151974110032
 30
0
 11
6.40315192826322
 21
4.337151974110031
 31
0
  0
LINE
  8
0
 62
7
 10
6.40315192826322
 20
4.337151974110031
 30
0
 11
6.395051928263221
 21
4.331151974110031
 31
0
  0
LINE
  8
0
 62
7
 10
6.395051928263221
 20
4.331151974110031
 30
0
 11
6.384251928263221
 21
4.328151974110031
 31
0
  0
LINE
  8
0
 62
7
 10
6.384251928263221
 20
4.328151974110031
 30
0
 11
6.332951928263221
 21
4.328151974110031
 31
0
  0
LINE
  8
0
 62
7
 10
6.332951928263221
 20
4.328151974110031
 30
0
 11
6.332951928263221
 21
4.388151974110031
 31
0
  0
LINE
  8
0
 62
7
 10
6.505751928263222
 20
4.388151974110031
 30
0
 11
6.430151928263221
 21
4.388151974110031
 31
0
  0
LINE
  8
0
 62
7
 10
6.430151928263221
 20
4.388151974110031
 30
0
 11
6.430151928263221
 21
4.328151974110031
 31
0
  0
LINE
  8
0
 62
7
 10
6.430151928263221
 20
4.268151974110031
 30
0
 11
6.505751928263222
 21
4.268151974110031
 31
0
  0
LINE
  8
0
 62
7
 10
6.494951928263221
 20
4.328151974110031
 30
0
 11
6.430151928263221
 21
4.328151974110031
 31
0
  0
LINE
  8
0
 62
7
 10
6.430151928263221
 20
4.328151974110031
 30
0
 11
6.430151928263221
 21
4.268151974110031
 31
0
  0
LINE
  8
0
 62
7
 10
4.374999999999999
 20
3.01
 30
0
 11
4.450599999999999
 21
3.01
 31
0
  0
LINE
  8
0
 62
7
 10
4.450599999999999
 20
3.01
 30
0
 11
4.374999999999999
 21
2.890000000000001
 31
0
  0
LINE
  8
0
 62
7
 10
4.374999999999999
 20
2.890000000000001
 30
0
 11
4.450599999999999
 21
2.890000000000001
 31
0
  0
LINE
  8
0
 62
7
 10
4.482999999999999
 20
2.992
 30
0
 11
4.488399999999998
 21
3.001
 31
0
  0
LINE
  8
0
 62
7
 10
4.488399999999998
 20
3.001
 30
0
 11
4.496499999999999
 21
3.007
 31
0
  0
LINE
  8
0
 62
7
 10
4.496499999999999
 20
3.007
 30
0
 11
4.507299999999997
 21
3.01
 31
0
  0
LINE
  8
0
 62
7
 10
4.507299999999997
 20
3.01
 30
0
 11
4.523499999999999
 21
3.01
 31
0
  0
LINE
  8
0
 62
7
 10
4.523499999999999
 20
3.01
 30
0
 11
4.534299999999997
 21
3.007
 31
0
  0
LINE
  8
0
 62
7
 10
4.534299999999997
 20
3.007
 30
0
 11
4.542399999999998
 21
3.001
 31
0
  0
LINE
  8
0
 62
7
 10
4.542399999999998
 20
3.001
 30
0
 11
4.5478
 21
2.992
 31
0
  0
LINE
  8
0
 62
7
 10
4.5478
 20
2.992
 30
0
 11
4.5478
 21
2.98
 31
0
  0
LINE
  8
0
 62
7
 10
4.5478
 20
2.98
 30
0
 11
4.542399999999998
 21
2.968
 31
0
  0
LINE
  8
0
 62
7
 10
4.542399999999998
 20
2.968
 30
0
 11
4.482999999999999
 21
2.890000000000001
 31
0
  0
LINE
  8
0
 62
7
 10
4.482999999999999
 20
2.890000000000001
 30
0
 11
4.5478
 21
2.890000000000001
 31
0
  0
LINE
  8
0
 62
7
 10
4.580199999999998
 20
3.01
 30
0
 11
4.617999999999999
 21
2.890000000000001
 31
0
  0
LINE
  8
0
 62
7
 10
4.617999999999999
 20
2.890000000000001
 30
0
 11
4.655799999999999
 21
3.01
 31
0
  0
LINE
  8
0
 62
7
 10
4.688199999999998
 20
2.992
 30
0
 11
4.693599999999998
 21
3.001
 31
0
  0
LINE
  8
0
 62
7
 10
4.693599999999998
 20
3.001
 30
0
 11
4.701699999999998
 21
3.007
 31
0
  0
LINE
  8
0
 62
7
 10
4.701699999999998
 20
3.007
 30
0
 11
4.712499999999999
 21
3.01
 31
0
  0
LINE
  8
0
 62
7
 10
4.712499999999999
 20
3.01
 30
0
 11
4.728699999999998
 21
3.01
 31
0
  0
LINE
  8
0
 62
7
 10
4.728699999999998
 20
3.01
 30
0
 11
4.736799999999998
 21
3.007
 31
0
  0
LINE
  8
0
 62
7
 10
4.736799999999998
 20
3.007
 30
0
 11
4.744899999999998
 21
3.001
 31
0
  0
LINE
  8
0
 62
7
 10
4.744899999999998
 20
3.001
 30
0
 11
4.750299999999999
 21
2.992
 31
0
  0
LINE
  8
0
 62
7
 10
4.750299999999999
 20
2.992
 30
0
 11
4.752999999999998
 21
2.98
 31
0
  0
LINE
  8
0
 62
7
 10
4.752999999999998
 20
2.98
 30
0
 11
4.752999999999998
 21
2.971
 31
0
  0
LINE
  8
0
 62
7
 10
4.752999999999998
 20
2.971
 30
0
 11
4.750299999999999
 21
2.962
 31
0
  0
LINE
  8
0
 62
7
 10
4.750299999999999
 20
2.962
 30
0
 11
4.744899999999998
 21
2.956
 31
0
  0
LINE
  8
0
 62
7
 10
4.744899999999998
 20
2.956
 30
0
 11
4.731399999999998
 21
2.95
 31
0
  0
LINE
  8
0
 62
7
 10
4.712499999999999
 20
2.95
 30
0
 11
4.731399999999998
 21
2.95
 31
0
  0
LINE
  8
0
 62
7
 10
4.731399999999998
 20
2.95
 30
0
 11
4.744899999999998
 21
2.944
 31
0
  0
LINE
  8
0
 62
7
 10
4.744899999999998
 20
2.944
 30
0
 11
4.750299999999999
 21
2.938
 31
0
  0
LINE
  8
0
 62
7
 10
4.750299999999999
 20
2.938
 30
0
 11
4.752999999999998
 21
2.929
 31
0
  0
LINE
  8
0
 62
7
 10
4.752999999999998
 20
2.929
 30
0
 11
4.752999999999998
 21
2.92
 31
0
  0
LINE
  8
0
 62
7
 10
4.752999999999998
 20
2.92
 30
0
 11
4.750299999999999
 21
2.908
 31
0
  0
LINE
  8
0
 62
7
 10
4.750299999999999
 20
2.908
 30
0
 11
4.744899999999998
 21
2.899
 31
0
  0
LINE
  8
0
 62
7
 10
4.744899999999998
 20
2.899
 30
0
 11
4.736799999999998
 21
2.893
 31
0
  0
LINE
  8
0
 62
7
 10
4.736799999999998
 20
2.893
 30
0
 11
4.728699999999998
 21
2.890000000000001
 31
0
  0
LINE
  8
0
 62
7
 10
4.728699999999998
 20
2.890000000000001
 30
0
 11
4.712499999999999
 21
2.890000000000001
 31
0
  0
LINE
  8
0
 62
7
 10
4.712499999999999
 20
2.890000000000001
 30
0
 11
4.701699999999998
 21
2.893
 31
0
  0
LINE
  8
0
 62
7
 10
4.701699999999998
 20
2.893
 30
0
 11
4.693599999999998
 21
2.899
 31
0
  0
LINE
  8
0
 62
7
 10
4.693599999999998
 20
2.899
 30
0
 11
4.688199999999998
 21
2.908
 31
0
  0
LINE
  8
0
 62
7
 10
4.844799999999998
 20
3.01
 30
0
 11
4.785399999999998
 21
3.01
 31
0
  0
LINE
  8
0
 62
7
 10
4.785399999999998
 20
3.01
 30
0
 11
4.785399999999998
 21
2.95
 31
0
  0
LINE
  8
0
 62
7
 10
4.785399999999998
 20
2.95
 30
0
 11
4.790799999999999
 21
2.959
 31
0
  0
LINE
  8
0
 62
7
 10
4.790799999999999
 20
2.959
 30
0
 11
4.798899999999998
 21
2.965
 31
0
  0
LINE
  8
0
 62
7
 10
4.798899999999998
 20
2.965
 30
0
 11
4.809699999999999
 21
2.968
 31
0
  0
LINE
  8
0
 62
7
 10
4.809699999999999
 20
2.968
 30
0
 11
4.825899999999998
 21
2.968
 31
0
  0
LINE
  8
0
 62
7
 10
4.825899999999998
 20
2.968
 30
0
 11
4.834
 21
2.965
 31
0
  0
LINE
  8
0
 62
7
 10
4.834
 20
2.965
 30
0
 11
4.842099999999999
 21
2.959
 31
0
  0
LINE
  8
0
 62
7
 10
4.842099999999999
 20
2.959
 30
0
 11
4.847499999999998
 21
2.95
 31
0
  0
LINE
  8
0
 62
7
 10
4.847499999999998
 20
2.95
 30
0
 11
4.850199999999998
 21
2.938
 31
0
  0
LINE
  8
0
 62
7
 10
4.850199999999998
 20
2.938
 30
0
 11
4.850199999999998
 21
2.92
 31
0
  0
LINE
  8
0
 62
7
 10
4.850199999999998
 20
2.92
 30
0
 11
4.847499999999998
 21
2.908
 31
0
  0
LINE
  8
0
 62
7
 10
4.847499999999998
 20
2.908
 30
0
 11
4.842099999999999
 21
2.899
 31
0
  0
LINE
  8
0
 62
7
 10
4.842099999999999
 20
2.899
 30
0
 11
4.834
 21
2.893
 31
0
  0
LINE
  8
0
 62
7
 10
4.834
 20
2.893
 30
0
 11
4.825899999999998
 21
2.890000000000001
 31
0
  0
LINE
  8
0
 62
7
 10
4.825899999999998
 20
2.890000000000001
 30
0
 11
4.809699999999999
 21
2.890000000000001
 31
0
  0
LINE
  8
0
 62
7
 10
4.809699999999999
 20
2.890000000000001
 30
0
 11
4.798899999999998
 21
2.893
 31
0
  0
LINE
  8
0
 62
7
 10
4.798899999999998
 20
2.893
 30
0
 11
4.790799999999999
 21
2.899
 31
0
  0
LINE
  8
0
 62
7
 10
4.790799999999999
 20
2.899
 30
0
 11
4.785399999999998
 21
2.908
 31
0
  0
LINE
  8
0
 62
7
 10
4.882599999999999
 20
2.974
 30
0
 11
4.914999999999999
 21
3.01
 31
0
  0
LINE
  8
0
 62
7
 10
4.914999999999999
 20
3.01
 30
0
 11
4.914999999999999
 21
2.890000000000001
 31
0
  0
LINE
  8
0
 62
7
 10
4.947399999999998
 20
2.890000000000001
 30
0
 11
4.947399999999998
 21
3.01
 31
0
  0
LINE
  8
0
 62
7
 10
4.947399999999998
 20
3.01
 30
0
 11
4.998699999999999
 21
3.01
 31
0
  0
LINE
  8
0
 62
7
 10
4.998699999999999
 20
3.01
 30
0
 11
5.009499999999999
 21
3.007
 31
0
  0
LINE
  8
0
 62
7
 10
5.009499999999999
 20
3.007
 30
0
 11
5.017599999999999
 21
3.001
 31
0
  0
LINE
  8
0
 62
7
 10
5.017599999999999
 20
3.001
 30
0
 11
5.020299999999997
 21
2.995
 31
0
  0
LINE
  8
0
 62
7
 10
5.020299999999997
 20
2.995
 30
0
 11
5.022999999999999
 21
2.986
 31
0
  0
LINE
  8
0
 62
7
 10
5.022999999999999
 20
2.986
 30
0
 11
5.022999999999999
 21
2.974
 31
0
  0
LINE
  8
0
 62
7
 10
5.022999999999999
 20
2.974
 30
0
 11
5.020299999999997
 21
2.965
 31
0
  0
LINE
  8
0
 62
7
 10
5.020299999999997
 20
2.965
 30
0
 11
5.017599999999999
 21
2.959
 31
0
  0
LINE
  8
0
 62
7
 10
5.017599999999999
 20
2.959
 30
0
 11
5.009499999999999
 21
2.953
 31
0
  0
LINE
  8
0
 62
7
 10
5.009499999999999
 20
2.953
 30
0
 11
4.998699999999999
 21
2.95
 31
0
  0
LINE
  8
0
 62
7
 10
4.998699999999999
 20
2.95
 30
0
 11
4.990599999999998
 21
2.95
 31
0
  0
LINE
  8
0
 62
7
 10
4.990599999999998
 20
2.95
 30
0
 11
5.022999999999999
 21
2.890000000000001
 31
0
  0
LINE
  8
0
 62
7
 10
4.990599999999998
 20
2.95
 30
0
 11
4.947399999999998
 21
2.95
 31
0
  0
LINE
  8
0
 62
7
 10
5.0446
 20
2.938
 30
0
 11
5.047299999999998
 21
2.95
 31
0
  0
LINE
  8
0
 62
7
 10
5.047299999999998
 20
2.95
 30
0
 11
5.052699999999999
 21
2.959
 31
0
  0
LINE
  8
0
 62
7
 10
5.052699999999999
 20
2.959
 30
0
 11
5.0608
 21
2.965
 31
0
  0
LINE
  8
0
 62
7
 10
5.0608
 20
2.965
 30
0
 11
5.068899999999999
 21
2.968
 31
0
  0
LINE
  8
0
 62
7
 10
5.068899999999999
 20
2.968
 30
0
 11
5.085099999999999
 21
2.968
 31
0
  0
LINE
  8
0
 62
7
 10
5.085099999999999
 20
2.968
 30
0
 11
5.0932
 21
2.965
 31
0
  0
LINE
  8
0
 62
7
 10
5.0932
 20
2.965
 30
0
 11
5.101299999999999
 21
2.959
 31
0
  0
LINE
  8
0
 62
7
 10
5.101299999999999
 20
2.959
 30
0
 11
5.1067
 21
2.95
 31
0
  0
LINE
  8
0
 62
7
 10
5.1067
 20
2.95
 30
0
 11
5.109399999999999
 21
2.938
 31
0
  0
LINE
  8
0
 62
7
 10
5.109399999999999
 20
2.938
 30
0
 11
5.109399999999999
 21
2.92
 31
0
  0
LINE
  8
0
 62
7
 10
5.109399999999999
 20
2.92
 30
0
 11
5.1067
 21
2.908
 31
0
  0
LINE
  8
0
 62
7
 10
5.1067
 20
2.908
 30
0
 11
5.101299999999999
 21
2.899
 31
0
  0
LINE
  8
0
 62
7
 10
5.101299999999999
 20
2.899
 30
0
 11
5.0932
 21
2.893
 31
0
  0
LINE
  8
0
 62
7
 10
5.0932
 20
2.893
 30
0
 11
5.085099999999999
 21
2.890000000000001
 31
0
  0
LINE
  8
0
 62
7
 10
5.085099999999999
 20
2.890000000000001
 30
0
 11
5.068899999999999
 21
2.890000000000001
 31
0
  0
LINE
  8
0
 62
7
 10
5.068899999999999
 20
2.890000000000001
 30
0
 11
5.0608
 21
2.893
 31
0
  0
LINE
  8
0
 62
7
 10
5.0608
 20
2.893
 30
0
 11
5.052699999999999
 21
2.899
 31
0
  0
LINE
  8
0
 62
7
 10
5.052699999999999
 20
2.899
 30
0
 11
5.047299999999998
 21
2.908
 31
0
  0
LINE
  8
0
 62
7
 10
5.047299999999998
 20
2.908
 30
0
 11
5.0446
 21
2.92
 31
0
  0
LINE
  8
0
 62
7
 10
5.0446
 20
2.92
 30
0
 11
5.0446
 21
2.938
 31
0
  0
LINE
  8
0
 62
7
 10
5.0446
 20
2.98
 30
0
 11
5.047299999999998
 21
2.992
 31
0
  0
LINE
  8
0
 62
7
 10
5.047299999999998
 20
2.992
 30
0
 11
5.052699999999999
 21
3.001
 31
0
  0
LINE
  8
0
 62
7
 10
5.052699999999999
 20
3.001
 30
0
 11
5.0608
 21
3.007
 31
0
  0
LINE
  8
0
 62
7
 10
5.0608
 20
3.007
 30
0
 11
5.068899999999999
 21
3.01
 31
0
  0
LINE
  8
0
 62
7
 10
5.068899999999999
 20
3.01
 30
0
 11
5.085099999999999
 21
3.01
 31
0
  0
LINE
  8
0
 62
7
 10
5.085099999999999
 20
3.01
 30
0
 11
5.0932
 21
3.007
 31
0
  0
LINE
  8
0
 62
7
 10
5.0932
 20
3.007
 30
0
 11
5.101299999999999
 21
3.001
 31
0
  0
LINE
  8
0
 62
7
 10
5.101299999999999
 20
3.001
 30
0
 11
5.1067
 21
2.992
 31
0
  0
LINE
  8
0
 62
7
 10
5.0446
 20
2.938
 30
0
 11
5.0446
 21
2.98
 31
0
  0
LINE
  8
0
 62
7
 10
6.874999999999999
 20
2.890000000000001
 30
0
 11
6.874999999999999
 21
2.99
 31
0
  0
LINE
  8
0
 62
7
 10
6.874999999999999
 20
2.99
 30
0
 11
6.937999999999999
 21
2.890000000000001
 31
0
  0
LINE
  8
0
 62
7
 10
6.937999999999999
 20
2.890000000000001
 30
0
 11
6.937999999999999
 21
2.99
 31
0
  0
LINE
  8
0
 62
7
 10
7.018999999999998
 20
2.890000000000001
 30
0
 11
6.965
 21
2.890000000000001
 31
0
  0
LINE
  8
0
 62
7
 10
6.965
 20
2.890000000000001
 30
0
 11
6.965
 21
2.99
 31
0
  0
LINE
  8
0
 62
7
 10
7.045999999999999
 20
2.94
 30
0
 11
7.081999999999998
 21
2.94
 31
0
  0
LINE
  8
0
 62
7
 10
7.081999999999998
 20
2.94
 30
0
 11
7.086499999999998
 21
2.94
 31
0
  0
LINE
  8
0
 62
7
 10
7.086499999999998
 20
2.94
 30
0
 11
7.095499999999999
 21
2.935
 31
0
  0
LINE
  8
0
 62
7
 10
7.095499999999999
 20
2.935
 30
0
 11
7.099999999999999
 21
2.93
 31
0
  0
LINE
  8
0
 62
7
 10
7.099999999999999
 20
2.93
 30
0
 11
7.104499999999999
 21
2.92
 31
0
  0
LINE
  8
0
 62
7
 10
7.104499999999999
 20
2.92
 30
0
 11
7.104499999999999
 21
2.91
 31
0
  0
LINE
  8
0
 62
7
 10
7.104499999999999
 20
2.91
 30
0
 11
7.099999999999999
 21
2.9
 31
0
  0
LINE
  8
0
 62
7
 10
7.099999999999999
 20
2.9
 30
0
 11
7.095499999999999
 21
2.895
 31
0
  0
LINE
  8
0
 62
7
 10
7.095499999999999
 20
2.895
 30
0
 11
7.086499999999998
 21
2.890000000000001
 31
0
  0
LINE
  8
0
 62
7
 10
7.086499999999998
 20
2.890000000000001
 30
0
 11
7.045999999999999
 21
2.890000000000001
 31
0
  0
LINE
  8
0
 62
7
 10
7.045999999999999
 20
2.890000000000001
 30
0
 11
7.045999999999999
 21
2.94
 31
0
  0
LINE
  8
0
 62
7
 10
7.045999999999999
 20
2.99
 30
0
 11
7.079750000000001
 21
2.99
 31
0
  0
LINE
  8
0
 62
7
 10
7.079750000000001
 20
2.99
 30
0
 11
7.091
 21
2.9875
 31
0
  0
LINE
  8
0
 62
7
 10
7.091
 20
2.9875
 30
0
 11
7.097749999999998
 21
2.98
 31
0
  0
LINE
  8
0
 62
7
 10
7.097749999999998
 20
2.98
 30
0
 11
7.099999999999999
 21
2.97
 31
0
  0
LINE
  8
0
 62
7
 10
7.099999999999999
 20
2.97
 30
0
 11
7.099999999999999
 21
2.96
 31
0
  0
LINE
  8
0
 62
7
 10
7.099999999999999
 20
2.96
 30
0
 11
7.095499999999999
 21
2.95
 31
0
  0
LINE
  8
0
 62
7
 10
7.095499999999999
 20
2.95
 30
0
 11
7.088749999999999
 21
2.9425
 31
0
  0
LINE
  8
0
 62
7
 10
7.088749999999999
 20
2.9425
 30
0
 11
7.081999999999998
 21
2.94
 31
0
  0
LINE
  8
0
 62
7
 10
7.045999999999999
 20
2.94
 30
0
 11
7.045999999999999
 21
2.99
 31
0
  0
LINE
  8
0
 62
7
 10
7.24625
 20
2.9425
 30
0
 11
7.239499999999999
 21
2.952500000000001
 31
0
  0
LINE
  8
0
 62
7
 10
7.239499999999999
 20
2.952500000000001
 30
0
 11
7.232749999999999
 21
2.9575
 31
0
  0
LINE
  8
0
 62
7
 10
7.232749999999999
 20
2.9575
 30
0
 11
7.225999999999999
 21
2.96
 31
0
  0
LINE
  8
0
 62
7
 10
7.225999999999999
 20
2.96
 30
0
 11
7.216999999999999
 21
2.96
 31
0
  0
LINE
  8
0
 62
7
 10
7.216999999999999
 20
2.96
 30
0
 11
7.210249999999998
 21
2.9575
 31
0
  0
LINE
  8
0
 62
7
 10
7.210249999999998
 20
2.9575
 30
0
 11
7.2035
 21
2.952500000000001
 31
0
  0
LINE
  8
0
 62
7
 10
7.2035
 20
2.952500000000001
 30
0
 11
7.196749999999999
 21
2.9425
 31
0
  0
LINE
  8
0
 62
7
 10
7.196749999999999
 20
2.9425
 30
0
 11
7.194499999999998
 21
2.935
 31
0
  0
LINE
  8
0
 62
7
 10
7.194499999999998
 20
2.935
 30
0
 11
7.194499999999998
 21
2.915
 31
0
  0
LINE
  8
0
 62
7
 10
7.194499999999998
 20
2.915
 30
0
 11
7.196749999999999
 21
2.9075
 31
0
  0
LINE
  8
0
 62
7
 10
7.196749999999999
 20
2.9075
 30
0
 11
7.2035
 21
2.8975
 31
0
  0
LINE
  8
0
 62
7
 10
7.2035
 20
2.8975
 30
0
 11
7.210249999999998
 21
2.8925
 31
0
  0
LINE
  8
0
 62
7
 10
7.210249999999998
 20
2.8925
 30
0
 11
7.216999999999999
 21
2.890000000000001
 31
0
  0
LINE
  8
0
 62
7
 10
7.216999999999999
 20
2.890000000000001
 30
0
 11
7.225999999999999
 21
2.890000000000001
 31
0
  0
LINE
  8
0
 62
7
 10
7.225999999999999
 20
2.890000000000001
 30
0
 11
7.232749999999999
 21
2.8925
 31
0
  0
LINE
  8
0
 62
7
 10
7.232749999999999
 20
2.8925
 30
0
 11
7.239499999999999
 21
2.8975
 31
0
  0
LINE
  8
0
 62
7
 10
7.239499999999999
 20
2.8975
 30
0
 11
7.24625
 21
2.9075
 31
0
  0
LINE
  8
0
 62
7
 10
7.318249999999999
 20
2.935
 30
0
 11
7.316
 21
2.9425
 31
0
  0
LINE
  8
0
 62
7
 10
7.316
 20
2.9425
 30
0
 11
7.309249999999999
 21
2.952500000000001
 31
0
  0
LINE
  8
0
 62
7
 10
7.309249999999999
 20
2.952500000000001
 30
0
 11
7.302499999999999
 21
2.9575
 31
0
  0
LINE
  8
0
 62
7
 10
7.302499999999999
 20
2.9575
 30
0
 11
7.295749999999998
 21
2.96
 31
0
  0
LINE
  8
0
 62
7
 10
7.295749999999998
 20
2.96
 30
0
 11
7.286749999999998
 21
2.96
 31
0
  0
LINE
  8
0
 62
7
 10
7.286749999999998
 20
2.96
 30
0
 11
7.28
 21
2.9575
 31
0
  0
LINE
  8
0
 62
7
 10
7.28
 20
2.9575
 30
0
 11
7.273249999999999
 21
2.952500000000001
 31
0
  0
LINE
  8
0
 62
7
 10
7.273249999999999
 20
2.952500000000001
 30
0
 11
7.266499999999998
 21
2.9425
 31
0
  0
LINE
  8
0
 62
7
 10
7.266499999999998
 20
2.9425
 30
0
 11
7.264249999999999
 21
2.935
 31
0
  0
LINE
  8
0
 62
7
 10
7.264249999999999
 20
2.935
 30
0
 11
7.264249999999999
 21
2.915
 31
0
  0
LINE
  8
0
 62
7
 10
7.264249999999999
 20
2.915
 30
0
 11
7.266499999999998
 21
2.9075
 31
0
  0
LINE
  8
0
 62
7
 10
7.266499999999998
 20
2.9075
 30
0
 11
7.273249999999999
 21
2.8975
 31
0
  0
LINE
  8
0
 62
7
 10
7.273249999999999
 20
2.8975
 30
0
 11
7.28
 21
2.8925
 31
0
  0
LINE
  8
0
 62
7
 10
7.28
 20
2.8925
 30
0
 11
7.286749999999998
 21
2.890000000000001
 31
0
  0
LINE
  8
0
 62
7
 10
7.286749999999998
 20
2.890000000000001
 30
0
 11
7.295749999999998
 21
2.890000000000001
 31
0
  0
LINE
  8
0
 62
7
 10
7.295749999999998
 20
2.890000000000001
 30
0
 11
7.302499999999999
 21
2.8925
 31
0
  0
LINE
  8
0
 62
7
 10
7.302499999999999
 20
2.8925
 30
0
 11
7.309249999999999
 21
2.8975
 31
0
  0
LINE
  8
0
 62
7
 10
7.309249999999999
 20
2.8975
 30
0
 11
7.316
 21
2.9075
 31
0
  0
LINE
  8
0
 62
7
 10
7.316
 20
2.9075
 30
0
 11
7.318249999999999
 21
2.915
 31
0
  0
LINE
  8
0
 62
7
 10
7.318249999999999
 20
2.96
 30
0
 11
7.318249999999999
 21
2.935
 31
0
  0
LINE
  8
0
 62
7
 10
7.318249999999999
 20
2.8925
 30
0
 11
7.320499999999999
 21
2.890000000000001
 31
0
  0
LINE
  8
0
 62
7
 10
7.320499999999999
 20
2.890000000000001
 30
0
 11
7.322749999999998
 21
2.890000000000001
 31
0
  0
LINE
  8
0
 62
7
 10
7.318249999999999
 20
2.915
 30
0
 11
7.318249999999999
 21
2.8925
 31
0
  0
LINE
  8
0
 62
7
 10
7.318249999999999
 20
2.935
 30
0
 11
7.318249999999999
 21
2.915
 31
0
  0
LINE
  8
0
 62
7
 10
7.340749999999999
 20
2.890000000000001
 30
0
 11
7.340749999999999
 21
2.8925
 31
0
  0
LINE
  8
0
 62
7
 10
7.340749999999999
 20
2.8925
 30
0
 11
7.342999999999998
 21
2.8925
 31
0
  0
LINE
  8
0
 62
7
 10
7.342999999999998
 20
2.8925
 30
0
 11
7.342999999999998
 21
2.890000000000001
 31
0
  0
LINE
  8
0
 62
7
 10
7.342999999999998
 20
2.890000000000001
 30
0
 11
7.340749999999999
 21
2.890000000000001
 31
0
  0
LINE
  8
0
 62
7
 10
7.466749999999999
 20
2.99
 30
0
 11
7.475749999999998
 21
2.99
 31
0
  0
LINE
  8
0
 62
7
 10
7.475749999999998
 20
2.99
 30
0
 11
7.482499999999999
 21
2.9875
 31
0
  0
LINE
  8
0
 62
7
 10
7.482499999999999
 20
2.9875
 30
0
 11
7.486999999999999
 21
2.9825
 31
0
  0
LINE
  8
0
 62
7
 10
7.486999999999999
 20
2.9825
 30
0
 11
7.491499999999998
 21
2.975
 31
0
  0
LINE
  8
0
 62
7
 10
7.491499999999998
 20
2.975
 30
0
 11
7.491499999999998
 21
2.965
 31
0
  0
LINE
  8
0
 62
7
 10
7.491499999999998
 20
2.965
 30
0
 11
7.489249999999998
 21
2.96
 31
0
  0
LINE
  8
0
 62
7
 10
7.489249999999998
 20
2.96
 30
0
 11
7.482499999999999
 21
2.952500000000001
 31
0
  0
LINE
  8
0
 62
7
 10
7.482499999999999
 20
2.952500000000001
 30
0
 11
7.475749999999998
 21
2.95
 31
0
  0
LINE
  8
0
 62
7
 10
7.475749999999998
 20
2.95
 30
0
 11
7.466749999999999
 21
2.95
 31
0
  0
LINE
  8
0
 62
7
 10
7.466749999999999
 20
2.95
 30
0
 11
7.46
 21
2.952500000000001
 31
0
  0
LINE
  8
0
 62
7
 10
7.46
 20
2.952500000000001
 30
0
 11
7.453249999999999
 21
2.96
 31
0
  0
LINE
  8
0
 62
7
 10
7.453249999999999
 20
2.96
 30
0
 11
7.451
 21
2.965
 31
0
  0
LINE
  8
0
 62
7
 10
7.451
 20
2.965
 30
0
 11
7.451
 21
2.975
 31
0
  0
LINE
  8
0
 62
7
 10
7.451
 20
2.975
 30
0
 11
7.455499999999998
 21
2.9825
 31
0
  0
LINE
  8
0
 62
7
 10
7.455499999999998
 20
2.9825
 30
0
 11
7.46
 21
2.9875
 31
0
  0
LINE
  8
0
 62
7
 10
7.46
 20
2.9875
 30
0
 11
7.466749999999999
 21
2.99
 31
0
  0
LINE
  8
0
 62
7
 10
7.466749999999999
 20
2.95
 30
0
 11
7.455499999999998
 21
2.945
 31
0
  0
LINE
  8
0
 62
7
 10
7.455499999999998
 20
2.945
 30
0
 11
7.44875
 21
2.9375
 31
0
  0
LINE
  8
0
 62
7
 10
7.44875
 20
2.9375
 30
0
 11
7.444249999999998
 21
2.9275
 31
0
  0
LINE
  8
0
 62
7
 10
7.444249999999998
 20
2.9275
 30
0
 11
7.444249999999998
 21
2.9125
 31
0
  0
LINE
  8
0
 62
7
 10
7.444249999999998
 20
2.9125
 30
0
 11
7.44875
 21
2.9025
 31
0
  0
LINE
  8
0
 62
7
 10
7.44875
 20
2.9025
 30
0
 11
7.455499999999998
 21
2.895
 31
0
  0
LINE
  8
0
 62
7
 10
7.455499999999998
 20
2.895
 30
0
 11
7.464499999999998
 21
2.890000000000001
 31
0
  0
LINE
  8
0
 62
7
 10
7.464499999999998
 20
2.890000000000001
 30
0
 11
7.477999999999999
 21
2.890000000000001
 31
0
  0
LINE
  8
0
 62
7
 10
7.477999999999999
 20
2.890000000000001
 30
0
 11
7.486999999999999
 21
2.895
 31
0
  0
LINE
  8
0
 62
7
 10
7.486999999999999
 20
2.895
 30
0
 11
7.493749999999999
 21
2.9025
 31
0
  0
LINE
  8
0
 62
7
 10
7.493749999999999
 20
2.9025
 30
0
 11
7.498249999999999
 21
2.9125
 31
0
  0
LINE
  8
0
 62
7
 10
7.498249999999999
 20
2.9125
 30
0
 11
7.498249999999999
 21
2.9275
 31
0
  0
LINE
  8
0
 62
7
 10
7.498249999999999
 20
2.9275
 30
0
 11
7.493749999999999
 21
2.9375
 31
0
  0
LINE
  8
0
 62
7
 10
7.493749999999999
 20
2.9375
 30
0
 11
7.486999999999999
 21
2.945
 31
0
  0
LINE
  8
0
 62
7
 10
7.486999999999999
 20
2.945
 30
0
 11
7.475749999999998
 21
2.95
 31
0
  0
LINE
  8
0
 62
7
 10
7.588249999999999
 20
2.95
 30
0
 11
7.586
 21
2.94
 31
0
  0
LINE
  8
0
 62
7
 10
7.586
 20
2.94
 30
0
 11
7.581499999999998
 21
2.9325
 31
0
  0
LINE
  8
0
 62
7
 10
7.581499999999998
 20
2.9325
 30
0
 11
7.574749999999999
 21
2.9275
 31
0
  0
LINE
  8
0
 62
7
 10
7.574749999999999
 20
2.9275
 30
0
 11
7.567999999999998
 21
2.925
 31
0
  0
LINE
  8
0
 62
7
 10
7.567999999999998
 20
2.925
 30
0
 11
7.554499999999999
 21
2.925
 31
0
  0
LINE
  8
0
 62
7
 10
7.554499999999999
 20
2.925
 30
0
 11
7.547749999999998
 21
2.9275
 31
0
  0
LINE
  8
0
 62
7
 10
7.547749999999998
 20
2.9275
 30
0
 11
7.541
 21
2.9325
 31
0
  0
LINE
  8
0
 62
7
 10
7.541
 20
2.9325
 30
0
 11
7.536499999999998
 21
2.94
 31
0
  0
LINE
  8
0
 62
7
 10
7.536499999999998
 20
2.94
 30
0
 11
7.534249999999999
 21
2.95
 31
0
  0
LINE
  8
0
 62
7
 10
7.534249999999999
 20
2.95
 30
0
 11
7.534249999999999
 21
2.965
 31
0
  0
LINE
  8
0
 62
7
 10
7.534249999999999
 20
2.965
 30
0
 11
7.536499999999998
 21
2.975
 31
0
  0
LINE
  8
0
 62
7
 10
7.536499999999998
 20
2.975
 30
0
 11
7.541
 21
2.9825
 31
0
  0
LINE
  8
0
 62
7
 10
7.541
 20
2.9825
 30
0
 11
7.547749999999998
 21
2.9875
 31
0
  0
LINE
  8
0
 62
7
 10
7.547749999999998
 20
2.9875
 30
0
 11
7.554499999999999
 21
2.99
 31
0
  0
LINE
  8
0
 62
7
 10
7.554499999999999
 20
2.99
 30
0
 11
7.567999999999998
 21
2.99
 31
0
  0
LINE
  8
0
 62
7
 10
7.567999999999998
 20
2.99
 30
0
 11
7.574749999999999
 21
2.9875
 31
0
  0
LINE
  8
0
 62
7
 10
7.574749999999999
 20
2.9875
 30
0
 11
7.581499999999998
 21
2.9825
 31
0
  0
LINE
  8
0
 62
7
 10
7.581499999999998
 20
2.9825
 30
0
 11
7.586
 21
2.975
 31
0
  0
LINE
  8
0
 62
7
 10
7.586
 20
2.975
 30
0
 11
7.588249999999999
 21
2.965
 31
0
  0
LINE
  8
0
 62
7
 10
7.588249999999999
 20
2.965
 30
0
 11
7.588249999999999
 21
2.95
 31
0
  0
LINE
  8
0
 62
7
 10
7.588249999999999
 20
2.915
 30
0
 11
7.586
 21
2.905
 31
0
  0
LINE
  8
0
 62
7
 10
7.586
 20
2.905
 30
0
 11
7.581499999999998
 21
2.8975
 31
0
  0
LINE
  8
0
 62
7
 10
7.581499999999998
 20
2.8975
 30
0
 11
7.574749999999999
 21
2.8925
 31
0
  0
LINE
  8
0
 62
7
 10
7.574749999999999
 20
2.8925
 30
0
 11
7.567999999999998
 21
2.890000000000001
 31
0
  0
LINE
  8
0
 62
7
 10
7.567999999999998
 20
2.890000000000001
 30
0
 11
7.554499999999999
 21
2.890000000000001
 31
0
  0
LINE
  8
0
 62
7
 10
7.554499999999999
 20
2.890000000000001
 30
0
 11
7.547749999999998
 21
2.8925
 31
0
  0
LINE
  8
0
 62
7
 10
7.547749999999998
 20
2.8925
 30
0
 11
7.541
 21
2.8975
 31
0
  0
LINE
  8
0
 62
7
 10
7.541
 20
2.8975
 30
0
 11
7.536499999999998
 21
2.905
 31
0
  0
LINE
  8
0
 62
7
 10
7.588249999999999
 20
2.95
 30
0
 11
7.588249999999999
 21
2.915
 31
0
  0
LINE
  8
0
 62
7
 10
7.738999999999999
 20
2.9425
 30
0
 11
7.73225
 21
2.952500000000001
 31
0
  0
LINE
  8
0
 62
7
 10
7.73225
 20
2.952500000000001
 30
0
 11
7.725499999999998
 21
2.9575
 31
0
  0
LINE
  8
0
 62
7
 10
7.725499999999998
 20
2.9575
 30
0
 11
7.718749999999999
 21
2.96
 31
0
  0
LINE
  8
0
 62
7
 10
7.718749999999999
 20
2.96
 30
0
 11
7.70975
 21
2.96
 31
0
  0
LINE
  8
0
 62
7
 10
7.70975
 20
2.96
 30
0
 11
7.702999999999999
 21
2.9575
 31
0
  0
LINE
  8
0
 62
7
 10
7.702999999999999
 20
2.9575
 30
0
 11
7.696249999999999
 21
2.952500000000001
 31
0
  0
LINE
  8
0
 62
7
 10
7.696249999999999
 20
2.952500000000001
 30
0
 11
7.689499999999999
 21
2.9425
 31
0
  0
LINE
  8
0
 62
7
 10
7.689499999999999
 20
2.9425
 30
0
 11
7.687249999999999
 21
2.935
 31
0
  0
LINE
  8
0
 62
7
 10
7.687249999999999
 20
2.935
 30
0
 11
7.687249999999999
 21
2.915
 31
0
  0
LINE
  8
0
 62
7
 10
7.687249999999999
 20
2.915
 30
0
 11
7.689499999999999
 21
2.9075
 31
0
  0
LINE
  8
0
 62
7
 10
7.689499999999999
 20
2.9075
 30
0
 11
7.696249999999999
 21
2.8975
 31
0
  0
LINE
  8
0
 62
7
 10
7.696249999999999
 20
2.8975
 30
0
 11
7.702999999999999
 21
2.8925
 31
0
  0
LINE
  8
0
 62
7
 10
7.702999999999999
 20
2.8925
 30
0
 11
7.70975
 21
2.890000000000001
 31
0
  0
LINE
  8
0
 62
7
 10
7.70975
 20
2.890000000000001
 30
0
 11
7.718749999999999
 21
2.890000000000001
 31
0
  0
LINE
  8
0
 62
7
 10
7.718749999999999
 20
2.890000000000001
 30
0
 11
7.725499999999998
 21
2.8925
 31
0
  0
LINE
  8
0
 62
7
 10
7.725499999999998
 20
2.8925
 30
0
 11
7.73225
 21
2.8975
 31
0
  0
LINE
  8
0
 62
7
 10
7.73225
 20
2.8975
 30
0
 11
7.738999999999999
 21
2.9075
 31
0
  0
LINE
  8
0
 62
7
 10
7.797499999999999
 20
2.935
 30
0
 11
7.797499999999999
 21
2.890000000000001
 31
0
  0
LINE
  8
0
 62
7
 10
7.756999999999998
 20
2.96
 30
0
 11
7.756999999999998
 21
2.935
 31
0
  0
LINE
  8
0
 62
7
 10
7.756999999999998
 20
2.890000000000001
 30
0
 11
7.756999999999998
 21
2.935
 31
0
  0
LINE
  8
0
 62
7
 10
7.756999999999998
 20
2.935
 30
0
 11
7.759249999999999
 21
2.9475
 31
0
  0
LINE
  8
0
 62
7
 10
7.759249999999999
 20
2.9475
 30
0
 11
7.761499999999998
 21
2.952500000000001
 31
0
  0
LINE
  8
0
 62
7
 10
7.761499999999998
 20
2.952500000000001
 30
0
 11
7.766
 21
2.9575
 31
0
  0
LINE
  8
0
 62
7
 10
7.766
 20
2.9575
 30
0
 11
7.772749999999998
 21
2.96
 31
0
  0
LINE
  8
0
 62
7
 10
7.772749999999998
 20
2.96
 30
0
 11
7.781749999999999
 21
2.96
 31
0
  0
LINE
  8
0
 62
7
 10
7.781749999999999
 20
2.96
 30
0
 11
7.788499999999999
 21
2.9575
 31
0
  0
LINE
  8
0
 62
7
 10
7.788499999999999
 20
2.9575
 30
0
 11
7.792999999999998
 21
2.952500000000001
 31
0
  0
LINE
  8
0
 62
7
 10
7.792999999999998
 20
2.952500000000001
 30
0
 11
7.795249999999999
 21
2.9475
 31
0
  0
LINE
  8
0
 62
7
 10
7.795249999999999
 20
2.9475
 30
0
 11
7.797499999999999
 21
2.935
 31
0
  0
LINE
  8
0
 62
7
 10
7.797499999999999
 20
2.935
 30
0
 11
7.79975
 21
2.9475
 31
0
  0
LINE
  8
0
 62
7
 10
7.79975
 20
2.9475
 30
0
 11
7.801999999999999
 21
2.952500000000001
 31
0
  0
LINE
  8
0
 62
7
 10
7.801999999999999
 20
2.952500000000001
 30
0
 11
7.806499999999999
 21
2.9575
 31
0
  0
LINE
  8
0
 62
7
 10
7.806499999999999
 20
2.9575
 30
0
 11
7.813249999999998
 21
2.96
 31
0
  0
LINE
  8
0
 62
7
 10
7.813249999999998
 20
2.96
 30
0
 11
7.82225
 21
2.96
 31
0
  0
LINE
  8
0
 62
7
 10
7.82225
 20
2.96
 30
0
 11
7.828999999999998
 21
2.9575
 31
0
  0
LINE
  8
0
 62
7
 10
7.8335
 20
2.952500000000001
 30
0
 11
7.828999999999998
 21
2.9575
 31
0
  0
LINE
  8
0
 62
7
 10
7.828999999999998
 20
2.9575
 30
0
 11
7.8335
 21
2.952500000000001
 31
0
  0
LINE
  8
0
 62
7
 10
7.8335
 20
2.952500000000001
 30
0
 11
7.835749999999999
 21
2.9475
 31
0
  0
LINE
  8
0
 62
7
 10
7.835749999999999
 20
2.9475
 30
0
 11
7.837999999999998
 21
2.935
 31
0
  0
LINE
  8
0
 62
7
 10
7.837999999999998
 20
2.935
 30
0
 11
7.837999999999998
 21
2.890000000000001
 31
0
  0
ARC
  8
0
 62
7
 10
4.919761356116779
 20
3.59523864388322
 30
0
 40
0.5140000000000002
 50
89.97339827166013
 51
180.0266017282552
  0
ARC
  8
0
 62
7
 10
6.420238643883221
 20
3.59523864388319
 30
0
 40
0.5139999999999976
 50
359.9733982716635
 51
90.02660172129642
  0
CIRCLE
  8
0
 62
7
 10
4.405761411516498
 20
3.25
 30
0
 40
0.0600000000000005
  0
DIMENSION
  8
0
  6
CONTINUOUS
 62
7
  2
*D0
  3
DMST_1
 10
7.956826893203921
 20
4.6
 30
0
 11
7.956826893203921
 21
4.02004812808721
 31
0
 12
0
 22
0
 32
0
 70
0
 13
7.599999999999999
 23
3.35
 33
0
 14
7.599999999999999
 24
4.600000000000001
 34
0
 50
90
 53
0
  0
DIMENSION
  8
0
  6
CONTINUOUS
 62
7
  2
*D1
  3
DMST_1
 10
7.424999999999999
 20
5.4634444830523
 30
0
 11
5.72822292113783
 21
5.4634444830523
 31
0
 12
0
 22
0
 32
0
 70
0
 13
3.914999999999998
 23
5.119999999999997
 33
0
 14
7.424999999999999
 24
5.119999999999997
 34
0
 53
0
  0
DIMENSION
  8
0
  6
CONTINUOUS
 62
7
  2
*D2
  3
DMST_1
 10
3.37260006983481
 20
4.6
 30
0
 11
3.37260006983481
 21
3.95076510304889
 31
0
 12
0
 22
0
 32
0
 70
0
 13
3.739999999999998
 23
3.25
 33
0
 14
3.739999999999998
 24
4.600000000000001
 34
0
 50
90
 53
0
  0
DIMENSION
  8
0
  6
CONTINUOUS
 62
7
  2
*D3
  3
DMST_2
 10
7.424999999999999
 20
11.4910676613865
 30
0
 11
5.69358140861867
 21
11.4910676613865
 31
0
 12
0
 22
0
 32
0
 70
0
 13
3.914999999999998
 23
11.2
 33
0
 14
7.424999999999999
 24
11.2
 34
0
 53
0
  0
INSERT
  8
0
  2
*D4
 10
0
 20
0
 30
0
  0
ENDSEC
  0
EOF
