  0
SECTION
  2
HEADER
  9
$ACADVER
  1
AC1009
  9
$INSBASE
 10
0
 20
0
  9
$EXTMIN
 10
0.4469125374723031
 20
2.890000000000001
  9
$EXTMAX
 10
8.250000000000005
 20
11.5682681745018
  9
$LIMMIN
 10
0.4469125374723031
 20
2.890000000000001
  9
$LIMMAX
 10
8.250000000000005
 20
11.5682681745018
  9
$VIEWCTR
 10
10
 20
10
  9
$VIEWSIZE
 40
10
  9
$SNAPMODE
 70
0
  9
$SNAPUNIT
 10
1
 20
1
  9
$SNAPBASE
 10
0
 20
0
  9
$SNAPANG
 50
0
  9
$SNAPSTYLE
 70
0
  9
$SNAPISOPAIR
 70
0
  9
$GRIDMODE
 70
0
  9
$GRIDUNIT
 10
0
 20
0
  9
$ORTHOMODE
 70
0
  9
$REGENMODE
 70
1
  9
$FILLMODE
 70
1
  9
$QTEXTMODE
 70
0
  9
$DRAGMODE
 70
2
  9
$LTSCALE
 40
1
  9
$OSMODE
 70
0
  9
$ATTMODE
 70
1
  9
$TEXTSIZE
 40
3.5
  9
$TRACEWID
 40
0.5
  9
$TEXTSTYLE
  7
STANDARD
  9
$CLAYER
  8
0
  9
$CELTYPE
  6
BYLAYER
  9
$CECOLOR
 62
256
  9
$DIMSCALE
 40
1
  9
$DIMASZ
 40
0.18
  9
$DIMEXO
 40
0.0625
  9
$DIMDLI
 40
0.38
  9
$DIMRND
 40
0
  9
$DIMDLE
 40
0
  9
$DIMEXE
 40
0.18
  9
$DIMTP
 40
0
  9
$DIMTM
 40
0
  9
$DIMTXT
 40
0.18
  9
$DIMCEN
 40
0.09
  9
$DIMTSZ
 40
0
  9
$DIMTOL
 70
0
  9
$DIMLIM
 70
0
  9
$DIMTIH
 70
1
  9
$DIMTOH
 70
1
  9
$DIMSE1
 70
0
  9
$DIMSE2
 70
0
  9
$DIMTAD
 70
0
  9
$DIMZIN
 70
0
  9
$DIMBLK
  1

  9
$DIMASO
 70
1
  9
$DIMSHO
 70
1
  9
$DIMPOST
  1

  9
$DIMAPOST
  1

  9
$DIMALT
 70
0
  9
$DIMALTD
 70
2
  9
$DIMALTF
 40
25.4
  9
$DIMLFAC
 40
1
  9
$DIMTOFL
 70
0
  9
$DIMTVP
 40
0
  9
$DIMTIX
 70
0
  9
$DIMSOXD
 70
0
  9
$DIMSAH
 70
0
  9
$DIMBLK1
  1

  9
$DIMBLK2
  1

  9
$DIMSTYLE
  2
*UNNAMED
  9
$DIMCLRD
 70
0
  9
$DIMCLRE
 70
0
  9
$DIMCLRT
 70
0
  9
$DIMTFAC
 40
1
  9
$DIMGAP
 40
0.09
  9
$LUNITS
 70
2
  9
$LUPREC
 70
4
  9
$AXISMODE
 70
0
  9
$AXISUNIT
 10
0
 20
0
  9
$SKETCHINC
 40
0.1
  9
$FILLETRAD
 40
2
  9
$AUNITS
 70
0
  9
$AUPREC
 70
0
  9
$MENU
  1
ACAD
  9
$ELEVATION
 40
0
  9
$THICKNESS
 40
0
  9
$VIEWDIR
 10
0
 20
0
 30
1
  9
$LIMCHECK
 70
0
  9
$BLIPMODE
 70
1
  9
$CHAMFERA
 40
0
  9
$CHAMFERB
 40
0
  9
$FASTZOOM
 70
1
  9
$SKPOLY
 70
0
  9
$ANGBASE
 50
0
  9
$ANGDIR
 70
0
  9
$PDMODE
 70
0
  9
$PDSIZE
 40
0
  9
$PLINEWID
 40
0
  9
$COORDS
 70
2
  0
ENDSEC
  0
SECTION
  2
TABLES
  0
TABLE
  2
DIMSTYLE
 70
2
  0
DIMSTYLE
  2
DMST_1
 70
0
  3

  4

  5

  6

  7

 40
1
 41
0.1
 42
0
 43
0.7
 44
0.2
 45
0
 46
0
 47
0
 48
0
140
0.1
141
0
142
0.1
143
25.4
144
1
145
0
146
1
147
0.25
 71
0
 72
0
 73
0
 74
0
 75
0
 76
0
 77
0
 78
9
170
0
171
2
172
0
173
0
174
0
175
0
176
7
177
7
178
7
  0
DIMSTYLE
  2
DMST_2
 70
0
  3

  4

  5

  6

  7

 40
1
 41
0.1
 42
0
 43
0.7
 44
0.2
 45
0
 46
0
 47
0
 48
0
140
0.1
141
0
142
0.1
143
25.4
144
1
145
0
146
1
147
0.2
 71
0
 72
0
 73
0
 74
0
 75
0
 76
0
 77
0
 78
9
170
0
171
2
172
0
173
0
174
0
175
0
176
7
177
7
178
7
  0
ENDTAB
  0
TABLE
  2
LTYPE
 70
9
  0
LTYPE
  2
CONTINUOUS
 70
64
  3
Solid line
 72
65
 73
0
 40
0
  0
LTYPE
  2
BORDER
 70
64
  3
__ __ . __ __ .
 72
65
 73
6
 40
0.3996570869836354
 49
0.1141877391381816
 49
-0.05709386956909078
 49
0.1141877391381816
 49
-0.05709386956909078
 49
0
 49
-0.05709386956909078
  0
LTYPE
  2
CENTER
 70
64
  3
____ _ ____ _
 72
65
 73
4
 40
0.4567509565527262
 49
0.2854693478454539
 49
-0.05709386956909078
 49
0.05709386956909078
 49
-0.05709386956909078
  0
LTYPE
  2
DASHDOT
 70
64
  3
__ . __ . __ .
 72
65
 73
4
 40
0.2283754782763631
 49
0.1141877391381816
 49
-0.05709386956909078
 49
0
 49
-0.05709386956909078
  0
LTYPE
  2
DASHED
 70
64
  3
__ __ __ __ __
 72
65
 73
2
 40
0.1712816087072723
 49
0.1141877391381816
 49
-0.05709386956909078
  0
LTYPE
  2
DIVIDE
 70
64
  3
__ . . __ . . 
 72
65
 73
6
 40
0.2854693478454539
 49
0.1141877391381816
 49
-0.05709386956909078
 49
0
 49
-0.05709386956909078
 49
0
 49
-0.05709386956909078
  0
LTYPE
  2
DOT
 70
64
  3
..............
 72
65
 73
4
 40
0.1141877391381816
 49
0
 49
-0.05709386956909078
 49
0
 49
-0.05709386956909078
  0
LTYPE
  2
HIDDEN
 70
64
  3
_ _ _ _ _ _ _
 72
65
 73
2
 40
0.08564080435363616
 49
0.05709386956909078
 49
-0.02854693478454539
  0
LTYPE
  2
PHANTOM
 70
64
  3
_____ _ _ _____ _ _ 
 72
65
 73
6
 40
0.5709386956909078
 49
0.2854693478454539
 49
-0.05709386956909078
 49
0.05709386956909078
 49
-0.05709386956909078
 49
0.05709386956909078
 49
-0.05709386956909078
  0
ENDTAB
  0
TABLE
  2
LAYER
 70
2
  0
LAYER
  2
0
 70
0
 62
7
  6
CONTINUOUS
  0
ENDTAB
  0
TABLE
  2
STYLE
 70
4
  0
STYLE
  2
STANDARD
 70
0
 40
0
 41
1
 50
0
 71
0
 42
3.5
  3
txt
  4

  0
STYLE
  2
SIMPLEX
 70
0
 40
0
 41
1
 50
0
 71
0
 42
3.5
  3
simplex
  4

  0
STYLE
  2
COMPLEX
 70
0
 40
0
 41
1
 50
0
 71
0
 42
3.5
  3
complex
  4

  0
STYLE
  2
ITALIC
 70
0
 40
0
 41
1
 50
0
 71
0
 42
3.5
  3
italic
  4

  0
ENDTAB
  0
TABLE
  2
VIEW
 70
0
  0
ENDTAB
  0
ENDSEC
  0
SECTION
  2
BLOCKS
  0
BLOCK
  8
0
  2
*X0
 70
1
 10
0
 20
0
 30
0
  0
LINE
  8
0
 62
7
  6
DASHED
 10
7.960000000000005
 20
8.27819805153395
 30
0
 11
7.98180194846605
 21
8.299999999999997
 31
0
  0
LINE
  8
0
 62
7
  6
DASHED
 10
7.993933982822019
 20
8.1
 30
0
 11
8.193933982822013
 21
8.299999999999997
 31
0
  0
LINE
  8
0
 62
7
 10
7.960000000000006
 20
8.172132034355968
 30
0
 11
8.087867965644033
 21
8.299999999999995
 31
0
  0
LINE
  8
0
 62
7
 10
8.100000000000001
 20
8.1
 30
0
 11
8.200000000000005
 21
8.200000000000003
 31
0
  0
ENDBLK
  8
0
  0
BLOCK
  8
0
  2
*X1
 70
1
 10
0
 20
0
 30
0
  0
LINE
  8
0
 62
7
  6
DASHED
 10
7.960000000000003
 20
11.03591449816148
 30
0
 11
7.974085501838521
 21
11.05
 31
0
  0
LINE
  8
0
 62
7
  6
DASHED
 10
7.986217536194484
 20
10.85
 30
0
 11
8.186217536194485
 21
11.05
 31
0
  0
LINE
  8
0
 62
7
  6
DASHED
 10
8.198349570550448
 20
10.85
 30
0
 11
8.200000000000005
 21
10.85165042944956
 31
0
  0
LINE
  8
0
 62
7
 10
7.960000000000005
 20
10.9298484809835
 30
0
 11
8.080151519016503
 21
11.05
 31
0
  0
LINE
  8
0
 62
7
 10
8.092283553372466
 20
10.85
 30
0
 11
8.200000000000005
 21
10.95771644662754
 31
0
  0
ENDBLK
  8
0
  0
BLOCK
  8
0
  2
*X2
 70
1
 10
0
 20
0
 30
0
  0
LINE
  8
0
 62
7
  6
DASHED
 10
6.510000000000005
 20
10.85870670429727
 30
0
 11
6.701293295702733
 21
11.05
 31
0
  0
LINE
  8
0
 62
7
  6
DASHED
 10
6.713425330058697
 20
10.85
 30
0
 11
6.810000000000005
 21
10.94657466994131
 31
0
  0
LINE
  8
0
 62
7
 10
6.510000000000005
 20
10.96477272147525
 30
0
 11
6.595227278524753
 21
11.05
 31
0
  0
LINE
  8
0
 62
7
 10
6.607359312880718
 20
10.85
 30
0
 11
6.807359312880717
 21
11.05
 31
0
  0
ENDBLK
  8
0
  0
BLOCK
  8
0
  2
*X3
 70
1
 10
0
 20
0
 30
0
  0
LINE
  8
0
 62
7
  6
DASHED
 10
6.510000000000003
 20
8.100990257669734
 30
0
 11
6.709009742330265
 21
8.299999999999995
 31
0
  0
LINE
  8
0
 62
7
  6
DASHED
 10
6.721141776686233
 20
8.099999999999998
 30
0
 11
6.810000000000006
 21
8.188858223313773
 31
0
  0
LINE
  8
0
 62
7
 10
6.510000000000006
 20
8.207056274847718
 30
0
 11
6.602943725152285
 21
8.299999999999997
 31
0
  0
LINE
  8
0
 62
7
 10
6.615075759508249
 20
8.099999999999998
 30
0
 11
6.810000000000006
 21
8.294924240491754
 31
0
  0
ENDBLK
  8
0
  0
BLOCK
  8
0
  2
*X4
 70
1
 10
0
 20
0
 30
0
  0
LINE
  8
0
 62
7
 10
7.974085501838521
 20
11.05
 30
0
 11
8.12408550183852
 21
11.2
 31
0
  0
LINE
  8
0
 62
7
 10
8.186217536194485
 20
11.05
 30
0
 11
8.200000000000005
 21
11.06378246380552
 31
0
  0
LINE
  8
0
 62
7
 10
7.960000000000005
 20
11.14198051533947
 30
0
 11
8.018019484660536
 21
11.2
 31
0
  0
LINE
  8
0
 62
7
 10
8.080151519016503
 20
11.05
 30
0
 11
8.200000000000003
 21
11.1698484809835
 31
0
  0
ENDBLK
  8
0
  0
BLOCK
  8
0
  2
*X5
 70
1
 10
0
 20
0
 30
0
  0
LINE
  8
0
 62
7
 10
7.960000000000006
 20
10.82378246380552
 30
0
 11
7.986217536194484
 21
10.85
 31
0
  0
LINE
  8
0
 62
7
 10
7.960000000000006
 20
10.61165042944955
 30
0
 11
8.198349570550448
 21
10.85
 31
0
  0
LINE
  8
0
 62
7
 10
7.960000000000006
 20
10.39951839509359
 30
0
 11
8.200000000000005
 21
10.63951839509359
 31
0
  0
LINE
  8
0
 62
7
 10
7.960000000000006
 20
10.18738636073763
 30
0
 11
8.200000000000005
 21
10.42738636073762
 31
0
  0
LINE
  8
0
 62
7
 10
7.960000000000006
 20
9.975254326381663
 30
0
 11
8.200000000000005
 21
10.21525432638166
 31
0
  0
LINE
  8
0
 62
7
 10
7.960000000000006
 20
9.763122292025699
 30
0
 11
8.200000000000005
 21
10.0031222920257
 31
0
  0
LINE
  8
0
 62
7
 10
7.960000000000006
 20
9.550990257669735
 30
0
 11
8.200000000000005
 21
9.790990257669733
 31
0
  0
LINE
  8
0
 62
7
 10
7.960000000000006
 20
9.338858223313771
 30
0
 11
8.200000000000005
 21
9.57885822331377
 31
0
  0
LINE
  8
0
 62
7
 10
7.960000000000006
 20
9.126726188957807
 30
0
 11
8.200000000000005
 21
9.366726188957806
 31
0
  0
LINE
  8
0
 62
7
 10
7.960000000000006
 20
8.914594154601843
 30
0
 11
8.200000000000005
 21
9.154594154601842
 31
0
  0
LINE
  8
0
 62
7
 10
7.960000000000006
 20
8.70246212024588
 30
0
 11
8.200000000000005
 21
8.942462120245878
 31
0
  0
LINE
  8
0
 62
7
 10
7.960000000000006
 20
8.490330085889916
 30
0
 11
8.200000000000005
 21
8.730330085889914
 31
0
  0
LINE
  8
0
 62
7
 10
7.98180194846605
 20
8.299999999999997
 30
0
 11
8.200000000000005
 21
8.51819805153395
 31
0
  0
LINE
  8
0
 62
7
 10
8.193933982822013
 20
8.299999999999997
 30
0
 11
8.200000000000005
 21
8.306066017177987
 31
0
  0
LINE
  8
0
 62
7
 10
7.960000000000006
 20
10.71771644662754
 30
0
 11
8.092283553372464
 21
10.85
 31
0
  0
LINE
  8
0
 62
7
 10
7.960000000000006
 20
10.50558441227157
 30
0
 11
8.200000000000006
 21
10.74558441227157
 31
0
  0
LINE
  8
0
 62
7
 10
7.960000000000006
 20
10.29345237791561
 30
0
 11
8.200000000000006
 21
10.53345237791561
 31
0
  0
LINE
  8
0
 62
7
 10
7.960000000000006
 20
10.08132034355964
 30
0
 11
8.200000000000006
 21
10.32132034355964
 31
0
  0
LINE
  8
0
 62
7
 10
7.960000000000006
 20
9.869188309203681
 30
0
 11
8.200000000000006
 21
10.10918830920368
 31
0
  0
LINE
  8
0
 62
7
 10
7.960000000000006
 20
9.657056274847717
 30
0
 11
8.200000000000006
 21
9.897056274847715
 31
0
  0
LINE
  8
0
 62
7
 10
7.960000000000006
 20
9.444924240491753
 30
0
 11
8.200000000000006
 21
9.684924240491751
 31
0
  0
LINE
  8
0
 62
7
 10
7.960000000000006
 20
9.232792206135789
 30
0
 11
8.200000000000006
 21
9.472792206135788
 31
0
  0
LINE
  8
0
 62
7
 10
7.960000000000006
 20
9.020660171779825
 30
0
 11
8.200000000000006
 21
9.260660171779824
 31
0
  0
LINE
  8
0
 62
7
 10
7.960000000000006
 20
8.808528137423862
 30
0
 11
8.200000000000006
 21
9.04852813742386
 31
0
  0
LINE
  8
0
 62
7
 10
7.960000000000006
 20
8.596396103067898
 30
0
 11
8.200000000000006
 21
8.836396103067896
 31
0
  0
LINE
  8
0
 62
7
 10
7.960000000000006
 20
8.384264068711934
 30
0
 11
8.200000000000006
 21
8.624264068711932
 31
0
  0
LINE
  8
0
 62
7
 10
8.087867965644033
 20
8.299999999999995
 30
0
 11
8.200000000000006
 21
8.412132034355968
 31
0
  0
ENDBLK
  8
0
  0
BLOCK
  8
0
  2
*X6
 70
1
 10
0
 20
0
 30
0
  0
LINE
  8
0
 62
7
 10
7.960000000000005
 20
8.066066017177986
 30
0
 11
7.993933982822019
 21
8.1
 31
0
  0
LINE
  8
0
 62
7
 10
8.056066017177983
 20
7.95
 30
0
 11
8.200000000000005
 21
8.093933982822019
 31
0
  0
LINE
  8
0
 62
7
 10
7.960000000000006
 20
7.960000000000004
 30
0
 11
8.100000000000001
 21
8.1
 31
0
  0
LINE
  8
0
 62
7
 10
8.162132034355965
 20
7.949999999999999
 30
0
 11
8.200000000000005
 21
7.987867965644039
 31
0
  0
ENDBLK
  8
0
  0
BLOCK
  8
0
  2
*X7
 70
1
 10
0
 20
0
 30
0
  0
LINE
  8
0
 62
7
  6
DASHED
 10
0.9500000000000002
 20
11.0262716319083
 30
0
 11
0.9737283680917019
 21
11.05
 31
0
  0
LINE
  8
0
 62
7
  6
DASHED
 10
0.9858604024476656
 20
10.85
 30
0
 11
1.185860402447666
 21
11.05
 31
0
  0
LINE
  8
0
 62
7
  6
DASHED
 10
1.19799243680363
 20
10.85
 30
0
 11
1.397992436803631
 21
11.05
 31
0
  0
LINE
  8
0
 62
7
  6
DASHED
 10
1.410124471159594
 20
10.85
 30
0
 11
1.610124471159595
 21
11.05
 31
0
  0
LINE
  8
0
 62
7
  6
DASHED
 10
1.622256505515558
 20
10.85
 30
0
 11
1.822256505515559
 21
11.05
 31
0
  0
LINE
  8
0
 62
7
  6
DASHED
 10
1.834388539871523
 20
10.85
 30
0
 11
2.034388539871523
 21
11.05
 31
0
  0
LINE
  8
0
 62
7
  6
DASHED
 10
2.046520574227487
 20
10.85
 30
0
 11
2.246520574227488
 21
11.05
 31
0
  0
LINE
  8
0
 62
7
  6
DASHED
 10
2.258652608583451
 20
10.85
 30
0
 11
2.458652608583452
 21
11.05
 31
0
  0
LINE
  8
0
 62
7
  6
DASHED
 10
2.470784642939416
 20
10.85
 30
0
 11
2.670784642939416
 21
11.05
 31
0
  0
LINE
  8
0
 62
7
  6
DASHED
 10
2.68291667729538
 20
10.85
 30
0
 11
2.88291667729538
 21
11.05
 31
0
  0
LINE
  8
0
 62
7
  6
DASHED
 10
2.895048711651344
 20
10.85
 30
0
 11
3.095048711651345
 21
11.05
 31
0
  0
LINE
  8
0
 62
7
  6
DASHED
 10
3.107180746007308
 20
10.85
 30
0
 11
3.307180746007309
 21
11.05
 31
0
  0
LINE
  8
0
 62
7
  6
DASHED
 10
3.319312780363273
 20
10.85
 30
0
 11
3.519312780363273
 21
11.05
 31
0
  0
LINE
  8
0
 62
7
  6
DASHED
 10
3.531444814719237
 20
10.85
 30
0
 11
3.731444814719238
 21
11.05
 31
0
  0
LINE
  8
0
 62
7
  6
DASHED
 10
3.743576849075201
 20
10.85
 30
0
 11
3.943576849075202
 21
11.05
 31
0
  0
LINE
  8
0
 62
7
  6
DASHED
 10
3.955708883431166
 20
10.85
 30
0
 11
4.155708883431166
 21
11.05
 31
0
  0
LINE
  8
0
 62
7
  6
DASHED
 10
4.16784091778713
 20
10.85
 30
0
 11
4.36784091778713
 21
11.05
 31
0
  0
LINE
  8
0
 62
7
  6
DASHED
 10
4.379972952143094
 20
10.85
 30
0
 11
4.579972952143094
 21
11.05
 31
0
  0
LINE
  8
0
 62
7
  6
DASHED
 10
4.592104986499058
 20
10.85
 30
0
 11
4.792104986499058
 21
11.05
 31
0
  0
LINE
  8
0
 62
7
  6
DASHED
 10
4.804237020855021
 20
10.85
 30
0
 11
5.004237020855022
 21
11.05
 31
0
  0
LINE
  8
0
 62
7
  6
DASHED
 10
5.016369055210985
 20
10.85
 30
0
 11
5.216369055210985
 21
11.05
 31
0
  0
LINE
  8
0
 62
7
  6
DASHED
 10
5.228501089566949
 20
10.85
 30
0
 11
5.235000000000005
 21
10.85649891043305
 31
0
  0
LINE
  8
0
 62
7
 10
0.9500000000000002
 20
10.92020561473032
 30
0
 11
1.079794385269683
 21
11.05
 31
0
  0
LINE
  8
0
 62
7
 10
1.091926419625648
 20
10.85
 30
0
 11
1.291926419625648
 21
11.05
 31
0
  0
LINE
  8
0
 62
7
 10
1.304058453981612
 20
10.85
 30
0
 11
1.504058453981612
 21
11.05
 31
0
  0
LINE
  8
0
 62
7
 10
1.516190488337577
 20
10.85
 30
0
 11
1.716190488337576
 21
11.05
 31
0
  0
LINE
  8
0
 62
7
 10
1.728322522693541
 20
10.85
 30
0
 11
1.928322522693541
 21
11.05
 31
0
  0
LINE
  8
0
 62
7
 10
1.940454557049505
 20
10.85
 30
0
 11
2.140454557049505
 21
11.05
 31
0
  0
LINE
  8
0
 62
7
 10
2.152586591405469
 20
10.85
 30
0
 11
2.352586591405469
 21
11.05
 31
0
  0
LINE
  8
0
 62
7
 10
2.364718625761434
 20
10.85
 30
0
 11
2.564718625761433
 21
11.05
 31
0
  0
LINE
  8
0
 62
7
 10
2.576850660117398
 20
10.85
 30
0
 11
2.776850660117398
 21
11.05
 31
0
  0
LINE
  8
0
 62
7
 10
2.788982694473362
 20
10.85
 30
0
 11
2.988982694473362
 21
11.05
 31
0
  0
LINE
  8
0
 62
7
 10
3.001114728829327
 20
10.85
 30
0
 11
3.201114728829326
 21
11.05
 31
0
  0
LINE
  8
0
 62
7
 10
3.213246763185291
 20
10.85
 30
0
 11
3.413246763185291
 21
11.05
 31
0
  0
LINE
  8
0
 62
7
 10
3.425378797541255
 20
10.85
 30
0
 11
3.625378797541255
 21
11.05
 31
0
  0
LINE
  8
0
 62
7
 10
3.637510831897219
 20
10.85
 30
0
 11
3.837510831897219
 21
11.05
 31
0
  0
LINE
  8
0
 62
7
 10
3.849642866253184
 20
10.85
 30
0
 11
4.049642866253183
 21
11.05
 31
0
  0
LINE
  8
0
 62
7
 10
4.061774900609148
 20
10.85
 30
0
 11
4.261774900609147
 21
11.05
 31
0
  0
LINE
  8
0
 62
7
 10
4.273906934965112
 20
10.85
 30
0
 11
4.473906934965111
 21
11.05
 31
0
  0
LINE
  8
0
 62
7
 10
4.486038969321076
 20
10.85
 30
0
 11
4.686038969321075
 21
11.05
 31
0
  0
LINE
  8
0
 62
7
 10
4.698171003677039
 20
10.85
 30
0
 11
4.898171003677039
 21
11.05
 31
0
  0
LINE
  8
0
 62
7
 10
4.910303038033003
 20
10.85
 30
0
 11
5.110303038033003
 21
11.05
 31
0
  0
LINE
  8
0
 62
7
 10
5.122435072388967
 20
10.85
 30
0
 11
5.235000000000003
 21
10.96256492761104
 31
0
  0
ENDBLK
  8
0
  0
BLOCK
  8
0
  2
*X8
 70
1
 10
0
 20
0
 30
0
  0
LINE
  8
0
 62
7
  6
DASHED
 10
0.9499999999999997
 20
8.268555185280764
 30
0
 11
0.9814448147192327
 21
8.299999999999997
 31
0
  0
LINE
  8
0
 62
7
  6
DASHED
 10
0.9935768490751991
 20
8.1
 30
0
 11
1.193576849075197
 21
8.299999999999997
 31
0
  0
LINE
  8
0
 62
7
  6
DASHED
 10
1.205708883431163
 20
8.1
 30
0
 11
1.405708883431161
 21
8.299999999999997
 31
0
  0
LINE
  8
0
 62
7
  6
DASHED
 10
1.417840917787128
 20
8.1
 30
0
 11
1.617840917787126
 21
8.299999999999997
 31
0
  0
LINE
  8
0
 62
7
  6
DASHED
 10
1.629972952143092
 20
8.1
 30
0
 11
1.82997295214309
 21
8.299999999999997
 31
0
  0
LINE
  8
0
 62
7
  6
DASHED
 10
1.842104986499056
 20
8.1
 30
0
 11
2.042104986499054
 21
8.299999999999997
 31
0
  0
LINE
  8
0
 62
7
  6
DASHED
 10
2.05423702085502
 20
8.1
 30
0
 11
2.254237020855018
 21
8.299999999999997
 31
0
  0
LINE
  8
0
 62
7
  6
DASHED
 10
2.266369055210985
 20
8.1
 30
0
 11
2.466369055210983
 21
8.299999999999997
 31
0
  0
LINE
  8
0
 62
7
  6
DASHED
 10
2.478501089566949
 20
8.1
 30
0
 11
2.678501089566947
 21
8.299999999999997
 31
0
  0
LINE
  8
0
 62
7
  6
DASHED
 10
2.690633123922913
 20
8.1
 30
0
 11
2.890633123922911
 21
8.299999999999997
 31
0
  0
LINE
  8
0
 62
7
  6
DASHED
 10
2.902765158278878
 20
8.1
 30
0
 11
3.102765158278876
 21
8.299999999999997
 31
0
  0
LINE
  8
0
 62
7
  6
DASHED
 10
3.114897192634842
 20
8.1
 30
0
 11
3.31489719263484
 21
8.299999999999997
 31
0
  0
LINE
  8
0
 62
7
  6
DASHED
 10
3.327029226990806
 20
8.1
 30
0
 11
3.527029226990804
 21
8.299999999999997
 31
0
  0
LINE
  8
0
 62
7
  6
DASHED
 10
3.53916126134677
 20
8.1
 30
0
 11
3.739161261346768
 21
8.299999999999997
 31
0
  0
LINE
  8
0
 62
7
  6
DASHED
 10
3.751293295702735
 20
8.1
 30
0
 11
3.951293295702733
 21
8.299999999999997
 31
0
  0
LINE
  8
0
 62
7
  6
DASHED
 10
3.963425330058699
 20
8.1
 30
0
 11
4.163425330058697
 21
8.299999999999997
 31
0
  0
LINE
  8
0
 62
7
  6
DASHED
 10
4.175557364414663
 20
8.1
 30
0
 11
4.375557364414661
 21
8.299999999999997
 31
0
  0
LINE
  8
0
 62
7
  6
DASHED
 10
4.387689398770627
 20
8.1
 30
0
 11
4.587689398770625
 21
8.299999999999997
 31
0
  0
LINE
  8
0
 62
7
  6
DASHED
 10
4.599821433126591
 20
8.1
 30
0
 11
4.799821433126588
 21
8.299999999999997
 31
0
  0
LINE
  8
0
 62
7
  6
DASHED
 10
4.811953467482555
 20
8.1
 30
0
 11
5.011953467482552
 21
8.299999999999997
 31
0
  0
LINE
  8
0
 62
7
  6
DASHED
 10
5.024085501838519
 20
8.1
 30
0
 11
5.224085501838516
 21
8.299999999999997
 31
0
  0
LINE
  8
0
 62
7
 10
0.9500000000000002
 20
8.162489168102784
 30
0
 11
1.087510831897215
 21
8.299999999999997
 31
0
  0
LINE
  8
0
 62
7
 10
1.099642866253181
 20
8.1
 30
0
 11
1.299642866253179
 21
8.299999999999997
 31
0
  0
LINE
  8
0
 62
7
 10
1.311774900609146
 20
8.1
 30
0
 11
1.511774900609144
 21
8.299999999999997
 31
0
  0
LINE
  8
0
 62
7
 10
1.52390693496511
 20
8.1
 30
0
 11
1.723906934965108
 21
8.299999999999997
 31
0
  0
LINE
  8
0
 62
7
 10
1.736038969321074
 20
8.1
 30
0
 11
1.936038969321072
 21
8.299999999999997
 31
0
  0
LINE
  8
0
 62
7
 10
1.948171003677039
 20
8.1
 30
0
 11
2.148171003677037
 21
8.299999999999997
 31
0
  0
LINE
  8
0
 62
7
 10
2.160303038033003
 20
8.1
 30
0
 11
2.360303038033001
 21
8.299999999999997
 31
0
  0
LINE
  8
0
 62
7
 10
2.372435072388967
 20
8.1
 30
0
 11
2.572435072388965
 21
8.299999999999997
 31
0
  0
LINE
  8
0
 62
7
 10
2.584567106744931
 20
8.1
 30
0
 11
2.784567106744929
 21
8.299999999999997
 31
0
  0
LINE
  8
0
 62
7
 10
2.796699141100896
 20
8.1
 30
0
 11
2.996699141100894
 21
8.299999999999997
 31
0
  0
LINE
  8
0
 62
7
 10
3.00883117545686
 20
8.1
 30
0
 11
3.208831175456858
 21
8.299999999999997
 31
0
  0
LINE
  8
0
 62
7
 10
3.220963209812824
 20
8.1
 30
0
 11
3.420963209812822
 21
8.299999999999997
 31
0
  0
LINE
  8
0
 62
7
 10
3.433095244168789
 20
8.1
 30
0
 11
3.633095244168786
 21
8.299999999999997
 31
0
  0
LINE
  8
0
 62
7
 10
3.645227278524753
 20
8.1
 30
0
 11
3.845227278524751
 21
8.299999999999997
 31
0
  0
LINE
  8
0
 62
7
 10
3.857359312880717
 20
8.1
 30
0
 11
4.057359312880715
 21
8.299999999999997
 31
0
  0
LINE
  8
0
 62
7
 10
4.069491347236681
 20
8.1
 30
0
 11
4.269491347236679
 21
8.299999999999997
 31
0
  0
LINE
  8
0
 62
7
 10
4.281623381592645
 20
8.1
 30
0
 11
4.481623381592643
 21
8.299999999999997
 31
0
  0
LINE
  8
0
 62
7
 10
4.493755415948609
 20
8.1
 30
0
 11
4.693755415948607
 21
8.299999999999997
 31
0
  0
LINE
  8
0
 62
7
 10
4.705887450304573
 20
8.1
 30
0
 11
4.90588745030457
 21
8.299999999999997
 31
0
  0
LINE
  8
0
 62
7
 10
4.918019484660537
 20
8.1
 30
0
 11
5.118019484660534
 21
8.299999999999997
 31
0
  0
LINE
  8
0
 62
7
 10
5.130151519016501
 20
8.1
 30
0
 11
5.235000000000005
 21
8.204848480983504
 31
0
  0
ENDBLK
  8
0
  0
BLOCK
  8
0
  2
*X9
 70
1
 10
0
 20
0
 30
0
  0
LINE
  8
0
 62
7
 10
4.910000000000005
 20
11.16789501350095
 30
0
 11
4.942104986499055
 21
11.2
 31
0
  0
LINE
  8
0
 62
7
 10
5.004237020855022
 20
11.05
 30
0
 11
5.085000000000007
 21
11.13076297914499
 31
0
  0
LINE
  8
0
 62
7
 10
4.910000000000006
 20
11.06182899632297
 30
0
 11
5.048171003677039
 21
11.2
 31
0
  0
ENDBLK
  8
0
  0
BLOCK
  8
0
  2
*X10
 70
1
 10
0
 20
0
 30
0
  0
LINE
  8
0
 62
7
 10
4.910000000000008
 20
10.74363094478902
 30
0
 11
5.016369055210983
 21
10.85
 31
0
  0
LINE
  8
0
 62
7
 10
4.910000000000008
 20
10.53149891043305
 30
0
 11
5.085000000000006
 21
10.70649891043305
 31
0
  0
LINE
  8
0
 62
7
 10
4.910000000000008
 20
10.31936687607709
 30
0
 11
5.085000000000006
 21
10.49436687607709
 31
0
  0
LINE
  8
0
 62
7
 10
4.910000000000008
 20
10.10723484172113
 30
0
 11
5.085000000000006
 21
10.28223484172113
 31
0
  0
LINE
  8
0
 62
7
 10
4.910000000000008
 20
9.895102807365163
 30
0
 11
5.085000000000006
 21
10.07010280736516
 31
0
  0
LINE
  8
0
 62
7
 10
4.910000000000008
 20
9.682970773009199
 30
0
 11
5.085000000000006
 21
9.857970773009198
 31
0
  0
LINE
  8
0
 62
7
 10
4.910000000000008
 20
9.470838738653235
 30
0
 11
5.085000000000006
 21
9.645838738653234
 31
0
  0
LINE
  8
0
 62
7
 10
4.910000000000008
 20
9.258706704297271
 30
0
 11
5.085000000000006
 21
9.43370670429727
 31
0
  0
LINE
  8
0
 62
7
 10
4.910000000000008
 20
9.046574669941307
 30
0
 11
5.085000000000006
 21
9.221574669941306
 31
0
  0
LINE
  8
0
 62
7
 10
4.910000000000008
 20
8.834442635585344
 30
0
 11
5.085000000000006
 21
9.009442635585343
 31
0
  0
LINE
  8
0
 62
7
 10
4.910000000000008
 20
8.62231060122938
 30
0
 11
5.085000000000006
 21
8.797310601229379
 31
0
  0
LINE
  8
0
 62
7
 10
4.910000000000008
 20
8.410178566873416
 30
0
 11
5.085000000000006
 21
8.585178566873415
 31
0
  0
LINE
  8
0
 62
7
 10
5.011953467482552
 20
8.299999999999997
 30
0
 11
5.085000000000006
 21
8.373046532517451
 31
0
  0
LINE
  8
0
 62
7
 10
4.910000000000005
 20
10.849696961967
 30
0
 11
4.910303038033001
 21
10.85
 31
0
  0
LINE
  8
0
 62
7
 10
4.910000000000005
 20
10.63756492761103
 30
0
 11
5.085000000000006
 21
10.81256492761104
 31
0
  0
LINE
  8
0
 62
7
 10
4.910000000000005
 20
10.42543289325507
 30
0
 11
5.085000000000006
 21
10.60043289325507
 31
0
  0
LINE
  8
0
 62
7
 10
4.910000000000005
 20
10.21330085889911
 30
0
 11
5.085000000000006
 21
10.38830085889911
 31
0
  0
LINE
  8
0
 62
7
 10
4.910000000000005
 20
10.00116882454314
 30
0
 11
5.085000000000006
 21
10.17616882454314
 31
0
  0
LINE
  8
0
 62
7
 10
4.910000000000005
 20
9.789036790187179
 30
0
 11
5.085000000000006
 21
9.96403679018718
 31
0
  0
LINE
  8
0
 62
7
 10
4.910000000000005
 20
9.576904755831215
 30
0
 11
5.085000000000006
 21
9.751904755831216
 31
0
  0
LINE
  8
0
 62
7
 10
4.910000000000005
 20
9.364772721475251
 30
0
 11
5.085000000000006
 21
9.539772721475252
 31
0
  0
LINE
  8
0
 62
7
 10
4.910000000000005
 20
9.152640687119288
 30
0
 11
5.085000000000006
 21
9.327640687119288
 31
0
  0
LINE
  8
0
 62
7
 10
4.910000000000005
 20
8.940508652763324
 30
0
 11
5.085000000000006
 21
9.115508652763324
 31
0
  0
LINE
  8
0
 62
7
 10
4.910000000000005
 20
8.72837661840736
 30
0
 11
5.085000000000006
 21
8.903376618407361
 31
0
  0
LINE
  8
0
 62
7
 10
4.910000000000005
 20
8.516244584051396
 30
0
 11
5.085000000000006
 21
8.691244584051397
 31
0
  0
LINE
  8
0
 62
7
 10
4.910000000000005
 20
8.304112549695432
 30
0
 11
5.085000000000006
 21
8.479112549695433
 31
0
  0
ENDBLK
  8
0
  0
BLOCK
  8
0
  2
*X11
 70
1
 10
0
 20
0
 30
0
  0
LINE
  8
0
 62
7
 10
4.910000000000006
 20
7.985914498161486
 30
0
 11
5.02408550183852
 21
8.100000000000001
 31
0
  0
LINE
  8
0
 62
7
 10
4.910000000000006
 20
8.091980515339468
 30
0
 11
4.918019484660538
 21
8.1
 31
0
  0
LINE
  8
0
 62
7
 10
4.980151519016501
 20
7.949999999999998
 30
0
 11
5.085000000000006
 21
8.054848480983505
 31
0
  0
ENDBLK
  8
0
  0
BLOCK
  8
0
  2
*X12
 70
1
 10
0
 20
0
 30
0
  0
LINE
  8
0
 62
7
 10
1.100000000000001
 20
11.1762716319083
 30
0
 11
1.1237283680917
 21
11.2
 31
0
  0
LINE
  8
0
 62
7
 10
1.185860402447664
 20
11.05
 30
0
 11
1.274999999999999
 21
11.13913959755234
 31
0
  0
LINE
  8
0
 62
7
 10
1.1
 20
11.07020561473032
 30
0
 11
1.229794385269681
 21
11.2
 31
0
  0
ENDBLK
  8
0
  0
BLOCK
  8
0
  2
*X13
 70
1
 10
0
 20
0
 30
0
  0
LINE
  8
0
 62
7
 10
1.1
 20
10.75200756319637
 30
0
 11
1.197992436803628
 21
10.85
 31
0
  0
LINE
  8
0
 62
7
 10
1.1
 20
10.5398755288404
 30
0
 11
1.274999999999999
 21
10.7148755288404
 31
0
  0
LINE
  8
0
 62
7
 10
1.1
 20
10.32774349448444
 30
0
 11
1.274999999999999
 21
10.50274349448444
 31
0
  0
LINE
  8
0
 62
7
 10
1.1
 20
10.11561146012848
 30
0
 11
1.274999999999999
 21
10.29061146012847
 31
0
  0
LINE
  8
0
 62
7
 10
1.1
 20
9.903479425772513
 30
0
 11
1.274999999999999
 21
10.07847942577251
 31
0
  0
LINE
  8
0
 62
7
 10
1.1
 20
9.691347391416549
 30
0
 11
1.274999999999999
 21
9.866347391416546
 31
0
  0
LINE
  8
0
 62
7
 10
1.1
 20
9.479215357060585
 30
0
 11
1.274999999999999
 21
9.654215357060583
 31
0
  0
LINE
  8
0
 62
7
 10
1.1
 20
9.267083322704622
 30
0
 11
1.274999999999999
 21
9.442083322704619
 31
0
  0
LINE
  8
0
 62
7
 10
1.1
 20
9.054951288348658
 30
0
 11
1.274999999999999
 21
9.229951288348655
 31
0
  0
LINE
  8
0
 62
7
 10
1.1
 20
8.842819253992694
 30
0
 11
1.274999999999999
 21
9.017819253992691
 31
0
  0
LINE
  8
0
 62
7
 10
1.1
 20
8.63068721963673
 30
0
 11
1.274999999999999
 21
8.805687219636727
 31
0
  0
LINE
  8
0
 62
7
 10
1.1
 20
8.418555185280766
 30
0
 11
1.274999999999999
 21
8.593555185280763
 31
0
  0
LINE
  8
0
 62
7
 10
1.193576849075197
 20
8.299999999999997
 30
0
 11
1.274999999999999
 21
8.3814231509248
 31
0
  0
LINE
  8
0
 62
7
 10
1.100000000000001
 20
10.64594154601839
 30
0
 11
1.274999999999999
 21
10.82094154601838
 31
0
  0
LINE
  8
0
 62
7
 10
1.100000000000001
 20
10.43380951166242
 30
0
 11
1.274999999999999
 21
10.60880951166242
 31
0
  0
LINE
  8
0
 62
7
 10
1.100000000000001
 20
10.22167747730646
 30
0
 11
1.274999999999999
 21
10.39667747730646
 31
0
  0
LINE
  8
0
 62
7
 10
1.100000000000001
 20
10.0095454429505
 30
0
 11
1.274999999999999
 21
10.18454544295049
 31
0
  0
LINE
  8
0
 62
7
 10
1.100000000000001
 20
9.797413408594531
 30
0
 11
1.274999999999999
 21
9.972413408594528
 31
0
  0
LINE
  8
0
 62
7
 10
1.100000000000001
 20
9.585281374238567
 30
0
 11
1.274999999999999
 21
9.760281374238565
 31
0
  0
LINE
  8
0
 62
7
 10
1.100000000000001
 20
9.373149339882604
 30
0
 11
1.274999999999999
 21
9.548149339882601
 31
0
  0
LINE
  8
0
 62
7
 10
1.100000000000001
 20
9.16101730552664
 30
0
 11
1.274999999999999
 21
9.336017305526637
 31
0
  0
LINE
  8
0
 62
7
 10
1.100000000000001
 20
8.948885271170676
 30
0
 11
1.274999999999999
 21
9.123885271170673
 31
0
  0
LINE
  8
0
 62
7
 10
1.100000000000001
 20
8.736753236814712
 30
0
 11
1.274999999999999
 21
8.911753236814709
 31
0
  0
LINE
  8
0
 62
7
 10
1.100000000000001
 20
8.524621202458748
 30
0
 11
1.274999999999999
 21
8.699621202458745
 31
0
  0
LINE
  8
0
 62
7
 10
1.100000000000001
 20
8.312489168102784
 30
0
 11
1.274999999999999
 21
8.487489168102782
 31
0
  0
ENDBLK
  8
0
  0
BLOCK
  8
0
  2
*X14
 70
1
 10
0
 20
0
 30
0
  0
LINE
  8
0
 62
7
 10
1.099999999999999
 20
7.994291116568838
 30
0
 11
1.205708883431162
 21
8.100000000000001
 31
0
  0
LINE
  8
0
 62
7
 10
1.267840917787127
 20
7.949999999999999
 30
0
 11
1.274999999999998
 21
7.95715908221287
 31
0
  0
LINE
  8
0
 62
7
 10
1.161774900609144
 20
7.949999999999999
 30
0
 11
1.274999999999999
 21
8.063225099390854
 31
0
  0
ENDBLK
  8
0
  0
BLOCK
  8
0
  2
*X15
 70
1
 10
0
 20
0
 30
0
  0
LINE
  8
0
 62
7
 10
1.100000000000001
 20
5.024442635585339
 30
0
 11
1.24555736441466
 21
5.169999999999998
 31
0
  0
LINE
  8
0
 62
7
 10
0.9350000000000005
 20
4.859442635585339
 30
0
 11
1.095557364414661
 21
5.019999999999999
 31
0
  0
LINE
  8
0
 62
7
 10
1.067689398770628
 20
4.78
 30
0
 11
1.307689398770627
 21
5.019999999999999
 31
0
  0
LINE
  8
0
 62
7
 10
1.279821433126592
 20
4.78
 30
0
 11
1.519821433126591
 21
5.019999999999999
 31
0
  0
LINE
  8
0
 62
7
 10
1.491953467482556
 20
4.78
 30
0
 11
1.731953467482555
 21
5.019999999999999
 31
0
  0
LINE
  8
0
 62
7
 10
1.704085501838521
 20
4.78
 30
0
 11
1.944085501838519
 21
5.019999999999999
 31
0
  0
LINE
  8
0
 62
7
 10
1.916217536194485
 20
4.78
 30
0
 11
2.156217536194484
 21
5.019999999999999
 31
0
  0
LINE
  8
0
 62
7
 10
2.128349570550449
 20
4.78
 30
0
 11
2.368349570550448
 21
5.019999999999999
 31
0
  0
LINE
  8
0
 62
7
 10
2.340481604906413
 20
4.78
 30
0
 11
2.580481604906412
 21
5.019999999999999
 31
0
  0
LINE
  8
0
 62
7
 10
2.552613639262378
 20
4.78
 30
0
 11
2.792613639262377
 21
5.019999999999999
 31
0
  0
LINE
  8
0
 62
7
 10
2.764745673618342
 20
4.78
 30
0
 11
3.004745673618341
 21
5.019999999999999
 31
0
  0
LINE
  8
0
 62
7
 10
2.976877707974306
 20
4.78
 30
0
 11
3.216877707974305
 21
5.019999999999999
 31
0
  0
LINE
  8
0
 62
7
 10
3.189009742330271
 20
4.78
 30
0
 11
3.429009742330269
 21
5.019999999999999
 31
0
  0
LINE
  8
0
 62
7
 10
3.401141776686235
 20
4.78
 30
0
 11
3.641141776686234
 21
5.019999999999999
 31
0
  0
LINE
  8
0
 62
7
 10
3.613273811042199
 20
4.78
 30
0
 11
3.853273811042198
 21
5.019999999999999
 31
0
  0
LINE
  8
0
 62
7
 10
3.825405845398163
 20
4.78
 30
0
 11
4.065405845398162
 21
5.019999999999999
 31
0
  0
LINE
  8
0
 62
7
 10
4.037537879754128
 20
4.78
 30
0
 11
4.277537879754126
 21
5.019999999999999
 31
0
  0
LINE
  8
0
 62
7
 10
4.249669914110092
 20
4.78
 30
0
 11
4.48966991411009
 21
5.019999999999999
 31
0
  0
LINE
  8
0
 62
7
 10
4.461801948466055
 20
4.78
 30
0
 11
4.701801948466054
 21
5.019999999999999
 31
0
  0
LINE
  8
0
 62
7
 10
4.673933982822019
 20
4.78
 30
0
 11
5.063933982822017
 21
5.169999999999998
 31
0
  0
LINE
  8
0
 62
7
 10
4.886066017177983
 20
4.78
 30
0
 11
5.126066017177981
 21
5.019999999999999
 31
0
  0
LINE
  8
0
 62
7
 10
5.098198051533947
 20
4.78
 30
0
 11
5.235000000000005
 21
4.916801948466058
 31
0
  0
LINE
  8
0
 62
7
 10
1.1
 20
5.130508652763321
 30
0
 11
1.139491347236678
 21
5.169999999999998
 31
0
  0
LINE
  8
0
 62
7
 10
0.9350000000000005
 20
4.965508652763321
 30
0
 11
0.9894913472366778
 21
5.019999999999998
 31
0
  0
LINE
  8
0
 62
7
 10
0.9616233815926445
 20
4.779999999999999
 30
0
 11
1.274999999999999
 21
5.093376618407355
 31
0
  0
LINE
  8
0
 62
7
 10
1.173755415948609
 20
4.779999999999999
 30
0
 11
1.413755415948608
 21
5.019999999999998
 31
0
  0
LINE
  8
0
 62
7
 10
1.385887450304573
 20
4.779999999999999
 30
0
 11
1.625887450304572
 21
5.019999999999998
 31
0
  0
LINE
  8
0
 62
7
 10
1.598019484660537
 20
4.779999999999999
 30
0
 11
1.838019484660536
 21
5.019999999999998
 31
0
  0
LINE
  8
0
 62
7
 10
1.810151519016502
 20
4.779999999999999
 30
0
 11
2.050151519016501
 21
5.019999999999998
 31
0
  0
LINE
  8
0
 62
7
 10
2.022283553372466
 20
4.779999999999999
 30
0
 11
2.262283553372465
 21
5.019999999999998
 31
0
  0
LINE
  8
0
 62
7
 10
2.23441558772843
 20
4.779999999999999
 30
0
 11
2.474415587728429
 21
5.019999999999998
 31
0
  0
LINE
  8
0
 62
7
 10
2.446547622084394
 20
4.779999999999999
 30
0
 11
2.686547622084393
 21
5.019999999999998
 31
0
  0
LINE
  8
0
 62
7
 10
2.658679656440359
 20
4.779999999999999
 30
0
 11
2.898679656440358
 21
5.019999999999998
 31
0
  0
LINE
  8
0
 62
7
 10
2.870811690796323
 20
4.779999999999999
 30
0
 11
3.110811690796322
 21
5.019999999999998
 31
0
  0
LINE
  8
0
 62
7
 10
3.082943725152287
 20
4.779999999999999
 30
0
 11
3.322943725152286
 21
5.019999999999998
 31
0
  0
LINE
  8
0
 62
7
 10
3.295075759508252
 20
4.779999999999999
 30
0
 11
3.53507575950825
 21
5.019999999999998
 31
0
  0
LINE
  8
0
 62
7
 10
3.507207793864216
 20
4.779999999999999
 30
0
 11
3.747207793864215
 21
5.019999999999998
 31
0
  0
LINE
  8
0
 62
7
 10
3.71933982822018
 20
4.779999999999999
 30
0
 11
3.959339828220179
 21
5.019999999999998
 31
0
  0
LINE
  8
0
 62
7
 10
3.931471862576144
 20
4.779999999999999
 30
0
 11
4.171471862576143
 21
5.019999999999998
 31
0
  0
LINE
  8
0
 62
7
 10
4.143603896932109
 20
4.779999999999999
 30
0
 11
4.383603896932107
 21
5.019999999999998
 31
0
  0
LINE
  8
0
 62
7
 10
4.355735931288073
 20
4.779999999999999
 30
0
 11
4.595735931288071
 21
5.019999999999998
 31
0
  0
LINE
  8
0
 62
7
 10
4.910000000000006
 20
5.122132034355969
 30
0
 11
4.957867965644035
 21
5.169999999999998
 31
0
  0
LINE
  8
0
 62
7
 10
4.567867965644036
 20
4.779999999999999
 30
0
 11
4.807867965644035
 21
5.019999999999998
 31
0
  0
LINE
  8
0
 62
7
 10
4.78
 20
4.779999999999999
 30
0
 11
5.085000000000007
 21
5.085000000000006
 31
0
  0
LINE
  8
0
 62
7
 10
4.992132034355964
 20
4.779999999999999
 30
0
 11
5.232132034355963
 21
5.019999999999999
 31
0
  0
LINE
  8
0
 62
7
 10
5.204264068711928
 20
4.779999999999999
 30
0
 11
5.235000000000005
 21
4.810735931288077
 31
0
  0
ENDBLK
  8
0
  0
BLOCK
  8
0
  2
*X16
 70
1
 10
0
 20
0
 30
0
  0
LINE
  8
0
 62
7
 10
0.9350000000000001
 20
4.647310601229374
 30
0
 11
1.027689398770627
 21
4.74
 31
0
  0
LINE
  8
0
 62
7
 10
0.99982143312659
 20
4.5
 30
0
 11
1.239821433126592
 21
4.74
 31
0
  0
LINE
  8
0
 62
7
 10
1.1
 20
4.388046532517444
 30
0
 11
1.451953467482556
 21
4.74
 31
0
  0
LINE
  8
0
 62
7
 10
1.424085501838519
 20
4.5
 30
0
 11
1.66408550183852
 21
4.74
 31
0
  0
LINE
  8
0
 62
7
 10
1.1
 20
4.175914498161481
 30
0
 11
1.274999999999999
 21
4.35091449816148
 31
0
  0
LINE
  8
0
 62
7
 10
1.636217536194484
 20
4.5
 30
0
 11
1.876217536194484
 21
4.74
 31
0
  0
LINE
  8
0
 62
7
 10
1.1
 20
3.963782463805517
 30
0
 11
1.274999999999999
 21
4.138782463805516
 31
0
  0
LINE
  8
0
 62
7
 10
1.848349570550448
 20
4.5
 30
0
 11
2.088349570550449
 21
4.74
 31
0
  0
LINE
  8
0
 62
7
 10
1.1
 20
3.751650429449553
 30
0
 11
1.274999999999999
 21
3.926650429449552
 31
0
  0
LINE
  8
0
 62
7
 10
2.060481604906412
 20
4.5
 30
0
 11
2.300481604906413
 21
4.74
 31
0
  0
LINE
  8
0
 62
7
 10
1.1
 20
3.539518395093588
 30
0
 11
1.274999999999999
 21
3.714518395093588
 31
0
  0
LINE
  8
0
 62
7
 10
2.272613639262377
 20
4.5
 30
0
 11
2.512613639262377
 21
4.74
 31
0
  0
LINE
  8
0
 62
7
 10
1.122613639262376
 20
3.350000000000001
 30
0
 11
1.274999999999999
 21
3.502386360737623
 31
0
  0
LINE
  8
0
 62
7
 10
2.484745673618341
 20
4.5
 30
0
 11
2.724745673618342
 21
4.74
 31
0
  0
LINE
  8
0
 62
7
 10
2.696877707974305
 20
4.5
 30
0
 11
2.936877707974306
 21
4.74
 31
0
  0
LINE
  8
0
 62
7
 10
2.909009742330269
 20
4.5
 30
0
 11
3.14900974233027
 21
4.74
 31
0
  0
LINE
  8
0
 62
7
 10
3.121141776686234
 20
4.5
 30
0
 11
3.361141776686234
 21
4.74
 31
0
  0
LINE
  8
0
 62
7
 10
3.333273811042198
 20
4.5
 30
0
 11
3.573273811042199
 21
4.74
 31
0
  0
LINE
  8
0
 62
7
 10
3.545405845398162
 20
4.5
 30
0
 11
3.785405845398163
 21
4.74
 31
0
  0
LINE
  8
0
 62
7
 10
3.757537879754127
 20
4.5
 30
0
 11
3.997537879754127
 21
4.74
 31
0
  0
LINE
  8
0
 62
7
 10
3.969669914110091
 20
4.5
 30
0
 11
4.209669914110092
 21
4.74
 31
0
  0
LINE
  8
0
 62
7
 10
4.181801948466055
 20
4.5
 30
0
 11
4.421801948466055
 21
4.74
 31
0
  0
LINE
  8
0
 62
7
 10
4.393933982822019
 20
4.5
 30
0
 11
4.633933982822019
 21
4.74
 31
0
  0
LINE
  8
0
 62
7
 10
4.606066017177983
 20
4.5
 30
0
 11
4.846066017177983
 21
4.74
 31
0
  0
LINE
  8
0
 62
7
 10
4.818198051533947
 20
4.5
 30
0
 11
5.058198051533947
 21
4.74
 31
0
  0
LINE
  8
0
 62
7
 10
4.910000000000006
 20
4.379669914110095
 30
0
 11
5.235000000000004
 21
4.704669914110093
 31
0
  0
LINE
  8
0
 62
7
 10
4.910000000000006
 20
4.167537879754131
 30
0
 11
5.085000000000007
 21
4.342537879754131
 31
0
  0
LINE
  8
0
 62
7
 10
4.910000000000006
 20
3.955405845398167
 30
0
 11
5.085000000000007
 21
4.130405845398167
 31
0
  0
LINE
  8
0
 62
7
 10
4.910000000000006
 20
3.743273811042203
 30
0
 11
5.085000000000007
 21
3.918273811042203
 31
0
  0
LINE
  8
0
 62
7
 10
4.910000000000006
 20
3.531141776686238
 30
0
 11
5.085000000000007
 21
3.706141776686239
 31
0
  0
LINE
  8
0
 62
7
 10
4.910000000000005
 20
3.319009742330273
 30
0
 11
5.085000000000007
 21
3.494009742330274
 31
0
  0
LINE
  8
0
 62
7
 10
5.053122292025697
 20
3.25
 30
0
 11
5.085000000000007
 21
3.28187770797431
 31
0
  0
LINE
  8
0
 62
7
 10
0.9349999999999998
 20
4.541244584051392
 30
0
 11
1.133755415948609
 21
4.739999999999999
 31
0
  0
LINE
  8
0
 62
7
 10
1.1
 20
4.494112549695426
 30
0
 11
1.345887450304573
 21
4.739999999999999
 31
0
  0
LINE
  8
0
 62
7
 10
1.318019484660538
 20
4.5
 30
0
 11
1.558019484660537
 21
4.739999999999999
 31
0
  0
LINE
  8
0
 62
7
 10
1.1
 20
4.281980515339463
 30
0
 11
1.274999999999999
 21
4.456980515339461
 31
0
  0
LINE
  8
0
 62
7
 10
1.530151519016502
 20
4.5
 30
0
 11
1.770151519016502
 21
4.739999999999999
 31
0
  0
LINE
  8
0
 62
7
 10
1.1
 20
4.069848480983499
 30
0
 11
1.274999999999999
 21
4.244848480983498
 31
0
  0
LINE
  8
0
 62
7
 10
1.742283553372466
 20
4.5
 30
0
 11
1.982283553372466
 21
4.739999999999999
 31
0
  0
LINE
  8
0
 62
7
 10
1.1
 20
3.857716446627535
 30
0
 11
1.274999999999999
 21
4.032716446627534
 31
0
  0
LINE
  8
0
 62
7
 10
1.95441558772843
 20
4.5
 30
0
 11
2.19441558772843
 21
4.739999999999999
 31
0
  0
LINE
  8
0
 62
7
 10
1.1
 20
3.645584412271571
 30
0
 11
1.274999999999999
 21
3.82058441227157
 31
0
  0
LINE
  8
0
 62
7
 10
2.166547622084395
 20
4.5
 30
0
 11
2.406547622084394
 21
4.739999999999999
 31
0
  0
LINE
  8
0
 62
7
 10
1.1
 20
3.433452377915606
 30
0
 11
1.274999999999999
 21
3.608452377915605
 31
0
  0
LINE
  8
0
 62
7
 10
2.378679656440359
 20
4.5
 30
0
 11
2.618679656440359
 21
4.739999999999999
 31
0
  0
LINE
  8
0
 62
7
 10
1.228679656440358
 20
3.350000000000001
 30
0
 11
1.275
 21
3.396320343559642
 31
0
  0
LINE
  8
0
 62
7
 10
2.590811690796323
 20
4.5
 30
0
 11
2.830811690796323
 21
4.739999999999999
 31
0
  0
LINE
  8
0
 62
7
 10
2.802943725152288
 20
4.5
 30
0
 11
3.042943725152287
 21
4.739999999999999
 31
0
  0
LINE
  8
0
 62
7
 10
3.015075759508252
 20
4.5
 30
0
 11
3.255075759508252
 21
4.739999999999999
 31
0
  0
LINE
  8
0
 62
7
 10
3.227207793864216
 20
4.5
 30
0
 11
3.467207793864216
 21
4.739999999999999
 31
0
  0
LINE
  8
0
 62
7
 10
3.43933982822018
 20
4.5
 30
0
 11
3.67933982822018
 21
4.739999999999999
 31
0
  0
LINE
  8
0
 62
7
 10
3.651471862576145
 20
4.5
 30
0
 11
3.891471862576144
 21
4.739999999999999
 31
0
  0
LINE
  8
0
 62
7
 10
3.863603896932109
 20
4.5
 30
0
 11
4.103603896932109
 21
4.739999999999999
 31
0
  0
LINE
  8
0
 62
7
 10
4.075735931288073
 20
4.5
 30
0
 11
4.315735931288073
 21
4.739999999999999
 31
0
  0
LINE
  8
0
 62
7
 10
4.287867965644037
 20
4.5
 30
0
 11
4.527867965644036
 21
4.739999999999999
 31
0
  0
LINE
  8
0
 62
7
 10
4.500000000000001
 20
4.5
 30
0
 11
4.74
 21
4.739999999999999
 31
0
  0
LINE
  8
0
 62
7
 10
4.712132034355965
 20
4.5
 30
0
 11
4.952132034355964
 21
4.739999999999999
 31
0
  0
LINE
  8
0
 62
7
 10
4.910000000000006
 20
4.485735931288076
 30
0
 11
5.164264068711928
 21
4.739999999999999
 31
0
  0
LINE
  8
0
 62
7
 10
5.136396103067893
 20
4.5
 30
0
 11
5.235000000000005
 21
4.598603896932111
 31
0
  0
LINE
  8
0
 62
7
 10
4.910000000000006
 20
4.273603896932112
 30
0
 11
5.085000000000006
 21
4.448603896932111
 31
0
  0
LINE
  8
0
 62
7
 10
4.910000000000006
 20
4.061471862576148
 30
0
 11
5.085000000000006
 21
4.236471862576147
 31
0
  0
LINE
  8
0
 62
7
 10
4.910000000000006
 20
3.849339828220184
 30
0
 11
5.085000000000006
 21
4.024339828220183
 31
0
  0
LINE
  8
0
 62
7
 10
4.910000000000006
 20
3.63720779386422
 30
0
 11
5.085000000000006
 21
3.81220779386422
 31
0
  0
LINE
  8
0
 62
7
 10
4.910000000000006
 20
3.425075759508255
 30
0
 11
5.085000000000006
 21
3.600075759508255
 31
0
  0
LINE
  8
0
 62
7
 10
4.947056274847715
 20
3.25
 30
0
 11
5.085000000000006
 21
3.387943725152291
 31
0
  0
ENDBLK
  8
0
  0
BLOCK
  8
0
  2
*D0
 70
1
 10
0
 20
0
 30
0
  0
LINE
  8
0
 62
7
 10
0.787579615482863
 20
4.27436118506217
 30
0
 11
0.787579615482863
 21
4.5
 31
0
  0
LINE
  8
0
 62
7
 10
0.787579615482863
 20
3.35
 30
0
 11
0.787579615482863
 21
3.55936118506217
 31
0
  0
LINE
  8
0
 62
7
 10
1.1
 20
4.5
 30
0
 11
0.737579615482863
 21
4.5
 31
0
  0
LINE
  8
0
 62
7
 10
1.1
 20
3.35
 30
0
 11
0.737579615482863
 21
3.35
 31
0
  0
LINE
  8
0
 62
7
 10
0.8229349545421905
 20
4.464644660940673
 30
0
 11
0.7522242764235356
 21
4.535355339059327
 31
0
  0
LINE
  8
0
 62
7
 10
0.7522242764235356
 20
3.385355339059327
 30
0
 11
0.8229349545421905
 21
3.314644660940672
 31
0
  0
TEXT
  8
0
 62
7
 10
0.8325796154828631
 20
3.80936118506217
 30
0
 40
0.1
  1
1,15
 50
90
 41
0.9
  0
ENDBLK
  8
0
  0
BLOCK
  8
0
  2
*D1
 70
1
 10
0
 20
0
 30
0
  0
LINE
  8
0
 62
7
 10
3.393280025123471
 20
5.42870727431442
 30
0
 11
4.910000000000007
 21
5.42870727431442
 31
0
  0
LINE
  8
0
 62
7
 10
1.275
 20
5.42870727431442
 30
0
 11
2.618280025123471
 21
5.42870727431442
 31
0
  0
LINE
  8
0
 62
7
 10
4.910000000000007
 20
5.019999999999999
 30
0
 11
4.910000000000007
 21
5.47870727431442
 31
0
  0
LINE
  8
0
 62
7
 10
1.275
 20
5.019999999999999
 30
0
 11
1.275
 21
5.47870727431442
 31
0
  0
LINE
  8
0
 62
7
 10
4.87464466094068
 20
5.393351935255093
 30
0
 11
4.945355339059335
 21
5.464062613373748
 31
0
  0
LINE
  8
0
 62
7
 10
1.310355339059327
 20
5.464062613373748
 30
0
 11
1.239644660940673
 21
5.393351935255093
 31
0
  0
TEXT
  8
0
 62
7
 10
2.868280025123471
 20
5.38370727431442
 30
0
 40
0.1
  1
3,64
 41
0.9
  0
ENDBLK
  8
0
  0
BLOCK
  8
0
  2
*D2
 70
1
 10
0
 20
0
 30
0
  0
LINE
  8
0
 62
7
 10
5.45943187489352
 20
4.264576822943281
 30
0
 11
5.45943187489352
 21
4.500000000000001
 31
0
  0
LINE
  8
0
 62
7
 10
5.45943187489352
 20
3.250000000000001
 30
0
 11
5.45943187489352
 21
3.519576822943281
 31
0
  0
LINE
  8
0
 62
7
 10
5.085000000000006
 20
4.500000000000001
 30
0
 11
5.50943187489352
 21
4.500000000000001
 31
0
  0
LINE
  8
0
 62
7
 10
5.085000000000006
 20
3.250000000000001
 30
0
 11
5.50943187489352
 21
3.250000000000001
 31
0
  0
LINE
  8
0
 62
7
 10
5.424076535834192
 20
3.285355339059328
 30
0
 11
5.494787213952847
 21
3.214644660940674
 31
0
  0
LINE
  8
0
 62
7
 10
5.494787213952847
 20
4.464644660940674
 30
0
 11
5.424076535834192
 21
4.535355339059328
 31
0
  0
TEXT
  8
0
 62
7
 10
5.50443187489352
 20
3.769576822943281
 30
0
 40
0.1
  1
1,25
 50
90
 41
0.9
  0
ENDBLK
  8
0
  0
BLOCK
  8
0
  2
*D3
 70
1
 10
0
 20
0
 30
0
  0
LINE
  8
0
 62
7
 10
3.50437837889625
 20
11.5132681745018
 30
0
 11
4.910000000000005
 21
11.5132681745018
 31
0
  0
LINE
  8
0
 62
7
 10
1.274999999999999
 20
11.5132681745018
 30
0
 11
2.82937837889625
 21
11.5132681745018
 31
0
  0
LINE
  8
0
 62
7
 10
4.910000000000005
 20
11.2
 30
0
 11
4.910000000000005
 21
11.5632681745018
 31
0
  0
LINE
  8
0
 62
7
 10
1.274999999999999
 20
11.2
 30
0
 11
1.274999999999999
 21
11.5632681745018
 31
0
  0
LINE
  8
0
 62
7
 10
1.310355339059326
 20
11.54862351356113
 30
0
 11
1.239644660940672
 21
11.47791283544247
 31
0
  0
LINE
  8
0
 62
7
 10
4.874644660940678
 20
11.47791283544247
 30
0
 11
4.945355339059333
 21
11.54862351356113
 31
0
  0
TEXT
  8
0
 62
7
 10
3.02937837889625
 20
11.4682681745018
 30
0
 40
0.1
  1
3,64
 41
0.9
  0
ENDBLK
  8
0
  0
BLOCK
  8
0
  2
*D4
 70
1
 10
0
 20
0
 30
0
  0
LINE
  8
0
 62
7
 10
0.5769125374723031
 20
10.20683319664451
 30
0
 11
0.5769125374723031
 21
11.05
 31
0
  0
LINE
  8
0
 62
7
 10
0.5769125374723031
 20
8.299999999999999
 30
0
 11
0.5769125374723031
 21
9.12683319664451
 31
0
  0
LINE
  8
0
 62
7
 10
0.9500000000000001
 20
11.05
 30
0
 11
0.526912537472303
 21
11.05
 31
0
  0
LINE
  8
0
 62
7
 10
0.9500000000000001
 20
8.299999999999999
 30
0
 11
0.526912537472303
 21
8.299999999999999
 31
0
  0
LINE
  8
0
 62
7
 10
0.5415571984129757
 20
8.335355339059326
 30
0
 11
0.6122678765316305
 21
8.264644660940672
 31
0
  0
LINE
  8
0
 62
7
 10
0.6122678765316305
 20
11.01464466094068
 30
0
 11
0.5415571984129757
 21
11.08535533905933
 31
0
  0
TEXT
  8
0
 62
7
 10
0.5469125374723031
 20
9.529333196644512
 30
0
 40
0.1
  1
2,75
 50
90
 41
0.9
  0
TEXT
  8
0
 62
7
 10
0.7069125374723031
 20
9.326833196644511
 30
0
 40
0.1
  1
(260-280)
 50
90
 41
0.9
  0
ENDBLK
  8
0
  0
ENDSEC
  0
SECTION
  2
ENTITIES
  0
INSERT
  8
0
  2
*X0
 10
0
 20
0
 30
0
  0
INSERT
  8
0
  2
*X1
 10
0
 20
0
 30
0
  0
INSERT
  8
0
  2
*X2
 10
0
 20
0
 30
0
  0
INSERT
  8
0
  2
*X3
 10
0
 20
0
 30
0
  0
INSERT
  8
0
  2
*X4
 10
0
 20
0
 30
0
  0
INSERT
  8
0
  2
*X5
 10
0
 20
0
 30
0
  0
INSERT
  8
0
  2
*X6
 10
0
 20
0
 30
0
  0
INSERT
  8
0
  2
*X7
 10
0
 20
0
 30
0
  0
INSERT
  8
0
  2
*X8
 10
0
 20
0
 30
0
  0
INSERT
  8
0
  2
*X9
 10
0
 20
0
 30
0
  0
INSERT
  8
0
  2
*X10
 10
0
 20
0
 30
0
  0
INSERT
  8
0
  2
*X11
 10
0
 20
0
 30
0
  0
INSERT
  8
0
  2
*X12
 10
0
 20
0
 30
0
  0
INSERT
  8
0
  2
*X13
 10
0
 20
0
 30
0
  0
INSERT
  8
0
  2
*X14
 10
0
 20
0
 30
0
  0
INSERT
  8
0
  2
*X15
 10
0
 20
0
 30
0
  0
INSERT
  8
0
  2
*X16
 10
0
 20
0
 30
0
  0
LINE
  8
0
 62
7
 10
2.280000000000003
 20
3.39
 30
0
 11
2.280000000000001
 21
3.449217311984142
 31
0
  0
LINE
  8
0
 62
7
 10
2.280000000000001
 20
3.449217311984142
 30
0
 11
2.430344958878982
 21
3.549469394894182
 31
0
  0
LINE
  8
0
 62
7
 10
3.824326483650735
 20
3.495000000000001
 30
0
 11
3.831031746505175
 21
3.498243325418072
 31
0
  0
LINE
  8
0
 62
7
 10
3.831031746505175
 20
3.498243325418072
 30
0
 11
3.905000000000006
 21
3.449850427817011
 31
0
  0
LINE
  8
0
 62
7
 10
3.905000000000006
 20
3.449850427817011
 30
0
 11
3.905000000000006
 21
3.25
 31
0
  0
LINE
  8
0
 62
7
 10
3.905000000000006
 20
3.25
 30
0
 11
4.855000000000006
 21
3.25
 31
0
  0
LINE
  8
0
 62
7
 10
4.855000000000006
 20
3.25
 30
0
 11
4.855000000000006
 21
3.66242892149929
 31
0
  0
LINE
  8
0
 62
7
 10
3.929943671423894
 20
3.433531311439669
 30
0
 11
4.855000000000006
 21
3.571434361735401
 31
0
  0
LINE
  8
0
 62
7
 10
3.905000000000006
 20
3.449850427817011
 30
0
 11
3.929943671423894
 21
3.433531311439669
 31
0
  0
LINE
  8
0
 62
7
 10
4.855000000000006
 20
3.571434361735401
 30
0
 11
4.855000000000006
 21
4.09351075593167
 31
0
  0
LINE
  8
0
 62
7
 10
3.831031746505175
 20
3.498243325418072
 30
0
 11
4.855000000000006
 21
3.993535208219912
 31
0
  0
LINE
  8
0
 62
7
 10
3.584388023137065
 20
3.495000000000001
 30
0
 11
3.824326483650735
 21
3.495000000000001
 31
0
  0
LINE
  8
0
 62
7
 10
4.855000000000006
 20
4.445
 30
0
 11
4.586509645332765
 21
4.445
 31
0
  0
LINE
  8
0
 62
7
 10
4.855000000000006
 20
3.993535208219912
 30
0
 11
4.855000000000006
 21
4.445
 31
0
  0
LINE
  8
0
 62
7
 10
3.715205426656826
 20
3.495000000000001
 30
0
 11
4.717327048852524
 21
4.445
 31
0
  0
LINE
  8
0
 62
7
 10
3.484352995647326
 20
3.495000000000001
 30
0
 11
3.715205426656826
 21
3.495000000000001
 31
0
  0
LINE
  8
0
 62
7
 10
4.717327048852524
 20
4.445
 30
0
 11
4.113389729088775
 21
4.445
 31
0
  0
LINE
  8
0
 62
7
 10
3.592294276582976
 20
3.495000000000001
 30
0
 11
4.221331010024425
 21
4.445
 31
0
  0
LINE
  8
0
 62
7
 10
3.368989191264395
 20
3.495000000000001
 30
0
 11
3.592294276582976
 21
3.495000000000001
 31
0
  0
LINE
  8
0
 62
7
 10
4.221331010024425
 20
4.445
 30
0
 11
3.759511846499815
 21
4.445
 31
0
  0
LINE
  8
0
 62
7
 10
3.466296793028876
 20
3.495000000000001
 30
0
 11
3.856819448264297
 21
4.445
 31
0
  0
LINE
  8
0
 62
7
 10
3.251559673985775
 20
3.495000000000001
 30
0
 11
3.466296793028876
 21
3.495000000000001
 31
0
  0
LINE
  8
0
 62
7
 10
3.856819448264297
 20
4.445
 30
0
 11
3.401330079867287
 21
4.445
 31
0
  0
LINE
  8
0
 62
7
 10
3.342671261307835
 20
3.495000000000001
 30
0
 11
3.492441667189336
 21
4.445
 31
0
  0
LINE
  8
0
 62
7
 10
3.042921458456694
 20
3.495000000000001
 30
0
 11
3.342671261307835
 21
3.495000000000001
 31
0
  0
LINE
  8
0
 62
7
 10
3.492441667189336
 20
4.445
 30
0
 11
3.103656985713754
 21
4.445
 31
0
  0
LINE
  8
0
 62
7
 10
3.133105200194287
 20
3.495000000000001
 30
0
 11
3.193840727451335
 21
4.445
 31
0
  0
LINE
  8
0
 62
7
 10
2.833944057281452
 20
3.495000000000001
 30
0
 11
3.133105200194287
 21
3.495000000000001
 31
0
  0
LINE
  8
0
 62
7
 10
3.193840727451335
 20
4.445
 30
0
 11
2.804855408666552
 21
4.445
 31
0
  0
LINE
  8
0
 62
7
 10
2.923986237675782
 20
3.495000000000001
 30
0
 11
2.894897589060886
 21
4.445
 31
0
  0
LINE
  8
0
 62
7
 10
2.712211079448402
 20
3.495000000000001
 30
0
 11
2.923986237675782
 21
3.495000000000001
 31
0
  0
LINE
  8
0
 62
7
 10
2.894897589060886
 20
4.445
 30
0
 11
2.432352871450482
 21
4.445
 31
0
  0
LINE
  8
0
 62
7
 10
2.806035026059621
 20
3.495000000000001
 30
0
 11
2.526176818061701
 21
4.445
 31
0
  0
LINE
  8
0
 62
7
 10
2.587998227554012
 20
3.495000000000001
 30
0
 11
2.806035026059621
 21
3.495000000000001
 31
0
  0
LINE
  8
0
 62
7
 10
2.526176818061701
 20
4.445
 30
0
 11
2.051597871720181
 21
4.445
 31
0
  0
LINE
  8
0
 62
7
 10
2.691353705723682
 20
3.495000000000001
 30
0
 11
2.154953349889853
 21
4.445
 31
0
  0
LINE
  8
0
 62
7
 10
2.463256739312042
 20
3.495000000000001
 30
0
 11
2.691353705723682
 21
3.495000000000001
 31
0
  0
LINE
  8
0
 62
7
 10
2.154953349889853
 20
4.445
 30
0
 11
1.626585911420541
 21
4.445
 31
0
  0
LINE
  8
0
 62
7
 10
2.583184678901002
 20
3.495000000000001
 30
0
 11
1.746513851009492
 21
4.445
 31
0
  0
LINE
  8
0
 62
7
 10
2.347856641612732
 20
3.495000000000001
 30
0
 11
2.583184678901002
 21
3.495000000000001
 31
0
  0
LINE
  8
0
 62
7
 10
1.330000000000001
 20
4.445
 30
0
 11
1.330000000000001
 21
4.134319102847829
 31
0
  0
LINE
  8
0
 62
7
 10
1.746513851009492
 20
4.445
 30
0
 11
1.330000000000001
 21
4.445
 31
0
  0
LINE
  8
0
 62
7
 10
2.430344958878982
 20
3.549469394894182
 30
0
 11
1.330000000000001
 21
4.240599681001111
 31
0
  0
LINE
  8
0
 62
7
 10
1.330000000000001
 20
4.240599681001111
 30
0
 11
1.330000000000001
 21
3.690366449820011
 31
0
  0
LINE
  8
0
 62
7
 10
2.280000000000003
 20
3.51221052297363
 30
0
 11
1.330000000000001
 21
3.78397665310678
 31
0
  0
LINE
  8
0
 62
7
 10
2.280000000000001
 20
3.449217311984142
 30
0
 11
2.280000000000003
 21
3.51221052297363
 31
0
  0
LINE
  8
0
 62
7
 10
1.330000000000001
 20
3.78397665310678
 30
0
 11
1.330000000000001
 21
3.39
 31
0
  0
LINE
  8
0
 62
7
 10
4.443128907259164
 20
3.49500000002555
 30
0
 11
4.443128907259164
 21
3.25
 31
0
  0
LINE
  8
0
 62
7
 10
2.280000000006353
 20
4.033128907259171
 30
0
 11
3.904999999989764
 21
4.033128907259171
 31
0
  0
LINE
  8
0
 62
7
 10
1.847526192002534
 20
3.460999999999999
 30
0
 11
1.741871092740833
 21
3.4
 31
0
  0
LINE
  8
0
 62
7
 10
1.63621599347913
 20
3.460999999999999
 30
0
 11
1.847526192002534
 21
3.460999999999999
 31
0
  0
LINE
  8
0
 62
7
 10
1.741871092740833
 20
3.4
 30
0
 11
1.63621599347913
 21
3.460999999999999
 31
0
  0
LINE
  8
0
 62
7
 10
1.741871092740833
 20
3.4
 30
0
 11
1.741871092740833
 21
3.494999999989759
 31
0
  0
LINE
  8
0
 62
7
 10
6.709999850000004
 20
8.58333322666666
 30
0
 11
7.122428860000006
 21
8.58333322666666
 31
0
  0
LINE
  8
0
 62
7
 10
7.122428860000006
 20
8.518333226666661
 30
0
 11
6.709999850000004
 21
8.518333226666661
 31
0
  0
LINE
  8
0
 62
7
 10
6.709999850000004
 20
8.518333226666661
 30
0
 11
6.709999850000004
 21
8.58333322666666
 31
0
  0
LINE
  8
0
 62
7
 10
7.122428860000006
 20
8.58333322666666
 30
0
 11
7.122428860000006
 21
8.518333226666661
 31
0
  0
LINE
  8
0
 62
7
 10
7.553510750000005
 20
8.70166656666666
 30
0
 11
6.893531080000007
 21
8.70166656666666
 31
0
  0
LINE
  8
0
 62
7
 10
6.893531080000007
 20
8.766666566666661
 30
0
 11
7.553510750000005
 21
8.766666566666661
 31
0
  0
LINE
  8
0
 62
7
 10
6.893531080000007
 20
8.70166656666666
 30
0
 11
6.893531080000007
 21
8.766666566666661
 31
0
  0
LINE
  8
0
 62
7
 10
7.553510750000005
 20
8.766666566666661
 30
0
 11
7.553510750000005
 21
8.70166656666666
 31
0
  0
LINE
  8
0
 62
7
 10
6.954999930000007
 20
8.94999990666666
 30
0
 11
7.905000000000006
 21
8.94999990666666
 31
0
  0
LINE
  8
0
 62
7
 10
7.905000000000006
 20
8.884999906666659
 30
0
 11
6.954999930000007
 21
8.884999906666659
 31
0
  0
LINE
  8
0
 62
7
 10
6.954999930000007
 20
8.884999906666659
 30
0
 11
6.954999930000007
 21
8.94999990666666
 31
0
  0
LINE
  8
0
 62
7
 10
7.905000000000006
 20
8.94999990666666
 30
0
 11
7.905000000000006
 21
8.884999906666659
 31
0
  0
LINE
  8
0
 62
7
 10
6.954999890000003
 20
9.133333226666661
 30
0
 11
7.905000159999997
 21
9.133333226666661
 31
0
  0
LINE
  8
0
 62
7
 10
6.954999890000003
 20
9.068333226666661
 30
0
 11
6.954999890000003
 21
9.133333226666661
 31
0
  0
LINE
  8
0
 62
7
 10
7.905000159999997
 20
9.133333226666661
 30
0
 11
7.905000159999997
 21
9.068333226666661
 31
0
  0
LINE
  8
0
 62
7
 10
7.905000159999997
 20
9.068333226666661
 30
0
 11
6.954999890000003
 21
9.068333226666661
 31
0
  0
LINE
  8
0
 62
7
 10
6.954999890000003
 20
9.316666586666662
 30
0
 11
7.905000000000006
 21
9.316666586666662
 31
0
  0
LINE
  8
0
 62
7
 10
6.954999890000003
 20
9.251666586666662
 30
0
 11
6.954999890000003
 21
9.316666586666662
 31
0
  0
LINE
  8
0
 62
7
 10
7.905000000000006
 20
9.316666586666662
 30
0
 11
7.905000000000006
 21
9.251666586666662
 31
0
  0
LINE
  8
0
 62
7
 10
7.905000000000006
 20
9.251666586666662
 30
0
 11
6.954999890000003
 21
9.251666586666662
 31
0
  0
LINE
  8
0
 62
7
 10
6.954999850000005
 20
9.499999946666664
 30
0
 11
7.905000159999997
 21
9.499999946666664
 31
0
  0
LINE
  8
0
 62
7
 10
6.954999850000005
 20
9.434999946666663
 30
0
 11
6.954999850000005
 21
9.499999946666664
 31
0
  0
LINE
  8
0
 62
7
 10
7.905000159999997
 20
9.499999946666664
 30
0
 11
7.905000159999997
 21
9.434999946666663
 31
0
  0
LINE
  8
0
 62
7
 10
7.905000159999997
 20
9.434999946666663
 30
0
 11
6.954999850000005
 21
9.434999946666663
 31
0
  0
LINE
  8
0
 62
7
 10
6.954999780000006
 20
9.683333226666662
 30
0
 11
7.905000000000006
 21
9.683333226666662
 31
0
  0
LINE
  8
0
 62
7
 10
6.954999780000006
 20
9.618333226666662
 30
0
 11
6.954999780000006
 21
9.683333226666662
 31
0
  0
LINE
  8
0
 62
7
 10
7.905000000000006
 20
9.683333226666662
 30
0
 11
7.905000000000006
 21
9.618333226666662
 31
0
  0
LINE
  8
0
 62
7
 10
7.905000000000006
 20
9.618333226666662
 30
0
 11
6.954999780000006
 21
9.618333226666662
 31
0
  0
LINE
  8
0
 62
7
 10
6.954999590000006
 20
9.86666666666666
 30
0
 11
7.905000000000006
 21
9.86666666666666
 31
0
  0
LINE
  8
0
 62
7
 10
6.954999590000006
 20
9.801666666666661
 30
0
 11
6.954999590000006
 21
9.86666666666666
 31
0
  0
LINE
  8
0
 62
7
 10
7.905000000000006
 20
9.86666666666666
 30
0
 11
7.905000000000006
 21
9.801666666666661
 31
0
  0
LINE
  8
0
 62
7
 10
7.905000000000006
 20
9.801666666666661
 30
0
 11
6.954999590000006
 21
9.801666666666661
 31
0
  0
LINE
  8
0
 62
7
 10
6.955000080000005
 20
10.04999994666666
 30
0
 11
7.905000159999997
 21
10.04999994666666
 31
0
  0
LINE
  8
0
 62
7
 10
6.955000080000005
 20
9.984999946666663
 30
0
 11
6.955000080000005
 21
10.04999994666666
 31
0
  0
LINE
  8
0
 62
7
 10
7.905000159999997
 20
10.04999994666666
 30
0
 11
7.905000159999997
 21
9.984999946666663
 31
0
  0
LINE
  8
0
 62
7
 10
7.905000159999997
 20
9.984999946666663
 30
0
 11
6.955000080000005
 21
9.984999946666663
 31
0
  0
LINE
  8
0
 62
7
 10
6.954999660000007
 20
10.23333322666666
 30
0
 11
7.904999700000007
 21
10.23333322666666
 31
0
  0
LINE
  8
0
 62
7
 10
6.954999660000007
 20
10.16833322666666
 30
0
 11
6.954999660000007
 21
10.23333322666666
 31
0
  0
LINE
  8
0
 62
7
 10
7.904999700000007
 20
10.23333322666666
 30
0
 11
7.904999700000007
 21
10.16833322666666
 31
0
  0
LINE
  8
0
 62
7
 10
7.904999700000007
 20
10.16833322666666
 30
0
 11
6.954999660000007
 21
10.16833322666666
 31
0
  0
LINE
  8
0
 62
7
 10
6.954999890000003
 20
10.41666666666666
 30
0
 11
7.905000000000006
 21
10.41666666666666
 31
0
  0
LINE
  8
0
 62
7
 10
6.954999890000003
 20
10.35166666666666
 30
0
 11
6.954999890000003
 21
10.41666666666666
 31
0
  0
LINE
  8
0
 62
7
 10
7.905000000000006
 20
10.41666666666666
 30
0
 11
7.905000000000006
 21
10.35166666666666
 31
0
  0
LINE
  8
0
 62
7
 10
7.905000000000006
 20
10.35166666666666
 30
0
 11
6.954999890000003
 21
10.35166666666666
 31
0
  0
LINE
  8
0
 62
7
 10
6.954998970000005
 20
10.59999994666666
 30
0
 11
7.904999849999996
 21
10.59999994666666
 31
0
  0
LINE
  8
0
 62
7
 10
7.904999849999996
 20
10.53499994666666
 30
0
 11
6.954998970000005
 21
10.53499994666666
 31
0
  0
LINE
  8
0
 62
7
 10
6.954998970000005
 20
10.53499994666666
 30
0
 11
6.954998970000005
 21
10.59999994666666
 31
0
  0
LINE
  8
0
 62
7
 10
7.904999849999996
 20
10.59999994666666
 30
0
 11
7.904999849999996
 21
10.53499994666666
 31
0
  0
LINE
  8
0
 62
7
 10
7.700599520000006
 20
10.71833322666666
 30
0
 11
6.887792100000005
 21
10.71833322666666
 31
0
  0
LINE
  8
0
 62
7
 10
6.887792100000005
 20
10.78333322666666
 30
0
 11
7.700599520000006
 21
10.78333322666666
 31
0
  0
LINE
  8
0
 62
7
 10
6.887792100000005
 20
10.71833322666666
 30
0
 11
6.887792100000005
 21
10.78333322666666
 31
0
  0
LINE
  8
0
 62
7
 10
7.700599520000006
 20
10.78333322666666
 30
0
 11
7.700599520000006
 21
10.71833322666666
 31
0
  0
LINE
  8
0
 62
7
 10
6.850000270000006
 20
10.96666666666666
 30
0
 11
7.243975610000006
 21
10.96666666666666
 31
0
  0
LINE
  8
0
 62
7
 10
7.243975610000006
 20
10.90166666666666
 30
0
 11
6.850000270000006
 21
10.90166666666666
 31
0
  0
LINE
  8
0
 62
7
 10
6.850000270000006
 20
10.90166666666666
 30
0
 11
6.850000270000006
 21
10.96666666666666
 31
0
  0
LINE
  8
0
 62
7
 10
7.243975610000006
 20
10.96666666666666
 30
0
 11
7.243975610000006
 21
10.90166666666666
 31
0
  0
LINE
  8
0
 62
7
 10
3.905000080000004
 20
8.58333322666666
 30
0
 11
4.855000400000007
 21
8.58333322666666
 31
0
  0
LINE
  8
0
 62
7
 10
4.855000400000007
 20
8.58333322666666
 30
0
 11
4.855000400000007
 21
8.518333226666661
 31
0
  0
LINE
  8
0
 62
7
 10
3.905000080000004
 20
8.518333226666661
 30
0
 11
3.905000080000004
 21
8.58333322666666
 31
0
  0
LINE
  8
0
 62
7
 10
4.855000400000007
 20
8.518333226666661
 30
0
 11
3.905000080000004
 21
8.518333226666661
 31
0
  0
LINE
  8
0
 62
7
 10
3.743175050000005
 20
8.766666566666663
 30
0
 11
4.855000570000005
 21
8.766666566666663
 31
0
  0
LINE
  8
0
 62
7
 10
4.855000570000005
 20
8.701666566666661
 30
0
 11
3.743175050000005
 21
8.701666566666661
 31
0
  0
LINE
  8
0
 62
7
 10
4.855000570000005
 20
8.766666566666663
 30
0
 11
4.855000570000005
 21
8.701666566666661
 31
0
  0
LINE
  8
0
 62
7
 10
3.743175050000005
 20
8.701666566666661
 30
0
 11
3.743175050000005
 21
8.766666566666663
 31
0
  0
LINE
  8
0
 62
7
 10
4.855000270000005
 20
8.884999906666662
 30
0
 11
3.584388120000007
 21
8.884999906666662
 31
0
  0
LINE
  8
0
 62
7
 10
3.584388120000007
 20
8.949999906666664
 30
0
 11
4.855000270000005
 21
8.949999906666664
 31
0
  0
LINE
  8
0
 62
7
 10
4.855000270000005
 20
8.949999906666664
 30
0
 11
4.855000270000005
 21
8.884999906666662
 31
0
  0
LINE
  8
0
 62
7
 10
3.584388120000007
 20
8.884999906666662
 30
0
 11
3.584388120000007
 21
8.949999906666664
 31
0
  0
LINE
  8
0
 62
7
 10
4.717327290000006
 20
9.068333226666661
 30
0
 11
3.484353330000006
 21
9.068333226666661
 31
0
  0
LINE
  8
0
 62
7
 10
3.484353330000006
 20
9.133333226666661
 30
0
 11
4.717327290000006
 21
9.133333226666661
 31
0
  0
LINE
  8
0
 62
7
 10
4.717327290000006
 20
9.133333226666661
 30
0
 11
4.717327290000006
 21
9.068333226666661
 31
0
  0
LINE
  8
0
 62
7
 10
3.484353330000006
 20
9.068333226666661
 30
0
 11
3.484353330000006
 21
9.133333226666661
 31
0
  0
LINE
  8
0
 62
7
 10
4.221331260000005
 20
9.251666586666662
 30
0
 11
3.368989110000006
 21
9.251666586666662
 31
0
  0
LINE
  8
0
 62
7
 10
3.368989110000006
 20
9.316666586666662
 30
0
 11
4.221331260000005
 21
9.316666586666662
 31
0
  0
LINE
  8
0
 62
7
 10
4.221331260000005
 20
9.316666586666662
 30
0
 11
4.221331260000005
 21
9.251666586666662
 31
0
  0
LINE
  8
0
 62
7
 10
3.368989110000006
 20
9.251666586666662
 30
0
 11
3.368989110000006
 21
9.316666586666662
 31
0
  0
LINE
  8
0
 62
7
 10
3.856819610000005
 20
9.434999946666663
 30
0
 11
3.251559910000008
 21
9.434999946666663
 31
0
  0
LINE
  8
0
 62
7
 10
3.251559910000008
 20
9.499999946666664
 30
0
 11
3.856819610000005
 21
9.499999946666664
 31
0
  0
LINE
  8
0
 62
7
 10
3.856819610000005
 20
9.499999946666664
 30
0
 11
3.856819610000005
 21
9.434999946666663
 31
0
  0
LINE
  8
0
 62
7
 10
3.251559910000008
 20
9.434999946666663
 30
0
 11
3.251559910000008
 21
9.499999946666664
 31
0
  0
LINE
  8
0
 62
7
 10
3.492442020000005
 20
9.618333226666662
 30
0
 11
3.042921450000005
 21
9.618333226666662
 31
0
  0
LINE
  8
0
 62
7
 10
3.042921450000005
 20
9.683333226666662
 30
0
 11
3.492442020000005
 21
9.683333226666662
 31
0
  0
LINE
  8
0
 62
7
 10
3.492442020000005
 20
9.683333226666662
 30
0
 11
3.492442020000005
 21
9.618333226666662
 31
0
  0
LINE
  8
0
 62
7
 10
3.042921450000005
 20
9.618333226666662
 30
0
 11
3.042921450000005
 21
9.683333226666662
 31
0
  0
LINE
  8
0
 62
7
 10
3.193840940000005
 20
9.801666666666662
 30
0
 11
2.804855650000002
 21
9.801666666666662
 31
0
  0
LINE
  8
0
 62
7
 10
2.804855650000002
 20
9.866666666666662
 30
0
 11
3.193840940000005
 21
9.866666666666662
 31
0
  0
LINE
  8
0
 62
7
 10
3.193840940000005
 20
9.866666666666662
 30
0
 11
3.193840940000005
 21
9.801666666666662
 31
0
  0
LINE
  8
0
 62
7
 10
2.804855650000002
 20
9.801666666666662
 30
0
 11
2.804855650000002
 21
9.866666666666662
 31
0
  0
LINE
  8
0
 62
7
 10
2.923986510000001
 20
9.984999946666663
 30
0
 11
2.432352910000002
 21
9.984999946666663
 31
0
  0
LINE
  8
0
 62
7
 10
2.432352910000002
 20
10.04999994666666
 30
0
 11
2.923986510000001
 21
10.04999994666666
 31
0
  0
LINE
  8
0
 62
7
 10
2.923986510000001
 20
10.04999994666666
 30
0
 11
2.923986510000001
 21
9.984999946666663
 31
0
  0
LINE
  8
0
 62
7
 10
2.432352910000002
 20
9.984999946666663
 30
0
 11
2.432352910000002
 21
10.04999994666666
 31
0
  0
LINE
  8
0
 62
7
 10
2.806035310000002
 20
10.16833322666666
 30
0
 11
2.051597900000002
 21
10.16833322666666
 31
0
  0
LINE
  8
0
 62
7
 10
2.051597900000002
 20
10.23333322666666
 30
0
 11
2.806035310000002
 21
10.23333322666666
 31
0
  0
LINE
  8
0
 62
7
 10
2.806035310000002
 20
10.23333322666666
 30
0
 11
2.806035310000002
 21
10.16833322666666
 31
0
  0
LINE
  8
0
 62
7
 10
2.051597900000002
 20
10.16833322666666
 30
0
 11
2.051597900000002
 21
10.23333322666666
 31
0
  0
LINE
  8
0
 62
7
 10
2.691353910000003
 20
10.35166666666666
 30
0
 11
1.626586
 21
10.35166666666666
 31
0
  0
LINE
  8
0
 62
7
 10
1.626586
 20
10.41666666666666
 30
0
 11
2.691353910000003
 21
10.41666666666666
 31
0
  0
LINE
  8
0
 62
7
 10
2.691353910000003
 20
10.41666666666666
 30
0
 11
2.691353910000003
 21
10.35166666666666
 31
0
  0
LINE
  8
0
 62
7
 10
1.626586
 20
10.35166666666666
 30
0
 11
1.626586
 21
10.41666666666666
 31
0
  0
LINE
  8
0
 62
7
 10
2.583184660000002
 20
10.53499994666666
 30
0
 11
1.330000000000001
 21
10.53499994666666
 31
0
  0
LINE
  8
0
 62
7
 10
1.330000000000001
 20
10.59999994666666
 30
0
 11
2.583184660000002
 21
10.59999994666666
 31
0
  0
LINE
  8
0
 62
7
 10
2.583184660000002
 20
10.59999994666666
 30
0
 11
2.583184660000002
 21
10.53499994666666
 31
0
  0
LINE
  8
0
 62
7
 10
1.330000000000001
 20
10.53499994666666
 30
0
 11
1.330000000000001
 21
10.59999994666666
 31
0
  0
LINE
  8
0
 62
7
 10
1.329999700000001
 20
10.78333322666666
 30
0
 11
2.430345160000002
 21
10.78333322666666
 31
0
  0
LINE
  8
0
 62
7
 10
2.430345160000002
 20
10.71833322666666
 30
0
 11
1.329999700000001
 21
10.71833322666666
 31
0
  0
LINE
  8
0
 62
7
 10
2.430345160000002
 20
10.78333322666666
 30
0
 11
2.430345160000002
 21
10.71833322666666
 31
0
  0
LINE
  8
0
 62
7
 10
1.329999700000001
 20
10.71833322666666
 30
0
 11
1.329999700000001
 21
10.78333322666666
 31
0
  0
LINE
  8
0
 62
7
  6
DASHED
 10
1.330000000000001
 20
10.96666666666666
 30
0
 11
2.280000000000001
 21
10.96666666666666
 31
0
  0
LINE
  8
0
 62
7
  6
DASHED
 10
2.280000000000001
 20
10.96666666666666
 30
0
 11
2.280000000000001
 21
10.90166666666666
 31
0
  0
LINE
  8
0
 62
7
  6
DASHED
 10
1.330000000000001
 20
10.90166666666666
 30
0
 11
1.330000000000001
 21
10.96666666666666
 31
0
  0
LINE
  8
0
 62
7
  6
DASHED
 10
2.280000000000001
 20
10.90166666666666
 30
0
 11
1.330000000000001
 21
10.90166666666666
 31
0
  0
LINE
  8
0
 62
7
  6
DASHDOT
 10
1.1
 20
5.169999999999998
 30
0
 11
1.274999999999999
 21
5.169999999999998
 31
0
  0
LINE
  8
0
 62
7
  6
DASHDOT
 10
1.05
 20
5.169999999999998
 30
0
 11
1.1
 21
5.169999999999998
 31
0
  0
LINE
  8
0
 62
7
  6
DASHDOT
 10
5.235000000000005
 20
4.5
 30
0
 11
5.235000000000005
 21
4.74
 31
0
  0
LINE
  8
0
 62
7
  6
DASHDOT
 10
0.9350000000000001
 20
4.5
 30
0
 11
0.9350000000000001
 21
4.74
 31
0
  0
LINE
  8
0
 62
7
  6
DASHDOT
 10
5.235000000000005
 20
4.74
 30
0
 11
5.235000000000005
 21
4.78
 31
0
  0
LINE
  8
0
 62
7
  6
DASHDOT
 10
0.9350000000000001
 20
4.74
 30
0
 11
0.9350000000000001
 21
4.78
 31
0
  0
LINE
  8
0
 62
7
  6
DASHDOT
 10
5.235000000000005
 20
4.45
 30
0
 11
5.235000000000005
 21
4.5
 31
0
  0
LINE
  8
0
 62
7
  6
DASHDOT
 10
5.235000000000005
 20
4.78
 30
0
 11
5.235000000000005
 21
5.019999999999999
 31
0
  0
LINE
  8
0
 62
7
  6
DASHDOT
 10
4.860000000000007
 20
5.169999999999998
 30
0
 11
4.910000000000006
 21
5.169999999999998
 31
0
  0
LINE
  8
0
 62
7
  6
DASHDOT
 10
4.910000000000006
 20
5.169999999999998
 30
0
 11
5.085000000000006
 21
5.169999999999998
 31
0
  0
LINE
  8
0
 62
7
  6
DASHDOT
 10
0.9350000000000001
 20
4.45
 30
0
 11
0.9350000000000001
 21
4.5
 31
0
  0
LINE
  8
0
 62
7
  6
DASHDOT
 10
0.9350000000000001
 20
4.78
 30
0
 11
0.9350000000000001
 21
5.019999999999999
 31
0
  0
LINE
  8
0
 62
7
  6
DASHDOT
 10
0.9350000000000001
 20
5.019999999999999
 30
0
 11
0.9350000000000001
 21
5.069999999999999
 31
0
  0
LINE
  8
0
 62
7
  6
DASHDOT
 10
5.235000000000005
 20
5.019999999999999
 30
0
 11
5.235000000000005
 21
5.069999999999999
 31
0
  0
LINE
  8
0
 62
7
  6
DASHDOT
 10
1.274999999999999
 20
5.169999999999998
 30
0
 11
1.324999999999999
 21
5.169999999999998
 31
0
  0
LINE
  8
0
 62
7
  6
DASHDOT
 10
5.085000000000006
 20
5.169999999999998
 30
0
 11
5.135000000000005
 21
5.169999999999998
 31
0
  0
LINE
  8
0
 62
7
 10
4.910000000000006
 20
3.4
 30
0
 11
4.910000000000006
 21
3.35
 31
0
  0
LINE
  8
0
 62
7
  6
DASHDOT
 10
4.910000000000006
 20
3.35
 30
0
 11
1.274999999999999
 21
3.35
 31
0
  0
LINE
  8
0
 62
7
 10
1.274999999999999
 20
3.35
 30
0
 11
1.274999999999999
 21
3.4
 31
0
  0
LINE
  8
0
 62
7
 10
4.910000000000006
 20
4.5
 30
0
 11
4.910000000000006
 21
3.4
 31
0
  0
LINE
  8
0
 62
7
 10
4.910000000000006
 20
3.4
 30
0
 11
1.274999999999999
 21
3.4
 31
0
  0
LINE
  8
0
 62
7
 10
1.1
 20
3.35
 30
0
 11
1.274999999999999
 21
3.35
 31
0
  0
LINE
  8
0
 62
7
 10
0.9350000000000001
 20
4.5
 30
0
 11
1.1
 21
4.5
 31
0
  0
LINE
  8
0
 62
7
 10
1.1
 20
4.5
 30
0
 11
1.1
 21
3.35
 31
0
  0
LINE
  8
0
 62
7
 10
1.274999999999999
 20
3.4
 30
0
 11
1.274999999999999
 21
4.5
 31
0
  0
LINE
  8
0
 62
7
 10
1.274999999999999
 20
4.5
 30
0
 11
4.910000000000006
 21
4.5
 31
0
  0
LINE
  8
0
 62
7
 10
5.085000000000006
 20
3.25
 30
0
 11
5.085000000000006
 21
4.5
 31
0
  0
LINE
  8
0
 62
7
 10
4.910000000000006
 20
3.25
 30
0
 11
5.085000000000006
 21
3.25
 31
0
  0
LINE
  8
0
 62
7
 10
4.910000000000006
 20
3.35
 30
0
 11
4.910000000000006
 21
3.25
 31
0
  0
LINE
  8
0
 62
7
 10
5.085000000000006
 20
4.5
 30
0
 11
5.235000000000005
 21
4.5
 31
0
  0
LINE
  8
0
 62
7
 10
0.9350000000000001
 20
4.74
 30
0
 11
5.235000000000005
 21
4.74
 31
0
  0
LINE
  8
0
 62
7
 10
0.9350000000000001
 20
4.78
 30
0
 11
5.235000000000005
 21
4.78
 31
0
  0
LINE
  8
0
 62
7
 10
0.9350000000000001
 20
5.019999999999999
 30
0
 11
1.1
 21
5.019999999999999
 31
0
  0
LINE
  8
0
 62
7
 10
1.1
 20
5.019999999999999
 30
0
 11
1.1
 21
5.169999999999998
 31
0
  0
LINE
  8
0
 62
7
 10
1.274999999999999
 20
5.169999999999998
 30
0
 11
1.274999999999999
 21
5.019999999999999
 31
0
  0
LINE
  8
0
 62
7
 10
1.274999999999999
 20
5.019999999999999
 30
0
 11
4.910000000000006
 21
5.019999999999999
 31
0
  0
LINE
  8
0
 62
7
 10
4.910000000000006
 20
5.019999999999999
 30
0
 11
4.910000000000006
 21
5.169999999999998
 31
0
  0
LINE
  8
0
 62
7
 10
5.085000000000006
 20
5.169999999999998
 30
0
 11
5.085000000000006
 21
5.019999999999999
 31
0
  0
LINE
  8
0
 62
7
 10
5.085000000000006
 20
5.019999999999999
 30
0
 11
5.235000000000005
 21
5.019999999999999
 31
0
  0
LINE
  8
0
 62
7
  6
DASHED
 10
6.810000000000006
 20
8.1
 30
0
 11
7.960000000000005
 21
8.1
 31
0
  0
LINE
  8
0
 62
7
  6
DASHED
 10
6.810000000000006
 20
8.299999999999997
 30
0
 11
7.960000000000005
 21
8.299999999999997
 31
0
  0
LINE
  8
0
 62
7
  6
DASHED
 10
6.810000000000006
 20
10.85
 30
0
 11
7.960000000000005
 21
10.85
 31
0
  0
LINE
  8
0
 62
7
  6
DASHED
 10
6.810000000000006
 20
11.05
 30
0
 11
7.960000000000005
 21
11.05
 31
0
  0
LINE
  8
0
 62
7
  6
DASHDOT
 10
6.510000000000005
 20
10.85
 30
0
 11
6.510000000000005
 21
11.05
 31
0
  0
LINE
  8
0
 62
7
  6
DASHDOT
 10
6.510000000000005
 20
10.8
 30
0
 11
6.510000000000005
 21
10.85
 31
0
  0
LINE
  8
0
 62
7
  6
DASHDOT
 10
7.960000000000005
 20
11.2
 30
0
 11
8.200000000000005
 21
11.2
 31
0
  0
LINE
  8
0
 62
7
  6
DASHDOT
 10
7.910000000000005
 20
11.2
 30
0
 11
7.960000000000005
 21
11.2
 31
0
  0
LINE
  8
0
 62
7
  6
DASHDOT
 10
7.910000000000005
 20
7.949999999999999
 30
0
 11
7.960000000000005
 21
7.949999999999999
 31
0
  0
LINE
  8
0
 62
7
  6
DASHDOT
 10
7.960000000000005
 20
7.949999999999999
 30
0
 11
8.200000000000005
 21
7.949999999999999
 31
0
  0
LINE
  8
0
 62
7
  6
DASHDOT
 10
6.510000000000005
 20
8.299999999999997
 30
0
 11
6.510000000000005
 21
8.1
 31
0
  0
LINE
  8
0
 62
7
  6
DASHDOT
 10
6.510000000000005
 20
8.399999999999997
 30
0
 11
6.510000000000005
 21
8.299999999999997
 31
0
  0
LINE
  8
0
 62
7
  6
DASHDOT
 10
6.510000000000005
 20
11.05
 30
0
 11
6.510000000000005
 21
11.15
 31
0
  0
LINE
  8
0
 62
7
 10
6.510000000000005
 20
11.15
 30
0
 11
6.810000000000006
 21
11.15
 31
0
  0
LINE
  8
0
 62
7
  6
DASHDOT
 10
6.510000000000005
 20
8.449999999999998
 30
0
 11
6.510000000000005
 21
8.399999999999997
 31
0
  0
LINE
  8
0
 62
7
 10
6.510000000000005
 20
8.399999999999997
 30
0
 11
6.810000000000006
 21
8.399999999999997
 31
0
  0
LINE
  8
0
 62
7
  6
DASHDOT
 10
8.200000000000005
 20
7.949999999999999
 30
0
 11
8.250000000000005
 21
7.949999999999999
 31
0
  0
LINE
  8
0
 62
7
  6
DASHDOT
 10
6.510000000000005
 20
8.1
 30
0
 11
6.510000000000005
 21
8.049999999999999
 31
0
  0
LINE
  8
0
 62
7
  6
DASHDOT
 10
6.510000000000005
 20
11.15
 30
0
 11
6.510000000000005
 21
11.2
 31
0
  0
LINE
  8
0
 62
7
  6
DASHDOT
 10
8.200000000000005
 20
11.2
 30
0
 11
8.250000000000005
 21
11.2
 31
0
  0
LINE
  8
0
 62
7
 10
6.510000000000005
 20
8.1
 30
0
 11
6.810000000000006
 21
8.1
 31
0
  0
LINE
  8
0
 62
7
 10
6.810000000000006
 20
8.1
 30
0
 11
6.810000000000006
 21
8.299999999999997
 31
0
  0
LINE
  8
0
 62
7
 10
6.510000000000005
 20
8.299999999999997
 30
0
 11
6.810000000000006
 21
8.299999999999997
 31
0
  0
LINE
  8
0
 62
7
 10
6.510000000000005
 20
11.05
 30
0
 11
6.810000000000006
 21
11.05
 31
0
  0
LINE
  8
0
 62
7
 10
6.510000000000005
 20
10.85
 30
0
 11
6.810000000000006
 21
10.85
 31
0
  0
LINE
  8
0
 62
7
 10
6.810000000000006
 20
10.85
 30
0
 11
6.810000000000006
 21
11.05
 31
0
  0
LINE
  8
0
 62
7
 10
7.960000000000005
 20
7.949999999999999
 30
0
 11
7.960000000000005
 21
8.1
 31
0
  0
LINE
  8
0
 62
7
 10
8.200000000000005
 20
8.299999999999997
 30
0
 11
8.200000000000005
 21
8.1
 31
0
  0
LINE
  8
0
 62
7
 10
7.960000000000005
 20
8.1
 30
0
 11
8.200000000000005
 21
8.1
 31
0
  0
LINE
  8
0
 62
7
 10
7.960000000000005
 20
8.1
 30
0
 11
7.960000000000005
 21
8.299999999999997
 31
0
  0
LINE
  8
0
 62
7
 10
8.200000000000005
 20
10.85
 30
0
 11
8.200000000000005
 21
8.299999999999997
 31
0
  0
LINE
  8
0
 62
7
 10
7.960000000000005
 20
8.299999999999997
 30
0
 11
8.200000000000005
 21
8.299999999999997
 31
0
  0
LINE
  8
0
 62
7
 10
7.960000000000005
 20
8.299999999999997
 30
0
 11
7.960000000000005
 21
10.85
 31
0
  0
LINE
  8
0
 62
7
 10
8.200000000000005
 20
11.05
 30
0
 11
8.200000000000005
 21
10.85
 31
0
  0
LINE
  8
0
 62
7
 10
7.960000000000005
 20
10.85
 30
0
 11
8.200000000000005
 21
10.85
 31
0
  0
LINE
  8
0
 62
7
 10
7.960000000000005
 20
10.85
 30
0
 11
7.960000000000005
 21
11.05
 31
0
  0
LINE
  8
0
 62
7
 10
8.200000000000005
 20
11.2
 30
0
 11
8.200000000000005
 21
11.05
 31
0
  0
LINE
  8
0
 62
7
 10
7.960000000000005
 20
11.05
 30
0
 11
8.200000000000005
 21
11.05
 31
0
  0
LINE
  8
0
 62
7
 10
7.960000000000005
 20
11.05
 30
0
 11
7.960000000000005
 21
11.2
 31
0
  0
LINE
  8
0
 62
7
 10
8.200000000000005
 20
8.1
 30
0
 11
8.200000000000005
 21
7.949999999999999
 31
0
  0
LINE
  8
0
 62
7
  6
DASHDOT
 10
5.085000000000006
 20
11.2
 30
0
 11
5.135000000000005
 21
11.2
 31
0
  0
LINE
  8
0
 62
7
  6
DASHDOT
 10
4.910000000000006
 20
11.2
 30
0
 11
5.085000000000006
 21
11.2
 31
0
  0
LINE
  8
0
 62
7
  6
DASHDOT
 10
5.235000000000005
 20
11.05
 30
0
 11
5.235000000000005
 21
11.15
 31
0
  0
LINE
  8
0
 62
7
  6
DASHDOT
 10
5.235000000000005
 20
10.85
 30
0
 11
5.235000000000005
 21
11.05
 31
0
  0
LINE
  8
0
 62
7
  6
DASHDOT
 10
1.274999999999999
 20
11.2
 30
0
 11
1.324999999999999
 21
11.2
 31
0
  0
LINE
  8
0
 62
7
  6
DASHDOT
 10
1.1
 20
11.2
 30
0
 11
1.274999999999999
 21
11.2
 31
0
  0
LINE
  8
0
 62
7
  6
DASHDOT
 10
0.9500000000000001
 20
11.05
 30
0
 11
0.9500000000000001
 21
11.15
 31
0
  0
LINE
  8
0
 62
7
  6
DASHDOT
 10
0.9500000000000001
 20
10.85
 30
0
 11
0.9500000000000001
 21
11.05
 31
0
  0
LINE
  8
0
 62
7
  6
DASHDOT
 10
1.274999999999999
 20
7.949999999999999
 30
0
 11
1.324999999999999
 21
7.949999999999999
 31
0
  0
LINE
  8
0
 62
7
  6
DASHDOT
 10
1.1
 20
7.949999999999999
 30
0
 11
1.274999999999999
 21
7.949999999999999
 31
0
  0
LINE
  8
0
 62
7
  6
DASHDOT
 10
0.9500000000000001
 20
8.299999999999997
 30
0
 11
0.9500000000000001
 21
8.399999999999997
 31
0
  0
LINE
  8
0
 62
7
  6
DASHDOT
 10
0.9500000000000001
 20
8.1
 30
0
 11
0.9500000000000001
 21
8.299999999999997
 31
0
  0
LINE
  8
0
 62
7
  6
DASHDOT
 10
5.085000000000006
 20
7.949999999999999
 30
0
 11
5.135000000000005
 21
7.949999999999999
 31
0
  0
LINE
  8
0
 62
7
  6
DASHDOT
 10
4.910000000000006
 20
7.949999999999999
 30
0
 11
5.085000000000006
 21
7.949999999999999
 31
0
  0
LINE
  8
0
 62
7
  6
DASHDOT
 10
5.235000000000005
 20
8.299999999999997
 30
0
 11
5.235000000000005
 21
8.399999999999997
 31
0
  0
LINE
  8
0
 62
7
  6
DASHDOT
 10
5.235000000000005
 20
8.1
 30
0
 11
5.235000000000005
 21
8.299999999999997
 31
0
  0
LINE
  8
0
 62
7
  6
DASHDOT
 10
5.235000000000005
 20
11.15
 30
0
 11
5.235000000000005
 21
11.2
 31
0
  0
LINE
  8
0
 62
7
 10
5.085000000000006
 20
11.15
 30
0
 11
5.085000000000006
 21
11.2
 31
0
  0
LINE
  8
0
 62
7
 10
5.085000000000006
 20
11.15
 30
0
 11
5.235000000000005
 21
11.15
 31
0
  0
LINE
  8
0
 62
7
 10
4.910000000000006
 20
11.15
 30
0
 11
4.910000000000006
 21
11.2
 31
0
  0
LINE
  8
0
 62
7
 10
1.274999999999999
 20
11.15
 30
0
 11
1.274999999999999
 21
11.2
 31
0
  0
LINE
  8
0
 62
7
 10
1.274999999999999
 20
11.15
 30
0
 11
4.910000000000006
 21
11.15
 31
0
  0
LINE
  8
0
 62
7
  6
DASHDOT
 10
0.9500000000000001
 20
11.15
 30
0
 11
0.9500000000000001
 21
11.2
 31
0
  0
LINE
  8
0
 62
7
 10
1.1
 20
11.15
 30
0
 11
1.1
 21
11.2
 31
0
  0
LINE
  8
0
 62
7
 10
0.9500000000000001
 20
11.15
 30
0
 11
1.1
 21
11.15
 31
0
  0
LINE
  8
0
 62
7
  6
DASHDOT
 10
5.235000000000005
 20
8.399999999999997
 30
0
 11
5.235000000000005
 21
8.449999999999998
 31
0
  0
LINE
  8
0
 62
7
 10
5.085000000000006
 20
8.399999999999997
 30
0
 11
5.085000000000006
 21
10.85
 31
0
  0
LINE
  8
0
 62
7
 10
5.085000000000006
 20
8.399999999999997
 30
0
 11
5.235000000000005
 21
8.399999999999997
 31
0
  0
LINE
  8
0
 62
7
 10
4.910000000000006
 20
8.399999999999997
 30
0
 11
4.910000000000006
 21
10.85
 31
0
  0
LINE
  8
0
 62
7
 10
1.274999999999999
 20
8.399999999999997
 30
0
 11
1.274999999999999
 21
10.85
 31
0
  0
LINE
  8
0
 62
7
 10
1.274999999999999
 20
8.399999999999997
 30
0
 11
4.910000000000006
 21
8.399999999999997
 31
0
  0
LINE
  8
0
 62
7
  6
DASHDOT
 10
0.9500000000000001
 20
8.399999999999997
 30
0
 11
0.9500000000000001
 21
8.449999999999998
 31
0
  0
LINE
  8
0
 62
7
 10
1.1
 20
8.399999999999997
 30
0
 11
1.1
 21
10.85
 31
0
  0
LINE
  8
0
 62
7
 10
0.9500000000000001
 20
8.399999999999997
 30
0
 11
1.1
 21
8.399999999999997
 31
0
  0
LINE
  8
0
 62
7
  6
DASHDOT
 10
4.860000000000007
 20
7.949999999999999
 30
0
 11
4.910000000000006
 21
7.949999999999999
 31
0
  0
LINE
  8
0
 62
7
  6
DASHDOT
 10
4.860000000000007
 20
11.2
 30
0
 11
4.910000000000006
 21
11.2
 31
0
  0
LINE
  8
0
 62
7
  6
DASHDOT
 10
1.05
 20
7.949999999999999
 30
0
 11
1.1
 21
7.949999999999999
 31
0
  0
LINE
  8
0
 62
7
  6
DASHDOT
 10
1.05
 20
11.2
 30
0
 11
1.1
 21
11.2
 31
0
  0
LINE
  8
0
 62
7
  6
DASHDOT
 10
5.235000000000005
 20
10.8
 30
0
 11
5.235000000000005
 21
10.85
 31
0
  0
LINE
  8
0
 62
7
  6
DASHDOT
 10
5.235000000000005
 20
8.049999999999999
 30
0
 11
5.235000000000005
 21
8.1
 31
0
  0
LINE
  8
0
 62
7
  6
DASHDOT
 10
0.9500000000000001
 20
10.8
 30
0
 11
0.9500000000000001
 21
10.85
 31
0
  0
LINE
  8
0
 62
7
  6
DASHDOT
 10
0.9500000000000001
 20
8.049999999999999
 30
0
 11
0.9500000000000001
 21
8.1
 31
0
  0
LINE
  8
0
 62
7
 10
5.085000000000006
 20
11.05
 30
0
 11
5.235000000000005
 21
11.05
 31
0
  0
LINE
  8
0
 62
7
 10
5.085000000000006
 20
11.05
 30
0
 11
5.085000000000006
 21
11.15
 31
0
  0
LINE
  8
0
 62
7
 10
5.085000000000006
 20
10.85
 30
0
 11
5.235000000000005
 21
10.85
 31
0
  0
LINE
  8
0
 62
7
 10
5.085000000000006
 20
8.299999999999997
 30
0
 11
5.235000000000005
 21
8.299999999999997
 31
0
  0
LINE
  8
0
 62
7
 10
5.085000000000006
 20
8.299999999999997
 30
0
 11
5.085000000000006
 21
8.399999999999997
 31
0
  0
LINE
  8
0
 62
7
 10
5.085000000000006
 20
8.1
 30
0
 11
5.235000000000005
 21
8.1
 31
0
  0
LINE
  8
0
 62
7
 10
5.085000000000006
 20
7.949999999999999
 30
0
 11
5.085000000000006
 21
8.1
 31
0
  0
LINE
  8
0
 62
7
 10
4.910000000000006
 20
11.05
 30
0
 11
5.085000000000006
 21
11.05
 31
0
  0
LINE
  8
0
 62
7
 10
4.910000000000006
 20
11.05
 30
0
 11
4.910000000000006
 21
11.15
 31
0
  0
LINE
  8
0
 62
7
 10
4.910000000000006
 20
10.85
 30
0
 11
5.085000000000006
 21
10.85
 31
0
  0
LINE
  8
0
 62
7
 10
4.910000000000006
 20
8.299999999999997
 30
0
 11
5.085000000000006
 21
8.299999999999997
 31
0
  0
LINE
  8
0
 62
7
 10
4.910000000000006
 20
8.299999999999997
 30
0
 11
4.910000000000006
 21
8.399999999999997
 31
0
  0
LINE
  8
0
 62
7
 10
4.910000000000006
 20
8.1
 30
0
 11
5.085000000000006
 21
8.1
 31
0
  0
LINE
  8
0
 62
7
 10
4.910000000000006
 20
7.949999999999999
 30
0
 11
4.910000000000006
 21
8.1
 31
0
  0
LINE
  8
0
 62
7
 10
1.274999999999999
 20
11.05
 30
0
 11
4.910000000000006
 21
11.05
 31
0
  0
LINE
  8
0
 62
7
 10
1.274999999999999
 20
11.05
 30
0
 11
1.274999999999999
 21
11.15
 31
0
  0
LINE
  8
0
 62
7
 10
1.274999999999999
 20
10.85
 30
0
 11
4.910000000000006
 21
10.85
 31
0
  0
LINE
  8
0
 62
7
 10
1.274999999999999
 20
8.299999999999997
 30
0
 11
4.910000000000006
 21
8.299999999999997
 31
0
  0
LINE
  8
0
 62
7
 10
1.274999999999999
 20
8.299999999999997
 30
0
 11
1.274999999999999
 21
8.399999999999997
 31
0
  0
LINE
  8
0
 62
7
 10
1.274999999999999
 20
8.1
 30
0
 11
4.910000000000006
 21
8.1
 31
0
  0
LINE
  8
0
 62
7
 10
1.274999999999999
 20
7.949999999999999
 30
0
 11
1.274999999999999
 21
8.1
 31
0
  0
LINE
  8
0
 62
7
 10
1.1
 20
11.05
 30
0
 11
1.274999999999999
 21
11.05
 31
0
  0
LINE
  8
0
 62
7
 10
1.1
 20
11.05
 30
0
 11
1.1
 21
11.15
 31
0
  0
LINE
  8
0
 62
7
 10
1.1
 20
10.85
 30
0
 11
1.274999999999999
 21
10.85
 31
0
  0
LINE
  8
0
 62
7
 10
1.1
 20
8.299999999999997
 30
0
 11
1.274999999999999
 21
8.299999999999997
 31
0
  0
LINE
  8
0
 62
7
 10
1.1
 20
8.299999999999997
 30
0
 11
1.1
 21
8.399999999999997
 31
0
  0
LINE
  8
0
 62
7
 10
1.1
 20
8.1
 30
0
 11
1.274999999999999
 21
8.1
 31
0
  0
LINE
  8
0
 62
7
 10
1.1
 20
7.949999999999999
 30
0
 11
1.1
 21
8.1
 31
0
  0
LINE
  8
0
 62
7
 10
0.9500000000000001
 20
11.05
 30
0
 11
1.1
 21
11.05
 31
0
  0
LINE
  8
0
 62
7
 10
0.9500000000000001
 20
10.85
 30
0
 11
1.1
 21
10.85
 31
0
  0
LINE
  8
0
 62
7
 10
0.9500000000000001
 20
8.299999999999997
 30
0
 11
1.1
 21
8.299999999999997
 31
0
  0
LINE
  8
0
 62
7
 10
0.9500000000000001
 20
8.1
 30
0
 11
1.1
 21
8.1
 31
0
  0
LINE
  8
0
 62
7
 10
2.208553141855451
 20
4.182195900755119
 30
0
 11
2.208553141855451
 21
4.30219590075512
 31
0
  0
LINE
  8
0
 62
7
 10
2.284153141855451
 20
4.30219590075512
 30
0
 11
2.230153141855451
 21
4.24219590075512
 31
0
  0
LINE
  8
0
 62
7
 10
2.230153141855451
 20
4.24219590075512
 30
0
 11
2.284153141855451
 21
4.182195900755119
 31
0
  0
LINE
  8
0
 62
7
 10
2.230153141855451
 20
4.24219590075512
 30
0
 11
2.208553141855451
 21
4.218195900755119
 31
0
  0
LINE
  8
0
 62
7
 10
2.392153141855451
 20
4.30219590075512
 30
0
 11
2.316553141855451
 21
4.30219590075512
 31
0
  0
LINE
  8
0
 62
7
 10
2.316553141855451
 20
4.30219590075512
 30
0
 11
2.316553141855451
 21
4.24219590075512
 31
0
  0
LINE
  8
0
 62
7
 10
2.316553141855451
 20
4.182195900755119
 30
0
 11
2.392153141855451
 21
4.182195900755119
 31
0
  0
LINE
  8
0
 62
7
 10
2.381353141855451
 20
4.24219590075512
 30
0
 11
2.316553141855451
 21
4.24219590075512
 31
0
  0
LINE
  8
0
 62
7
 10
2.316553141855451
 20
4.24219590075512
 30
0
 11
2.316553141855451
 21
4.182195900755119
 31
0
  0
LINE
  8
0
 62
7
 10
2.424553141855451
 20
4.182195900755119
 30
0
 11
2.424553141855451
 21
4.30219590075512
 31
0
  0
LINE
  8
0
 62
7
 10
2.424553141855451
 20
4.30219590075512
 30
0
 11
2.500153141855451
 21
4.182195900755119
 31
0
  0
LINE
  8
0
 62
7
 10
2.500153141855451
 20
4.182195900755119
 30
0
 11
2.500153141855451
 21
4.30219590075512
 31
0
  0
LINE
  8
0
 62
7
 10
2.532553141855451
 20
4.182195900755119
 30
0
 11
2.532553141855451
 21
4.30219590075512
 31
0
  0
LINE
  8
0
 62
7
 10
2.532553141855451
 20
4.30219590075512
 30
0
 11
2.608153141855451
 21
4.182195900755119
 31
0
  0
LINE
  8
0
 62
7
 10
2.608153141855451
 20
4.182195900755119
 30
0
 11
2.608153141855451
 21
4.30219590075512
 31
0
  0
LINE
  8
0
 62
7
 10
2.716153141855452
 20
4.266195900755121
 30
0
 11
2.713453141855451
 21
4.27819590075512
 31
0
  0
LINE
  8
0
 62
7
 10
2.713453141855451
 20
4.27819590075512
 30
0
 11
2.708053141855451
 21
4.28719590075512
 31
0
  0
LINE
  8
0
 62
7
 10
2.708053141855451
 20
4.28719590075512
 30
0
 11
2.702653141855451
 21
4.293195900755119
 31
0
  0
LINE
  8
0
 62
7
 10
2.702653141855451
 20
4.293195900755119
 30
0
 11
2.694553141855451
 21
4.29919590075512
 31
0
  0
LINE
  8
0
 62
7
 10
2.694553141855451
 20
4.29919590075512
 30
0
 11
2.686453141855451
 21
4.30219590075512
 31
0
  0
LINE
  8
0
 62
7
 10
2.686453141855451
 20
4.30219590075512
 30
0
 11
2.670253141855451
 21
4.30219590075512
 31
0
  0
LINE
  8
0
 62
7
 10
2.670253141855451
 20
4.30219590075512
 30
0
 11
2.662153141855451
 21
4.29919590075512
 31
0
  0
LINE
  8
0
 62
7
 10
2.662153141855451
 20
4.29919590075512
 30
0
 11
2.654053141855451
 21
4.293195900755119
 31
0
  0
LINE
  8
0
 62
7
 10
2.654053141855451
 20
4.293195900755119
 30
0
 11
2.648653141855451
 21
4.28719590075512
 31
0
  0
LINE
  8
0
 62
7
 10
2.648653141855451
 20
4.28719590075512
 30
0
 11
2.643253141855451
 21
4.27819590075512
 31
0
  0
LINE
  8
0
 62
7
 10
2.643253141855451
 20
4.27819590075512
 30
0
 11
2.640553141855451
 21
4.266195900755121
 31
0
  0
LINE
  8
0
 62
7
 10
2.640553141855451
 20
4.266195900755121
 30
0
 11
2.640553141855451
 21
4.218195900755119
 31
0
  0
LINE
  8
0
 62
7
 10
2.640553141855451
 20
4.218195900755119
 30
0
 11
2.643253141855451
 21
4.20619590075512
 31
0
  0
LINE
  8
0
 62
7
 10
2.643253141855451
 20
4.20619590075512
 30
0
 11
2.648653141855451
 21
4.19719590075512
 31
0
  0
LINE
  8
0
 62
7
 10
2.648653141855451
 20
4.19719590075512
 30
0
 11
2.654053141855451
 21
4.191195900755121
 31
0
  0
LINE
  8
0
 62
7
 10
2.654053141855451
 20
4.191195900755121
 30
0
 11
2.662153141855451
 21
4.18519590075512
 31
0
  0
LINE
  8
0
 62
7
 10
2.662153141855451
 20
4.18519590075512
 30
0
 11
2.670253141855451
 21
4.182195900755119
 31
0
  0
LINE
  8
0
 62
7
 10
2.670253141855451
 20
4.182195900755119
 30
0
 11
2.686453141855451
 21
4.182195900755119
 31
0
  0
LINE
  8
0
 62
7
 10
2.686453141855451
 20
4.182195900755119
 30
0
 11
2.694553141855451
 21
4.18519590075512
 31
0
  0
LINE
  8
0
 62
7
 10
2.694553141855451
 20
4.18519590075512
 30
0
 11
2.702653141855451
 21
4.191195900755121
 31
0
  0
LINE
  8
0
 62
7
 10
2.702653141855451
 20
4.191195900755121
 30
0
 11
2.708053141855451
 21
4.19719590075512
 31
0
  0
LINE
  8
0
 62
7
 10
2.708053141855451
 20
4.19719590075512
 30
0
 11
2.713453141855451
 21
4.20619590075512
 31
0
  0
LINE
  8
0
 62
7
 10
2.713453141855451
 20
4.20619590075512
 30
0
 11
2.716153141855452
 21
4.218195900755119
 31
0
  0
LINE
  8
0
 62
7
 10
2.716153141855452
 20
4.218195900755119
 30
0
 11
2.716153141855452
 21
4.24219590075512
 31
0
  0
LINE
  8
0
 62
7
 10
2.716153141855452
 20
4.24219590075512
 30
0
 11
2.683753141855451
 21
4.24219590075512
 31
0
  0
LINE
  8
0
 62
7
 10
2.794453141855451
 20
4.30219590075512
 30
0
 11
2.778253141855451
 21
4.30219590075512
 31
0
  0
LINE
  8
0
 62
7
 10
2.778253141855451
 20
4.30219590075512
 30
0
 11
2.770153141855451
 21
4.29919590075512
 31
0
  0
LINE
  8
0
 62
7
 10
2.770153141855451
 20
4.29919590075512
 30
0
 11
2.762053141855451
 21
4.293195900755119
 31
0
  0
LINE
  8
0
 62
7
 10
2.762053141855451
 20
4.293195900755119
 30
0
 11
2.756653141855452
 21
4.28719590075512
 31
0
  0
LINE
  8
0
 62
7
 10
2.756653141855452
 20
4.28719590075512
 30
0
 11
2.751253141855451
 21
4.27819590075512
 31
0
  0
LINE
  8
0
 62
7
 10
2.751253141855451
 20
4.27819590075512
 30
0
 11
2.748553141855451
 21
4.266195900755121
 31
0
  0
LINE
  8
0
 62
7
 10
2.748553141855451
 20
4.266195900755121
 30
0
 11
2.748553141855451
 21
4.218195900755119
 31
0
  0
LINE
  8
0
 62
7
 10
2.748553141855451
 20
4.218195900755119
 30
0
 11
2.751253141855451
 21
4.20619590075512
 31
0
  0
LINE
  8
0
 62
7
 10
2.751253141855451
 20
4.20619590075512
 30
0
 11
2.756653141855452
 21
4.19719590075512
 31
0
  0
LINE
  8
0
 62
7
 10
2.756653141855452
 20
4.19719590075512
 30
0
 11
2.762053141855451
 21
4.191195900755121
 31
0
  0
LINE
  8
0
 62
7
 10
2.762053141855451
 20
4.191195900755121
 30
0
 11
2.770153141855451
 21
4.18519590075512
 31
0
  0
LINE
  8
0
 62
7
 10
2.770153141855451
 20
4.18519590075512
 30
0
 11
2.778253141855451
 21
4.182195900755119
 31
0
  0
LINE
  8
0
 62
7
 10
2.778253141855451
 20
4.182195900755119
 30
0
 11
2.794453141855451
 21
4.182195900755119
 31
0
  0
LINE
  8
0
 62
7
 10
2.794453141855451
 20
4.182195900755119
 30
0
 11
2.802553141855451
 21
4.18519590075512
 31
0
  0
LINE
  8
0
 62
7
 10
2.802553141855451
 20
4.18519590075512
 30
0
 11
2.810653141855451
 21
4.191195900755121
 31
0
  0
LINE
  8
0
 62
7
 10
2.810653141855451
 20
4.191195900755121
 30
0
 11
2.816053141855452
 21
4.19719590075512
 31
0
  0
LINE
  8
0
 62
7
 10
2.816053141855452
 20
4.19719590075512
 30
0
 11
2.821453141855451
 21
4.20619590075512
 31
0
  0
LINE
  8
0
 62
7
 10
2.821453141855451
 20
4.20619590075512
 30
0
 11
2.824153141855452
 21
4.218195900755119
 31
0
  0
LINE
  8
0
 62
7
 10
2.824153141855452
 20
4.218195900755119
 30
0
 11
2.824153141855452
 21
4.266195900755121
 31
0
  0
LINE
  8
0
 62
7
 10
2.824153141855452
 20
4.266195900755121
 30
0
 11
2.821453141855451
 21
4.27819590075512
 31
0
  0
LINE
  8
0
 62
7
 10
2.821453141855451
 20
4.27819590075512
 30
0
 11
2.816053141855452
 21
4.28719590075512
 31
0
  0
LINE
  8
0
 62
7
 10
2.816053141855452
 20
4.28719590075512
 30
0
 11
2.810653141855451
 21
4.293195900755119
 31
0
  0
LINE
  8
0
 62
7
 10
2.810653141855451
 20
4.293195900755119
 30
0
 11
2.802553141855451
 21
4.29919590075512
 31
0
  0
LINE
  8
0
 62
7
 10
2.802553141855451
 20
4.29919590075512
 30
0
 11
2.794453141855451
 21
4.30219590075512
 31
0
  0
LINE
  8
0
 62
7
 10
2.845753141855451
 20
4.30219590075512
 30
0
 11
2.883553141855451
 21
4.30219590075512
 31
0
  0
LINE
  8
0
 62
7
 10
2.883553141855451
 20
4.30219590075512
 30
0
 11
2.883553141855451
 21
4.182195900755119
 31
0
  0
LINE
  8
0
 62
7
 10
2.883553141855451
 20
4.30219590075512
 30
0
 11
2.921353141855452
 21
4.30219590075512
 31
0
  0
LINE
  8
0
 62
7
 10
2.953753141855451
 20
4.30219590075512
 30
0
 11
2.991553141855452
 21
4.30219590075512
 31
0
  0
LINE
  8
0
 62
7
 10
2.991553141855452
 20
4.30219590075512
 30
0
 11
2.991553141855452
 21
4.182195900755119
 31
0
  0
LINE
  8
0
 62
7
 10
2.991553141855452
 20
4.30219590075512
 30
0
 11
3.029353141855451
 21
4.30219590075512
 31
0
  0
LINE
  8
0
 62
7
 10
3.148153141855451
 20
4.22419590075512
 30
0
 11
3.202153141855451
 21
4.22419590075512
 31
0
  0
LINE
  8
0
 62
7
 10
3.310153141855452
 20
4.30219590075512
 30
0
 11
3.347953141855452
 21
4.30219590075512
 31
0
  0
LINE
  8
0
 62
7
 10
3.347953141855452
 20
4.30219590075512
 30
0
 11
3.347953141855452
 21
4.182195900755119
 31
0
  0
LINE
  8
0
 62
7
 10
3.347953141855452
 20
4.30219590075512
 30
0
 11
3.385753141855453
 21
4.30219590075512
 31
0
  0
LINE
  8
0
 62
7
 10
3.418153141855452
 20
4.182195900755119
 30
0
 11
3.418153141855452
 21
4.30219590075512
 31
0
  0
LINE
  8
0
 62
7
 10
3.418153141855452
 20
4.30219590075512
 30
0
 11
3.469453141855452
 21
4.30219590075512
 31
0
  0
LINE
  8
0
 62
7
 10
3.469453141855452
 20
4.30219590075512
 30
0
 11
3.480253141855451
 21
4.29919590075512
 31
0
  0
LINE
  8
0
 62
7
 10
3.480253141855451
 20
4.29919590075512
 30
0
 11
3.488353141855451
 21
4.293195900755119
 31
0
  0
LINE
  8
0
 62
7
 10
3.488353141855451
 20
4.293195900755119
 30
0
 11
3.491053141855452
 21
4.28719590075512
 31
0
  0
LINE
  8
0
 62
7
 10
3.491053141855452
 20
4.28719590075512
 30
0
 11
3.493753141855452
 21
4.27819590075512
 31
0
  0
LINE
  8
0
 62
7
 10
3.493753141855452
 20
4.27819590075512
 30
0
 11
3.493753141855452
 21
4.266195900755121
 31
0
  0
LINE
  8
0
 62
7
 10
3.493753141855452
 20
4.266195900755121
 30
0
 11
3.491053141855452
 21
4.25719590075512
 31
0
  0
LINE
  8
0
 62
7
 10
3.491053141855452
 20
4.25719590075512
 30
0
 11
3.488353141855451
 21
4.25119590075512
 31
0
  0
LINE
  8
0
 62
7
 10
3.488353141855451
 20
4.25119590075512
 30
0
 11
3.480253141855451
 21
4.24519590075512
 31
0
  0
LINE
  8
0
 62
7
 10
3.480253141855451
 20
4.24519590075512
 30
0
 11
3.469453141855452
 21
4.24219590075512
 31
0
  0
LINE
  8
0
 62
7
 10
3.469453141855452
 20
4.24219590075512
 30
0
 11
3.461353141855453
 21
4.24219590075512
 31
0
  0
LINE
  8
0
 62
7
 10
3.461353141855453
 20
4.24219590075512
 30
0
 11
3.493753141855452
 21
4.182195900755119
 31
0
  0
LINE
  8
0
 62
7
 10
3.461353141855453
 20
4.24219590075512
 30
0
 11
3.418153141855452
 21
4.24219590075512
 31
0
  0
LINE
  8
0
 62
7
 10
3.590953141855451
 20
4.30219590075512
 30
0
 11
3.515353141855451
 21
4.30219590075512
 31
0
  0
LINE
  8
0
 62
7
 10
3.515353141855451
 20
4.30219590075512
 30
0
 11
3.515353141855451
 21
4.24219590075512
 31
0
  0
LINE
  8
0
 62
7
 10
3.515353141855451
 20
4.182195900755119
 30
0
 11
3.590953141855451
 21
4.182195900755119
 31
0
  0
LINE
  8
0
 62
7
 10
3.580153141855453
 20
4.24219590075512
 30
0
 11
3.515353141855451
 21
4.24219590075512
 31
0
  0
LINE
  8
0
 62
7
 10
3.515353141855451
 20
4.24219590075512
 30
0
 11
3.515353141855451
 21
4.182195900755119
 31
0
  0
LINE
  8
0
 62
7
 10
3.623353141855451
 20
4.182195900755119
 30
0
 11
3.623353141855451
 21
4.24219590075512
 31
0
  0
LINE
  8
0
 62
7
 10
3.623353141855451
 20
4.30219590075512
 30
0
 11
3.674653141855451
 21
4.30219590075512
 31
0
  0
LINE
  8
0
 62
7
 10
3.674653141855451
 20
4.30219590075512
 30
0
 11
3.685453141855452
 21
4.29919590075512
 31
0
  0
LINE
  8
0
 62
7
 10
3.685453141855452
 20
4.29919590075512
 30
0
 11
3.693553141855451
 21
4.293195900755119
 31
0
  0
LINE
  8
0
 62
7
 10
3.693553141855451
 20
4.293195900755119
 30
0
 11
3.696253141855453
 21
4.28719590075512
 31
0
  0
LINE
  8
0
 62
7
 10
3.696253141855453
 20
4.28719590075512
 30
0
 11
3.698953141855451
 21
4.27819590075512
 31
0
  0
LINE
  8
0
 62
7
 10
3.698953141855451
 20
4.27819590075512
 30
0
 11
3.698953141855451
 21
4.266195900755121
 31
0
  0
LINE
  8
0
 62
7
 10
3.698953141855451
 20
4.266195900755121
 30
0
 11
3.696253141855453
 21
4.25719590075512
 31
0
  0
LINE
  8
0
 62
7
 10
3.696253141855453
 20
4.25719590075512
 30
0
 11
3.693553141855451
 21
4.25119590075512
 31
0
  0
LINE
  8
0
 62
7
 10
3.693553141855451
 20
4.25119590075512
 30
0
 11
3.685453141855452
 21
4.24519590075512
 31
0
  0
LINE
  8
0
 62
7
 10
3.685453141855452
 20
4.24519590075512
 30
0
 11
3.674653141855451
 21
4.24219590075512
 31
0
  0
LINE
  8
0
 62
7
 10
3.674653141855451
 20
4.24219590075512
 30
0
 11
3.623353141855451
 21
4.24219590075512
 31
0
  0
LINE
  8
0
 62
7
 10
3.623353141855451
 20
4.24219590075512
 30
0
 11
3.623353141855451
 21
4.30219590075512
 31
0
  0
LINE
  8
0
 62
7
 10
3.720553141855452
 20
4.182195900755119
 30
0
 11
3.720553141855452
 21
4.24219590075512
 31
0
  0
LINE
  8
0
 62
7
 10
3.720553141855452
 20
4.30219590075512
 30
0
 11
3.771853141855452
 21
4.30219590075512
 31
0
  0
LINE
  8
0
 62
7
 10
3.771853141855452
 20
4.30219590075512
 30
0
 11
3.782653141855451
 21
4.29919590075512
 31
0
  0
LINE
  8
0
 62
7
 10
3.782653141855451
 20
4.29919590075512
 30
0
 11
3.790753141855451
 21
4.293195900755119
 31
0
  0
LINE
  8
0
 62
7
 10
3.790753141855451
 20
4.293195900755119
 30
0
 11
3.793453141855451
 21
4.28719590075512
 31
0
  0
LINE
  8
0
 62
7
 10
3.793453141855451
 20
4.28719590075512
 30
0
 11
3.796153141855452
 21
4.27819590075512
 31
0
  0
LINE
  8
0
 62
7
 10
3.796153141855452
 20
4.27819590075512
 30
0
 11
3.796153141855452
 21
4.266195900755121
 31
0
  0
LINE
  8
0
 62
7
 10
3.796153141855452
 20
4.266195900755121
 30
0
 11
3.793453141855451
 21
4.25719590075512
 31
0
  0
LINE
  8
0
 62
7
 10
3.793453141855451
 20
4.25719590075512
 30
0
 11
3.790753141855451
 21
4.25119590075512
 31
0
  0
LINE
  8
0
 62
7
 10
3.790753141855451
 20
4.25119590075512
 30
0
 11
3.782653141855451
 21
4.24519590075512
 31
0
  0
LINE
  8
0
 62
7
 10
3.782653141855451
 20
4.24519590075512
 30
0
 11
3.771853141855452
 21
4.24219590075512
 31
0
  0
LINE
  8
0
 62
7
 10
3.771853141855452
 20
4.24219590075512
 30
0
 11
3.720553141855452
 21
4.24219590075512
 31
0
  0
LINE
  8
0
 62
7
 10
3.720553141855452
 20
4.24219590075512
 30
0
 11
3.720553141855452
 21
4.30219590075512
 31
0
  0
LINE
  8
0
 62
7
 10
3.893353141855451
 20
4.30219590075512
 30
0
 11
3.817753141855451
 21
4.30219590075512
 31
0
  0
LINE
  8
0
 62
7
 10
3.817753141855451
 20
4.30219590075512
 30
0
 11
3.817753141855451
 21
4.24219590075512
 31
0
  0
LINE
  8
0
 62
7
 10
3.817753141855451
 20
4.182195900755119
 30
0
 11
3.893353141855451
 21
4.182195900755119
 31
0
  0
LINE
  8
0
 62
7
 10
3.882553141855452
 20
4.24219590075512
 30
0
 11
3.817753141855451
 21
4.24219590075512
 31
0
  0
LINE
  8
0
 62
7
 10
3.817753141855451
 20
4.24219590075512
 30
0
 11
3.817753141855451
 21
4.182195900755119
 31
0
  0
LINE
  8
0
 62
7
 10
0.625
 20
3.01
 30
0
 11
0.7006000000000001
 21
3.01
 31
0
  0
LINE
  8
0
 62
7
 10
0.7006000000000001
 20
3.01
 30
0
 11
0.625
 21
2.890000000000001
 31
0
  0
LINE
  8
0
 62
7
 10
0.625
 20
2.890000000000001
 30
0
 11
0.7006000000000001
 21
2.890000000000001
 31
0
  0
LINE
  8
0
 62
7
 10
0.7330000000000001
 20
2.992
 30
0
 11
0.7384000000000002
 21
3.001
 31
0
  0
LINE
  8
0
 62
7
 10
0.7384000000000002
 20
3.001
 30
0
 11
0.7465000000000001
 21
3.007
 31
0
  0
LINE
  8
0
 62
7
 10
0.7465000000000001
 20
3.007
 30
0
 11
0.7573000000000001
 21
3.01
 31
0
  0
LINE
  8
0
 62
7
 10
0.7573000000000001
 20
3.01
 30
0
 11
0.7735000000000002
 21
3.01
 31
0
  0
LINE
  8
0
 62
7
 10
0.7735000000000002
 20
3.01
 30
0
 11
0.7843000000000001
 21
3.007
 31
0
  0
LINE
  8
0
 62
7
 10
0.7843000000000001
 20
3.007
 30
0
 11
0.7924000000000002
 21
3.001
 31
0
  0
LINE
  8
0
 62
7
 10
0.7924000000000002
 20
3.001
 30
0
 11
0.7978000000000001
 21
2.992
 31
0
  0
LINE
  8
0
 62
7
 10
0.7978000000000001
 20
2.992
 30
0
 11
0.7978000000000001
 21
2.98
 31
0
  0
LINE
  8
0
 62
7
 10
0.7978000000000001
 20
2.98
 30
0
 11
0.7924000000000002
 21
2.968
 31
0
  0
LINE
  8
0
 62
7
 10
0.7924000000000002
 20
2.968
 30
0
 11
0.7330000000000001
 21
2.890000000000001
 31
0
  0
LINE
  8
0
 62
7
 10
0.7330000000000001
 20
2.890000000000001
 30
0
 11
0.7978000000000001
 21
2.890000000000001
 31
0
  0
LINE
  8
0
 62
7
 10
0.8302000000000002
 20
3.01
 30
0
 11
0.8680000000000002
 21
2.890000000000001
 31
0
  0
LINE
  8
0
 62
7
 10
0.8680000000000002
 20
2.890000000000001
 30
0
 11
0.9058000000000002
 21
3.01
 31
0
  0
LINE
  8
0
 62
7
 10
0.9382000000000001
 20
2.992
 30
0
 11
0.9436000000000002
 21
3.001
 31
0
  0
LINE
  8
0
 62
7
 10
0.9436000000000002
 20
3.001
 30
0
 11
0.9517000000000002
 21
3.007
 31
0
  0
LINE
  8
0
 62
7
 10
0.9517000000000002
 20
3.007
 30
0
 11
0.9625
 21
3.01
 31
0
  0
LINE
  8
0
 62
7
 10
0.9625
 20
3.01
 30
0
 11
0.9787000000000001
 21
3.01
 31
0
  0
LINE
  8
0
 62
7
 10
0.9787000000000001
 20
3.01
 30
0
 11
0.9868000000000001
 21
3.007
 31
0
  0
LINE
  8
0
 62
7
 10
0.9868000000000001
 20
3.007
 30
0
 11
0.9949000000000002
 21
3.001
 31
0
  0
LINE
  8
0
 62
7
 10
0.9949000000000002
 20
3.001
 30
0
 11
1.0003
 21
2.992
 31
0
  0
LINE
  8
0
 62
7
 10
1.0003
 20
2.992
 30
0
 11
1.003
 21
2.98
 31
0
  0
LINE
  8
0
 62
7
 10
1.003
 20
2.98
 30
0
 11
1.003
 21
2.971
 31
0
  0
LINE
  8
0
 62
7
 10
1.003
 20
2.971
 30
0
 11
1.0003
 21
2.962
 31
0
  0
LINE
  8
0
 62
7
 10
1.0003
 20
2.962
 30
0
 11
0.9949000000000002
 21
2.956
 31
0
  0
LINE
  8
0
 62
7
 10
0.9949000000000002
 20
2.956
 30
0
 11
0.9814000000000003
 21
2.95
 31
0
  0
LINE
  8
0
 62
7
 10
0.9625
 20
2.95
 30
0
 11
0.9814000000000003
 21
2.95
 31
0
  0
LINE
  8
0
 62
7
 10
0.9814000000000003
 20
2.95
 30
0
 11
0.9949000000000002
 21
2.944
 31
0
  0
LINE
  8
0
 62
7
 10
0.9949000000000002
 20
2.944
 30
0
 11
1.0003
 21
2.938
 31
0
  0
LINE
  8
0
 62
7
 10
1.0003
 20
2.938
 30
0
 11
1.003
 21
2.929
 31
0
  0
LINE
  8
0
 62
7
 10
1.003
 20
2.929
 30
0
 11
1.003
 21
2.92
 31
0
  0
LINE
  8
0
 62
7
 10
1.003
 20
2.92
 30
0
 11
1.0003
 21
2.908
 31
0
  0
LINE
  8
0
 62
7
 10
1.0003
 20
2.908
 30
0
 11
0.9949000000000002
 21
2.899
 31
0
  0
LINE
  8
0
 62
7
 10
0.9949000000000002
 20
2.899
 30
0
 11
0.9868000000000001
 21
2.893
 31
0
  0
LINE
  8
0
 62
7
 10
0.9868000000000001
 20
2.893
 30
0
 11
0.9787000000000001
 21
2.890000000000001
 31
0
  0
LINE
  8
0
 62
7
 10
0.9787000000000001
 20
2.890000000000001
 30
0
 11
0.9625
 21
2.890000000000001
 31
0
  0
LINE
  8
0
 62
7
 10
0.9625
 20
2.890000000000001
 30
0
 11
0.9517000000000002
 21
2.893
 31
0
  0
LINE
  8
0
 62
7
 10
0.9517000000000002
 20
2.893
 30
0
 11
0.9436000000000002
 21
2.899
 31
0
  0
LINE
  8
0
 62
7
 10
0.9436000000000002
 20
2.899
 30
0
 11
0.9382000000000001
 21
2.908
 31
0
  0
LINE
  8
0
 62
7
 10
1.0354
 20
2.938
 30
0
 11
1.0381
 21
2.95
 31
0
  0
LINE
  8
0
 62
7
 10
1.0381
 20
2.95
 30
0
 11
1.0435
 21
2.959
 31
0
  0
LINE
  8
0
 62
7
 10
1.0435
 20
2.959
 30
0
 11
1.0516
 21
2.965
 31
0
  0
LINE
  8
0
 62
7
 10
1.0516
 20
2.965
 30
0
 11
1.0597
 21
2.968
 31
0
  0
LINE
  8
0
 62
7
 10
1.0597
 20
2.968
 30
0
 11
1.0759
 21
2.968
 31
0
  0
LINE
  8
0
 62
7
 10
1.0759
 20
2.968
 30
0
 11
1.084
 21
2.965
 31
0
  0
LINE
  8
0
 62
7
 10
1.084
 20
2.965
 30
0
 11
1.0921
 21
2.959
 31
0
  0
LINE
  8
0
 62
7
 10
1.0921
 20
2.959
 30
0
 11
1.0975
 21
2.95
 31
0
  0
LINE
  8
0
 62
7
 10
1.0975
 20
2.95
 30
0
 11
1.1002
 21
2.938
 31
0
  0
LINE
  8
0
 62
7
 10
1.1002
 20
2.938
 30
0
 11
1.1002
 21
2.92
 31
0
  0
LINE
  8
0
 62
7
 10
1.1002
 20
2.92
 30
0
 11
1.0975
 21
2.908
 31
0
  0
LINE
  8
0
 62
7
 10
1.0975
 20
2.908
 30
0
 11
1.0921
 21
2.899
 31
0
  0
LINE
  8
0
 62
7
 10
1.0921
 20
2.899
 30
0
 11
1.084
 21
2.893
 31
0
  0
LINE
  8
0
 62
7
 10
1.084
 20
2.893
 30
0
 11
1.0759
 21
2.890000000000001
 31
0
  0
LINE
  8
0
 62
7
 10
1.0759
 20
2.890000000000001
 30
0
 11
1.0597
 21
2.890000000000001
 31
0
  0
LINE
  8
0
 62
7
 10
1.0597
 20
2.890000000000001
 30
0
 11
1.0516
 21
2.893
 31
0
  0
LINE
  8
0
 62
7
 10
1.0516
 20
2.893
 30
0
 11
1.0435
 21
2.899
 31
0
  0
LINE
  8
0
 62
7
 10
1.0435
 20
2.899
 30
0
 11
1.0381
 21
2.908
 31
0
  0
LINE
  8
0
 62
7
 10
1.0381
 20
2.908
 30
0
 11
1.0354
 21
2.92
 31
0
  0
LINE
  8
0
 62
7
 10
1.0354
 20
2.92
 30
0
 11
1.0354
 21
2.938
 31
0
  0
LINE
  8
0
 62
7
 10
1.0354
 20
2.98
 30
0
 11
1.0381
 21
2.992
 31
0
  0
LINE
  8
0
 62
7
 10
1.0381
 20
2.992
 30
0
 11
1.0435
 21
3.001
 31
0
  0
LINE
  8
0
 62
7
 10
1.0435
 20
3.001
 30
0
 11
1.0516
 21
3.007
 31
0
  0
LINE
  8
0
 62
7
 10
1.0516
 20
3.007
 30
0
 11
1.0597
 21
3.01
 31
0
  0
LINE
  8
0
 62
7
 10
1.0597
 20
3.01
 30
0
 11
1.0759
 21
3.01
 31
0
  0
LINE
  8
0
 62
7
 10
1.0759
 20
3.01
 30
0
 11
1.084
 21
3.007
 31
0
  0
LINE
  8
0
 62
7
 10
1.084
 20
3.007
 30
0
 11
1.0921
 21
3.001
 31
0
  0
LINE
  8
0
 62
7
 10
1.0921
 20
3.001
 30
0
 11
1.0975
 21
2.992
 31
0
  0
LINE
  8
0
 62
7
 10
1.0354
 20
2.938
 30
0
 11
1.0354
 21
2.98
 31
0
  0
LINE
  8
0
 62
7
 10
1.1326
 20
2.992
 30
0
 11
1.138
 21
3.001
 31
0
  0
LINE
  8
0
 62
7
 10
1.138
 20
3.001
 30
0
 11
1.1461
 21
3.007
 31
0
  0
LINE
  8
0
 62
7
 10
1.1461
 20
3.007
 30
0
 11
1.1569
 21
3.01
 31
0
  0
LINE
  8
0
 62
7
 10
1.1569
 20
3.01
 30
0
 11
1.1731
 21
3.01
 31
0
  0
LINE
  8
0
 62
7
 10
1.1731
 20
3.01
 30
0
 11
1.1812
 21
3.007
 31
0
  0
LINE
  8
0
 62
7
 10
1.1812
 20
3.007
 30
0
 11
1.1893
 21
3.001
 31
0
  0
LINE
  8
0
 62
7
 10
1.1893
 20
3.001
 30
0
 11
1.1947
 21
2.992
 31
0
  0
LINE
  8
0
 62
7
 10
1.1947
 20
2.992
 30
0
 11
1.1974
 21
2.98
 31
0
  0
LINE
  8
0
 62
7
 10
1.1974
 20
2.98
 30
0
 11
1.1974
 21
2.971
 31
0
  0
LINE
  8
0
 62
7
 10
1.1974
 20
2.971
 30
0
 11
1.1947
 21
2.962
 31
0
  0
LINE
  8
0
 62
7
 10
1.1947
 20
2.962
 30
0
 11
1.1893
 21
2.956
 31
0
  0
LINE
  8
0
 62
7
 10
1.1893
 20
2.956
 30
0
 11
1.1758
 21
2.95
 31
0
  0
LINE
  8
0
 62
7
 10
1.1569
 20
2.95
 30
0
 11
1.1758
 21
2.95
 31
0
  0
LINE
  8
0
 62
7
 10
1.1758
 20
2.95
 30
0
 11
1.1893
 21
2.944
 31
0
  0
LINE
  8
0
 62
7
 10
1.1893
 20
2.944
 30
0
 11
1.1947
 21
2.938
 31
0
  0
LINE
  8
0
 62
7
 10
1.1947
 20
2.938
 30
0
 11
1.1974
 21
2.929
 31
0
  0
LINE
  8
0
 62
7
 10
1.1974
 20
2.929
 30
0
 11
1.1974
 21
2.92
 31
0
  0
LINE
  8
0
 62
7
 10
1.1974
 20
2.92
 30
0
 11
1.1947
 21
2.908
 31
0
  0
LINE
  8
0
 62
7
 10
1.1947
 20
2.908
 30
0
 11
1.1893
 21
2.899
 31
0
  0
LINE
  8
0
 62
7
 10
1.1893
 20
2.899
 30
0
 11
1.1812
 21
2.893
 31
0
  0
LINE
  8
0
 62
7
 10
1.1812
 20
2.893
 30
0
 11
1.1731
 21
2.890000000000001
 31
0
  0
LINE
  8
0
 62
7
 10
1.1731
 20
2.890000000000001
 30
0
 11
1.1569
 21
2.890000000000001
 31
0
  0
LINE
  8
0
 62
7
 10
1.1569
 20
2.890000000000001
 30
0
 11
1.1461
 21
2.893
 31
0
  0
LINE
  8
0
 62
7
 10
1.1461
 20
2.893
 30
0
 11
1.138
 21
2.899
 31
0
  0
LINE
  8
0
 62
7
 10
1.138
 20
2.899
 30
0
 11
1.1326
 21
2.908
 31
0
  0
LINE
  8
0
 62
7
 10
1.2946
 20
2.890000000000001
 30
0
 11
1.2298
 21
2.890000000000001
 31
0
  0
LINE
  8
0
 62
7
 10
1.2298
 20
2.890000000000001
 30
0
 11
1.2298
 21
3.01
 31
0
  0
LINE
  8
0
 62
7
 10
1.327
 20
2.938
 30
0
 11
1.3297
 21
2.95
 31
0
  0
LINE
  8
0
 62
7
 10
1.3297
 20
2.95
 30
0
 11
1.3351
 21
2.959
 31
0
  0
LINE
  8
0
 62
7
 10
1.3351
 20
2.959
 30
0
 11
1.3432
 21
2.965
 31
0
  0
LINE
  8
0
 62
7
 10
1.3432
 20
2.965
 30
0
 11
1.3513
 21
2.968
 31
0
  0
LINE
  8
0
 62
7
 10
1.3513
 20
2.968
 30
0
 11
1.3675
 21
2.968
 31
0
  0
LINE
  8
0
 62
7
 10
1.3675
 20
2.968
 30
0
 11
1.3756
 21
2.965
 31
0
  0
LINE
  8
0
 62
7
 10
1.3756
 20
2.965
 30
0
 11
1.3837
 21
2.959
 31
0
  0
LINE
  8
0
 62
7
 10
1.3837
 20
2.959
 30
0
 11
1.3891
 21
2.95
 31
0
  0
LINE
  8
0
 62
7
 10
1.3891
 20
2.95
 30
0
 11
1.3918
 21
2.938
 31
0
  0
LINE
  8
0
 62
7
 10
1.3918
 20
2.938
 30
0
 11
1.3918
 21
2.92
 31
0
  0
LINE
  8
0
 62
7
 10
1.3918
 20
2.92
 30
0
 11
1.3891
 21
2.908
 31
0
  0
LINE
  8
0
 62
7
 10
1.3891
 20
2.908
 30
0
 11
1.3837
 21
2.899
 31
0
  0
LINE
  8
0
 62
7
 10
1.3837
 20
2.899
 30
0
 11
1.3756
 21
2.893
 31
0
  0
LINE
  8
0
 62
7
 10
1.3756
 20
2.893
 30
0
 11
1.3675
 21
2.890000000000001
 31
0
  0
LINE
  8
0
 62
7
 10
1.3675
 20
2.890000000000001
 30
0
 11
1.3513
 21
2.890000000000001
 31
0
  0
LINE
  8
0
 62
7
 10
1.3513
 20
2.890000000000001
 30
0
 11
1.3432
 21
2.893
 31
0
  0
LINE
  8
0
 62
7
 10
1.3432
 20
2.893
 30
0
 11
1.3351
 21
2.899
 31
0
  0
LINE
  8
0
 62
7
 10
1.3351
 20
2.899
 30
0
 11
1.3297
 21
2.908
 31
0
  0
LINE
  8
0
 62
7
 10
1.3297
 20
2.908
 30
0
 11
1.327
 21
2.92
 31
0
  0
LINE
  8
0
 62
7
 10
1.327
 20
2.92
 30
0
 11
1.327
 21
2.938
 31
0
  0
LINE
  8
0
 62
7
 10
1.327
 20
2.98
 30
0
 11
1.3297
 21
2.992
 31
0
  0
LINE
  8
0
 62
7
 10
1.3297
 20
2.992
 30
0
 11
1.3351
 21
3.001
 31
0
  0
LINE
  8
0
 62
7
 10
1.3351
 20
3.001
 30
0
 11
1.3432
 21
3.007
 31
0
  0
LINE
  8
0
 62
7
 10
1.3432
 20
3.007
 30
0
 11
1.3513
 21
3.01
 31
0
  0
LINE
  8
0
 62
7
 10
1.3513
 20
3.01
 30
0
 11
1.3675
 21
3.01
 31
0
  0
LINE
  8
0
 62
7
 10
1.3675
 20
3.01
 30
0
 11
1.3756
 21
3.007
 31
0
  0
LINE
  8
0
 62
7
 10
1.3756
 20
3.007
 30
0
 11
1.3837
 21
3.001
 31
0
  0
LINE
  8
0
 62
7
 10
1.3837
 20
3.001
 30
0
 11
1.3891
 21
2.992
 31
0
  0
LINE
  8
0
 62
7
 10
1.327
 20
2.938
 30
0
 11
1.327
 21
2.98
 31
0
  0
LINE
  8
0
 62
7
 10
3.125
 20
2.890000000000001
 30
0
 11
3.125
 21
2.99
 31
0
  0
LINE
  8
0
 62
7
 10
3.125
 20
2.99
 30
0
 11
3.188
 21
2.890000000000001
 31
0
  0
LINE
  8
0
 62
7
 10
3.188
 20
2.890000000000001
 30
0
 11
3.188
 21
2.99
 31
0
  0
LINE
  8
0
 62
7
 10
3.269
 20
2.890000000000001
 30
0
 11
3.215
 21
2.890000000000001
 31
0
  0
LINE
  8
0
 62
7
 10
3.215
 20
2.890000000000001
 30
0
 11
3.215
 21
2.99
 31
0
  0
LINE
  8
0
 62
7
 10
3.296
 20
2.94
 30
0
 11
3.332
 21
2.94
 31
0
  0
LINE
  8
0
 62
7
 10
3.332
 20
2.94
 30
0
 11
3.3365
 21
2.94
 31
0
  0
LINE
  8
0
 62
7
 10
3.3365
 20
2.94
 30
0
 11
3.3455
 21
2.935
 31
0
  0
LINE
  8
0
 62
7
 10
3.3455
 20
2.935
 30
0
 11
3.35
 21
2.93
 31
0
  0
LINE
  8
0
 62
7
 10
3.35
 20
2.93
 30
0
 11
3.3545
 21
2.92
 31
0
  0
LINE
  8
0
 62
7
 10
3.3545
 20
2.92
 30
0
 11
3.3545
 21
2.91
 31
0
  0
LINE
  8
0
 62
7
 10
3.3545
 20
2.91
 30
0
 11
3.35
 21
2.9
 31
0
  0
LINE
  8
0
 62
7
 10
3.35
 20
2.9
 30
0
 11
3.3455
 21
2.895
 31
0
  0
LINE
  8
0
 62
7
 10
3.3455
 20
2.895
 30
0
 11
3.3365
 21
2.890000000000001
 31
0
  0
LINE
  8
0
 62
7
 10
3.3365
 20
2.890000000000001
 30
0
 11
3.296
 21
2.890000000000001
 31
0
  0
LINE
  8
0
 62
7
 10
3.296
 20
2.890000000000001
 30
0
 11
3.296
 21
2.94
 31
0
  0
LINE
  8
0
 62
7
 10
3.296
 20
2.99
 30
0
 11
3.32975
 21
2.99
 31
0
  0
LINE
  8
0
 62
7
 10
3.32975
 20
2.99
 30
0
 11
3.341000000000001
 21
2.9875
 31
0
  0
LINE
  8
0
 62
7
 10
3.341000000000001
 20
2.9875
 30
0
 11
3.34775
 21
2.98
 31
0
  0
LINE
  8
0
 62
7
 10
3.34775
 20
2.98
 30
0
 11
3.35
 21
2.97
 31
0
  0
LINE
  8
0
 62
7
 10
3.35
 20
2.97
 30
0
 11
3.35
 21
2.96
 31
0
  0
LINE
  8
0
 62
7
 10
3.35
 20
2.96
 30
0
 11
3.3455
 21
2.95
 31
0
  0
LINE
  8
0
 62
7
 10
3.3455
 20
2.95
 30
0
 11
3.338750000000001
 21
2.9425
 31
0
  0
LINE
  8
0
 62
7
 10
3.338750000000001
 20
2.9425
 30
0
 11
3.332
 21
2.94
 31
0
  0
LINE
  8
0
 62
7
 10
3.296
 20
2.94
 30
0
 11
3.296
 21
2.99
 31
0
  0
LINE
  8
0
 62
7
 10
3.49625
 20
2.9425
 30
0
 11
3.4895
 21
2.952500000000001
 31
0
  0
LINE
  8
0
 62
7
 10
3.4895
 20
2.952500000000001
 30
0
 11
3.48275
 21
2.9575
 31
0
  0
LINE
  8
0
 62
7
 10
3.48275
 20
2.9575
 30
0
 11
3.476
 21
2.96
 31
0
  0
LINE
  8
0
 62
7
 10
3.476
 20
2.96
 30
0
 11
3.467000000000001
 21
2.96
 31
0
  0
LINE
  8
0
 62
7
 10
3.467000000000001
 20
2.96
 30
0
 11
3.46025
 21
2.9575
 31
0
  0
LINE
  8
0
 62
7
 10
3.46025
 20
2.9575
 30
0
 11
3.4535
 21
2.952500000000001
 31
0
  0
LINE
  8
0
 62
7
 10
3.4535
 20
2.952500000000001
 30
0
 11
3.44675
 21
2.9425
 31
0
  0
LINE
  8
0
 62
7
 10
3.44675
 20
2.9425
 30
0
 11
3.4445
 21
2.935
 31
0
  0
LINE
  8
0
 62
7
 10
3.4445
 20
2.935
 30
0
 11
3.4445
 21
2.915
 31
0
  0
LINE
  8
0
 62
7
 10
3.4445
 20
2.915
 30
0
 11
3.44675
 21
2.9075
 31
0
  0
LINE
  8
0
 62
7
 10
3.44675
 20
2.9075
 30
0
 11
3.4535
 21
2.8975
 31
0
  0
LINE
  8
0
 62
7
 10
3.4535
 20
2.8975
 30
0
 11
3.46025
 21
2.8925
 31
0
  0
LINE
  8
0
 62
7
 10
3.46025
 20
2.8925
 30
0
 11
3.467000000000001
 21
2.890000000000001
 31
0
  0
LINE
  8
0
 62
7
 10
3.467000000000001
 20
2.890000000000001
 30
0
 11
3.476
 21
2.890000000000001
 31
0
  0
LINE
  8
0
 62
7
 10
3.476
 20
2.890000000000001
 30
0
 11
3.48275
 21
2.8925
 31
0
  0
LINE
  8
0
 62
7
 10
3.48275
 20
2.8925
 30
0
 11
3.4895
 21
2.8975
 31
0
  0
LINE
  8
0
 62
7
 10
3.4895
 20
2.8975
 30
0
 11
3.49625
 21
2.9075
 31
0
  0
LINE
  8
0
 62
7
 10
3.56825
 20
2.935
 30
0
 11
3.566000000000001
 21
2.9425
 31
0
  0
LINE
  8
0
 62
7
 10
3.566000000000001
 20
2.9425
 30
0
 11
3.55925
 21
2.952500000000001
 31
0
  0
LINE
  8
0
 62
7
 10
3.55925
 20
2.952500000000001
 30
0
 11
3.5525
 21
2.9575
 31
0
  0
LINE
  8
0
 62
7
 10
3.5525
 20
2.9575
 30
0
 11
3.54575
 21
2.96
 31
0
  0
LINE
  8
0
 62
7
 10
3.54575
 20
2.96
 30
0
 11
3.53675
 21
2.96
 31
0
  0
LINE
  8
0
 62
7
 10
3.53675
 20
2.96
 30
0
 11
3.530000000000001
 21
2.9575
 31
0
  0
LINE
  8
0
 62
7
 10
3.530000000000001
 20
2.9575
 30
0
 11
3.52325
 21
2.952500000000001
 31
0
  0
LINE
  8
0
 62
7
 10
3.52325
 20
2.952500000000001
 30
0
 11
3.5165
 21
2.9425
 31
0
  0
LINE
  8
0
 62
7
 10
3.5165
 20
2.9425
 30
0
 11
3.51425
 21
2.935
 31
0
  0
LINE
  8
0
 62
7
 10
3.51425
 20
2.935
 30
0
 11
3.51425
 21
2.915
 31
0
  0
LINE
  8
0
 62
7
 10
3.51425
 20
2.915
 30
0
 11
3.5165
 21
2.9075
 31
0
  0
LINE
  8
0
 62
7
 10
3.5165
 20
2.9075
 30
0
 11
3.52325
 21
2.8975
 31
0
  0
LINE
  8
0
 62
7
 10
3.52325
 20
2.8975
 30
0
 11
3.530000000000001
 21
2.8925
 31
0
  0
LINE
  8
0
 62
7
 10
3.530000000000001
 20
2.8925
 30
0
 11
3.53675
 21
2.890000000000001
 31
0
  0
LINE
  8
0
 62
7
 10
3.53675
 20
2.890000000000001
 30
0
 11
3.54575
 21
2.890000000000001
 31
0
  0
LINE
  8
0
 62
7
 10
3.54575
 20
2.890000000000001
 30
0
 11
3.5525
 21
2.8925
 31
0
  0
LINE
  8
0
 62
7
 10
3.5525
 20
2.8925
 30
0
 11
3.55925
 21
2.8975
 31
0
  0
LINE
  8
0
 62
7
 10
3.55925
 20
2.8975
 30
0
 11
3.566000000000001
 21
2.9075
 31
0
  0
LINE
  8
0
 62
7
 10
3.566000000000001
 20
2.9075
 30
0
 11
3.56825
 21
2.915
 31
0
  0
LINE
  8
0
 62
7
 10
3.56825
 20
2.96
 30
0
 11
3.56825
 21
2.935
 31
0
  0
LINE
  8
0
 62
7
 10
3.56825
 20
2.8925
 30
0
 11
3.5705
 21
2.890000000000001
 31
0
  0
LINE
  8
0
 62
7
 10
3.5705
 20
2.890000000000001
 30
0
 11
3.57275
 21
2.890000000000001
 31
0
  0
LINE
  8
0
 62
7
 10
3.56825
 20
2.915
 30
0
 11
3.56825
 21
2.8925
 31
0
  0
LINE
  8
0
 62
7
 10
3.56825
 20
2.935
 30
0
 11
3.56825
 21
2.915
 31
0
  0
LINE
  8
0
 62
7
 10
3.59075
 20
2.890000000000001
 30
0
 11
3.59075
 21
2.8925
 31
0
  0
LINE
  8
0
 62
7
 10
3.59075
 20
2.8925
 30
0
 11
3.593
 21
2.8925
 31
0
  0
LINE
  8
0
 62
7
 10
3.593
 20
2.8925
 30
0
 11
3.593
 21
2.890000000000001
 31
0
  0
LINE
  8
0
 62
7
 10
3.593
 20
2.890000000000001
 30
0
 11
3.59075
 21
2.890000000000001
 31
0
  0
LINE
  8
0
 62
7
 10
3.716750000000001
 20
2.99
 30
0
 11
3.72575
 21
2.99
 31
0
  0
LINE
  8
0
 62
7
 10
3.72575
 20
2.99
 30
0
 11
3.7325
 21
2.9875
 31
0
  0
LINE
  8
0
 62
7
 10
3.7325
 20
2.9875
 30
0
 11
3.737
 21
2.9825
 31
0
  0
LINE
  8
0
 62
7
 10
3.737
 20
2.9825
 30
0
 11
3.7415
 21
2.975
 31
0
  0
LINE
  8
0
 62
7
 10
3.7415
 20
2.975
 30
0
 11
3.7415
 21
2.965
 31
0
  0
LINE
  8
0
 62
7
 10
3.7415
 20
2.965
 30
0
 11
3.73925
 21
2.96
 31
0
  0
LINE
  8
0
 62
7
 10
3.73925
 20
2.96
 30
0
 11
3.7325
 21
2.952500000000001
 31
0
  0
LINE
  8
0
 62
7
 10
3.7325
 20
2.952500000000001
 30
0
 11
3.72575
 21
2.95
 31
0
  0
LINE
  8
0
 62
7
 10
3.72575
 20
2.95
 30
0
 11
3.716750000000001
 21
2.95
 31
0
  0
LINE
  8
0
 62
7
 10
3.716750000000001
 20
2.95
 30
0
 11
3.71
 21
2.952500000000001
 31
0
  0
LINE
  8
0
 62
7
 10
3.71
 20
2.952500000000001
 30
0
 11
3.70325
 21
2.96
 31
0
  0
LINE
  8
0
 62
7
 10
3.70325
 20
2.96
 30
0
 11
3.701
 21
2.965
 31
0
  0
LINE
  8
0
 62
7
 10
3.701
 20
2.965
 30
0
 11
3.701
 21
2.975
 31
0
  0
LINE
  8
0
 62
7
 10
3.701
 20
2.975
 30
0
 11
3.7055
 21
2.9825
 31
0
  0
LINE
  8
0
 62
7
 10
3.7055
 20
2.9825
 30
0
 11
3.71
 21
2.9875
 31
0
  0
LINE
  8
0
 62
7
 10
3.71
 20
2.9875
 30
0
 11
3.716750000000001
 21
2.99
 31
0
  0
LINE
  8
0
 62
7
 10
3.716750000000001
 20
2.95
 30
0
 11
3.7055
 21
2.945
 31
0
  0
LINE
  8
0
 62
7
 10
3.7055
 20
2.945
 30
0
 11
3.69875
 21
2.9375
 31
0
  0
LINE
  8
0
 62
7
 10
3.69875
 20
2.9375
 30
0
 11
3.69425
 21
2.9275
 31
0
  0
LINE
  8
0
 62
7
 10
3.69425
 20
2.9275
 30
0
 11
3.69425
 21
2.9125
 31
0
  0
LINE
  8
0
 62
7
 10
3.69425
 20
2.9125
 30
0
 11
3.69875
 21
2.9025
 31
0
  0
LINE
  8
0
 62
7
 10
3.69875
 20
2.9025
 30
0
 11
3.7055
 21
2.895
 31
0
  0
LINE
  8
0
 62
7
 10
3.7055
 20
2.895
 30
0
 11
3.714500000000001
 21
2.890000000000001
 31
0
  0
LINE
  8
0
 62
7
 10
3.714500000000001
 20
2.890000000000001
 30
0
 11
3.728
 21
2.890000000000001
 31
0
  0
LINE
  8
0
 62
7
 10
3.728
 20
2.890000000000001
 30
0
 11
3.737
 21
2.895
 31
0
  0
LINE
  8
0
 62
7
 10
3.737
 20
2.895
 30
0
 11
3.74375
 21
2.9025
 31
0
  0
LINE
  8
0
 62
7
 10
3.74375
 20
2.9025
 30
0
 11
3.748250000000001
 21
2.9125
 31
0
  0
LINE
  8
0
 62
7
 10
3.748250000000001
 20
2.9125
 30
0
 11
3.748250000000001
 21
2.9275
 31
0
  0
LINE
  8
0
 62
7
 10
3.748250000000001
 20
2.9275
 30
0
 11
3.74375
 21
2.9375
 31
0
  0
LINE
  8
0
 62
7
 10
3.74375
 20
2.9375
 30
0
 11
3.737
 21
2.945
 31
0
  0
LINE
  8
0
 62
7
 10
3.737
 20
2.945
 30
0
 11
3.72575
 21
2.95
 31
0
  0
LINE
  8
0
 62
7
 10
3.83825
 20
2.95
 30
0
 11
3.836
 21
2.94
 31
0
  0
LINE
  8
0
 62
7
 10
3.836
 20
2.94
 30
0
 11
3.8315
 21
2.9325
 31
0
  0
LINE
  8
0
 62
7
 10
3.8315
 20
2.9325
 30
0
 11
3.82475
 21
2.9275
 31
0
  0
LINE
  8
0
 62
7
 10
3.82475
 20
2.9275
 30
0
 11
3.818
 21
2.925
 31
0
  0
LINE
  8
0
 62
7
 10
3.818
 20
2.925
 30
0
 11
3.8045
 21
2.925
 31
0
  0
LINE
  8
0
 62
7
 10
3.8045
 20
2.925
 30
0
 11
3.79775
 21
2.9275
 31
0
  0
LINE
  8
0
 62
7
 10
3.79775
 20
2.9275
 30
0
 11
3.791
 21
2.9325
 31
0
  0
LINE
  8
0
 62
7
 10
3.791
 20
2.9325
 30
0
 11
3.7865
 21
2.94
 31
0
  0
LINE
  8
0
 62
7
 10
3.7865
 20
2.94
 30
0
 11
3.78425
 21
2.95
 31
0
  0
LINE
  8
0
 62
7
 10
3.78425
 20
2.95
 30
0
 11
3.78425
 21
2.965
 31
0
  0
LINE
  8
0
 62
7
 10
3.78425
 20
2.965
 30
0
 11
3.7865
 21
2.975
 31
0
  0
LINE
  8
0
 62
7
 10
3.7865
 20
2.975
 30
0
 11
3.791
 21
2.9825
 31
0
  0
LINE
  8
0
 62
7
 10
3.791
 20
2.9825
 30
0
 11
3.79775
 21
2.9875
 31
0
  0
LINE
  8
0
 62
7
 10
3.79775
 20
2.9875
 30
0
 11
3.8045
 21
2.99
 31
0
  0
LINE
  8
0
 62
7
 10
3.8045
 20
2.99
 30
0
 11
3.818
 21
2.99
 31
0
  0
LINE
  8
0
 62
7
 10
3.818
 20
2.99
 30
0
 11
3.82475
 21
2.9875
 31
0
  0
LINE
  8
0
 62
7
 10
3.82475
 20
2.9875
 30
0
 11
3.8315
 21
2.9825
 31
0
  0
LINE
  8
0
 62
7
 10
3.8315
 20
2.9825
 30
0
 11
3.836
 21
2.975
 31
0
  0
LINE
  8
0
 62
7
 10
3.836
 20
2.975
 30
0
 11
3.83825
 21
2.965
 31
0
  0
LINE
  8
0
 62
7
 10
3.83825
 20
2.965
 30
0
 11
3.83825
 21
2.95
 31
0
  0
LINE
  8
0
 62
7
 10
3.83825
 20
2.915
 30
0
 11
3.836
 21
2.905
 31
0
  0
LINE
  8
0
 62
7
 10
3.836
 20
2.905
 30
0
 11
3.8315
 21
2.8975
 31
0
  0
LINE
  8
0
 62
7
 10
3.8315
 20
2.8975
 30
0
 11
3.82475
 21
2.8925
 31
0
  0
LINE
  8
0
 62
7
 10
3.82475
 20
2.8925
 30
0
 11
3.818
 21
2.890000000000001
 31
0
  0
LINE
  8
0
 62
7
 10
3.818
 20
2.890000000000001
 30
0
 11
3.8045
 21
2.890000000000001
 31
0
  0
LINE
  8
0
 62
7
 10
3.8045
 20
2.890000000000001
 30
0
 11
3.79775
 21
2.8925
 31
0
  0
LINE
  8
0
 62
7
 10
3.79775
 20
2.8925
 30
0
 11
3.791
 21
2.8975
 31
0
  0
LINE
  8
0
 62
7
 10
3.791
 20
2.8975
 30
0
 11
3.7865
 21
2.905
 31
0
  0
LINE
  8
0
 62
7
 10
3.83825
 20
2.95
 30
0
 11
3.83825
 21
2.915
 31
0
  0
LINE
  8
0
 62
7
 10
3.989
 20
2.9425
 30
0
 11
3.98225
 21
2.952500000000001
 31
0
  0
LINE
  8
0
 62
7
 10
3.98225
 20
2.952500000000001
 30
0
 11
3.9755
 21
2.9575
 31
0
  0
LINE
  8
0
 62
7
 10
3.9755
 20
2.9575
 30
0
 11
3.96875
 21
2.96
 31
0
  0
LINE
  8
0
 62
7
 10
3.96875
 20
2.96
 30
0
 11
3.959750000000001
 21
2.96
 31
0
  0
LINE
  8
0
 62
7
 10
3.959750000000001
 20
2.96
 30
0
 11
3.953
 21
2.9575
 31
0
  0
LINE
  8
0
 62
7
 10
3.953
 20
2.9575
 30
0
 11
3.94625
 21
2.952500000000001
 31
0
  0
LINE
  8
0
 62
7
 10
3.94625
 20
2.952500000000001
 30
0
 11
3.939500000000001
 21
2.9425
 31
0
  0
LINE
  8
0
 62
7
 10
3.939500000000001
 20
2.9425
 30
0
 11
3.937250000000001
 21
2.935
 31
0
  0
LINE
  8
0
 62
7
 10
3.937250000000001
 20
2.935
 30
0
 11
3.937250000000001
 21
2.915
 31
0
  0
LINE
  8
0
 62
7
 10
3.937250000000001
 20
2.915
 30
0
 11
3.939500000000001
 21
2.9075
 31
0
  0
LINE
  8
0
 62
7
 10
3.939500000000001
 20
2.9075
 30
0
 11
3.94625
 21
2.8975
 31
0
  0
LINE
  8
0
 62
7
 10
3.94625
 20
2.8975
 30
0
 11
3.953
 21
2.8925
 31
0
  0
LINE
  8
0
 62
7
 10
3.953
 20
2.8925
 30
0
 11
3.959750000000001
 21
2.890000000000001
 31
0
  0
LINE
  8
0
 62
7
 10
3.959750000000001
 20
2.890000000000001
 30
0
 11
3.96875
 21
2.890000000000001
 31
0
  0
LINE
  8
0
 62
7
 10
3.96875
 20
2.890000000000001
 30
0
 11
3.9755
 21
2.8925
 31
0
  0
LINE
  8
0
 62
7
 10
3.9755
 20
2.8925
 30
0
 11
3.98225
 21
2.8975
 31
0
  0
LINE
  8
0
 62
7
 10
3.98225
 20
2.8975
 30
0
 11
3.989
 21
2.9075
 31
0
  0
LINE
  8
0
 62
7
 10
4.0475
 20
2.935
 30
0
 11
4.0475
 21
2.890000000000001
 31
0
  0
LINE
  8
0
 62
7
 10
4.007000000000001
 20
2.96
 30
0
 11
4.007000000000001
 21
2.935
 31
0
  0
LINE
  8
0
 62
7
 10
4.007000000000001
 20
2.890000000000001
 30
0
 11
4.007000000000001
 21
2.935
 31
0
  0
LINE
  8
0
 62
7
 10
4.007000000000001
 20
2.935
 30
0
 11
4.009250000000001
 21
2.9475
 31
0
  0
LINE
  8
0
 62
7
 10
4.009250000000001
 20
2.9475
 30
0
 11
4.011500000000001
 21
2.952500000000001
 31
0
  0
LINE
  8
0
 62
7
 10
4.011500000000001
 20
2.952500000000001
 30
0
 11
4.016000000000001
 21
2.9575
 31
0
  0
LINE
  8
0
 62
7
 10
4.016000000000001
 20
2.9575
 30
0
 11
4.02275
 21
2.96
 31
0
  0
LINE
  8
0
 62
7
 10
4.02275
 20
2.96
 30
0
 11
4.031750000000001
 21
2.96
 31
0
  0
LINE
  8
0
 62
7
 10
4.031750000000001
 20
2.96
 30
0
 11
4.0385
 21
2.9575
 31
0
  0
LINE
  8
0
 62
7
 10
4.0385
 20
2.9575
 30
0
 11
4.043
 21
2.952500000000001
 31
0
  0
LINE
  8
0
 62
7
 10
4.043
 20
2.952500000000001
 30
0
 11
4.04525
 21
2.9475
 31
0
  0
LINE
  8
0
 62
7
 10
4.04525
 20
2.9475
 30
0
 11
4.0475
 21
2.935
 31
0
  0
LINE
  8
0
 62
7
 10
4.0475
 20
2.935
 30
0
 11
4.04975
 21
2.9475
 31
0
  0
LINE
  8
0
 62
7
 10
4.04975
 20
2.9475
 30
0
 11
4.052
 21
2.952500000000001
 31
0
  0
LINE
  8
0
 62
7
 10
4.052
 20
2.952500000000001
 30
0
 11
4.0565
 21
2.9575
 31
0
  0
LINE
  8
0
 62
7
 10
4.0565
 20
2.9575
 30
0
 11
4.06325
 21
2.96
 31
0
  0
LINE
  8
0
 62
7
 10
4.06325
 20
2.96
 30
0
 11
4.07225
 21
2.96
 31
0
  0
LINE
  8
0
 62
7
 10
4.07225
 20
2.96
 30
0
 11
4.079
 21
2.9575
 31
0
  0
LINE
  8
0
 62
7
 10
4.0835
 20
2.952500000000001
 30
0
 11
4.079
 21
2.9575
 31
0
  0
LINE
  8
0
 62
7
 10
4.079
 20
2.9575
 30
0
 11
4.0835
 21
2.952500000000001
 31
0
  0
LINE
  8
0
 62
7
 10
4.0835
 20
2.952500000000001
 30
0
 11
4.08575
 21
2.9475
 31
0
  0
LINE
  8
0
 62
7
 10
4.08575
 20
2.9475
 30
0
 11
4.088
 21
2.935
 31
0
  0
LINE
  8
0
 62
7
 10
4.088
 20
2.935
 30
0
 11
4.088
 21
2.890000000000001
 31
0
  0
ARC
  8
0
 62
7
 10
3.905128922706244
 20
3.49512892270625
 30
0
 40
0.5380000000000004
 50
359.9862700268433
 51
90.01372997696718
  0
ARC
  8
0
 62
7
 10
2.279871077293753
 20
3.49512892270625
 30
0
 40
0.5380000000000089
 50
89.98627002344602
 51
180.0137299769684
  0
CIRCLE
  8
0
 62
7
 10
4.443128907259164
 20
3.25
 30
0
 40
0.05999999999999961
  0
DIMENSION
  8
0
  6
CONTINUOUS
 62
7
  2
*D0
  3
DMST_1
 10
0.787579615482863
 20
3.35
 30
0
 11
0.787579615482863
 21
3.91686118506217
 31
0
 12
0
 22
0
 32
0
 70
0
 13
1.1
 23
4.5
 33
0
 14
1.1
 24
3.35
 34
0
 50
90
 53
0
  0
DIMENSION
  8
0
  6
CONTINUOUS
 62
7
  2
*D1
  3
DMST_1
 10
1.275
 20
5.42870727431442
 30
0
 11
3.005780025123471
 21
5.42870727431442
 31
0
 12
0
 22
0
 32
0
 70
0
 13
4.910000000000006
 23
5.019999999999999
 33
0
 14
1.274999999999999
 24
5.019999999999999
 34
0
 53
0
  0
DIMENSION
  8
0
  6
CONTINUOUS
 62
7
  2
*D2
  3
DMST_1
 10
5.45943187489352
 20
4.500000000000001
 30
0
 11
5.45943187489352
 21
3.892076822943281
 31
0
 12
0
 22
0
 32
0
 70
0
 13
5.085000000000006
 23
3.25
 33
0
 14
5.085000000000006
 24
4.5
 34
0
 50
90
 53
0
  0
DIMENSION
  8
0
  6
CONTINUOUS
 62
7
  2
*D3
  3
DMST_2
 10
4.910000000000005
 20
11.5132681745018
 30
0
 11
3.16687837889625
 21
11.5132681745018
 31
0
 12
0
 22
0
 32
0
 70
0
 13
1.274999999999999
 23
11.2
 33
0
 14
4.910000000000006
 24
11.2
 34
0
 53
0
  0
INSERT
  8
0
  2
*D4
 10
0
 20
0
 30
0
  0
ENDSEC
  0
EOF
