  0
SECTION
  2
HEADER
  9
$ACADVER
  1
AC1009
  9
$INSBASE
 10
0
 20
0
  9
$EXTMIN
 10
0.1000000000000001
 20
-0.2
  9
$EXTMAX
 10
7.95831200093667
 20
8.49590223343545
  9
$LIMMIN
 10
0.1000000000000001
 20
-0.2
  9
$LIMMAX
 10
7.95831200093667
 20
8.49590223343545
  9
$VIEWCTR
 10
10
 20
10
  9
$VIEWSIZE
 40
10
  9
$SNAPMODE
 70
0
  9
$SNAPUNIT
 10
1
 20
1
  9
$SNAPBASE
 10
0
 20
0
  9
$SNAPANG
 50
0
  9
$SNAPSTYLE
 70
0
  9
$SNAPISOPAIR
 70
0
  9
$GRIDMODE
 70
0
  9
$GRIDUNIT
 10
0
 20
0
  9
$ORTHOMODE
 70
0
  9
$REGENMODE
 70
1
  9
$FILLMODE
 70
1
  9
$QTEXTMODE
 70
0
  9
$DRAGMODE
 70
2
  9
$LTSCALE
 40
1
  9
$OSMODE
 70
0
  9
$ATTMODE
 70
1
  9
$TEXTSIZE
 40
3.5
  9
$TRACEWID
 40
0.5
  9
$TEXTSTYLE
  7
STANDARD
  9
$CLAYER
  8
0
  9
$CELTYPE
  6
BYLAYER
  9
$CECOLOR
 62
256
  9
$DIMSCALE
 40
1
  9
$DIMASZ
 40
0.18
  9
$DIMEXO
 40
0.0625
  9
$DIMDLI
 40
0.38
  9
$DIMRND
 40
0
  9
$DIMDLE
 40
0
  9
$DIMEXE
 40
0.18
  9
$DIMTP
 40
0
  9
$DIMTM
 40
0
  9
$DIMTXT
 40
0.18
  9
$DIMCEN
 40
0.09
  9
$DIMTSZ
 40
0
  9
$DIMTOL
 70
0
  9
$DIMLIM
 70
0
  9
$DIMTIH
 70
1
  9
$DIMTOH
 70
1
  9
$DIMSE1
 70
0
  9
$DIMSE2
 70
0
  9
$DIMTAD
 70
0
  9
$DIMZIN
 70
0
  9
$DIMBLK
  1

  9
$DIMASO
 70
1
  9
$DIMSHO
 70
1
  9
$DIMPOST
  1

  9
$DIMAPOST
  1

  9
$DIMALT
 70
0
  9
$DIMALTD
 70
2
  9
$DIMALTF
 40
25.4
  9
$DIMLFAC
 40
1
  9
$DIMTOFL
 70
0
  9
$DIMTVP
 40
0
  9
$DIMTIX
 70
0
  9
$DIMSOXD
 70
0
  9
$DIMSAH
 70
0
  9
$DIMBLK1
  1

  9
$DIMBLK2
  1

  9
$DIMSTYLE
  2
*UNNAMED
  9
$DIMCLRD
 70
0
  9
$DIMCLRE
 70
0
  9
$DIMCLRT
 70
0
  9
$DIMTFAC
 40
1
  9
$DIMGAP
 40
0.09
  9
$LUNITS
 70
2
  9
$LUPREC
 70
4
  9
$AXISMODE
 70
0
  9
$AXISUNIT
 10
0
 20
0
  9
$SKETCHINC
 40
0.1
  9
$FILLETRAD
 40
2
  9
$AUNITS
 70
0
  9
$AUPREC
 70
0
  9
$MENU
  1
ACAD
  9
$ELEVATION
 40
0
  9
$THICKNESS
 40
0
  9
$VIEWDIR
 10
0
 20
0
 30
1
  9
$LIMCHECK
 70
0
  9
$BLIPMODE
 70
1
  9
$CHAMFERA
 40
0
  9
$CHAMFERB
 40
0
  9
$FASTZOOM
 70
1
  9
$SKPOLY
 70
0
  9
$ANGBASE
 50
0
  9
$ANGDIR
 70
0
  9
$PDMODE
 70
0
  9
$PDSIZE
 40
0
  9
$PLINEWID
 40
0
  9
$COORDS
 70
2
  0
ENDSEC
  0
SECTION
  2
TABLES
  0
TABLE
  2
DIMSTYLE
 70
2
  0
DIMSTYLE
  2
DMST_1
 70
0
  3

  4

  5

  6

  7

 40
1
 41
0.1
 42
0
 43
0.7
 44
0.2
 45
0
 46
0
 47
0
 48
0
140
0.1
141
0
142
0.1
143
25.4
144
1
145
0
146
1
147
0.2
 71
0
 72
0
 73
0
 74
0
 75
0
 76
0
 77
0
 78
9
170
0
171
2
172
0
173
0
174
0
175
0
176
7
177
7
178
7
  0
DIMSTYLE
  2
DMST_2
 70
0
  3

  4

  5

  6

  7

 40
1
 41
0.1
 42
0
 43
0.7
 44
0.2
 45
0
 46
0
 47
0
 48
0
140
0.1
141
0
142
0.1
143
25.4
144
1
145
0
146
1
147
0.25
 71
0
 72
0
 73
0
 74
0
 75
0
 76
0
 77
0
 78
9
170
0
171
2
172
0
173
0
174
0
175
0
176
7
177
7
178
7
  0
ENDTAB
  0
TABLE
  2
LTYPE
 70
9
  0
LTYPE
  2
CONTINUOUS
 70
64
  3
Solid line
 72
65
 73
0
 40
0
  0
LTYPE
  2
BORDER
 70
64
  3
__ __ . __ __ .
 72
65
 73
6
 40
0.4004691818029483
 49
0.1144197662294138
 49
-0.0572098831147069
 49
0.1144197662294138
 49
-0.0572098831147069
 49
0
 49
-0.0572098831147069
  0
LTYPE
  2
CENTER
 70
64
  3
____ _ ____ _
 72
65
 73
4
 40
0.4576790649176552
 49
0.2860494155735345
 49
-0.0572098831147069
 49
0.0572098831147069
 49
-0.0572098831147069
  0
LTYPE
  2
DASHDOT
 70
64
  3
__ . __ . __ .
 72
65
 73
4
 40
0.2288395324588276
 49
0.1144197662294138
 49
-0.0572098831147069
 49
0
 49
-0.0572098831147069
  0
LTYPE
  2
DASHED
 70
64
  3
__ __ __ __ __
 72
65
 73
2
 40
0.1716296493441207
 49
0.1144197662294138
 49
-0.0572098831147069
  0
LTYPE
  2
DIVIDE
 70
64
  3
__ . . __ . . 
 72
65
 73
6
 40
0.2860494155735345
 49
0.1144197662294138
 49
-0.0572098831147069
 49
0
 49
-0.0572098831147069
 49
0
 49
-0.0572098831147069
  0
LTYPE
  2
DOT
 70
64
  3
..............
 72
65
 73
4
 40
0.1144197662294138
 49
0
 49
-0.0572098831147069
 49
0
 49
-0.0572098831147069
  0
LTYPE
  2
HIDDEN
 70
64
  3
_ _ _ _ _ _ _
 72
65
 73
2
 40
0.08581482467206035
 49
0.0572098831147069
 49
-0.02860494155735345
  0
LTYPE
  2
PHANTOM
 70
64
  3
_____ _ _ _____ _ _ 
 72
65
 73
6
 40
0.5720988311470689
 49
0.2860494155735345
 49
-0.0572098831147069
 49
0.0572098831147069
 49
-0.0572098831147069
 49
0.0572098831147069
 49
-0.0572098831147069
  0
ENDTAB
  0
TABLE
  2
LAYER
 70
2
  0
LAYER
  2
0
 70
0
 62
7
  6
CONTINUOUS
  0
ENDTAB
  0
TABLE
  2
STYLE
 70
4
  0
STYLE
  2
STANDARD
 70
0
 40
0
 41
1
 50
0
 71
0
 42
3.5
  3
txt
  4

  0
STYLE
  2
SIMPLEX
 70
0
 40
0
 41
1
 50
0
 71
0
 42
3.5
  3
simplex
  4

  0
STYLE
  2
COMPLEX
 70
0
 40
0
 41
1
 50
0
 71
0
 42
3.5
  3
complex
  4

  0
STYLE
  2
ITALIC
 70
0
 40
0
 41
1
 50
0
 71
0
 42
3.5
  3
italic
  4

  0
ENDTAB
  0
TABLE
  2
VIEW
 70
0
  0
ENDTAB
  0
ENDSEC
  0
SECTION
  2
BLOCKS
  0
BLOCK
  8
0
  2
*X0
 70
1
 10
0
 20
0
 30
0
  0
LINE
  8
0
 62
7
 10
3.115000000000006
 20
1.524009742330274
 30
0
 11
3.240990257669738
 21
1.65
 31
0
  0
LINE
  8
0
 62
7
 10
3.213122292025695
 20
1.41
 30
0
 11
3.453122292025702
 21
1.65
 31
0
  0
LINE
  8
0
 62
7
 10
3.265000000000005
 20
1.249745673618345
 30
0
 11
3.665254326381667
 21
1.65
 31
0
  0
LINE
  8
0
 62
7
 10
3.637386360737631
 20
1.41
 30
0
 11
3.877386360737631
 21
1.65
 31
0
  0
LINE
  8
0
 62
7
 10
3.265000000000005
 20
1.037613639262381
 30
0
 11
3.440000000000005
 21
1.212613639262381
 31
0
  0
LINE
  8
0
 62
7
 10
3.849518395093595
 20
1.41
 30
0
 11
4.089518395093595
 21
1.65
 31
0
  0
LINE
  8
0
 62
7
 10
3.265000000000005
 20
0.8254816049064164
 30
0
 11
3.440000000000005
 21
1.000481604906416
 31
0
  0
LINE
  8
0
 62
7
 10
4.06165042944956
 20
1.41
 30
0
 11
4.301650429449559
 21
1.65
 31
0
  0
LINE
  8
0
 62
7
 10
3.265000000000005
 20
0.6133495705504522
 30
0
 11
3.440000000000005
 21
0.788349570550452
 31
0
  0
LINE
  8
0
 62
7
 10
4.273782463805524
 20
1.41
 30
0
 11
4.513782463805523
 21
1.65
 31
0
  0
LINE
  8
0
 62
7
 10
3.265000000000005
 20
0.401217536194488
 30
0
 11
3.440000000000005
 21
0.5762175361944877
 31
0
  0
LINE
  8
0
 62
7
 10
4.485914498161487
 20
1.41
 30
0
 11
4.725914498161487
 21
1.65
 31
0
  0
LINE
  8
0
 62
7
 10
3.265000000000005
 20
0.1890855018385238
 30
0
 11
3.440000000000005
 21
0.3640855018385234
 31
0
  0
LINE
  8
0
 62
7
 10
4.698046532517451
 20
1.41
 30
0
 11
4.938046532517451
 21
1.65
 31
0
  0
LINE
  8
0
 62
7
 10
4.910178566873415
 20
1.41
 30
0
 11
5.150178566873414
 21
1.65
 31
0
  0
LINE
  8
0
 62
7
 10
5.122310601229379
 20
1.41
 30
0
 11
5.362310601229378
 21
1.65
 31
0
  0
LINE
  8
0
 62
7
 10
5.334442635585343
 20
1.41
 30
0
 11
5.574442635585342
 21
1.65
 31
0
  0
LINE
  8
0
 62
7
 10
5.546574669941307
 20
1.41
 30
0
 11
5.786574669941306
 21
1.65
 31
0
  0
LINE
  8
0
 62
7
 10
5.75870670429727
 20
1.41
 30
0
 11
5.99870670429727
 21
1.65
 31
0
  0
LINE
  8
0
 62
7
 10
5.970838738653234
 20
1.41
 30
0
 11
6.210838738653234
 21
1.65
 31
0
  0
LINE
  8
0
 62
7
 10
6.182970773009198
 20
1.41
 30
0
 11
6.422970773009197
 21
1.65
 31
0
  0
LINE
  8
0
 62
7
 10
6.395102807365162
 20
1.41
 30
0
 11
6.635102807365161
 21
1.65
 31
0
  0
LINE
  8
0
 62
7
 10
6.607234841721126
 20
1.41
 30
0
 11
6.847234841721125
 21
1.65
 31
0
  0
LINE
  8
0
 62
7
 10
6.81936687607709
 20
1.41
 30
0
 11
7.059366876077089
 21
1.65
 31
0
  0
LINE
  8
0
 62
7
 10
7.031498910433053
 20
1.41
 30
0
 11
7.271498910433053
 21
1.65
 31
0
  0
LINE
  8
0
 62
7
 10
7.075000000000005
 20
1.241369055210988
 30
0
 11
7.415000000000005
 21
1.581369055210988
 31
0
  0
LINE
  8
0
 62
7
 10
7.075000000000005
 20
1.029237020855024
 30
0
 11
7.250000000000004
 21
1.204237020855023
 31
0
  0
LINE
  8
0
 62
7
 10
7.075000000000005
 20
0.8171049864990594
 30
0
 11
7.250000000000004
 21
0.9921049864990588
 31
0
  0
LINE
  8
0
 62
7
 10
7.075000000000005
 20
0.6049729521430951
 30
0
 11
7.250000000000004
 21
0.7799729521430945
 31
0
  0
LINE
  8
0
 62
7
 10
7.075000000000005
 20
0.3928409177871308
 30
0
 11
7.250000000000004
 21
0.5678409177871302
 31
0
  0
LINE
  8
0
 62
7
 10
7.154291116568839
 20
0.2600000000000002
 30
0
 11
7.250000000000004
 21
0.3557088834311659
 31
0
  0
LINE
  8
0
 62
7
 10
3.115000000000006
 20
1.630075759508256
 30
0
 11
3.134924240491757
 21
1.65
 31
0
  0
LINE
  8
0
 62
7
 10
3.115000000000006
 20
1.417943725152292
 30
0
 11
3.347056274847721
 21
1.65
 31
0
  0
LINE
  8
0
 62
7
 10
3.265000000000005
 20
1.355811690796327
 30
0
 11
3.559188309203685
 21
1.65
 31
0
  0
LINE
  8
0
 62
7
 10
3.531320343559648
 20
1.41
 30
0
 11
3.771320343559649
 21
1.65
 31
0
  0
LINE
  8
0
 62
7
 10
3.265000000000005
 20
1.143679656440363
 30
0
 11
3.440000000000005
 21
1.318679656440363
 31
0
  0
LINE
  8
0
 62
7
 10
3.743452377915612
 20
1.41
 30
0
 11
3.983452377915614
 21
1.65
 31
0
  0
LINE
  8
0
 62
7
 10
3.265000000000005
 20
0.9315476220843983
 30
0
 11
3.440000000000005
 21
1.106547622084398
 31
0
  0
LINE
  8
0
 62
7
 10
3.955584412271576
 20
1.41
 30
0
 11
4.195584412271578
 21
1.65
 31
0
  0
LINE
  8
0
 62
7
 10
3.265000000000005
 20
0.7194155877284341
 30
0
 11
3.440000000000005
 21
0.8944155877284341
 31
0
  0
LINE
  8
0
 62
7
 10
4.167716446627541
 20
1.41
 30
0
 11
4.407716446627542
 21
1.65
 31
0
  0
LINE
  8
0
 62
7
 10
3.265000000000005
 20
0.5072835533724698
 30
0
 11
3.440000000000005
 21
0.6822835533724698
 31
0
  0
LINE
  8
0
 62
7
 10
4.379848480983505
 20
1.41
 30
0
 11
4.619848480983506
 21
1.65
 31
0
  0
LINE
  8
0
 62
7
 10
3.265000000000005
 20
0.2951515190165055
 30
0
 11
3.440000000000005
 21
0.4701515190165055
 31
0
  0
LINE
  8
0
 62
7
 10
4.591980515339468
 20
1.41
 30
0
 11
4.831980515339469
 21
1.65
 31
0
  0
LINE
  8
0
 62
7
 10
3.341980515339463
 20
0.1599999999999997
 30
0
 11
3.440000000000005
 21
0.2580194846605415
 31
0
  0
LINE
  8
0
 62
7
 10
4.804112549695432
 20
1.41
 30
0
 11
5.044112549695433
 21
1.65
 31
0
  0
LINE
  8
0
 62
7
 10
5.016244584051396
 20
1.41
 30
0
 11
5.256244584051397
 21
1.65
 31
0
  0
LINE
  8
0
 62
7
 10
5.22837661840736
 20
1.41
 30
0
 11
5.468376618407361
 21
1.65
 31
0
  0
LINE
  8
0
 62
7
 10
5.440508652763324
 20
1.41
 30
0
 11
5.680508652763325
 21
1.65
 31
0
  0
LINE
  8
0
 62
7
 10
5.652640687119288
 20
1.41
 30
0
 11
5.892640687119289
 21
1.65
 31
0
  0
LINE
  8
0
 62
7
 10
5.864772721475251
 20
1.41
 30
0
 11
6.104772721475253
 21
1.65
 31
0
  0
LINE
  8
0
 62
7
 10
6.076904755831215
 20
1.41
 30
0
 11
6.316904755831216
 21
1.65
 31
0
  0
LINE
  8
0
 62
7
 10
6.289036790187179
 20
1.41
 30
0
 11
6.52903679018718
 21
1.65
 31
0
  0
LINE
  8
0
 62
7
 10
6.501168824543143
 20
1.41
 30
0
 11
6.741168824543144
 21
1.65
 31
0
  0
LINE
  8
0
 62
7
 10
6.713300858899107
 20
1.41
 30
0
 11
6.953300858899108
 21
1.65
 31
0
  0
LINE
  8
0
 62
7
 10
6.925432893255071
 20
1.41
 30
0
 11
7.165432893255072
 21
1.65
 31
0
  0
LINE
  8
0
 62
7
 10
7.075000000000005
 20
1.34743507238897
 30
0
 11
7.377564927611036
 21
1.65
 31
0
  0
LINE
  8
0
 62
7
 10
7.349696961966999
 20
1.41
 30
0
 11
7.415000000000006
 21
1.475303038033007
 31
0
  0
LINE
  8
0
 62
7
 10
7.075000000000005
 20
1.135303038033006
 30
0
 11
7.250000000000005
 21
1.310303038033006
 31
0
  0
LINE
  8
0
 62
7
 10
7.075000000000005
 20
0.9231710036770413
 30
0
 11
7.250000000000005
 21
1.098171003677042
 31
0
  0
LINE
  8
0
 62
7
 10
7.075000000000005
 20
0.711038969321077
 30
0
 11
7.250000000000005
 21
0.8860389693210773
 31
0
  0
LINE
  8
0
 62
7
 10
7.075000000000005
 20
0.4989069349651127
 30
0
 11
7.250000000000005
 21
0.673906934965113
 31
0
  0
LINE
  8
0
 62
7
 10
7.075000000000005
 20
0.286774900609148
 30
0
 11
7.250000000000005
 21
0.4617749006091487
 31
0
  0
ENDBLK
  8
0
  0
BLOCK
  8
0
  2
*X1
 70
1
 10
0
 20
0
 30
0
  0
LINE
  8
0
 62
7
 10
3.115000000000006
 20
1.736141776686238
 30
0
 11
3.440000000000005
 21
2.061141776686237
 31
0
  0
LINE
  8
0
 62
7
 10
3.280990257669739
 20
1.69
 30
0
 11
3.520990257669735
 21
1.929999999999997
 31
0
  0
LINE
  8
0
 62
7
 10
3.493122292025703
 20
1.69
 30
0
 11
3.733122292025699
 21
1.929999999999997
 31
0
  0
LINE
  8
0
 62
7
 10
3.705254326381668
 20
1.69
 30
0
 11
3.945254326381664
 21
1.929999999999997
 31
0
  0
LINE
  8
0
 62
7
 10
3.917386360737632
 20
1.69
 30
0
 11
4.157386360737628
 21
1.929999999999997
 31
0
  0
LINE
  8
0
 62
7
 10
4.129518395093596
 20
1.69
 30
0
 11
4.369518395093592
 21
1.929999999999997
 31
0
  0
LINE
  8
0
 62
7
 10
4.34165042944956
 20
1.69
 30
0
 11
4.581650429449556
 21
1.929999999999997
 31
0
  0
LINE
  8
0
 62
7
 10
4.553782463805524
 20
1.69
 30
0
 11
4.79378246380552
 21
1.929999999999997
 31
0
  0
LINE
  8
0
 62
7
 10
4.765914498161488
 20
1.69
 30
0
 11
5.005914498161483
 21
1.929999999999997
 31
0
  0
LINE
  8
0
 62
7
 10
4.978046532517451
 20
1.69
 30
0
 11
5.218046532517447
 21
1.929999999999997
 31
0
  0
LINE
  8
0
 62
7
 10
5.190178566873415
 20
1.69
 30
0
 11
5.430178566873411
 21
1.929999999999997
 31
0
  0
LINE
  8
0
 62
7
 10
5.402310601229379
 20
1.69
 30
0
 11
5.642310601229375
 21
1.929999999999997
 31
0
  0
LINE
  8
0
 62
7
 10
5.614442635585343
 20
1.69
 30
0
 11
5.854442635585339
 21
1.929999999999997
 31
0
  0
LINE
  8
0
 62
7
 10
5.826574669941307
 20
1.69
 30
0
 11
6.066574669941303
 21
1.929999999999997
 31
0
  0
LINE
  8
0
 62
7
 10
6.038706704297271
 20
1.69
 30
0
 11
6.278706704297266
 21
1.929999999999997
 31
0
  0
LINE
  8
0
 62
7
 10
6.250838738653234
 20
1.69
 30
0
 11
6.49083873865323
 21
1.929999999999997
 31
0
  0
LINE
  8
0
 62
7
 10
6.462970773009198
 20
1.69
 30
0
 11
6.702970773009194
 21
1.929999999999997
 31
0
  0
LINE
  8
0
 62
7
 10
6.675102807365162
 20
1.69
 30
0
 11
6.915102807365158
 21
1.929999999999997
 31
0
  0
LINE
  8
0
 62
7
 10
6.887234841721126
 20
1.69
 30
0
 11
7.250000000000004
 21
2.052765158278879
 31
0
  0
LINE
  8
0
 62
7
 10
7.09936687607709
 20
1.69
 30
0
 11
7.339366876077086
 21
1.929999999999998
 31
0
  0
LINE
  8
0
 62
7
 10
7.311498910433054
 20
1.69
 30
0
 11
7.415000000000005
 21
1.793501089566952
 31
0
  0
LINE
  8
0
 62
7
 10
3.265000000000005
 20
1.992207793864219
 30
0
 11
3.352792206135785
 21
2.079999999999999
 31
0
  0
LINE
  8
0
 62
7
 10
3.115000000000006
 20
1.84220779386422
 30
0
 11
3.202792206135784
 21
1.929999999999997
 31
0
  0
LINE
  8
0
 62
7
 10
3.174924240491757
 20
1.69
 30
0
 11
3.440000000000005
 21
1.955075759508255
 31
0
  0
LINE
  8
0
 62
7
 10
3.387056274847721
 20
1.69
 30
0
 11
3.627056274847718
 21
1.929999999999998
 31
0
  0
LINE
  8
0
 62
7
 10
3.599188309203686
 20
1.69
 30
0
 11
3.839188309203683
 21
1.929999999999998
 31
0
  0
LINE
  8
0
 62
7
 10
3.81132034355965
 20
1.69
 30
0
 11
4.051320343559647
 21
1.929999999999998
 31
0
  0
LINE
  8
0
 62
7
 10
4.023452377915614
 20
1.69
 30
0
 11
4.263452377915611
 21
1.929999999999998
 31
0
  0
LINE
  8
0
 62
7
 10
4.235584412271578
 20
1.69
 30
0
 11
4.475584412271575
 21
1.929999999999998
 31
0
  0
LINE
  8
0
 62
7
 10
4.447716446627542
 20
1.69
 30
0
 11
4.687716446627539
 21
1.929999999999998
 31
0
  0
LINE
  8
0
 62
7
 10
4.659848480983506
 20
1.69
 30
0
 11
4.899848480983502
 21
1.929999999999998
 31
0
  0
LINE
  8
0
 62
7
 10
4.87198051533947
 20
1.69
 30
0
 11
5.111980515339466
 21
1.929999999999998
 31
0
  0
LINE
  8
0
 62
7
 10
5.084112549695433
 20
1.69
 30
0
 11
5.32411254969543
 21
1.929999999999998
 31
0
  0
LINE
  8
0
 62
7
 10
5.296244584051397
 20
1.69
 30
0
 11
5.536244584051394
 21
1.929999999999998
 31
0
  0
LINE
  8
0
 62
7
 10
5.508376618407361
 20
1.69
 30
0
 11
5.748376618407358
 21
1.929999999999998
 31
0
  0
LINE
  8
0
 62
7
 10
5.720508652763325
 20
1.69
 30
0
 11
5.960508652763322
 21
1.929999999999998
 31
0
  0
LINE
  8
0
 62
7
 10
5.932640687119289
 20
1.69
 30
0
 11
6.172640687119285
 21
1.929999999999998
 31
0
  0
LINE
  8
0
 62
7
 10
6.144772721475253
 20
1.69
 30
0
 11
6.384772721475249
 21
1.929999999999998
 31
0
  0
LINE
  8
0
 62
7
 10
6.356904755831216
 20
1.69
 30
0
 11
6.596904755831213
 21
1.929999999999998
 31
0
  0
LINE
  8
0
 62
7
 10
6.56903679018718
 20
1.69
 30
0
 11
6.809036790187177
 21
1.929999999999998
 31
0
  0
LINE
  8
0
 62
7
 10
7.075000000000005
 20
1.983831175456861
 30
0
 11
7.171168824543143
 21
2.079999999999999
 31
0
  0
LINE
  8
0
 62
7
 10
6.781168824543144
 20
1.69
 30
0
 11
7.021168824543141
 21
1.929999999999998
 31
0
  0
LINE
  8
0
 62
7
 10
6.993300858899108
 20
1.69
 30
0
 11
7.250000000000005
 21
1.946699141100898
 31
0
  0
LINE
  8
0
 62
7
 10
7.205432893255072
 20
1.69
 30
0
 11
7.415000000000005
 21
1.899567106744934
 31
0
  0
ENDBLK
  8
0
  0
BLOCK
  8
0
  2
*X2
 70
1
 10
0
 20
0
 30
0
  0
LINE
  8
0
 62
7
 10
7.087386360737623
 20
4.859999999999999
 30
0
 11
7.237386360737625
 21
5.009999999999999
 31
0
  0
LINE
  8
0
 62
7
 10
7.075000000000005
 20
4.953679656440362
 30
0
 11
7.131320343559643
 21
5.01
 31
0
  0
LINE
  8
0
 62
7
 10
7.193452377915606
 20
4.859999999999999
 30
0
 11
7.250000000000004
 21
4.916547622084398
 31
0
  0
ENDBLK
  8
0
  0
BLOCK
  8
0
  2
*X3
 70
1
 10
0
 20
0
 30
0
  0
LINE
  8
0
 62
7
 10
7.075000000000005
 20
7.60533008588991
 30
0
 11
7.229669914110092
 21
7.760000000000002
 31
0
  0
LINE
  8
0
 62
7
 10
7.075000000000005
 20
7.393198051533946
 30
0
 11
7.250000000000004
 21
7.568198051533946
 31
0
  0
LINE
  8
0
 62
7
 10
7.075000000000005
 20
7.181066017177982
 30
0
 11
7.250000000000004
 21
7.356066017177982
 31
0
  0
LINE
  8
0
 62
7
 10
7.075000000000005
 20
6.968933982822018
 30
0
 11
7.250000000000004
 21
7.143933982822018
 31
0
  0
LINE
  8
0
 62
7
 10
7.075000000000005
 20
6.756801948466054
 30
0
 11
7.250000000000004
 21
6.931801948466054
 31
0
  0
LINE
  8
0
 62
7
 10
7.075000000000005
 20
6.544669914110091
 30
0
 11
7.250000000000004
 21
6.71966991411009
 31
0
  0
LINE
  8
0
 62
7
 10
7.075000000000005
 20
6.332537879754127
 30
0
 11
7.250000000000004
 21
6.507537879754127
 31
0
  0
LINE
  8
0
 62
7
 10
7.075000000000005
 20
6.120405845398163
 30
0
 11
7.250000000000004
 21
6.295405845398163
 31
0
  0
LINE
  8
0
 62
7
 10
7.075000000000005
 20
5.908273811042199
 30
0
 11
7.250000000000004
 21
6.083273811042199
 31
0
  0
LINE
  8
0
 62
7
 10
7.075000000000005
 20
5.696141776686235
 30
0
 11
7.250000000000004
 21
5.871141776686235
 31
0
  0
LINE
  8
0
 62
7
 10
7.075000000000005
 20
5.484009742330271
 30
0
 11
7.250000000000004
 21
5.659009742330271
 31
0
  0
LINE
  8
0
 62
7
 10
7.075000000000005
 20
5.271877707974308
 30
0
 11
7.250000000000004
 21
5.446877707974307
 31
0
  0
LINE
  8
0
 62
7
 10
7.225254326381658
 20
5.209999999999997
 30
0
 11
7.250000000000004
 21
5.234745673618344
 31
0
  0
LINE
  8
0
 62
7
 10
7.075000000000005
 20
7.711396103067892
 30
0
 11
7.123603896932109
 21
7.760000000000001
 31
0
  0
LINE
  8
0
 62
7
 10
7.075000000000005
 20
7.499264068711928
 30
0
 11
7.250000000000005
 21
7.674264068711929
 31
0
  0
LINE
  8
0
 62
7
 10
7.075000000000005
 20
7.287132034355964
 30
0
 11
7.250000000000005
 21
7.462132034355965
 31
0
  0
LINE
  8
0
 62
7
 10
7.075000000000005
 20
7.075
 30
0
 11
7.250000000000005
 21
7.250000000000001
 31
0
  0
LINE
  8
0
 62
7
 10
7.075000000000005
 20
6.862867965644036
 30
0
 11
7.250000000000005
 21
7.037867965644037
 31
0
  0
LINE
  8
0
 62
7
 10
7.075000000000005
 20
6.650735931288072
 30
0
 11
7.250000000000005
 21
6.825735931288073
 31
0
  0
LINE
  8
0
 62
7
 10
7.075000000000005
 20
6.438603896932109
 30
0
 11
7.250000000000005
 21
6.613603896932109
 31
0
  0
LINE
  8
0
 62
7
 10
7.075000000000005
 20
6.226471862576145
 30
0
 11
7.250000000000005
 21
6.401471862576146
 31
0
  0
LINE
  8
0
 62
7
 10
7.075000000000005
 20
6.014339828220181
 30
0
 11
7.250000000000005
 21
6.189339828220182
 31
0
  0
LINE
  8
0
 62
7
 10
7.075000000000005
 20
5.802207793864217
 30
0
 11
7.250000000000005
 21
5.977207793864218
 31
0
  0
LINE
  8
0
 62
7
 10
7.075000000000005
 20
5.590075759508253
 30
0
 11
7.250000000000005
 21
5.765075759508254
 31
0
  0
LINE
  8
0
 62
7
 10
7.075000000000005
 20
5.377943725152289
 30
0
 11
7.250000000000005
 21
5.55294372515229
 31
0
  0
LINE
  8
0
 62
7
 10
7.119188309203675
 20
5.209999999999996
 30
0
 11
7.250000000000005
 21
5.340811690796326
 31
0
  0
ENDBLK
  8
0
  0
BLOCK
  8
0
  2
*X4
 70
1
 10
0
 20
0
 30
0
  0
LINE
  8
0
 62
7
 10
7.075000000000004
 20
8.029594154601842
 30
0
 11
7.155405845398164
 21
8.110000000000001
 31
0
  0
LINE
  8
0
 62
7
 10
7.217537879754127
 20
7.960000000000001
 30
0
 11
7.250000000000004
 21
7.992462120245878
 31
0
  0
LINE
  8
0
 62
7
 10
7.111471862576144
 20
7.96
 30
0
 11
7.250000000000004
 21
8.098528137423859
 31
0
  0
ENDBLK
  8
0
  0
BLOCK
  8
0
  2
*X5
 70
1
 10
0
 20
0
 30
0
  0
LINE
  8
0
 62
7
 10
3.269009742330268
 20
4.859999999999999
 30
0
 11
3.419009742330269
 21
5.01
 31
0
  0
LINE
  8
0
 62
7
 10
3.265000000000005
 20
4.962056274847718
 30
0
 11
3.312943725152286
 21
5.01
 31
0
  0
LINE
  8
0
 62
7
 10
3.375075759508249
 20
4.859999999999999
 30
0
 11
3.440000000000005
 21
4.924924240491754
 31
0
  0
ENDBLK
  8
0
  0
BLOCK
  8
0
  2
*X6
 70
1
 10
0
 20
0
 30
0
  0
LINE
  8
0
 62
7
 10
3.265000000000005
 20
7.613706704297266
 30
0
 11
3.411293295702735
 21
7.760000000000002
 31
0
  0
LINE
  8
0
 62
7
 10
3.265000000000005
 20
7.401574669941303
 30
0
 11
3.440000000000006
 21
7.576574669941303
 31
0
  0
LINE
  8
0
 62
7
 10
3.265000000000005
 20
7.189442635585339
 30
0
 11
3.440000000000006
 21
7.364442635585339
 31
0
  0
LINE
  8
0
 62
7
 10
3.265000000000005
 20
6.977310601229375
 30
0
 11
3.440000000000006
 21
7.152310601229376
 31
0
  0
LINE
  8
0
 62
7
 10
3.265000000000005
 20
6.765178566873411
 30
0
 11
3.440000000000006
 21
6.940178566873412
 31
0
  0
LINE
  8
0
 62
7
 10
3.265000000000005
 20
6.553046532517447
 30
0
 11
3.440000000000006
 21
6.728046532517448
 31
0
  0
LINE
  8
0
 62
7
 10
3.265000000000005
 20
6.340914498161483
 30
0
 11
3.440000000000006
 21
6.515914498161484
 31
0
  0
LINE
  8
0
 62
7
 10
3.265000000000005
 20
6.128782463805519
 30
0
 11
3.440000000000006
 21
6.30378246380552
 31
0
  0
LINE
  8
0
 62
7
 10
3.265000000000005
 20
5.916650429449556
 30
0
 11
3.440000000000006
 21
6.091650429449556
 31
0
  0
LINE
  8
0
 62
7
 10
3.265000000000005
 20
5.704518395093592
 30
0
 11
3.440000000000006
 21
5.879518395093593
 31
0
  0
LINE
  8
0
 62
7
 10
3.265000000000005
 20
5.492386360737628
 30
0
 11
3.440000000000006
 21
5.667386360737629
 31
0
  0
LINE
  8
0
 62
7
 10
3.265000000000005
 20
5.280254326381664
 30
0
 11
3.440000000000006
 21
5.455254326381665
 31
0
  0
LINE
  8
0
 62
7
 10
3.406877707974301
 20
5.209999999999997
 30
0
 11
3.440000000000006
 21
5.243122292025701
 31
0
  0
LINE
  8
0
 62
7
 10
3.265000000000005
 20
7.719772721475248
 30
0
 11
3.305227278524753
 21
7.760000000000002
 31
0
  0
LINE
  8
0
 62
7
 10
3.265000000000005
 20
7.507640687119284
 30
0
 11
3.440000000000004
 21
7.682640687119284
 31
0
  0
LINE
  8
0
 62
7
 10
3.265000000000005
 20
7.295508652763321
 30
0
 11
3.440000000000004
 21
7.47050865276332
 31
0
  0
LINE
  8
0
 62
7
 10
3.265000000000005
 20
7.083376618407357
 30
0
 11
3.440000000000004
 21
7.258376618407357
 31
0
  0
LINE
  8
0
 62
7
 10
3.265000000000005
 20
6.871244584051393
 30
0
 11
3.440000000000004
 21
7.046244584051393
 31
0
  0
LINE
  8
0
 62
7
 10
3.265000000000005
 20
6.659112549695429
 30
0
 11
3.440000000000004
 21
6.834112549695429
 31
0
  0
LINE
  8
0
 62
7
 10
3.265000000000005
 20
6.446980515339465
 30
0
 11
3.440000000000004
 21
6.621980515339465
 31
0
  0
LINE
  8
0
 62
7
 10
3.265000000000005
 20
6.234848480983501
 30
0
 11
3.440000000000004
 21
6.409848480983501
 31
0
  0
LINE
  8
0
 62
7
 10
3.265000000000005
 20
6.022716446627538
 30
0
 11
3.440000000000004
 21
6.197716446627537
 31
0
  0
LINE
  8
0
 62
7
 10
3.265000000000005
 20
5.810584412271574
 30
0
 11
3.440000000000004
 21
5.985584412271574
 31
0
  0
LINE
  8
0
 62
7
 10
3.265000000000005
 20
5.59845237791561
 30
0
 11
3.440000000000004
 21
5.77345237791561
 31
0
  0
LINE
  8
0
 62
7
 10
3.265000000000005
 20
5.386320343559646
 30
0
 11
3.440000000000004
 21
5.561320343559646
 31
0
  0
LINE
  8
0
 62
7
 10
3.30081169079632
 20
5.209999999999997
 30
0
 11
3.440000000000004
 21
5.349188309203682
 31
0
  0
ENDBLK
  8
0
  0
BLOCK
  8
0
  2
*X7
 70
1
 10
0
 20
0
 30
0
  0
LINE
  8
0
 62
7
 10
3.265000000000005
 20
8.037970773009199
 30
0
 11
3.337029226990808
 21
8.110000000000003
 31
0
  0
LINE
  8
0
 62
7
 10
3.39916126134677
 20
7.96
 30
0
 11
3.440000000000005
 21
8.000838738653236
 31
0
  0
LINE
  8
0
 62
7
 10
3.293095244168789
 20
7.960000000000001
 30
0
 11
3.440000000000003
 21
8.106904755831216
 31
0
  0
ENDBLK
  8
0
  0
BLOCK
  8
0
  2
*X8
 70
1
 10
0
 20
0
 30
0
  0
LINE
  8
0
 62
7
  6
DASHED
 10
3.115000000000006
 20
5.130254326381666
 30
0
 11
3.194745673618343
 21
5.209999999999997
 31
0
  0
LINE
  8
0
 62
7
  6
DASHED
 10
3.206877707974308
 20
5.009999999999998
 30
0
 11
3.406877707974308
 21
5.209999999999997
 31
0
  0
LINE
  8
0
 62
7
  6
DASHED
 10
3.419009742330272
 20
5.009999999999998
 30
0
 11
3.619009742330272
 21
5.209999999999997
 31
0
  0
LINE
  8
0
 62
7
  6
DASHED
 10
3.631141776686237
 20
5.009999999999998
 30
0
 11
3.831141776686236
 21
5.209999999999997
 31
0
  0
LINE
  8
0
 62
7
  6
DASHED
 10
3.843273811042201
 20
5.009999999999998
 30
0
 11
4.043273811042201
 21
5.209999999999997
 31
0
  0
LINE
  8
0
 62
7
  6
DASHED
 10
4.055405845398165
 20
5.009999999999998
 30
0
 11
4.255405845398164
 21
5.209999999999997
 31
0
  0
LINE
  8
0
 62
7
  6
DASHED
 10
4.267537879754129
 20
5.009999999999998
 30
0
 11
4.467537879754128
 21
5.209999999999997
 31
0
  0
LINE
  8
0
 62
7
  6
DASHED
 10
4.479669914110093
 20
5.009999999999998
 30
0
 11
4.679669914110092
 21
5.209999999999997
 31
0
  0
LINE
  8
0
 62
7
  6
DASHED
 10
4.691801948466057
 20
5.009999999999998
 30
0
 11
4.891801948466056
 21
5.209999999999997
 31
0
  0
LINE
  8
0
 62
7
  6
DASHED
 10
4.903933982822021
 20
5.009999999999998
 30
0
 11
5.10393398282202
 21
5.209999999999997
 31
0
  0
LINE
  8
0
 62
7
  6
DASHED
 10
5.116066017177984
 20
5.009999999999998
 30
0
 11
5.316066017177984
 21
5.209999999999997
 31
0
  0
LINE
  8
0
 62
7
  6
DASHED
 10
5.328198051533948
 20
5.009999999999998
 30
0
 11
5.528198051533947
 21
5.209999999999997
 31
0
  0
LINE
  8
0
 62
7
  6
DASHED
 10
5.540330085889912
 20
5.009999999999998
 30
0
 11
5.740330085889911
 21
5.209999999999997
 31
0
  0
LINE
  8
0
 62
7
  6
DASHED
 10
5.752462120245876
 20
5.009999999999998
 30
0
 11
5.952462120245875
 21
5.209999999999997
 31
0
  0
LINE
  8
0
 62
7
  6
DASHED
 10
5.96459415460184
 20
5.009999999999998
 30
0
 11
6.164594154601839
 21
5.209999999999997
 31
0
  0
LINE
  8
0
 62
7
  6
DASHED
 10
6.176726188957804
 20
5.009999999999998
 30
0
 11
6.376726188957803
 21
5.209999999999997
 31
0
  0
LINE
  8
0
 62
7
  6
DASHED
 10
6.388858223313767
 20
5.009999999999998
 30
0
 11
6.588858223313767
 21
5.209999999999997
 31
0
  0
LINE
  8
0
 62
7
  6
DASHED
 10
6.600990257669731
 20
5.009999999999998
 30
0
 11
6.800990257669731
 21
5.209999999999997
 31
0
  0
LINE
  8
0
 62
7
  6
DASHED
 10
6.813122292025695
 20
5.009999999999998
 30
0
 11
7.013122292025694
 21
5.209999999999997
 31
0
  0
LINE
  8
0
 62
7
  6
DASHED
 10
7.025254326381659
 20
5.009999999999998
 30
0
 11
7.225254326381658
 21
5.209999999999997
 31
0
  0
LINE
  8
0
 62
7
  6
DASHED
 10
7.237386360737623
 20
5.009999999999998
 30
0
 11
7.400000000000005
 21
5.17261363926238
 31
0
  0
LINE
  8
0
 62
7
 10
3.115000000000006
 20
5.024188309203683
 30
0
 11
3.300811690796325
 21
5.209999999999996
 31
0
  0
LINE
  8
0
 62
7
 10
3.31294372515229
 20
5.009999999999998
 30
0
 11
3.51294372515229
 21
5.209999999999996
 31
0
  0
LINE
  8
0
 62
7
 10
3.525075759508254
 20
5.009999999999998
 30
0
 11
3.725075759508254
 21
5.209999999999996
 31
0
  0
LINE
  8
0
 62
7
 10
3.737207793864219
 20
5.009999999999998
 30
0
 11
3.937207793864218
 21
5.209999999999996
 31
0
  0
LINE
  8
0
 62
7
 10
3.949339828220183
 20
5.009999999999998
 30
0
 11
4.149339828220183
 21
5.209999999999996
 31
0
  0
LINE
  8
0
 62
7
 10
4.161471862576147
 20
5.009999999999998
 30
0
 11
4.361471862576146
 21
5.209999999999996
 31
0
  0
LINE
  8
0
 62
7
 10
4.373603896932111
 20
5.009999999999998
 30
0
 11
4.57360389693211
 21
5.209999999999996
 31
0
  0
LINE
  8
0
 62
7
 10
4.585735931288075
 20
5.009999999999998
 30
0
 11
4.785735931288074
 21
5.209999999999996
 31
0
  0
LINE
  8
0
 62
7
 10
4.797867965644039
 20
5.009999999999998
 30
0
 11
4.997867965644038
 21
5.209999999999996
 31
0
  0
LINE
  8
0
 62
7
 10
5.010000000000002
 20
5.009999999999998
 30
0
 11
5.210000000000002
 21
5.209999999999996
 31
0
  0
LINE
  8
0
 62
7
 10
5.222132034355966
 20
5.009999999999998
 30
0
 11
5.422132034355966
 21
5.209999999999996
 31
0
  0
LINE
  8
0
 62
7
 10
5.43426406871193
 20
5.009999999999998
 30
0
 11
5.634264068711929
 21
5.209999999999996
 31
0
  0
LINE
  8
0
 62
7
 10
5.646396103067894
 20
5.009999999999998
 30
0
 11
5.846396103067893
 21
5.209999999999996
 31
0
  0
LINE
  8
0
 62
7
 10
5.858528137423858
 20
5.009999999999998
 30
0
 11
6.058528137423857
 21
5.209999999999996
 31
0
  0
LINE
  8
0
 62
7
 10
6.070660171779822
 20
5.009999999999998
 30
0
 11
6.270660171779821
 21
5.209999999999996
 31
0
  0
LINE
  8
0
 62
7
 10
6.282792206135785
 20
5.009999999999998
 30
0
 11
6.482792206135785
 21
5.209999999999996
 31
0
  0
LINE
  8
0
 62
7
 10
6.494924240491749
 20
5.009999999999998
 30
0
 11
6.694924240491749
 21
5.209999999999996
 31
0
  0
LINE
  8
0
 62
7
 10
6.707056274847713
 20
5.009999999999998
 30
0
 11
6.907056274847712
 21
5.209999999999996
 31
0
  0
LINE
  8
0
 62
7
 10
6.919188309203677
 20
5.009999999999998
 30
0
 11
7.119188309203676
 21
5.209999999999996
 31
0
  0
LINE
  8
0
 62
7
 10
7.131320343559641
 20
5.009999999999998
 30
0
 11
7.33132034355964
 21
5.209999999999996
 31
0
  0
LINE
  8
0
 62
7
 10
7.343452377915605
 20
5.009999999999998
 30
0
 11
7.400000000000005
 21
5.066547622084398
 31
0
  0
ENDBLK
  8
0
  0
BLOCK
  8
0
  2
*X9
 70
1
 10
0
 20
0
 30
0
  0
LINE
  8
0
 62
7
  6
DASHED
 10
3.115000000000006
 20
7.887970773009201
 30
0
 11
3.187029226990812
 21
7.960000000000001
 31
0
  0
LINE
  8
0
 62
7
  6
DASHED
 10
3.199161261346777
 20
7.760000000000002
 30
0
 11
3.399161261346776
 21
7.960000000000001
 31
0
  0
LINE
  8
0
 62
7
  6
DASHED
 10
3.411293295702742
 20
7.760000000000002
 30
0
 11
3.61129329570274
 21
7.960000000000001
 31
0
  0
LINE
  8
0
 62
7
  6
DASHED
 10
3.623425330058706
 20
7.760000000000002
 30
0
 11
3.823425330058705
 21
7.960000000000001
 31
0
  0
LINE
  8
0
 62
7
  6
DASHED
 10
3.83555736441467
 20
7.760000000000002
 30
0
 11
4.035557364414669
 21
7.960000000000001
 31
0
  0
LINE
  8
0
 62
7
  6
DASHED
 10
4.047689398770634
 20
7.760000000000002
 30
0
 11
4.247689398770633
 21
7.960000000000001
 31
0
  0
LINE
  8
0
 62
7
  6
DASHED
 10
4.259821433126598
 20
7.760000000000002
 30
0
 11
4.459821433126597
 21
7.960000000000001
 31
0
  0
LINE
  8
0
 62
7
  6
DASHED
 10
4.471953467482562
 20
7.760000000000002
 30
0
 11
4.67195346748256
 21
7.960000000000001
 31
0
  0
LINE
  8
0
 62
7
  6
DASHED
 10
4.684085501838526
 20
7.760000000000002
 30
0
 11
4.884085501838524
 21
7.960000000000001
 31
0
  0
LINE
  8
0
 62
7
  6
DASHED
 10
4.89621753619449
 20
7.760000000000002
 30
0
 11
5.096217536194488
 21
7.960000000000001
 31
0
  0
LINE
  8
0
 62
7
  6
DASHED
 10
5.108349570550454
 20
7.760000000000002
 30
0
 11
5.308349570550452
 21
7.960000000000001
 31
0
  0
LINE
  8
0
 62
7
  6
DASHED
 10
5.320481604906417
 20
7.760000000000002
 30
0
 11
5.520481604906416
 21
7.960000000000001
 31
0
  0
LINE
  8
0
 62
7
  6
DASHED
 10
5.532613639262381
 20
7.760000000000002
 30
0
 11
5.73261363926238
 21
7.960000000000001
 31
0
  0
LINE
  8
0
 62
7
  6
DASHED
 10
5.744745673618345
 20
7.760000000000002
 30
0
 11
5.944745673618343
 21
7.960000000000001
 31
0
  0
LINE
  8
0
 62
7
  6
DASHED
 10
5.956877707974309
 20
7.760000000000002
 30
0
 11
6.156877707974307
 21
7.960000000000001
 31
0
  0
LINE
  8
0
 62
7
  6
DASHED
 10
6.169009742330273
 20
7.760000000000002
 30
0
 11
6.369009742330271
 21
7.960000000000001
 31
0
  0
LINE
  8
0
 62
7
  6
DASHED
 10
6.381141776686237
 20
7.760000000000002
 30
0
 11
6.581141776686235
 21
7.960000000000001
 31
0
  0
LINE
  8
0
 62
7
  6
DASHED
 10
6.5932738110422
 20
7.760000000000002
 30
0
 11
6.793273811042199
 21
7.960000000000001
 31
0
  0
LINE
  8
0
 62
7
  6
DASHED
 10
6.805405845398164
 20
7.760000000000002
 30
0
 11
7.005405845398163
 21
7.960000000000001
 31
0
  0
LINE
  8
0
 62
7
  6
DASHED
 10
7.017537879754128
 20
7.760000000000002
 30
0
 11
7.217537879754127
 21
7.960000000000001
 31
0
  0
LINE
  8
0
 62
7
  6
DASHED
 10
7.229669914110092
 20
7.760000000000002
 30
0
 11
7.400000000000006
 21
7.930330085889914
 31
0
  0
LINE
  8
0
 62
7
 10
3.115000000000006
 20
7.781904755831218
 30
0
 11
3.293095244168795
 21
7.960000000000002
 31
0
  0
LINE
  8
0
 62
7
 10
3.30522727852476
 20
7.760000000000002
 30
0
 11
3.505227278524759
 21
7.960000000000002
 31
0
  0
LINE
  8
0
 62
7
 10
3.517359312880724
 20
7.760000000000002
 30
0
 11
3.717359312880723
 21
7.960000000000002
 31
0
  0
LINE
  8
0
 62
7
 10
3.729491347236689
 20
7.760000000000002
 30
0
 11
3.929491347236687
 21
7.960000000000002
 31
0
  0
LINE
  8
0
 62
7
 10
3.941623381592653
 20
7.760000000000002
 30
0
 11
4.141623381592652
 21
7.960000000000002
 31
0
  0
LINE
  8
0
 62
7
 10
4.153755415948617
 20
7.760000000000002
 30
0
 11
4.353755415948616
 21
7.960000000000002
 31
0
  0
LINE
  8
0
 62
7
 10
4.365887450304581
 20
7.760000000000002
 30
0
 11
4.565887450304579
 21
7.960000000000002
 31
0
  0
LINE
  8
0
 62
7
 10
4.578019484660545
 20
7.760000000000002
 30
0
 11
4.778019484660543
 21
7.960000000000002
 31
0
  0
LINE
  8
0
 62
7
 10
4.790151519016509
 20
7.760000000000002
 30
0
 11
4.990151519016507
 21
7.960000000000002
 31
0
  0
LINE
  8
0
 62
7
 10
5.002283553372473
 20
7.760000000000002
 30
0
 11
5.202283553372471
 21
7.960000000000002
 31
0
  0
LINE
  8
0
 62
7
 10
5.214415587728436
 20
7.760000000000002
 30
0
 11
5.414415587728435
 21
7.960000000000002
 31
0
  0
LINE
  8
0
 62
7
 10
5.4265476220844
 20
7.760000000000002
 30
0
 11
5.626547622084399
 21
7.960000000000002
 31
0
  0
LINE
  8
0
 62
7
 10
5.638679656440364
 20
7.760000000000002
 30
0
 11
5.838679656440362
 21
7.960000000000002
 31
0
  0
LINE
  8
0
 62
7
 10
5.850811690796328
 20
7.760000000000002
 30
0
 11
6.050811690796326
 21
7.960000000000002
 31
0
  0
LINE
  8
0
 62
7
 10
6.062943725152292
 20
7.760000000000002
 30
0
 11
6.26294372515229
 21
7.960000000000002
 31
0
  0
LINE
  8
0
 62
7
 10
6.275075759508256
 20
7.760000000000002
 30
0
 11
6.475075759508254
 21
7.960000000000002
 31
0
  0
LINE
  8
0
 62
7
 10
6.487207793864219
 20
7.760000000000002
 30
0
 11
6.687207793864218
 21
7.960000000000002
 31
0
  0
LINE
  8
0
 62
7
 10
6.699339828220183
 20
7.760000000000002
 30
0
 11
6.899339828220182
 21
7.960000000000002
 31
0
  0
LINE
  8
0
 62
7
 10
6.911471862576147
 20
7.760000000000002
 30
0
 11
7.111471862576145
 21
7.960000000000002
 31
0
  0
LINE
  8
0
 62
7
 10
7.123603896932111
 20
7.760000000000002
 30
0
 11
7.323603896932109
 21
7.960000000000002
 31
0
  0
LINE
  8
0
 62
7
 10
7.335735931288075
 20
7.760000000000002
 30
0
 11
7.400000000000006
 21
7.824264068711932
 31
0
  0
ENDBLK
  8
0
  0
BLOCK
  8
0
  2
*X10
 70
1
 10
0
 20
0
 30
0
  0
LINE
  8
0
 62
7
 10
0.1499999999999999
 20
4.922970773009196
 30
0
 11
0.2370292269908045
 21
5.01
 31
0
  0
LINE
  8
0
 62
7
 10
0.2991612613467685
 20
4.859999999999999
 30
0
 11
0.3900000000000001
 21
4.95083873865323
 31
0
  0
LINE
  8
0
 62
7
 10
0.193095244168787
 20
4.859999999999999
 30
0
 11
0.3430952441687873
 21
5.01
 31
0
  0
ENDBLK
  8
0
  0
BLOCK
  8
0
  2
*X11
 70
1
 10
0
 20
0
 30
0
  0
LINE
  8
0
 62
7
 10
0.1499999999999999
 20
7.680687219636726
 30
0
 11
0.2293127803632706
 21
7.760000000000002
 31
0
  0
LINE
  8
0
 62
7
 10
0.1499999999999999
 20
7.468555185280762
 30
0
 11
0.3900000000000006
 21
7.708555185280762
 31
0
  0
LINE
  8
0
 62
7
 10
0.1499999999999999
 20
7.256423150924798
 30
0
 11
0.3900000000000006
 21
7.496423150924798
 31
0
  0
LINE
  8
0
 62
7
 10
0.1499999999999999
 20
7.044291116568834
 30
0
 11
0.3900000000000006
 21
7.284291116568834
 31
0
  0
LINE
  8
0
 62
7
 10
0.1499999999999999
 20
6.83215908221287
 30
0
 11
0.3900000000000006
 21
7.07215908221287
 31
0
  0
LINE
  8
0
 62
7
 10
0.1499999999999999
 20
6.620027047856906
 30
0
 11
0.3900000000000006
 21
6.860027047856907
 31
0
  0
LINE
  8
0
 62
7
 10
0.1499999999999999
 20
6.407895013500942
 30
0
 11
0.3900000000000006
 21
6.647895013500943
 31
0
  0
LINE
  8
0
 62
7
 10
0.1499999999999999
 20
6.195762979144979
 30
0
 11
0.3900000000000006
 21
6.435762979144979
 31
0
  0
LINE
  8
0
 62
7
 10
0.1499999999999999
 20
5.983630944789015
 30
0
 11
0.3900000000000006
 21
6.223630944789015
 31
0
  0
LINE
  8
0
 62
7
 10
0.1499999999999999
 20
5.771498910433051
 30
0
 11
0.3900000000000006
 21
6.011498910433051
 31
0
  0
LINE
  8
0
 62
7
 10
0.1499999999999999
 20
5.559366876077087
 30
0
 11
0.3900000000000006
 21
5.799366876077087
 31
0
  0
LINE
  8
0
 62
7
 10
0.1499999999999999
 20
5.347234841721123
 30
0
 11
0.3900000000000006
 21
5.587234841721124
 31
0
  0
LINE
  8
0
 62
7
 10
0.2248971926348382
 20
5.209999999999997
 30
0
 11
0.3900000000000006
 21
5.37510280736516
 31
0
  0
LINE
  8
0
 62
7
 10
0.1499999999999999
 20
7.574621202458744
 30
0
 11
0.3353787975412539
 21
7.760000000000002
 31
0
  0
LINE
  8
0
 62
7
 10
0.1499999999999999
 20
7.36248916810278
 30
0
 11
0.3900000000000001
 21
7.602489168102779
 31
0
  0
LINE
  8
0
 62
7
 10
0.1499999999999999
 20
7.150357133746816
 30
0
 11
0.3900000000000001
 21
7.390357133746815
 31
0
  0
LINE
  8
0
 62
7
 10
0.1499999999999999
 20
6.938225099390852
 30
0
 11
0.3900000000000001
 21
7.178225099390851
 31
0
  0
LINE
  8
0
 62
7
 10
0.1499999999999999
 20
6.726093065034888
 30
0
 11
0.3900000000000001
 21
6.966093065034888
 31
0
  0
LINE
  8
0
 62
7
 10
0.1499999999999999
 20
6.513961030678924
 30
0
 11
0.3900000000000001
 21
6.753961030678924
 31
0
  0
LINE
  8
0
 62
7
 10
0.1499999999999999
 20
6.301828996322961
 30
0
 11
0.3900000000000001
 21
6.54182899632296
 31
0
  0
LINE
  8
0
 62
7
 10
0.1499999999999999
 20
6.089696961966997
 30
0
 11
0.3900000000000001
 21
6.329696961966996
 31
0
  0
LINE
  8
0
 62
7
 10
0.1499999999999999
 20
5.877564927611033
 30
0
 11
0.3900000000000001
 21
6.117564927611032
 31
0
  0
LINE
  8
0
 62
7
 10
0.1499999999999999
 20
5.665432893255069
 30
0
 11
0.3900000000000001
 21
5.905432893255068
 31
0
  0
LINE
  8
0
 62
7
 10
0.1499999999999999
 20
5.453300858899105
 30
0
 11
0.3900000000000001
 21
5.693300858899105
 31
0
  0
LINE
  8
0
 62
7
 10
0.1499999999999999
 20
5.241168824543141
 30
0
 11
0.3900000000000001
 21
5.481168824543141
 31
0
  0
LINE
  8
0
 62
7
 10
0.3309632098128201
 20
5.209999999999997
 30
0
 11
0.3900000000000001
 21
5.269036790187177
 31
0
  0
ENDBLK
  8
0
  0
BLOCK
  8
0
  2
*X12
 70
1
 10
0
 20
0
 30
0
  0
LINE
  8
0
 62
7
 10
0.1499999999999999
 20
8.104951288348659
 30
0
 11
0.1550487116513417
 21
8.110000000000001
 31
0
  0
LINE
  8
0
 62
7
 10
0.2171807460073056
 20
7.960000000000001
 30
0
 11
0.367180746007306
 21
8.110000000000001
 31
0
  0
LINE
  8
0
 62
7
 10
0.1500000000000004
 20
7.998885271170677
 30
0
 11
0.261114728829325
 21
8.110000000000001
 31
0
  0
LINE
  8
0
 62
7
 10
0.3232467631852889
 20
7.960000000000001
 30
0
 11
0.3899999999999992
 21
8.026753236814711
 31
0
  0
ENDBLK
  8
0
  0
BLOCK
  8
0
  2
*X13
 70
1
 10
0
 20
0
 30
0
  0
LINE
  8
0
 62
7
  6
DASHED
 10
1.54
 20
5.04017856687341
 30
0
 11
1.709821433126588
 21
5.209999999999997
 31
0
  0
LINE
  8
0
 62
7
  6
DASHED
 10
1.721953467482552
 20
5.009999999999998
 30
0
 11
1.84
 21
5.128046532517446
 31
0
  0
LINE
  8
0
 62
7
 10
1.54
 20
5.146244584051392
 30
0
 11
1.603755415948605
 21
5.209999999999997
 31
0
  0
LINE
  8
0
 62
7
 10
1.615887450304571
 20
5.009999999999998
 30
0
 11
1.81588745030457
 21
5.209999999999997
 31
0
  0
LINE
  8
0
 62
7
 10
1.828019484660535
 20
5.009999999999998
 30
0
 11
1.84
 21
5.021980515339463
 31
0
  0
ENDBLK
  8
0
  0
BLOCK
  8
0
  2
*X14
 70
1
 10
0
 20
0
 30
0
  0
LINE
  8
0
 62
7
  6
DASHED
 10
1.54
 20
7.797895013500944
 30
0
 11
1.702104986499057
 21
7.960000000000001
 31
0
  0
LINE
  8
0
 62
7
  6
DASHED
 10
1.714237020855021
 20
7.760000000000002
 30
0
 11
1.840000000000001
 21
7.88576297914498
 31
0
  0
LINE
  8
0
 62
7
 10
1.540000000000001
 20
7.903961030678928
 30
0
 11
1.596038969321074
 21
7.960000000000001
 31
0
  0
LINE
  8
0
 62
7
 10
1.60817100367704
 20
7.760000000000002
 30
0
 11
1.808171003677038
 21
7.960000000000001
 31
0
  0
LINE
  8
0
 62
7
 10
1.820303038033004
 20
7.760000000000002
 30
0
 11
1.84
 21
7.779696961966998
 31
0
  0
ENDBLK
  8
0
  0
BLOCK
  8
0
  2
*X15
 70
1
 10
0
 20
0
 30
0
  0
LINE
  8
0
 62
7
  6
DASHED
 10
0.1500000000000012
 20
7.892819253992695
 30
0
 11
0.2171807460073056
 21
7.960000000000001
 31
0
  0
LINE
  8
0
 62
7
  6
DASHED
 10
0.229312780363272
 20
7.760000000000002
 30
0
 11
0.3900000000000001
 21
7.920687219636729
 31
0
  0
LINE
  8
0
 62
7
 10
0.1499999999999999
 20
7.786753236814713
 30
0
 11
0.3232467631852884
 21
7.960000000000001
 31
0
  0
LINE
  8
0
 62
7
 10
0.3353787975412543
 20
7.760000000000002
 30
0
 11
0.3900000000000001
 21
7.814621202458748
 31
0
  0
ENDBLK
  8
0
  0
BLOCK
  8
0
  2
*X16
 70
1
 10
0
 20
0
 30
0
  0
LINE
  8
0
 62
7
  6
DASHED
 10
0.1499999999999999
 20
5.135102807365159
 30
0
 11
0.2248971926348378
 21
5.209999999999997
 31
0
  0
LINE
  8
0
 62
7
  6
DASHED
 10
0.237029226990805
 20
5.01
 30
0
 11
0.3900000000000001
 21
5.162970773009195
 31
0
  0
LINE
  8
0
 62
7
 10
0.1499999999999999
 20
5.029036790187178
 30
0
 11
0.3309632098128197
 21
5.209999999999997
 31
0
  0
LINE
  8
0
 62
7
 10
0.3430952441687873
 20
5.01
 30
0
 11
0.3899999999999997
 21
5.056904755831212
 31
0
  0
ENDBLK
  8
0
  0
BLOCK
  8
0
  2
*D0
 70
1
 10
0
 20
0
 30
0
  0
LINE
  8
0
 62
7
 10
7.82831200093667
 20
7.20426812936461
 30
0
 11
7.82831200093667
 21
7.960000000000001
 31
0
  0
LINE
  8
0
 62
7
 10
7.82831200093667
 20
5.209999999999997
 30
0
 11
7.82831200093667
 21
6.124268129364611
 31
0
  0
LINE
  8
0
 62
7
 10
7.400000000000004
 20
7.960000000000001
 30
0
 11
7.87831200093667
 21
7.960000000000001
 31
0
  0
LINE
  8
0
 62
7
 10
7.400000000000004
 20
5.209999999999997
 30
0
 11
7.87831200093667
 21
5.209999999999997
 31
0
  0
LINE
  8
0
 62
7
 10
7.792956661877342
 20
5.245355339059325
 30
0
 11
7.863667339995997
 21
5.17464466094067
 31
0
  0
LINE
  8
0
 62
7
 10
7.863667339995997
 20
7.924644660940674
 30
0
 11
7.792956661877342
 21
7.995355339059328
 31
0
  0
TEXT
  8
0
 62
7
 10
7.79831200093667
 20
6.526768129364611
 30
0
 40
0.1
  1
2,75
 50
90
 41
0.9
  0
TEXT
  8
0
 62
7
 10
7.95831200093667
 20
6.324268129364611
 30
0
 40
0.1
  1
(260-280)
 50
90
 41
0.9
  0
ENDBLK
  8
0
  0
BLOCK
  8
0
  2
*D1
 70
1
 10
0
 20
0
 30
0
  0
LINE
  8
0
 62
7
 10
5.57536485564628
 20
8.44090223343545
 30
0
 11
7.075000000000005
 21
8.44090223343545
 31
0
  0
LINE
  8
0
 62
7
 10
3.440000000000005
 20
8.44090223343545
 30
0
 11
4.90036485564628
 21
8.44090223343545
 31
0
  0
LINE
  8
0
 62
7
 10
7.075000000000005
 20
8.110000000000001
 30
0
 11
7.075000000000005
 21
8.490902233435451
 31
0
  0
LINE
  8
0
 62
7
 10
3.440000000000005
 20
8.110000000000001
 30
0
 11
3.440000000000005
 21
8.490902233435451
 31
0
  0
LINE
  8
0
 62
7
 10
7.039644660940677
 20
8.405546894376123
 30
0
 11
7.110355339059332
 21
8.476257572494777
 31
0
  0
LINE
  8
0
 62
7
 10
3.475355339059332
 20
8.476257572494777
 30
0
 11
3.404644660940678
 21
8.405546894376123
 31
0
  0
TEXT
  8
0
 62
7
 10
5.10036485564628
 20
8.39590223343545
 30
0
 40
0.1
  1
3,64
 41
0.9
  0
ENDBLK
  8
0
  0
BLOCK
  8
0
  2
*D2
 70
1
 10
0
 20
0
 30
0
  0
LINE
  8
0
 62
7
 10
2.91104728708899
 20
1.191068819196039
 30
0
 11
2.91104728708899
 21
1.41
 31
0
  0
LINE
  8
0
 62
7
 10
2.91104728708899
 20
0.1599999999999999
 30
0
 11
2.91104728708899
 21
0.446068819196039
 31
0
  0
LINE
  8
0
 62
7
 10
3.265000000000005
 20
1.41
 30
0
 11
2.86104728708899
 21
1.41
 31
0
  0
LINE
  8
0
 62
7
 10
3.265000000000005
 20
0.1599999999999999
 30
0
 11
2.86104728708899
 21
0.1599999999999999
 31
0
  0
LINE
  8
0
 62
7
 10
2.875691948029663
 20
0.1953553390593273
 30
0
 11
2.946402626148317
 21
0.1246446609406726
 31
0
  0
LINE
  8
0
 62
7
 10
2.946402626148317
 20
1.374644660940673
 30
0
 11
2.875691948029663
 21
1.445355339059327
 31
0
  0
TEXT
  8
0
 62
7
 10
2.95604728708899
 20
0.6960688191960389
 30
0
 40
0.1
  1
1,25
 50
90
 41
0.9
  0
ENDBLK
  8
0
  0
BLOCK
  8
0
  2
*D3
 70
1
 10
0
 20
0
 30
0
  0
LINE
  8
0
 62
7
 10
5.63682701115641
 20
2.28572472449325
 30
0
 11
7.075000000000005
 21
2.28572472449325
 31
0
  0
LINE
  8
0
 62
7
 10
3.440000000000005
 20
2.28572472449325
 30
0
 11
4.86182701115641
 21
2.28572472449325
 31
0
  0
LINE
  8
0
 62
7
 10
7.075000000000005
 20
1.929999999999998
 30
0
 11
7.075000000000005
 21
2.33572472449325
 31
0
  0
LINE
  8
0
 62
7
 10
3.440000000000005
 20
1.929999999999998
 30
0
 11
3.440000000000005
 21
2.33572472449325
 31
0
  0
LINE
  8
0
 62
7
 10
3.475355339059332
 20
2.321080063552577
 30
0
 11
3.404644660940678
 21
2.250369385433923
 31
0
  0
LINE
  8
0
 62
7
 10
7.039644660940677
 20
2.250369385433923
 30
0
 11
7.110355339059332
 21
2.321080063552577
 31
0
  0
TEXT
  8
0
 62
7
 10
5.11182701115641
 20
2.24072472449325
 30
0
 40
0.1
  1
3,64
 41
0.9
  0
ENDBLK
  8
0
  0
BLOCK
  8
0
  2
*D4
 70
1
 10
0
 20
0
 30
0
  0
LINE
  8
0
 62
7
 10
7.57614457971371
 20
1.198993130216308
 30
0
 11
7.57614457971371
 21
1.41
 31
0
  0
LINE
  8
0
 62
7
 10
7.57614457971371
 20
0.26
 30
0
 11
7.57614457971371
 21
0.483993130216308
 31
0
  0
LINE
  8
0
 62
7
 10
7.250000000000004
 20
1.41
 30
0
 11
7.62614457971371
 21
1.41
 31
0
  0
LINE
  8
0
 62
7
 10
7.250000000000004
 20
0.26
 30
0
 11
7.62614457971371
 21
0.26
 31
0
  0
LINE
  8
0
 62
7
 10
7.611499918773037
 20
1.374644660940673
 30
0
 11
7.540789240654383
 21
1.445355339059327
 31
0
  0
LINE
  8
0
 62
7
 10
7.540789240654383
 20
0.2953553390593274
 30
0
 11
7.611499918773037
 21
0.2246446609406726
 31
0
  0
TEXT
  8
0
 62
7
 10
7.62114457971371
 20
0.733993130216308
 30
0
 40
0.1
  1
1,15
 50
90
 41
0.9
  0
ENDBLK
  8
0
  0
ENDSEC
  0
SECTION
  2
ENTITIES
  0
INSERT
  8
0
  2
*X0
 10
0
 20
0
 30
0
  0
INSERT
  8
0
  2
*X1
 10
0
 20
0
 30
0
  0
INSERT
  8
0
  2
*X2
 10
0
 20
0
 30
0
  0
INSERT
  8
0
  2
*X3
 10
0
 20
0
 30
0
  0
INSERT
  8
0
  2
*X4
 10
0
 20
0
 30
0
  0
INSERT
  8
0
  2
*X5
 10
0
 20
0
 30
0
  0
INSERT
  8
0
  2
*X6
 10
0
 20
0
 30
0
  0
INSERT
  8
0
  2
*X7
 10
0
 20
0
 30
0
  0
INSERT
  8
0
  2
*X8
 10
0
 20
0
 30
0
  0
INSERT
  8
0
  2
*X9
 10
0
 20
0
 30
0
  0
INSERT
  8
0
  2
*X10
 10
0
 20
0
 30
0
  0
INSERT
  8
0
  2
*X11
 10
0
 20
0
 30
0
  0
INSERT
  8
0
  2
*X12
 10
0
 20
0
 30
0
  0
INSERT
  8
0
  2
*X13
 10
0
 20
0
 30
0
  0
INSERT
  8
0
  2
*X14
 10
0
 20
0
 30
0
  0
INSERT
  8
0
  2
*X15
 10
0
 20
0
 30
0
  0
INSERT
  8
0
  2
*X16
 10
0
 20
0
 30
0
  0
LINE
  8
0
 62
7
 10
7.250000000000004
 20
5.01
 30
0
 11
7.400000000000005
 21
5.009999999999998
 31
0
  0
LINE
  8
0
 62
7
 10
7.250000000000004
 20
5.209999999999997
 30
0
 11
7.400000000000005
 21
5.209999999999997
 31
0
  0
LINE
  8
0
 62
7
 10
7.250000000000004
 20
7.760000000000002
 30
0
 11
7.400000000000005
 21
7.760000000000002
 31
0
  0
LINE
  8
0
 62
7
 10
7.250000000000004
 20
7.960000000000001
 30
0
 11
7.400000000000005
 21
7.960000000000001
 31
0
  0
LINE
  8
0
 62
7
 10
7.250000000000004
 20
5.01
 30
0
 11
7.250000000000004
 21
4.859999999999999
 31
0
  0
LINE
  8
0
 62
7
 10
7.075000000000005
 20
5.01
 30
0
 11
7.250000000000004
 21
5.01
 31
0
  0
LINE
  8
0
 62
7
 10
7.250000000000004
 20
5.309999999999997
 30
0
 11
7.250000000000004
 21
5.209999999999997
 31
0
  0
LINE
  8
0
 62
7
 10
7.075000000000005
 20
5.209999999999997
 30
0
 11
7.250000000000004
 21
5.209999999999997
 31
0
  0
LINE
  8
0
 62
7
 10
7.075000000000005
 20
7.760000000000002
 30
0
 11
7.250000000000004
 21
7.760000000000002
 31
0
  0
LINE
  8
0
 62
7
 10
7.250000000000004
 20
8.06
 30
0
 11
7.250000000000004
 21
7.960000000000001
 31
0
  0
LINE
  8
0
 62
7
 10
7.075000000000005
 20
7.960000000000001
 30
0
 11
7.250000000000004
 21
7.960000000000001
 31
0
  0
LINE
  8
0
 62
7
 10
7.075000000000005
 20
5.01
 30
0
 11
7.075000000000005
 21
4.859999999999999
 31
0
  0
LINE
  8
0
 62
7
 10
3.440000000000005
 20
5.01
 30
0
 11
7.075000000000005
 21
5.01
 31
0
  0
LINE
  8
0
 62
7
 10
7.075000000000005
 20
5.309999999999997
 30
0
 11
7.075000000000005
 21
5.209999999999997
 31
0
  0
LINE
  8
0
 62
7
 10
3.440000000000005
 20
5.209999999999997
 30
0
 11
7.075000000000005
 21
5.209999999999997
 31
0
  0
LINE
  8
0
 62
7
 10
3.440000000000005
 20
7.760000000000002
 30
0
 11
7.075000000000005
 21
7.760000000000002
 31
0
  0
LINE
  8
0
 62
7
 10
7.075000000000005
 20
8.06
 30
0
 11
7.075000000000005
 21
7.960000000000001
 31
0
  0
LINE
  8
0
 62
7
 10
3.440000000000005
 20
7.960000000000001
 30
0
 11
7.075000000000005
 21
7.960000000000001
 31
0
  0
LINE
  8
0
 62
7
 10
3.440000000000005
 20
5.01
 30
0
 11
3.440000000000005
 21
4.859999999999999
 31
0
  0
LINE
  8
0
 62
7
 10
3.265000000000005
 20
5.01
 30
0
 11
3.440000000000005
 21
5.01
 31
0
  0
LINE
  8
0
 62
7
 10
3.440000000000005
 20
5.309999999999997
 30
0
 11
3.440000000000005
 21
5.209999999999997
 31
0
  0
LINE
  8
0
 62
7
 10
3.265000000000005
 20
5.209999999999997
 30
0
 11
3.440000000000005
 21
5.209999999999997
 31
0
  0
LINE
  8
0
 62
7
 10
3.265000000000005
 20
7.760000000000002
 30
0
 11
3.440000000000005
 21
7.760000000000002
 31
0
  0
LINE
  8
0
 62
7
 10
3.440000000000005
 20
8.06
 30
0
 11
3.440000000000005
 21
7.960000000000001
 31
0
  0
LINE
  8
0
 62
7
 10
3.265000000000005
 20
7.960000000000001
 30
0
 11
3.440000000000005
 21
7.960000000000001
 31
0
  0
LINE
  8
0
 62
7
 10
3.265000000000005
 20
5.01
 30
0
 11
3.265000000000005
 21
4.859999999999999
 31
0
  0
LINE
  8
0
 62
7
 10
3.115000000000006
 20
5.009999999999998
 30
0
 11
3.265000000000005
 21
5.01
 31
0
  0
LINE
  8
0
 62
7
 10
3.265000000000005
 20
5.309999999999997
 30
0
 11
3.265000000000005
 21
5.209999999999997
 31
0
  0
LINE
  8
0
 62
7
 10
3.115000000000006
 20
5.209999999999997
 30
0
 11
3.265000000000005
 21
5.209999999999997
 31
0
  0
LINE
  8
0
 62
7
 10
3.115000000000006
 20
7.760000000000002
 30
0
 11
3.265000000000005
 21
7.760000000000002
 31
0
  0
LINE
  8
0
 62
7
 10
3.265000000000005
 20
8.06
 30
0
 11
3.265000000000005
 21
7.960000000000001
 31
0
  0
LINE
  8
0
 62
7
 10
3.115000000000006
 20
7.960000000000001
 30
0
 11
3.265000000000005
 21
7.960000000000001
 31
0
  0
LINE
  8
0
 62
7
  6
DASHDOT
 10
7.400000000000005
 20
5.009999999999998
 30
0
 11
7.400000000000005
 21
4.959999999999998
 31
0
  0
LINE
  8
0
 62
7
  6
DASHDOT
 10
7.400000000000005
 20
7.760000000000002
 30
0
 11
7.400000000000005
 21
7.710000000000001
 31
0
  0
LINE
  8
0
 62
7
  6
DASHDOT
 10
3.115000000000006
 20
5.009999999999998
 30
0
 11
3.115000000000006
 21
4.959999999999998
 31
0
  0
LINE
  8
0
 62
7
  6
DASHDOT
 10
3.115000000000006
 20
7.760000000000002
 30
0
 11
3.115000000000006
 21
7.710000000000001
 31
0
  0
LINE
  8
0
 62
7
  6
DASHDOT
 10
7.250000000000004
 20
8.110000000000001
 30
0
 11
7.300000000000004
 21
8.110000000000001
 31
0
  0
LINE
  8
0
 62
7
  6
DASHDOT
 10
7.250000000000004
 20
4.859999999999999
 30
0
 11
7.300000000000004
 21
4.859999999999999
 31
0
  0
LINE
  8
0
 62
7
  6
DASHDOT
 10
3.440000000000005
 20
8.110000000000001
 30
0
 11
3.490000000000005
 21
8.110000000000001
 31
0
  0
LINE
  8
0
 62
7
  6
DASHDOT
 10
3.440000000000005
 20
4.859999999999999
 30
0
 11
3.490000000000005
 21
4.859999999999999
 31
0
  0
LINE
  8
0
 62
7
 10
7.250000000000004
 20
5.309999999999997
 30
0
 11
7.400000000000005
 21
5.309999999999997
 31
0
  0
LINE
  8
0
 62
7
 10
7.250000000000004
 20
7.760000000000002
 30
0
 11
7.250000000000004
 21
5.309999999999997
 31
0
  0
LINE
  8
0
 62
7
  6
DASHDOT
 10
7.400000000000005
 20
5.359999999999997
 30
0
 11
7.400000000000005
 21
5.309999999999997
 31
0
  0
LINE
  8
0
 62
7
 10
3.440000000000005
 20
5.309999999999997
 30
0
 11
7.075000000000005
 21
5.309999999999997
 31
0
  0
LINE
  8
0
 62
7
 10
7.075000000000005
 20
7.760000000000002
 30
0
 11
7.075000000000005
 21
5.309999999999997
 31
0
  0
LINE
  8
0
 62
7
 10
3.440000000000005
 20
7.760000000000002
 30
0
 11
3.440000000000005
 21
5.309999999999997
 31
0
  0
LINE
  8
0
 62
7
 10
3.115000000000006
 20
5.309999999999997
 30
0
 11
3.265000000000005
 21
5.309999999999997
 31
0
  0
LINE
  8
0
 62
7
 10
3.265000000000005
 20
7.760000000000002
 30
0
 11
3.265000000000005
 21
5.309999999999997
 31
0
  0
LINE
  8
0
 62
7
  6
DASHDOT
 10
3.115000000000006
 20
5.359999999999997
 30
0
 11
3.115000000000006
 21
5.309999999999997
 31
0
  0
LINE
  8
0
 62
7
 10
7.250000000000004
 20
8.06
 30
0
 11
7.400000000000005
 21
8.06
 31
0
  0
LINE
  8
0
 62
7
 10
7.250000000000004
 20
8.110000000000001
 30
0
 11
7.250000000000004
 21
8.06
 31
0
  0
LINE
  8
0
 62
7
  6
DASHDOT
 10
7.400000000000005
 20
8.110000000000001
 30
0
 11
7.400000000000005
 21
8.06
 31
0
  0
LINE
  8
0
 62
7
 10
3.440000000000005
 20
8.06
 30
0
 11
7.075000000000005
 21
8.06
 31
0
  0
LINE
  8
0
 62
7
 10
7.075000000000005
 20
8.110000000000001
 30
0
 11
7.075000000000005
 21
8.06
 31
0
  0
LINE
  8
0
 62
7
 10
3.440000000000005
 20
8.110000000000001
 30
0
 11
3.440000000000005
 21
8.06
 31
0
  0
LINE
  8
0
 62
7
 10
3.115000000000006
 20
8.06
 30
0
 11
3.265000000000005
 21
8.06
 31
0
  0
LINE
  8
0
 62
7
 10
3.265000000000005
 20
8.110000000000001
 30
0
 11
3.265000000000005
 21
8.06
 31
0
  0
LINE
  8
0
 62
7
  6
DASHDOT
 10
3.115000000000006
 20
8.110000000000001
 30
0
 11
3.115000000000006
 21
8.06
 31
0
  0
LINE
  8
0
 62
7
  6
DASHDOT
 10
3.115000000000006
 20
5.209999999999997
 30
0
 11
3.115000000000006
 21
5.009999999999998
 31
0
  0
LINE
  8
0
 62
7
  6
DASHDOT
 10
3.115000000000006
 20
5.309999999999997
 30
0
 11
3.115000000000006
 21
5.209999999999997
 31
0
  0
LINE
  8
0
 62
7
  6
DASHDOT
 10
3.265000000000005
 20
4.859999999999999
 30
0
 11
3.440000000000005
 21
4.859999999999999
 31
0
  0
LINE
  8
0
 62
7
  6
DASHDOT
 10
3.215000000000005
 20
4.859999999999999
 30
0
 11
3.265000000000005
 21
4.859999999999999
 31
0
  0
LINE
  8
0
 62
7
  6
DASHDOT
 10
7.400000000000005
 20
5.209999999999997
 30
0
 11
7.400000000000005
 21
5.009999999999998
 31
0
  0
LINE
  8
0
 62
7
  6
DASHDOT
 10
7.400000000000005
 20
5.309999999999997
 30
0
 11
7.400000000000005
 21
5.209999999999997
 31
0
  0
LINE
  8
0
 62
7
  6
DASHDOT
 10
7.075000000000005
 20
4.859999999999999
 30
0
 11
7.250000000000004
 21
4.859999999999999
 31
0
  0
LINE
  8
0
 62
7
  6
DASHDOT
 10
7.025000000000005
 20
4.859999999999999
 30
0
 11
7.075000000000005
 21
4.859999999999999
 31
0
  0
LINE
  8
0
 62
7
  6
DASHDOT
 10
7.400000000000005
 20
7.960000000000001
 30
0
 11
7.400000000000005
 21
7.760000000000002
 31
0
  0
LINE
  8
0
 62
7
  6
DASHDOT
 10
7.400000000000005
 20
8.06
 30
0
 11
7.400000000000005
 21
7.960000000000001
 31
0
  0
LINE
  8
0
 62
7
  6
DASHDOT
 10
7.075000000000005
 20
8.110000000000001
 30
0
 11
7.250000000000004
 21
8.110000000000001
 31
0
  0
LINE
  8
0
 62
7
  6
DASHDOT
 10
7.025000000000005
 20
8.110000000000001
 30
0
 11
7.075000000000005
 21
8.110000000000001
 31
0
  0
LINE
  8
0
 62
7
  6
DASHDOT
 10
3.115000000000006
 20
7.960000000000001
 30
0
 11
3.115000000000006
 21
7.760000000000002
 31
0
  0
LINE
  8
0
 62
7
  6
DASHDOT
 10
3.115000000000006
 20
8.06
 30
0
 11
3.115000000000006
 21
7.960000000000001
 31
0
  0
LINE
  8
0
 62
7
  6
DASHDOT
 10
3.265000000000005
 20
8.110000000000001
 30
0
 11
3.440000000000005
 21
8.110000000000001
 31
0
  0
LINE
  8
0
 62
7
  6
DASHDOT
 10
3.215000000000005
 20
8.110000000000001
 30
0
 11
3.265000000000005
 21
8.110000000000001
 31
0
  0
LINE
  8
0
 62
7
 10
0.1500000000000001
 20
4.859999999999999
 30
0
 11
0.1500000000000001
 21
5.01
 31
0
  0
LINE
  8
0
 62
7
 10
0.3900000000000001
 20
8.110000000000001
 30
0
 11
0.3900000000000001
 21
7.960000000000001
 31
0
  0
LINE
  8
0
 62
7
 10
0.1500000000000001
 20
7.960000000000001
 30
0
 11
0.3900000000000001
 21
7.960000000000001
 31
0
  0
LINE
  8
0
 62
7
 10
0.1500000000000001
 20
7.960000000000001
 30
0
 11
0.1500000000000001
 21
8.110000000000001
 31
0
  0
LINE
  8
0
 62
7
 10
0.3900000000000001
 20
7.960000000000001
 30
0
 11
0.3900000000000001
 21
7.760000000000002
 31
0
  0
LINE
  8
0
 62
7
 10
0.1500000000000001
 20
7.760000000000002
 30
0
 11
0.3900000000000001
 21
7.760000000000002
 31
0
  0
LINE
  8
0
 62
7
 10
0.1500000000000001
 20
7.760000000000002
 30
0
 11
0.1500000000000001
 21
7.960000000000001
 31
0
  0
LINE
  8
0
 62
7
 10
0.3900000000000001
 20
7.760000000000002
 30
0
 11
0.3900000000000001
 21
5.209999999999997
 31
0
  0
LINE
  8
0
 62
7
 10
0.1500000000000001
 20
5.209999999999997
 30
0
 11
0.3900000000000001
 21
5.209999999999997
 31
0
  0
LINE
  8
0
 62
7
 10
0.1500000000000001
 20
5.209999999999997
 30
0
 11
0.1500000000000001
 21
7.760000000000002
 31
0
  0
LINE
  8
0
 62
7
 10
0.3900000000000001
 20
5.209999999999997
 30
0
 11
0.3900000000000001
 21
5.01
 31
0
  0
LINE
  8
0
 62
7
 10
0.1500000000000001
 20
5.01
 30
0
 11
0.3900000000000001
 21
5.01
 31
0
  0
LINE
  8
0
 62
7
 10
0.1500000000000001
 20
5.01
 30
0
 11
0.1500000000000001
 21
5.209999999999997
 31
0
  0
LINE
  8
0
 62
7
 10
0.3900000000000001
 20
5.01
 30
0
 11
0.3900000000000001
 21
4.859999999999999
 31
0
  0
LINE
  8
0
 62
7
 10
1.54
 20
7.960000000000001
 30
0
 11
1.54
 21
7.760000000000002
 31
0
  0
LINE
  8
0
 62
7
 10
1.54
 20
7.760000000000002
 30
0
 11
1.84
 21
7.760000000000002
 31
0
  0
LINE
  8
0
 62
7
 10
1.54
 20
7.960000000000001
 30
0
 11
1.84
 21
7.960000000000001
 31
0
  0
LINE
  8
0
 62
7
 10
1.54
 20
5.209999999999997
 30
0
 11
1.84
 21
5.209999999999997
 31
0
  0
LINE
  8
0
 62
7
 10
1.54
 20
5.209999999999997
 30
0
 11
1.54
 21
5.009999999999998
 31
0
  0
LINE
  8
0
 62
7
 10
1.54
 20
5.009999999999998
 30
0
 11
1.84
 21
5.009999999999998
 31
0
  0
LINE
  8
0
 62
7
  6
DASHDOT
 10
0.1000000000000001
 20
8.110000000000001
 30
0
 11
0.1500000000000001
 21
8.110000000000001
 31
0
  0
LINE
  8
0
 62
7
  6
DASHDOT
 10
1.84
 20
8.110000000000001
 30
0
 11
1.84
 21
8.06
 31
0
  0
LINE
  8
0
 62
7
  6
DASHDOT
 10
1.84
 20
4.959999999999998
 30
0
 11
1.84
 21
5.009999999999998
 31
0
  0
LINE
  8
0
 62
7
  6
DASHDOT
 10
0.1000000000000001
 20
4.859999999999999
 30
0
 11
0.1500000000000001
 21
4.859999999999999
 31
0
  0
LINE
  8
0
 62
7
 10
1.54
 20
5.309999999999997
 30
0
 11
1.84
 21
5.309999999999997
 31
0
  0
LINE
  8
0
 62
7
  6
DASHDOT
 10
1.84
 20
5.309999999999997
 30
0
 11
1.84
 21
5.359999999999997
 31
0
  0
LINE
  8
0
 62
7
 10
1.54
 20
8.06
 30
0
 11
1.84
 21
8.06
 31
0
  0
LINE
  8
0
 62
7
  6
DASHDOT
 10
1.84
 20
8.06
 30
0
 11
1.84
 21
7.960000000000001
 31
0
  0
LINE
  8
0
 62
7
  6
DASHDOT
 10
1.84
 20
5.209999999999997
 30
0
 11
1.84
 21
5.309999999999997
 31
0
  0
LINE
  8
0
 62
7
  6
DASHDOT
 10
1.84
 20
5.009999999999998
 30
0
 11
1.84
 21
5.209999999999997
 31
0
  0
LINE
  8
0
 62
7
  6
DASHDOT
 10
0.1500000000000001
 20
4.859999999999999
 30
0
 11
0.3900000000000001
 21
4.859999999999999
 31
0
  0
LINE
  8
0
 62
7
  6
DASHDOT
 10
0.3900000000000001
 20
4.859999999999999
 30
0
 11
0.4400000000000001
 21
4.859999999999999
 31
0
  0
LINE
  8
0
 62
7
  6
DASHDOT
 10
0.3900000000000001
 20
8.110000000000001
 30
0
 11
0.4400000000000001
 21
8.110000000000001
 31
0
  0
LINE
  8
0
 62
7
  6
DASHDOT
 10
0.1500000000000001
 20
8.110000000000001
 30
0
 11
0.3900000000000001
 21
8.110000000000001
 31
0
  0
LINE
  8
0
 62
7
  6
DASHDOT
 10
1.84
 20
7.760000000000002
 30
0
 11
1.84
 21
7.710000000000001
 31
0
  0
LINE
  8
0
 62
7
  6
DASHDOT
 10
1.84
 20
7.960000000000001
 30
0
 11
1.84
 21
7.760000000000002
 31
0
  0
LINE
  8
0
 62
7
  6
DASHED
 10
0.3900000000000001
 20
7.960000000000001
 30
0
 11
1.54
 21
7.960000000000001
 31
0
  0
LINE
  8
0
 62
7
  6
DASHED
 10
0.3900000000000001
 20
7.760000000000002
 30
0
 11
1.54
 21
7.760000000000002
 31
0
  0
LINE
  8
0
 62
7
  6
DASHED
 10
0.3900000000000001
 20
5.209999999999997
 30
0
 11
1.54
 21
5.209999999999997
 31
0
  0
LINE
  8
0
 62
7
  6
DASHED
 10
0.3900000000000001
 20
5.01
 30
0
 11
1.54
 21
5.009999999999998
 31
0
  0
LINE
  8
0
 62
7
 10
3.115000000000006
 20
1.929999999999998
 30
0
 11
3.265000000000005
 21
1.929999999999998
 31
0
  0
LINE
  8
0
 62
7
 10
3.265000000000005
 20
1.929999999999998
 30
0
 11
3.265000000000005
 21
2.079999999999999
 31
0
  0
LINE
  8
0
 62
7
 10
3.440000000000005
 20
2.079999999999999
 30
0
 11
3.440000000000005
 21
1.929999999999998
 31
0
  0
LINE
  8
0
 62
7
 10
3.440000000000005
 20
1.929999999999998
 30
0
 11
7.075000000000005
 21
1.929999999999998
 31
0
  0
LINE
  8
0
 62
7
 10
7.075000000000005
 20
1.929999999999998
 30
0
 11
7.075000000000005
 21
2.079999999999999
 31
0
  0
LINE
  8
0
 62
7
 10
7.250000000000004
 20
2.079999999999999
 30
0
 11
7.250000000000004
 21
1.929999999999998
 31
0
  0
LINE
  8
0
 62
7
 10
7.250000000000004
 20
1.929999999999998
 30
0
 11
7.415000000000005
 21
1.929999999999998
 31
0
  0
LINE
  8
0
 62
7
 10
3.115000000000006
 20
1.69
 30
0
 11
7.415000000000005
 21
1.69
 31
0
  0
LINE
  8
0
 62
7
 10
3.115000000000006
 20
1.65
 30
0
 11
7.415000000000005
 21
1.65
 31
0
  0
LINE
  8
0
 62
7
 10
3.115000000000006
 20
1.41
 30
0
 11
3.265000000000005
 21
1.41
 31
0
  0
LINE
  8
0
 62
7
 10
3.440000000000005
 20
0.16
 30
0
 11
3.440000000000005
 21
0.26
 31
0
  0
LINE
  8
0
 62
7
 10
3.265000000000005
 20
0.16
 30
0
 11
3.440000000000005
 21
0.16
 31
0
  0
LINE
  8
0
 62
7
 10
3.265000000000005
 20
1.41
 30
0
 11
3.265000000000005
 21
0.16
 31
0
  0
LINE
  8
0
 62
7
 10
3.440000000000005
 20
1.41
 30
0
 11
7.075000000000005
 21
1.41
 31
0
  0
LINE
  8
0
 62
7
 10
7.075000000000005
 20
1.41
 30
0
 11
7.075000000000005
 21
0.3100000000000001
 31
0
  0
LINE
  8
0
 62
7
 10
7.250000000000004
 20
0.26
 30
0
 11
7.250000000000004
 21
1.41
 31
0
  0
LINE
  8
0
 62
7
 10
7.250000000000004
 20
1.41
 30
0
 11
7.415000000000005
 21
1.41
 31
0
  0
LINE
  8
0
 62
7
 10
7.075000000000005
 20
0.26
 30
0
 11
7.250000000000004
 21
0.26
 31
0
  0
LINE
  8
0
 62
7
 10
7.075000000000005
 20
0.3100000000000001
 30
0
 11
3.440000000000005
 21
0.3100000000000009
 31
0
  0
LINE
  8
0
 62
7
 10
3.440000000000005
 20
0.3100000000000009
 30
0
 11
3.440000000000005
 21
1.41
 31
0
  0
LINE
  8
0
 62
7
 10
7.075000000000005
 20
0.3100000000000001
 30
0
 11
7.075000000000005
 21
0.26
 31
0
  0
LINE
  8
0
 62
7
  6
DASHDOT
 10
7.075000000000005
 20
0.26
 30
0
 11
3.440000000000005
 21
0.26
 31
0
  0
LINE
  8
0
 62
7
 10
3.440000000000005
 20
0.26
 30
0
 11
3.440000000000005
 21
0.3100000000000009
 31
0
  0
LINE
  8
0
 62
7
  6
DASHDOT
 10
3.215000000000005
 20
2.079999999999998
 30
0
 11
3.265000000000005
 21
2.079999999999999
 31
0
  0
LINE
  8
0
 62
7
  6
DASHDOT
 10
7.025000000000005
 20
2.079999999999998
 30
0
 11
7.075000000000005
 21
2.079999999999999
 31
0
  0
LINE
  8
0
 62
7
  6
DASHDOT
 10
3.115000000000006
 20
1.979999999999998
 30
0
 11
3.115000000000006
 21
1.929999999999998
 31
0
  0
LINE
  8
0
 62
7
  6
DASHDOT
 10
7.415000000000005
 20
1.979999999999998
 30
0
 11
7.415000000000005
 21
1.929999999999998
 31
0
  0
LINE
  8
0
 62
7
  6
DASHDOT
 10
7.415000000000005
 20
1.929999999999998
 30
0
 11
7.415000000000005
 21
1.69
 31
0
  0
LINE
  8
0
 62
7
  6
DASHDOT
 10
7.415000000000005
 20
1.41
 30
0
 11
7.415000000000005
 21
1.36
 31
0
  0
LINE
  8
0
 62
7
  6
DASHDOT
 10
3.265000000000005
 20
2.079999999999999
 30
0
 11
3.440000000000005
 21
2.079999999999999
 31
0
  0
LINE
  8
0
 62
7
  6
DASHDOT
 10
3.440000000000005
 20
2.079999999999999
 30
0
 11
3.490000000000005
 21
2.079999999999998
 31
0
  0
LINE
  8
0
 62
7
  6
DASHDOT
 10
3.115000000000006
 20
1.929999999999998
 30
0
 11
3.115000000000006
 21
1.69
 31
0
  0
LINE
  8
0
 62
7
  6
DASHDOT
 10
3.115000000000006
 20
1.41
 30
0
 11
3.115000000000006
 21
1.36
 31
0
  0
LINE
  8
0
 62
7
  6
DASHDOT
 10
7.415000000000005
 20
1.69
 30
0
 11
7.415000000000005
 21
1.65
 31
0
  0
LINE
  8
0
 62
7
  6
DASHDOT
 10
3.115000000000006
 20
1.69
 30
0
 11
3.115000000000006
 21
1.65
 31
0
  0
LINE
  8
0
 62
7
  6
DASHDOT
 10
7.415000000000005
 20
1.65
 30
0
 11
7.415000000000005
 21
1.41
 31
0
  0
LINE
  8
0
 62
7
  6
DASHDOT
 10
3.115000000000006
 20
1.65
 30
0
 11
3.115000000000006
 21
1.41
 31
0
  0
LINE
  8
0
 62
7
  6
DASHDOT
 10
7.250000000000004
 20
2.079999999999999
 30
0
 11
7.300000000000004
 21
2.079999999999998
 31
0
  0
LINE
  8
0
 62
7
  6
DASHDOT
 10
7.075000000000005
 20
2.079999999999999
 30
0
 11
7.250000000000004
 21
2.079999999999999
 31
0
  0
LINE
  8
0
 62
7
  6
DASHED
 10
7.020000000000005
 20
7.81166666666666
 30
0
 11
6.070000000000005
 21
7.81166666666666
 31
0
  0
LINE
  8
0
 62
7
  6
DASHED
 10
7.020000000000005
 20
7.876666666666662
 30
0
 11
7.020000000000005
 21
7.81166666666666
 31
0
  0
LINE
  8
0
 62
7
  6
DASHED
 10
6.070000000000005
 20
7.81166666666666
 30
0
 11
6.070000000000005
 21
7.876666666666662
 31
0
  0
LINE
  8
0
 62
7
  6
DASHED
 10
6.070000000000005
 20
7.876666666666662
 30
0
 11
7.020000000000005
 21
7.876666666666662
 31
0
  0
LINE
  8
0
 62
7
 10
7.020000300000003
 20
7.69333322666666
 30
0
 11
7.020000300000003
 21
7.628333226666659
 31
0
  0
LINE
  8
0
 62
7
 10
5.919654840000003
 20
7.628333226666659
 30
0
 11
5.919654840000003
 21
7.69333322666666
 31
0
  0
LINE
  8
0
 62
7
 10
7.020000300000003
 20
7.628333226666659
 30
0
 11
5.919654840000003
 21
7.628333226666659
 31
0
  0
LINE
  8
0
 62
7
 10
5.919654840000003
 20
7.69333322666666
 30
0
 11
7.020000300000003
 21
7.69333322666666
 31
0
  0
LINE
  8
0
 62
7
 10
7.020000000000005
 20
7.50999994666666
 30
0
 11
7.020000000000005
 21
7.44499994666666
 31
0
  0
LINE
  8
0
 62
7
 10
5.766815340000004
 20
7.44499994666666
 30
0
 11
5.766815340000004
 21
7.50999994666666
 31
0
  0
LINE
  8
0
 62
7
 10
5.766815340000004
 20
7.50999994666666
 30
0
 11
7.020000000000005
 21
7.50999994666666
 31
0
  0
LINE
  8
0
 62
7
 10
7.020000000000005
 20
7.44499994666666
 30
0
 11
5.766815340000004
 21
7.44499994666666
 31
0
  0
LINE
  8
0
 62
7
 10
6.723414000000003
 20
7.326666666666661
 30
0
 11
6.723414000000003
 21
7.26166666666666
 31
0
  0
LINE
  8
0
 62
7
 10
5.658646090000002
 20
7.26166666666666
 30
0
 11
5.658646090000002
 21
7.326666666666661
 31
0
  0
LINE
  8
0
 62
7
 10
5.658646090000002
 20
7.326666666666661
 30
0
 11
6.723414000000003
 21
7.326666666666661
 31
0
  0
LINE
  8
0
 62
7
 10
6.723414000000003
 20
7.26166666666666
 30
0
 11
5.658646090000002
 21
7.26166666666666
 31
0
  0
LINE
  8
0
 62
7
 10
6.298402100000004
 20
7.143333226666662
 30
0
 11
6.298402100000004
 21
7.078333226666661
 31
0
  0
LINE
  8
0
 62
7
 10
5.543964690000003
 20
7.078333226666661
 30
0
 11
5.543964690000003
 21
7.143333226666662
 31
0
  0
LINE
  8
0
 62
7
 10
5.543964690000003
 20
7.143333226666662
 30
0
 11
6.298402100000004
 21
7.143333226666662
 31
0
  0
LINE
  8
0
 62
7
 10
6.298402100000004
 20
7.078333226666661
 30
0
 11
5.543964690000003
 21
7.078333226666661
 31
0
  0
LINE
  8
0
 62
7
 10
5.917647090000003
 20
6.95999994666666
 30
0
 11
5.917647090000003
 21
6.894999946666664
 31
0
  0
LINE
  8
0
 62
7
 10
5.426013490000004
 20
6.894999946666664
 30
0
 11
5.426013490000004
 21
6.95999994666666
 31
0
  0
LINE
  8
0
 62
7
 10
5.426013490000004
 20
6.95999994666666
 30
0
 11
5.917647090000003
 21
6.95999994666666
 31
0
  0
LINE
  8
0
 62
7
 10
5.917647090000003
 20
6.894999946666664
 30
0
 11
5.426013490000004
 21
6.894999946666664
 31
0
  0
LINE
  8
0
 62
7
 10
5.545144350000003
 20
6.776666666666661
 30
0
 11
5.545144350000003
 21
6.711666666666661
 31
0
  0
LINE
  8
0
 62
7
 10
5.156159060000002
 20
6.711666666666661
 30
0
 11
5.156159060000002
 21
6.776666666666661
 31
0
  0
LINE
  8
0
 62
7
 10
5.156159060000002
 20
6.776666666666661
 30
0
 11
5.545144350000003
 21
6.776666666666661
 31
0
  0
LINE
  8
0
 62
7
 10
5.545144350000003
 20
6.711666666666661
 30
0
 11
5.156159060000002
 21
6.711666666666661
 31
0
  0
LINE
  8
0
 62
7
 10
5.307078549999993
 20
6.593333226666662
 30
0
 11
5.307078549999993
 21
6.52833322666666
 31
0
  0
LINE
  8
0
 62
7
 10
4.857557980000001
 20
6.52833322666666
 30
0
 11
4.857557980000001
 21
6.593333226666662
 31
0
  0
LINE
  8
0
 62
7
 10
4.857557980000001
 20
6.593333226666662
 30
0
 11
5.307078549999993
 21
6.593333226666662
 31
0
  0
LINE
  8
0
 62
7
 10
5.307078549999993
 20
6.52833322666666
 30
0
 11
4.857557980000001
 21
6.52833322666666
 31
0
  0
LINE
  8
0
 62
7
 10
5.098440090000003
 20
6.409999946666663
 30
0
 11
5.098440090000003
 21
6.344999946666664
 31
0
  0
LINE
  8
0
 62
7
 10
4.493180390000004
 20
6.344999946666664
 30
0
 11
4.493180390000004
 21
6.409999946666663
 31
0
  0
LINE
  8
0
 62
7
 10
4.493180390000004
 20
6.409999946666663
 30
0
 11
5.098440090000003
 21
6.409999946666663
 31
0
  0
LINE
  8
0
 62
7
 10
5.098440090000003
 20
6.344999946666664
 30
0
 11
4.493180390000004
 21
6.344999946666664
 31
0
  0
LINE
  8
0
 62
7
 10
4.981010890000004
 20
6.226666586666661
 30
0
 11
4.981010890000004
 21
6.161666586666661
 31
0
  0
LINE
  8
0
 62
7
 10
4.128668740000003
 20
6.161666586666661
 30
0
 11
4.128668740000003
 21
6.226666586666661
 31
0
  0
LINE
  8
0
 62
7
 10
4.128668740000003
 20
6.226666586666661
 30
0
 11
4.981010890000004
 21
6.226666586666661
 31
0
  0
LINE
  8
0
 62
7
 10
4.981010890000004
 20
6.161666586666661
 30
0
 11
4.128668740000003
 21
6.161666586666661
 31
0
  0
LINE
  8
0
 62
7
 10
4.865646669999993
 20
6.043333226666661
 30
0
 11
4.865646669999993
 21
5.978333226666661
 31
0
  0
LINE
  8
0
 62
7
 10
3.632672710000003
 20
5.978333226666661
 30
0
 11
3.632672710000003
 21
6.043333226666661
 31
0
  0
LINE
  8
0
 62
7
 10
3.632672710000003
 20
6.043333226666661
 30
0
 11
4.865646669999993
 21
6.043333226666661
 31
0
  0
LINE
  8
0
 62
7
 10
4.865646669999993
 20
5.978333226666661
 30
0
 11
3.632672710000003
 21
5.978333226666661
 31
0
  0
LINE
  8
0
 62
7
 10
4.765611880000002
 20
5.859999906666663
 30
0
 11
4.765611880000002
 21
5.794999906666663
 31
0
  0
LINE
  8
0
 62
7
 10
3.494999730000004
 20
5.794999906666663
 30
0
 11
3.494999730000004
 21
5.859999906666663
 31
0
  0
LINE
  8
0
 62
7
 10
3.494999730000004
 20
5.859999906666663
 30
0
 11
4.765611880000002
 21
5.859999906666663
 31
0
  0
LINE
  8
0
 62
7
 10
4.765611880000002
 20
5.794999906666663
 30
0
 11
3.494999730000004
 21
5.794999906666663
 31
0
  0
LINE
  8
0
 62
7
 10
4.606824949999992
 20
5.676666566666663
 30
0
 11
4.606824949999992
 21
5.611666566666663
 31
0
  0
LINE
  8
0
 62
7
 10
3.494999430000005
 20
5.611666566666663
 30
0
 11
3.494999430000005
 21
5.676666566666663
 31
0
  0
LINE
  8
0
 62
7
 10
4.606824949999992
 20
5.611666566666663
 30
0
 11
3.494999430000005
 21
5.611666566666663
 31
0
  0
LINE
  8
0
 62
7
 10
3.494999430000005
 20
5.676666566666663
 30
0
 11
4.606824949999992
 21
5.676666566666663
 31
0
  0
LINE
  8
0
 62
7
 10
4.444999919999992
 20
5.428333226666661
 30
0
 11
3.494999599999992
 21
5.428333226666661
 31
0
  0
LINE
  8
0
 62
7
 10
4.444999919999992
 20
5.49333322666666
 30
0
 11
4.444999919999992
 21
5.428333226666661
 31
0
  0
LINE
  8
0
 62
7
 10
3.494999599999992
 20
5.428333226666661
 30
0
 11
3.494999599999992
 21
5.49333322666666
 31
0
  0
LINE
  8
0
 62
7
 10
3.494999599999992
 20
5.49333322666666
 30
0
 11
4.444999919999992
 21
5.49333322666666
 31
0
  0
LINE
  8
0
 62
7
 10
1.106024389999999
 20
7.81166666666666
 30
0
 11
1.106024389999999
 21
7.876666666666662
 31
0
  0
LINE
  8
0
 62
7
 10
1.499999729999998
 20
7.876666666666662
 30
0
 11
1.499999729999998
 21
7.81166666666666
 31
0
  0
LINE
  8
0
 62
7
 10
1.499999729999998
 20
7.81166666666666
 30
0
 11
1.106024389999999
 21
7.81166666666666
 31
0
  0
LINE
  8
0
 62
7
 10
1.106024389999999
 20
7.876666666666662
 30
0
 11
1.499999729999998
 21
7.876666666666662
 31
0
  0
LINE
  8
0
 62
7
 10
0.6494004800000006
 20
7.628333226666659
 30
0
 11
0.6494004800000006
 21
7.69333322666666
 31
0
  0
LINE
  8
0
 62
7
 10
1.462207899999998
 20
7.69333322666666
 30
0
 11
1.462207899999998
 21
7.628333226666659
 31
0
  0
LINE
  8
0
 62
7
 10
0.6494004800000006
 20
7.69333322666666
 30
0
 11
1.462207899999998
 21
7.69333322666666
 31
0
  0
LINE
  8
0
 62
7
 10
1.462207899999998
 20
7.628333226666659
 30
0
 11
0.6494004800000006
 21
7.628333226666659
 31
0
  0
LINE
  8
0
 62
7
 10
0.4450001499999992
 20
7.44499994666666
 30
0
 11
0.4450001499999992
 21
7.50999994666666
 31
0
  0
LINE
  8
0
 62
7
 10
1.395001029999998
 20
7.50999994666666
 30
0
 11
1.395001029999998
 21
7.44499994666666
 31
0
  0
LINE
  8
0
 62
7
 10
1.395001029999998
 20
7.44499994666666
 30
0
 11
0.4450001499999992
 21
7.44499994666666
 31
0
  0
LINE
  8
0
 62
7
 10
0.4450001499999992
 20
7.50999994666666
 30
0
 11
1.395001029999998
 21
7.50999994666666
 31
0
  0
LINE
  8
0
 62
7
 10
1.395000109999997
 20
7.26166666666666
 30
0
 11
0.4449999999999992
 21
7.26166666666666
 31
0
  0
LINE
  8
0
 62
7
 10
0.4449999999999992
 20
7.26166666666666
 30
0
 11
0.4449999999999992
 21
7.326666666666661
 31
0
  0
LINE
  8
0
 62
7
 10
1.395000109999997
 20
7.326666666666661
 30
0
 11
1.395000109999997
 21
7.26166666666666
 31
0
  0
LINE
  8
0
 62
7
 10
0.4449999999999992
 20
7.326666666666661
 30
0
 11
1.395000109999997
 21
7.326666666666661
 31
0
  0
LINE
  8
0
 62
7
 10
1.395000339999999
 20
7.078333226666661
 30
0
 11
0.4450002999999999
 21
7.078333226666661
 31
0
  0
LINE
  8
0
 62
7
 10
0.4450002999999999
 20
7.078333226666661
 30
0
 11
0.4450002999999999
 21
7.143333226666662
 31
0
  0
LINE
  8
0
 62
7
 10
1.395000339999999
 20
7.143333226666662
 30
0
 11
1.395000339999999
 21
7.078333226666661
 31
0
  0
LINE
  8
0
 62
7
 10
0.4450002999999999
 20
7.143333226666662
 30
0
 11
1.395000339999999
 21
7.143333226666662
 31
0
  0
LINE
  8
0
 62
7
 10
1.394999919999998
 20
6.894999946666664
 30
0
 11
0.4449998399999997
 21
6.894999946666664
 31
0
  0
LINE
  8
0
 62
7
 10
0.4449998399999997
 20
6.894999946666664
 30
0
 11
0.4449998399999997
 21
6.95999994666666
 31
0
  0
LINE
  8
0
 62
7
 10
1.394999919999998
 20
6.95999994666666
 30
0
 11
1.394999919999998
 21
6.894999946666664
 31
0
  0
LINE
  8
0
 62
7
 10
0.4449998399999997
 20
6.95999994666666
 30
0
 11
1.394999919999998
 21
6.95999994666666
 31
0
  0
LINE
  8
0
 62
7
 10
1.395000409999999
 20
6.711666666666661
 30
0
 11
0.4449999999999992
 21
6.711666666666661
 31
0
  0
LINE
  8
0
 62
7
 10
0.4449999999999992
 20
6.711666666666661
 30
0
 11
0.4449999999999992
 21
6.77666666666666
 31
0
  0
LINE
  8
0
 62
7
 10
1.395000409999999
 20
6.77666666666666
 30
0
 11
1.395000409999999
 21
6.711666666666661
 31
0
  0
LINE
  8
0
 62
7
 10
0.4449999999999992
 20
6.77666666666666
 30
0
 11
1.395000409999999
 21
6.77666666666666
 31
0
  0
LINE
  8
0
 62
7
 10
1.395000219999998
 20
6.52833322666666
 30
0
 11
0.4449999999999992
 21
6.52833322666666
 31
0
  0
LINE
  8
0
 62
7
 10
0.4449999999999992
 20
6.52833322666666
 30
0
 11
0.4449999999999992
 21
6.593333226666662
 31
0
  0
LINE
  8
0
 62
7
 10
1.395000219999998
 20
6.593333226666662
 30
0
 11
1.395000219999998
 21
6.52833322666666
 31
0
  0
LINE
  8
0
 62
7
 10
0.4449999999999992
 20
6.593333226666662
 30
0
 11
1.395000219999998
 21
6.593333226666662
 31
0
  0
LINE
  8
0
 62
7
 10
1.39500015
 20
6.344999946666664
 30
0
 11
0.4449998399999997
 21
6.344999946666664
 31
0
  0
LINE
  8
0
 62
7
 10
0.4449998399999997
 20
6.344999946666664
 30
0
 11
0.4449998399999997
 21
6.409999946666663
 31
0
  0
LINE
  8
0
 62
7
 10
1.39500015
 20
6.409999946666663
 30
0
 11
1.39500015
 21
6.344999946666664
 31
0
  0
LINE
  8
0
 62
7
 10
0.4449998399999997
 20
6.409999946666663
 30
0
 11
1.39500015
 21
6.409999946666663
 31
0
  0
LINE
  8
0
 62
7
 10
1.395000109999997
 20
6.161666586666661
 30
0
 11
0.4449999999999992
 21
6.161666586666661
 31
0
  0
LINE
  8
0
 62
7
 10
0.4449999999999992
 20
6.161666586666661
 30
0
 11
0.4449999999999992
 21
6.226666586666661
 31
0
  0
LINE
  8
0
 62
7
 10
1.395000109999997
 20
6.226666586666661
 30
0
 11
1.395000109999997
 21
6.161666586666661
 31
0
  0
LINE
  8
0
 62
7
 10
0.4449999999999992
 20
6.226666586666661
 30
0
 11
1.395000109999997
 21
6.226666586666661
 31
0
  0
LINE
  8
0
 62
7
 10
1.395000109999997
 20
5.978333226666661
 30
0
 11
0.4449998399999997
 21
5.978333226666661
 31
0
  0
LINE
  8
0
 62
7
 10
0.4449998399999997
 20
5.978333226666661
 30
0
 11
0.4449998399999997
 21
6.043333226666661
 31
0
  0
LINE
  8
0
 62
7
 10
1.395000109999997
 20
6.043333226666661
 30
0
 11
1.395000109999997
 21
5.978333226666661
 31
0
  0
LINE
  8
0
 62
7
 10
0.4449998399999997
 20
6.043333226666661
 30
0
 11
1.395000109999997
 21
6.043333226666661
 31
0
  0
LINE
  8
0
 62
7
 10
0.4449999999999992
 20
5.794999906666659
 30
0
 11
0.4449999999999992
 21
5.859999906666659
 31
0
  0
LINE
  8
0
 62
7
 10
1.395000069999998
 20
5.859999906666659
 30
0
 11
1.395000069999998
 21
5.794999906666659
 31
0
  0
LINE
  8
0
 62
7
 10
1.395000069999998
 20
5.794999906666659
 30
0
 11
0.4449999999999992
 21
5.794999906666659
 31
0
  0
LINE
  8
0
 62
7
 10
0.4449999999999992
 20
5.859999906666659
 30
0
 11
1.395000069999998
 21
5.859999906666659
 31
0
  0
LINE
  8
0
 62
7
 10
0.7964892499999991
 20
5.61166656666666
 30
0
 11
0.7964892499999991
 21
5.67666656666666
 31
0
  0
LINE
  8
0
 62
7
 10
1.456468919999998
 20
5.67666656666666
 30
0
 11
1.456468919999998
 21
5.61166656666666
 31
0
  0
LINE
  8
0
 62
7
 10
0.7964892499999991
 20
5.67666656666666
 30
0
 11
1.456468919999998
 21
5.67666656666666
 31
0
  0
LINE
  8
0
 62
7
 10
1.456468919999998
 20
5.61166656666666
 30
0
 11
0.7964892499999991
 21
5.61166656666666
 31
0
  0
LINE
  8
0
 62
7
 10
1.227571139999998
 20
5.428333226666661
 30
0
 11
1.227571139999998
 21
5.49333322666666
 31
0
  0
LINE
  8
0
 62
7
 10
1.64000015
 20
5.49333322666666
 30
0
 11
1.64000015
 21
5.428333226666661
 31
0
  0
LINE
  8
0
 62
7
 10
1.64000015
 20
5.428333226666661
 30
0
 11
1.227571139999998
 21
5.428333226666661
 31
0
  0
LINE
  8
0
 62
7
 10
1.227571139999998
 20
5.49333322666666
 30
0
 11
1.64000015
 21
5.49333322666666
 31
0
  0
LINE
  8
0
 62
7
 10
6.608128907259172
 20
0.4049999999897591
 30
0
 11
6.608128907259172
 21
0.3100000000000001
 31
0
  0
LINE
  8
0
 62
7
 10
6.713784006520874
 20
0.3709999999999991
 30
0
 11
6.608128907259172
 21
0.3100000000000001
 31
0
  0
LINE
  8
0
 62
7
 10
6.502473807997465
 20
0.3709999999999991
 30
0
 11
6.713784006520874
 21
0.3709999999999991
 31
0
  0
LINE
  8
0
 62
7
 10
6.608128907259172
 20
0.3100000000000001
 30
0
 11
6.502473807997465
 21
0.3709999999999991
 31
0
  0
LINE
  8
0
 62
7
 10
4.445000000010232
 20
0.9431289072591709
 30
0
 11
6.069999999993652
 21
0.9431289072591709
 31
0
  0
LINE
  8
0
 62
7
 10
3.906871092740843
 20
0.16
 30
0
 11
3.906871092740843
 21
0.40500000002555
 31
0
  0
LINE
  8
0
 62
7
 10
7.020000000000005
 20
0.3
 30
0
 11
7.020000000000005
 21
0.69397665310678
 31
0
  0
LINE
  8
0
 62
7
 10
6.070000000000005
 20
0.4222105229736299
 30
0
 11
6.070000000000005
 21
0.359217311984142
 31
0
  0
LINE
  8
0
 62
7
 10
7.020000000000005
 20
0.69397665310678
 30
0
 11
6.070000000000005
 21
0.4222105229736299
 31
0
  0
LINE
  8
0
 62
7
 10
7.020000000000005
 20
0.6003664498200115
 30
0
 11
7.020000000000005
 21
1.150599681001111
 31
0
  0
LINE
  8
0
 62
7
 10
7.020000000000005
 20
1.150599681001111
 30
0
 11
5.919655041121024
 21
0.4594693948941813
 31
0
  0
LINE
  8
0
 62
7
 10
7.020000000000005
 20
1.355
 30
0
 11
6.603486148990514
 21
1.355
 31
0
  0
LINE
  8
0
 62
7
 10
7.020000000000005
 20
1.04431910284783
 30
0
 11
7.020000000000005
 21
1.355
 31
0
  0
LINE
  8
0
 62
7
 10
5.766815321099003
 20
0.405
 30
0
 11
6.002143358387275
 21
0.405
 31
0
  0
LINE
  8
0
 62
7
 10
6.603486148990514
 20
1.355
 30
0
 11
5.766815321099003
 21
0.405
 31
0
  0
LINE
  8
0
 62
7
 10
6.723414088579464
 20
1.355
 30
0
 11
6.195046650110154
 21
1.355
 31
0
  0
LINE
  8
0
 62
7
 10
5.658646294276323
 20
0.405
 30
0
 11
5.886743260687964
 21
0.405
 31
0
  0
LINE
  8
0
 62
7
 10
6.195046650110154
 20
1.355
 30
0
 11
5.658646294276323
 21
0.405
 31
0
  0
LINE
  8
0
 62
7
 10
6.298402128279823
 20
1.355
 30
0
 11
5.823823181938302
 21
1.355
 31
0
  0
LINE
  8
0
 62
7
 10
5.543964973940382
 20
0.405
 30
0
 11
5.762001772445992
 21
0.405
 31
0
  0
LINE
  8
0
 62
7
 10
5.823823181938302
 20
1.355
 30
0
 11
5.543964973940382
 21
0.405
 31
0
  0
LINE
  8
0
 62
7
 10
5.917647128549524
 20
1.355
 30
0
 11
5.455102410939113
 21
1.355
 31
0
  0
LINE
  8
0
 62
7
 10
5.426013762324212
 20
0.405
 30
0
 11
5.637788920551603
 21
0.405
 31
0
  0
LINE
  8
0
 62
7
 10
5.455102410939113
 20
1.355
 30
0
 11
5.426013762324212
 21
0.405
 31
0
  0
LINE
  8
0
 62
7
 10
5.545144591333452
 20
1.355
 30
0
 11
5.156159272548672
 21
1.355
 31
0
  0
LINE
  8
0
 62
7
 10
5.216894799805723
 20
0.405
 30
0
 11
5.516055942718544
 21
0.405
 31
0
  0
LINE
  8
0
 62
7
 10
5.156159272548672
 20
1.355
 30
0
 11
5.216894799805723
 21
0.405
 31
0
  0
LINE
  8
0
 62
7
 10
5.246343014286243
 20
1.355
 30
0
 11
4.857558332810673
 21
1.355
 31
0
  0
LINE
  8
0
 62
7
 10
5.007328738692173
 20
0.405
 30
0
 11
5.307078541543314
 21
0.405
 31
0
  0
LINE
  8
0
 62
7
 10
4.857558332810673
 20
1.355
 30
0
 11
5.007328738692173
 21
0.405
 31
0
  0
LINE
  8
0
 62
7
 10
4.948669920132724
 20
1.355
 30
0
 11
4.493180551735713
 21
1.355
 31
0
  0
LINE
  8
0
 62
7
 10
4.883703206971123
 20
0.405
 30
0
 11
5.098440326014224
 21
0.405
 31
0
  0
LINE
  8
0
 62
7
 10
4.493180551735713
 20
1.355
 30
0
 11
4.883703206971123
 21
0.405
 31
0
  0
LINE
  8
0
 62
7
 10
4.590488153500181
 20
1.355
 30
0
 11
4.128668989975573
 21
1.355
 31
0
  0
LINE
  8
0
 62
7
 10
4.757705723417025
 20
0.405
 30
0
 11
4.981010808735613
 21
0.405
 31
0
  0
LINE
  8
0
 62
7
 10
4.128668989975573
 20
1.355
 30
0
 11
4.757705723417025
 21
0.405
 31
0
  0
LINE
  8
0
 62
7
 10
4.236610270911234
 20
1.355
 30
0
 11
3.632672951147475
 21
1.355
 31
0
  0
LINE
  8
0
 62
7
 10
4.634794573343174
 20
0.405
 30
0
 11
4.865647004352684
 21
0.405
 31
0
  0
LINE
  8
0
 62
7
 10
3.632672951147475
 20
1.355
 30
0
 11
4.634794573343174
 21
0.405
 31
0
  0
LINE
  8
0
 62
7
 10
3.495000000000005
 20
1.355
 30
0
 11
3.495000000000005
 21
0.9035352082199121
 31
0
  0
LINE
  8
0
 62
7
 10
3.763490354667243
 20
1.355
 30
0
 11
3.495000000000005
 21
1.355
 31
0
  0
LINE
  8
0
 62
7
 10
4.525673516349261
 20
0.405
 30
0
 11
4.765611976862943
 21
0.405
 31
0
  0
LINE
  8
0
 62
7
 10
3.495000000000005
 20
0.9035352082199121
 30
0
 11
4.518968253494833
 21
0.4082433254180711
 31
0
  0
LINE
  8
0
 62
7
 10
3.495000000000005
 20
1.00351075593167
 30
0
 11
3.495000000000005
 21
0.4814343617354002
 31
0
  0
LINE
  8
0
 62
7
 10
4.420056328576102
 20
0.3435313114396692
 30
0
 11
4.445000000000004
 21
0.3598504278170114
 31
0
  0
LINE
  8
0
 62
7
 10
3.495000000000005
 20
0.4814343617354002
 30
0
 11
4.420056328576102
 21
0.3435313114396692
 31
0
  0
LINE
  8
0
 62
7
 10
3.495000000000005
 20
0.5724289214992901
 30
0
 11
3.495000000000005
 21
0.16
 31
0
  0
LINE
  8
0
 62
7
 10
3.495000000000005
 20
0.16
 30
0
 11
4.445000000000004
 21
0.16
 31
0
  0
LINE
  8
0
 62
7
 10
4.445000000000004
 20
0.16
 30
0
 11
4.445000000000004
 21
0.3598504278170114
 31
0
  0
LINE
  8
0
 62
7
 10
4.445000000000004
 20
0.3598504278170114
 30
0
 11
4.518968253494833
 21
0.4082433254180711
 31
0
  0
LINE
  8
0
 62
7
 10
4.518968253494833
 20
0.4082433254180711
 30
0
 11
4.525673516349261
 21
0.405
 31
0
  0
LINE
  8
0
 62
7
 10
5.919655041121024
 20
0.4594693948941813
 30
0
 11
6.070000000000005
 21
0.359217311984142
 31
0
  0
LINE
  8
0
 62
7
 10
6.070000000000005
 20
0.359217311984142
 30
0
 11
6.070000000000005
 21
0.3
 31
0
  0
LINE
  8
0
 62
7
 10
4.42014826264691
 20
1.08667772100153
 30
0
 11
4.42014826264691
 21
1.20667772100153
 31
0
  0
LINE
  8
0
 62
7
 10
4.49574826264691
 20
1.20667772100153
 30
0
 11
4.44174826264691
 21
1.14667772100153
 31
0
  0
LINE
  8
0
 62
7
 10
4.44174826264691
 20
1.14667772100153
 30
0
 11
4.49574826264691
 21
1.08667772100153
 31
0
  0
LINE
  8
0
 62
7
 10
4.44174826264691
 20
1.14667772100153
 30
0
 11
4.42014826264691
 21
1.12267772100153
 31
0
  0
LINE
  8
0
 62
7
 10
4.60374826264691
 20
1.20667772100153
 30
0
 11
4.528148262646911
 21
1.20667772100153
 31
0
  0
LINE
  8
0
 62
7
 10
4.528148262646911
 20
1.20667772100153
 30
0
 11
4.528148262646911
 21
1.14667772100153
 31
0
  0
LINE
  8
0
 62
7
 10
4.528148262646911
 20
1.08667772100153
 30
0
 11
4.60374826264691
 21
1.08667772100153
 31
0
  0
LINE
  8
0
 62
7
 10
4.59294826264691
 20
1.14667772100153
 30
0
 11
4.528148262646911
 21
1.14667772100153
 31
0
  0
LINE
  8
0
 62
7
 10
4.528148262646911
 20
1.14667772100153
 30
0
 11
4.528148262646911
 21
1.08667772100153
 31
0
  0
LINE
  8
0
 62
7
 10
4.63614826264691
 20
1.08667772100153
 30
0
 11
4.63614826264691
 21
1.20667772100153
 31
0
  0
LINE
  8
0
 62
7
 10
4.63614826264691
 20
1.20667772100153
 30
0
 11
4.71174826264691
 21
1.08667772100153
 31
0
  0
LINE
  8
0
 62
7
 10
4.71174826264691
 20
1.08667772100153
 30
0
 11
4.71174826264691
 21
1.20667772100153
 31
0
  0
LINE
  8
0
 62
7
 10
4.74414826264691
 20
1.08667772100153
 30
0
 11
4.74414826264691
 21
1.20667772100153
 31
0
  0
LINE
  8
0
 62
7
 10
4.74414826264691
 20
1.20667772100153
 30
0
 11
4.819748262646911
 21
1.08667772100153
 31
0
  0
LINE
  8
0
 62
7
 10
4.819748262646911
 20
1.08667772100153
 30
0
 11
4.819748262646911
 21
1.20667772100153
 31
0
  0
LINE
  8
0
 62
7
 10
4.927748262646911
 20
1.17067772100153
 30
0
 11
4.925048262646911
 21
1.18267772100153
 31
0
  0
LINE
  8
0
 62
7
 10
4.925048262646911
 20
1.18267772100153
 30
0
 11
4.91964826264691
 21
1.19167772100153
 31
0
  0
LINE
  8
0
 62
7
 10
4.91964826264691
 20
1.19167772100153
 30
0
 11
4.914248262646911
 21
1.19767772100153
 31
0
  0
LINE
  8
0
 62
7
 10
4.914248262646911
 20
1.19767772100153
 30
0
 11
4.90614826264691
 21
1.20367772100153
 31
0
  0
LINE
  8
0
 62
7
 10
4.90614826264691
 20
1.20367772100153
 30
0
 11
4.89804826264691
 21
1.20667772100153
 31
0
  0
LINE
  8
0
 62
7
 10
4.89804826264691
 20
1.20667772100153
 30
0
 11
4.881848262646911
 21
1.20667772100153
 31
0
  0
LINE
  8
0
 62
7
 10
4.881848262646911
 20
1.20667772100153
 30
0
 11
4.87374826264691
 21
1.20367772100153
 31
0
  0
LINE
  8
0
 62
7
 10
4.87374826264691
 20
1.20367772100153
 30
0
 11
4.865648262646911
 21
1.19767772100153
 31
0
  0
LINE
  8
0
 62
7
 10
4.865648262646911
 20
1.19767772100153
 30
0
 11
4.860248262646911
 21
1.19167772100153
 31
0
  0
LINE
  8
0
 62
7
 10
4.860248262646911
 20
1.19167772100153
 30
0
 11
4.85484826264691
 21
1.18267772100153
 31
0
  0
LINE
  8
0
 62
7
 10
4.85484826264691
 20
1.18267772100153
 30
0
 11
4.85214826264691
 21
1.17067772100153
 31
0
  0
LINE
  8
0
 62
7
 10
4.85214826264691
 20
1.17067772100153
 30
0
 11
4.85214826264691
 21
1.12267772100153
 31
0
  0
LINE
  8
0
 62
7
 10
4.85214826264691
 20
1.12267772100153
 30
0
 11
4.85484826264691
 21
1.11067772100153
 31
0
  0
LINE
  8
0
 62
7
 10
4.85484826264691
 20
1.11067772100153
 30
0
 11
4.860248262646911
 21
1.10167772100153
 31
0
  0
LINE
  8
0
 62
7
 10
4.860248262646911
 20
1.10167772100153
 30
0
 11
4.865648262646911
 21
1.09567772100153
 31
0
  0
LINE
  8
0
 62
7
 10
4.865648262646911
 20
1.09567772100153
 30
0
 11
4.87374826264691
 21
1.08967772100153
 31
0
  0
LINE
  8
0
 62
7
 10
4.87374826264691
 20
1.08967772100153
 30
0
 11
4.881848262646911
 21
1.08667772100153
 31
0
  0
LINE
  8
0
 62
7
 10
4.881848262646911
 20
1.08667772100153
 30
0
 11
4.89804826264691
 21
1.08667772100153
 31
0
  0
LINE
  8
0
 62
7
 10
4.89804826264691
 20
1.08667772100153
 30
0
 11
4.90614826264691
 21
1.08967772100153
 31
0
  0
LINE
  8
0
 62
7
 10
4.90614826264691
 20
1.08967772100153
 30
0
 11
4.914248262646911
 21
1.09567772100153
 31
0
  0
LINE
  8
0
 62
7
 10
4.914248262646911
 20
1.09567772100153
 30
0
 11
4.91964826264691
 21
1.10167772100153
 31
0
  0
LINE
  8
0
 62
7
 10
4.91964826264691
 20
1.10167772100153
 30
0
 11
4.925048262646911
 21
1.11067772100153
 31
0
  0
LINE
  8
0
 62
7
 10
4.925048262646911
 20
1.11067772100153
 30
0
 11
4.927748262646911
 21
1.12267772100153
 31
0
  0
LINE
  8
0
 62
7
 10
4.927748262646911
 20
1.12267772100153
 30
0
 11
4.927748262646911
 21
1.14667772100153
 31
0
  0
LINE
  8
0
 62
7
 10
4.927748262646911
 20
1.14667772100153
 30
0
 11
4.895348262646911
 21
1.14667772100153
 31
0
  0
LINE
  8
0
 62
7
 10
5.00604826264691
 20
1.20667772100153
 30
0
 11
4.98984826264691
 21
1.20667772100153
 31
0
  0
LINE
  8
0
 62
7
 10
4.98984826264691
 20
1.20667772100153
 30
0
 11
4.98174826264691
 21
1.20367772100153
 31
0
  0
LINE
  8
0
 62
7
 10
4.98174826264691
 20
1.20367772100153
 30
0
 11
4.97364826264691
 21
1.19767772100153
 31
0
  0
LINE
  8
0
 62
7
 10
4.97364826264691
 20
1.19767772100153
 30
0
 11
4.96824826264691
 21
1.19167772100153
 31
0
  0
LINE
  8
0
 62
7
 10
4.96824826264691
 20
1.19167772100153
 30
0
 11
4.962848262646911
 21
1.18267772100153
 31
0
  0
LINE
  8
0
 62
7
 10
4.962848262646911
 20
1.18267772100153
 30
0
 11
4.960148262646911
 21
1.17067772100153
 31
0
  0
LINE
  8
0
 62
7
 10
4.960148262646911
 20
1.17067772100153
 30
0
 11
4.960148262646911
 21
1.12267772100153
 31
0
  0
LINE
  8
0
 62
7
 10
4.960148262646911
 20
1.12267772100153
 30
0
 11
4.962848262646911
 21
1.11067772100153
 31
0
  0
LINE
  8
0
 62
7
 10
4.962848262646911
 20
1.11067772100153
 30
0
 11
4.96824826264691
 21
1.10167772100153
 31
0
  0
LINE
  8
0
 62
7
 10
4.96824826264691
 20
1.10167772100153
 30
0
 11
4.97364826264691
 21
1.09567772100153
 31
0
  0
LINE
  8
0
 62
7
 10
4.97364826264691
 20
1.09567772100153
 30
0
 11
4.98174826264691
 21
1.08967772100153
 31
0
  0
LINE
  8
0
 62
7
 10
4.98174826264691
 20
1.08967772100153
 30
0
 11
4.98984826264691
 21
1.08667772100153
 31
0
  0
LINE
  8
0
 62
7
 10
4.98984826264691
 20
1.08667772100153
 30
0
 11
5.00604826264691
 21
1.08667772100153
 31
0
  0
LINE
  8
0
 62
7
 10
5.00604826264691
 20
1.08667772100153
 30
0
 11
5.01414826264691
 21
1.08967772100153
 31
0
  0
LINE
  8
0
 62
7
 10
5.01414826264691
 20
1.08967772100153
 30
0
 11
5.022248262646911
 21
1.09567772100153
 31
0
  0
LINE
  8
0
 62
7
 10
5.022248262646911
 20
1.09567772100153
 30
0
 11
5.02764826264691
 21
1.10167772100153
 31
0
  0
LINE
  8
0
 62
7
 10
5.02764826264691
 20
1.10167772100153
 30
0
 11
5.03304826264691
 21
1.11067772100153
 31
0
  0
LINE
  8
0
 62
7
 10
5.03304826264691
 20
1.11067772100153
 30
0
 11
5.03574826264691
 21
1.12267772100153
 31
0
  0
LINE
  8
0
 62
7
 10
5.03574826264691
 20
1.12267772100153
 30
0
 11
5.03574826264691
 21
1.17067772100153
 31
0
  0
LINE
  8
0
 62
7
 10
5.03574826264691
 20
1.17067772100153
 30
0
 11
5.03304826264691
 21
1.18267772100153
 31
0
  0
LINE
  8
0
 62
7
 10
5.03304826264691
 20
1.18267772100153
 30
0
 11
5.02764826264691
 21
1.19167772100153
 31
0
  0
LINE
  8
0
 62
7
 10
5.02764826264691
 20
1.19167772100153
 30
0
 11
5.022248262646911
 21
1.19767772100153
 31
0
  0
LINE
  8
0
 62
7
 10
5.022248262646911
 20
1.19767772100153
 30
0
 11
5.01414826264691
 21
1.20367772100153
 31
0
  0
LINE
  8
0
 62
7
 10
5.01414826264691
 20
1.20367772100153
 30
0
 11
5.00604826264691
 21
1.20667772100153
 31
0
  0
LINE
  8
0
 62
7
 10
5.05734826264691
 20
1.20667772100153
 30
0
 11
5.095148262646912
 21
1.20667772100153
 31
0
  0
LINE
  8
0
 62
7
 10
5.095148262646912
 20
1.20667772100153
 30
0
 11
5.095148262646912
 21
1.08667772100153
 31
0
  0
LINE
  8
0
 62
7
 10
5.095148262646912
 20
1.20667772100153
 30
0
 11
5.132948262646911
 21
1.20667772100153
 31
0
  0
LINE
  8
0
 62
7
 10
5.165348262646912
 20
1.20667772100153
 30
0
 11
5.203148262646911
 21
1.20667772100153
 31
0
  0
LINE
  8
0
 62
7
 10
5.203148262646911
 20
1.20667772100153
 30
0
 11
5.203148262646911
 21
1.08667772100153
 31
0
  0
LINE
  8
0
 62
7
 10
5.203148262646911
 20
1.20667772100153
 30
0
 11
5.240948262646911
 21
1.20667772100153
 31
0
  0
LINE
  8
0
 62
7
 10
5.35974826264691
 20
1.12867772100153
 30
0
 11
5.41374826264691
 21
1.12867772100153
 31
0
  0
LINE
  8
0
 62
7
 10
5.52174826264691
 20
1.20667772100153
 30
0
 11
5.559548262646912
 21
1.20667772100153
 31
0
  0
LINE
  8
0
 62
7
 10
5.559548262646912
 20
1.20667772100153
 30
0
 11
5.559548262646912
 21
1.08667772100153
 31
0
  0
LINE
  8
0
 62
7
 10
5.559548262646912
 20
1.20667772100153
 30
0
 11
5.597348262646911
 21
1.20667772100153
 31
0
  0
LINE
  8
0
 62
7
 10
5.629748262646911
 20
1.08667772100153
 30
0
 11
5.629748262646911
 21
1.20667772100153
 31
0
  0
LINE
  8
0
 62
7
 10
5.629748262646911
 20
1.20667772100153
 30
0
 11
5.681048262646911
 21
1.20667772100153
 31
0
  0
LINE
  8
0
 62
7
 10
5.681048262646911
 20
1.20667772100153
 30
0
 11
5.691848262646911
 21
1.20367772100153
 31
0
  0
LINE
  8
0
 62
7
 10
5.691848262646911
 20
1.20367772100153
 30
0
 11
5.699948262646911
 21
1.19767772100153
 31
0
  0
LINE
  8
0
 62
7
 10
5.699948262646911
 20
1.19767772100153
 30
0
 11
5.70264826264691
 21
1.19167772100153
 31
0
  0
LINE
  8
0
 62
7
 10
5.70264826264691
 20
1.19167772100153
 30
0
 11
5.705348262646911
 21
1.18267772100153
 31
0
  0
LINE
  8
0
 62
7
 10
5.705348262646911
 20
1.18267772100153
 30
0
 11
5.705348262646911
 21
1.17067772100153
 31
0
  0
LINE
  8
0
 62
7
 10
5.705348262646911
 20
1.17067772100153
 30
0
 11
5.70264826264691
 21
1.16167772100153
 31
0
  0
LINE
  8
0
 62
7
 10
5.70264826264691
 20
1.16167772100153
 30
0
 11
5.699948262646911
 21
1.15567772100153
 31
0
  0
LINE
  8
0
 62
7
 10
5.699948262646911
 20
1.15567772100153
 30
0
 11
5.691848262646911
 21
1.14967772100153
 31
0
  0
LINE
  8
0
 62
7
 10
5.691848262646911
 20
1.14967772100153
 30
0
 11
5.681048262646911
 21
1.14667772100153
 31
0
  0
LINE
  8
0
 62
7
 10
5.681048262646911
 20
1.14667772100153
 30
0
 11
5.67294826264691
 21
1.14667772100153
 31
0
  0
LINE
  8
0
 62
7
 10
5.67294826264691
 20
1.14667772100153
 30
0
 11
5.705348262646911
 21
1.08667772100153
 31
0
  0
LINE
  8
0
 62
7
 10
5.67294826264691
 20
1.14667772100153
 30
0
 11
5.629748262646911
 21
1.14667772100153
 31
0
  0
LINE
  8
0
 62
7
 10
5.802548262646912
 20
1.20667772100153
 30
0
 11
5.726948262646911
 21
1.20667772100153
 31
0
  0
LINE
  8
0
 62
7
 10
5.726948262646911
 20
1.20667772100153
 30
0
 11
5.726948262646911
 21
1.14667772100153
 31
0
  0
LINE
  8
0
 62
7
 10
5.726948262646911
 20
1.08667772100153
 30
0
 11
5.802548262646912
 21
1.08667772100153
 31
0
  0
LINE
  8
0
 62
7
 10
5.791748262646911
 20
1.14667772100153
 30
0
 11
5.726948262646911
 21
1.14667772100153
 31
0
  0
LINE
  8
0
 62
7
 10
5.726948262646911
 20
1.14667772100153
 30
0
 11
5.726948262646911
 21
1.08667772100153
 31
0
  0
LINE
  8
0
 62
7
 10
5.834948262646912
 20
1.08667772100153
 30
0
 11
5.834948262646912
 21
1.14667772100153
 31
0
  0
LINE
  8
0
 62
7
 10
5.834948262646912
 20
1.20667772100153
 30
0
 11
5.886248262646912
 21
1.20667772100153
 31
0
  0
LINE
  8
0
 62
7
 10
5.886248262646912
 20
1.20667772100153
 30
0
 11
5.897048262646912
 21
1.20367772100153
 31
0
  0
LINE
  8
0
 62
7
 10
5.897048262646912
 20
1.20367772100153
 30
0
 11
5.905148262646912
 21
1.19767772100153
 31
0
  0
LINE
  8
0
 62
7
 10
5.905148262646912
 20
1.19767772100153
 30
0
 11
5.907848262646912
 21
1.19167772100153
 31
0
  0
LINE
  8
0
 62
7
 10
5.907848262646912
 20
1.19167772100153
 30
0
 11
5.910548262646912
 21
1.18267772100153
 31
0
  0
LINE
  8
0
 62
7
 10
5.910548262646912
 20
1.18267772100153
 30
0
 11
5.910548262646912
 21
1.17067772100153
 31
0
  0
LINE
  8
0
 62
7
 10
5.910548262646912
 20
1.17067772100153
 30
0
 11
5.907848262646912
 21
1.16167772100153
 31
0
  0
LINE
  8
0
 62
7
 10
5.907848262646912
 20
1.16167772100153
 30
0
 11
5.905148262646912
 21
1.15567772100153
 31
0
  0
LINE
  8
0
 62
7
 10
5.905148262646912
 20
1.15567772100153
 30
0
 11
5.897048262646912
 21
1.14967772100153
 31
0
  0
LINE
  8
0
 62
7
 10
5.897048262646912
 20
1.14967772100153
 30
0
 11
5.886248262646912
 21
1.14667772100153
 31
0
  0
LINE
  8
0
 62
7
 10
5.886248262646912
 20
1.14667772100153
 30
0
 11
5.834948262646912
 21
1.14667772100153
 31
0
  0
LINE
  8
0
 62
7
 10
5.834948262646912
 20
1.14667772100153
 30
0
 11
5.834948262646912
 21
1.20667772100153
 31
0
  0
LINE
  8
0
 62
7
 10
5.932148262646911
 20
1.08667772100153
 30
0
 11
5.932148262646911
 21
1.14667772100153
 31
0
  0
LINE
  8
0
 62
7
 10
5.932148262646911
 20
1.20667772100153
 30
0
 11
5.983448262646911
 21
1.20667772100153
 31
0
  0
LINE
  8
0
 62
7
 10
5.983448262646911
 20
1.20667772100153
 30
0
 11
5.994248262646911
 21
1.20367772100153
 31
0
  0
LINE
  8
0
 62
7
 10
5.994248262646911
 20
1.20367772100153
 30
0
 11
6.002348262646911
 21
1.19767772100153
 31
0
  0
LINE
  8
0
 62
7
 10
6.002348262646911
 20
1.19767772100153
 30
0
 11
6.005048262646911
 21
1.19167772100153
 31
0
  0
LINE
  8
0
 62
7
 10
6.005048262646911
 20
1.19167772100153
 30
0
 11
6.007748262646912
 21
1.18267772100153
 31
0
  0
LINE
  8
0
 62
7
 10
6.007748262646912
 20
1.18267772100153
 30
0
 11
6.007748262646912
 21
1.17067772100153
 31
0
  0
LINE
  8
0
 62
7
 10
6.007748262646912
 20
1.17067772100153
 30
0
 11
6.005048262646911
 21
1.16167772100153
 31
0
  0
LINE
  8
0
 62
7
 10
6.005048262646911
 20
1.16167772100153
 30
0
 11
6.002348262646911
 21
1.15567772100153
 31
0
  0
LINE
  8
0
 62
7
 10
6.002348262646911
 20
1.15567772100153
 30
0
 11
5.994248262646911
 21
1.14967772100153
 31
0
  0
LINE
  8
0
 62
7
 10
5.994248262646911
 20
1.14967772100153
 30
0
 11
5.983448262646911
 21
1.14667772100153
 31
0
  0
LINE
  8
0
 62
7
 10
5.983448262646911
 20
1.14667772100153
 30
0
 11
5.932148262646911
 21
1.14667772100153
 31
0
  0
LINE
  8
0
 62
7
 10
5.932148262646911
 20
1.14667772100153
 30
0
 11
5.932148262646911
 21
1.20667772100153
 31
0
  0
LINE
  8
0
 62
7
 10
6.104948262646912
 20
1.20667772100153
 30
0
 11
6.029348262646911
 21
1.20667772100153
 31
0
  0
LINE
  8
0
 62
7
 10
6.029348262646911
 20
1.20667772100153
 30
0
 11
6.029348262646911
 21
1.14667772100153
 31
0
  0
LINE
  8
0
 62
7
 10
6.029348262646911
 20
1.08667772100153
 30
0
 11
6.104948262646912
 21
1.08667772100153
 31
0
  0
LINE
  8
0
 62
7
 10
6.094148262646912
 20
1.14667772100153
 30
0
 11
6.029348262646911
 21
1.14667772100153
 31
0
  0
LINE
  8
0
 62
7
 10
6.029348262646911
 20
1.14667772100153
 30
0
 11
6.029348262646911
 21
1.08667772100153
 31
0
  0
LINE
  8
0
 62
7
 10
4.025000000000005
 20
-0.08000000000000002
 30
0
 11
4.100600000000005
 21
-0.08000000000000002
 31
0
  0
LINE
  8
0
 62
7
 10
4.100600000000005
 20
-0.08000000000000002
 30
0
 11
4.025000000000005
 21
-0.2
 31
0
  0
LINE
  8
0
 62
7
 10
4.025000000000005
 20
-0.2
 30
0
 11
4.100600000000005
 21
-0.2
 31
0
  0
LINE
  8
0
 62
7
 10
4.133000000000005
 20
-0.098
 30
0
 11
4.138400000000003
 21
-0.08900000000000001
 31
0
  0
LINE
  8
0
 62
7
 10
4.138400000000003
 20
-0.08900000000000001
 30
0
 11
4.146500000000005
 21
-0.08300000000000002
 31
0
  0
LINE
  8
0
 62
7
 10
4.146500000000005
 20
-0.08300000000000002
 30
0
 11
4.157300000000006
 21
-0.08000000000000002
 31
0
  0
LINE
  8
0
 62
7
 10
4.157300000000006
 20
-0.08000000000000002
 30
0
 11
4.173500000000005
 21
-0.08000000000000002
 31
0
  0
LINE
  8
0
 62
7
 10
4.173500000000005
 20
-0.08000000000000002
 30
0
 11
4.184300000000005
 21
-0.08300000000000002
 31
0
  0
LINE
  8
0
 62
7
 10
4.184300000000005
 20
-0.08300000000000002
 30
0
 11
4.192400000000005
 21
-0.08900000000000001
 31
0
  0
LINE
  8
0
 62
7
 10
4.192400000000005
 20
-0.08900000000000001
 30
0
 11
4.197800000000005
 21
-0.098
 31
0
  0
LINE
  8
0
 62
7
 10
4.197800000000005
 20
-0.098
 30
0
 11
4.197800000000005
 21
-0.11
 31
0
  0
LINE
  8
0
 62
7
 10
4.197800000000005
 20
-0.11
 30
0
 11
4.192400000000005
 21
-0.122
 31
0
  0
LINE
  8
0
 62
7
 10
4.192400000000005
 20
-0.122
 30
0
 11
4.133000000000005
 21
-0.2
 31
0
  0
LINE
  8
0
 62
7
 10
4.133000000000005
 20
-0.2
 30
0
 11
4.197800000000005
 21
-0.2
 31
0
  0
LINE
  8
0
 62
7
 10
4.230200000000004
 20
-0.08000000000000002
 30
0
 11
4.268000000000006
 21
-0.2
 31
0
  0
LINE
  8
0
 62
7
 10
4.268000000000006
 20
-0.2
 30
0
 11
4.305800000000005
 21
-0.08000000000000002
 31
0
  0
LINE
  8
0
 62
7
 10
4.338200000000005
 20
-0.098
 30
0
 11
4.343600000000005
 21
-0.08900000000000001
 31
0
  0
LINE
  8
0
 62
7
 10
4.343600000000005
 20
-0.08900000000000001
 30
0
 11
4.351700000000005
 21
-0.08300000000000002
 31
0
  0
LINE
  8
0
 62
7
 10
4.351700000000005
 20
-0.08300000000000002
 30
0
 11
4.362500000000006
 21
-0.08000000000000002
 31
0
  0
LINE
  8
0
 62
7
 10
4.362500000000006
 20
-0.08000000000000002
 30
0
 11
4.378700000000006
 21
-0.08000000000000002
 31
0
  0
LINE
  8
0
 62
7
 10
4.378700000000006
 20
-0.08000000000000002
 30
0
 11
4.386800000000004
 21
-0.08300000000000002
 31
0
  0
LINE
  8
0
 62
7
 10
4.386800000000004
 20
-0.08300000000000002
 30
0
 11
4.394900000000006
 21
-0.08900000000000001
 31
0
  0
LINE
  8
0
 62
7
 10
4.394900000000006
 20
-0.08900000000000001
 30
0
 11
4.400300000000005
 21
-0.098
 31
0
  0
LINE
  8
0
 62
7
 10
4.400300000000005
 20
-0.098
 30
0
 11
4.403000000000006
 21
-0.11
 31
0
  0
LINE
  8
0
 62
7
 10
4.403000000000006
 20
-0.11
 30
0
 11
4.403000000000006
 21
-0.119
 31
0
  0
LINE
  8
0
 62
7
 10
4.403000000000006
 20
-0.119
 30
0
 11
4.400300000000005
 21
-0.128
 31
0
  0
LINE
  8
0
 62
7
 10
4.400300000000005
 20
-0.128
 30
0
 11
4.394900000000006
 21
-0.134
 31
0
  0
LINE
  8
0
 62
7
 10
4.394900000000006
 20
-0.134
 30
0
 11
4.381400000000005
 21
-0.14
 31
0
  0
LINE
  8
0
 62
7
 10
4.362500000000006
 20
-0.14
 30
0
 11
4.381400000000005
 21
-0.14
 31
0
  0
LINE
  8
0
 62
7
 10
4.381400000000005
 20
-0.14
 30
0
 11
4.394900000000006
 21
-0.146
 31
0
  0
LINE
  8
0
 62
7
 10
4.394900000000006
 20
-0.146
 30
0
 11
4.400300000000005
 21
-0.152
 31
0
  0
LINE
  8
0
 62
7
 10
4.400300000000005
 20
-0.152
 30
0
 11
4.403000000000006
 21
-0.161
 31
0
  0
LINE
  8
0
 62
7
 10
4.403000000000006
 20
-0.161
 30
0
 11
4.403000000000006
 21
-0.17
 31
0
  0
LINE
  8
0
 62
7
 10
4.403000000000006
 20
-0.17
 30
0
 11
4.400300000000005
 21
-0.182
 31
0
  0
LINE
  8
0
 62
7
 10
4.400300000000005
 20
-0.182
 30
0
 11
4.394900000000006
 21
-0.191
 31
0
  0
LINE
  8
0
 62
7
 10
4.394900000000006
 20
-0.191
 30
0
 11
4.386800000000004
 21
-0.197
 31
0
  0
LINE
  8
0
 62
7
 10
4.386800000000004
 20
-0.197
 30
0
 11
4.378700000000006
 21
-0.2
 31
0
  0
LINE
  8
0
 62
7
 10
4.378700000000006
 20
-0.2
 30
0
 11
4.362500000000006
 21
-0.2
 31
0
  0
LINE
  8
0
 62
7
 10
4.362500000000006
 20
-0.2
 30
0
 11
4.351700000000005
 21
-0.197
 31
0
  0
LINE
  8
0
 62
7
 10
4.351700000000005
 20
-0.197
 30
0
 11
4.343600000000005
 21
-0.191
 31
0
  0
LINE
  8
0
 62
7
 10
4.343600000000005
 20
-0.191
 30
0
 11
4.338200000000005
 21
-0.182
 31
0
  0
LINE
  8
0
 62
7
 10
4.435400000000004
 20
-0.152
 30
0
 11
4.438100000000005
 21
-0.14
 31
0
  0
LINE
  8
0
 62
7
 10
4.438100000000005
 20
-0.14
 30
0
 11
4.443500000000005
 21
-0.131
 31
0
  0
LINE
  8
0
 62
7
 10
4.443500000000005
 20
-0.131
 30
0
 11
4.451600000000004
 21
-0.125
 31
0
  0
LINE
  8
0
 62
7
 10
4.451600000000004
 20
-0.125
 30
0
 11
4.459700000000004
 21
-0.122
 31
0
  0
LINE
  8
0
 62
7
 10
4.459700000000004
 20
-0.122
 30
0
 11
4.475900000000004
 21
-0.122
 31
0
  0
LINE
  8
0
 62
7
 10
4.475900000000004
 20
-0.122
 30
0
 11
4.484000000000004
 21
-0.125
 31
0
  0
LINE
  8
0
 62
7
 10
4.484000000000004
 20
-0.125
 30
0
 11
4.492100000000004
 21
-0.131
 31
0
  0
LINE
  8
0
 62
7
 10
4.492100000000004
 20
-0.131
 30
0
 11
4.497500000000006
 21
-0.14
 31
0
  0
LINE
  8
0
 62
7
 10
4.497500000000006
 20
-0.14
 30
0
 11
4.500200000000004
 21
-0.152
 31
0
  0
LINE
  8
0
 62
7
 10
4.500200000000004
 20
-0.152
 30
0
 11
4.500200000000004
 21
-0.17
 31
0
  0
LINE
  8
0
 62
7
 10
4.500200000000004
 20
-0.17
 30
0
 11
4.497500000000006
 21
-0.182
 31
0
  0
LINE
  8
0
 62
7
 10
4.497500000000006
 20
-0.182
 30
0
 11
4.492100000000004
 21
-0.191
 31
0
  0
LINE
  8
0
 62
7
 10
4.492100000000004
 20
-0.191
 30
0
 11
4.484000000000004
 21
-0.197
 31
0
  0
LINE
  8
0
 62
7
 10
4.484000000000004
 20
-0.197
 30
0
 11
4.475900000000004
 21
-0.2
 31
0
  0
LINE
  8
0
 62
7
 10
4.475900000000004
 20
-0.2
 30
0
 11
4.459700000000004
 21
-0.2
 31
0
  0
LINE
  8
0
 62
7
 10
4.459700000000004
 20
-0.2
 30
0
 11
4.451600000000004
 21
-0.197
 31
0
  0
LINE
  8
0
 62
7
 10
4.451600000000004
 20
-0.197
 30
0
 11
4.443500000000005
 21
-0.191
 31
0
  0
LINE
  8
0
 62
7
 10
4.443500000000005
 20
-0.191
 30
0
 11
4.438100000000005
 21
-0.182
 31
0
  0
LINE
  8
0
 62
7
 10
4.438100000000005
 20
-0.182
 30
0
 11
4.435400000000004
 21
-0.17
 31
0
  0
LINE
  8
0
 62
7
 10
4.435400000000004
 20
-0.17
 30
0
 11
4.435400000000004
 21
-0.152
 31
0
  0
LINE
  8
0
 62
7
 10
4.435400000000004
 20
-0.11
 30
0
 11
4.438100000000005
 21
-0.098
 31
0
  0
LINE
  8
0
 62
7
 10
4.438100000000005
 20
-0.098
 30
0
 11
4.443500000000005
 21
-0.08900000000000001
 31
0
  0
LINE
  8
0
 62
7
 10
4.443500000000005
 20
-0.08900000000000001
 30
0
 11
4.451600000000004
 21
-0.08300000000000002
 31
0
  0
LINE
  8
0
 62
7
 10
4.451600000000004
 20
-0.08300000000000002
 30
0
 11
4.459700000000004
 21
-0.08000000000000002
 31
0
  0
LINE
  8
0
 62
7
 10
4.459700000000004
 20
-0.08000000000000002
 30
0
 11
4.475900000000004
 21
-0.08000000000000002
 31
0
  0
LINE
  8
0
 62
7
 10
4.475900000000004
 20
-0.08000000000000002
 30
0
 11
4.484000000000004
 21
-0.08300000000000002
 31
0
  0
LINE
  8
0
 62
7
 10
4.484000000000004
 20
-0.08300000000000002
 30
0
 11
4.492100000000004
 21
-0.08900000000000001
 31
0
  0
LINE
  8
0
 62
7
 10
4.492100000000004
 20
-0.08900000000000001
 30
0
 11
4.497500000000006
 21
-0.098
 31
0
  0
LINE
  8
0
 62
7
 10
4.435400000000004
 20
-0.152
 30
0
 11
4.435400000000004
 21
-0.11
 31
0
  0
LINE
  8
0
 62
7
 10
4.532600000000005
 20
-0.098
 30
0
 11
4.538000000000006
 21
-0.08900000000000001
 31
0
  0
LINE
  8
0
 62
7
 10
4.538000000000006
 20
-0.08900000000000001
 30
0
 11
4.546100000000005
 21
-0.08300000000000002
 31
0
  0
LINE
  8
0
 62
7
 10
4.546100000000005
 20
-0.08300000000000002
 30
0
 11
4.556900000000005
 21
-0.08000000000000002
 31
0
  0
LINE
  8
0
 62
7
 10
4.556900000000005
 20
-0.08000000000000002
 30
0
 11
4.573100000000005
 21
-0.08000000000000002
 31
0
  0
LINE
  8
0
 62
7
 10
4.573100000000005
 20
-0.08000000000000002
 30
0
 11
4.581200000000006
 21
-0.08300000000000002
 31
0
  0
LINE
  8
0
 62
7
 10
4.581200000000006
 20
-0.08300000000000002
 30
0
 11
4.589300000000005
 21
-0.08900000000000001
 31
0
  0
LINE
  8
0
 62
7
 10
4.589300000000005
 20
-0.08900000000000001
 30
0
 11
4.594700000000005
 21
-0.098
 31
0
  0
LINE
  8
0
 62
7
 10
4.594700000000005
 20
-0.098
 30
0
 11
4.597400000000006
 21
-0.11
 31
0
  0
LINE
  8
0
 62
7
 10
4.597400000000006
 20
-0.11
 30
0
 11
4.597400000000006
 21
-0.119
 31
0
  0
LINE
  8
0
 62
7
 10
4.597400000000006
 20
-0.119
 30
0
 11
4.594700000000005
 21
-0.128
 31
0
  0
LINE
  8
0
 62
7
 10
4.594700000000005
 20
-0.128
 30
0
 11
4.589300000000005
 21
-0.134
 31
0
  0
LINE
  8
0
 62
7
 10
4.589300000000005
 20
-0.134
 30
0
 11
4.575800000000005
 21
-0.14
 31
0
  0
LINE
  8
0
 62
7
 10
4.556900000000005
 20
-0.14
 30
0
 11
4.575800000000005
 21
-0.14
 31
0
  0
LINE
  8
0
 62
7
 10
4.575800000000005
 20
-0.14
 30
0
 11
4.589300000000005
 21
-0.146
 31
0
  0
LINE
  8
0
 62
7
 10
4.589300000000005
 20
-0.146
 30
0
 11
4.594700000000005
 21
-0.152
 31
0
  0
LINE
  8
0
 62
7
 10
4.594700000000005
 20
-0.152
 30
0
 11
4.597400000000006
 21
-0.161
 31
0
  0
LINE
  8
0
 62
7
 10
4.597400000000006
 20
-0.161
 30
0
 11
4.597400000000006
 21
-0.17
 31
0
  0
LINE
  8
0
 62
7
 10
4.597400000000006
 20
-0.17
 30
0
 11
4.594700000000005
 21
-0.182
 31
0
  0
LINE
  8
0
 62
7
 10
4.594700000000005
 20
-0.182
 30
0
 11
4.589300000000005
 21
-0.191
 31
0
  0
LINE
  8
0
 62
7
 10
4.589300000000005
 20
-0.191
 30
0
 11
4.581200000000006
 21
-0.197
 31
0
  0
LINE
  8
0
 62
7
 10
4.581200000000006
 20
-0.197
 30
0
 11
4.573100000000005
 21
-0.2
 31
0
  0
LINE
  8
0
 62
7
 10
4.573100000000005
 20
-0.2
 30
0
 11
4.556900000000005
 21
-0.2
 31
0
  0
LINE
  8
0
 62
7
 10
4.556900000000005
 20
-0.2
 30
0
 11
4.546100000000005
 21
-0.197
 31
0
  0
LINE
  8
0
 62
7
 10
4.546100000000005
 20
-0.197
 30
0
 11
4.538000000000006
 21
-0.191
 31
0
  0
LINE
  8
0
 62
7
 10
4.538000000000006
 20
-0.191
 30
0
 11
4.532600000000005
 21
-0.182
 31
0
  0
LINE
  8
0
 62
7
 10
4.629800000000006
 20
-0.2
 30
0
 11
4.629800000000006
 21
-0.08000000000000002
 31
0
  0
LINE
  8
0
 62
7
 10
4.629800000000006
 20
-0.08000000000000002
 30
0
 11
4.681100000000005
 21
-0.08000000000000002
 31
0
  0
LINE
  8
0
 62
7
 10
4.681100000000005
 20
-0.08000000000000002
 30
0
 11
4.691900000000006
 21
-0.08300000000000002
 31
0
  0
LINE
  8
0
 62
7
 10
4.691900000000006
 20
-0.08300000000000002
 30
0
 11
4.700000000000006
 21
-0.08900000000000001
 31
0
  0
LINE
  8
0
 62
7
 10
4.700000000000006
 20
-0.08900000000000001
 30
0
 11
4.702700000000004
 21
-0.09500000000000001
 31
0
  0
LINE
  8
0
 62
7
 10
4.702700000000004
 20
-0.09500000000000001
 30
0
 11
4.705400000000005
 21
-0.104
 31
0
  0
LINE
  8
0
 62
7
 10
4.705400000000005
 20
-0.104
 30
0
 11
4.705400000000005
 21
-0.116
 31
0
  0
LINE
  8
0
 62
7
 10
4.705400000000005
 20
-0.116
 30
0
 11
4.702700000000004
 21
-0.125
 31
0
  0
LINE
  8
0
 62
7
 10
4.702700000000004
 20
-0.125
 30
0
 11
4.700000000000006
 21
-0.131
 31
0
  0
LINE
  8
0
 62
7
 10
4.700000000000006
 20
-0.131
 30
0
 11
4.691900000000006
 21
-0.137
 31
0
  0
LINE
  8
0
 62
7
 10
4.691900000000006
 20
-0.137
 30
0
 11
4.681100000000005
 21
-0.14
 31
0
  0
LINE
  8
0
 62
7
 10
4.681100000000005
 20
-0.14
 30
0
 11
4.673000000000005
 21
-0.14
 31
0
  0
LINE
  8
0
 62
7
 10
4.673000000000005
 20
-0.14
 30
0
 11
4.705400000000005
 21
-0.2
 31
0
  0
LINE
  8
0
 62
7
 10
4.673000000000005
 20
-0.14
 30
0
 11
4.629800000000006
 21
-0.14
 31
0
  0
LINE
  8
0
 62
7
 10
4.727000000000006
 20
-0.152
 30
0
 11
4.729700000000005
 21
-0.14
 31
0
  0
LINE
  8
0
 62
7
 10
4.729700000000005
 20
-0.14
 30
0
 11
4.735100000000005
 21
-0.131
 31
0
  0
LINE
  8
0
 62
7
 10
4.735100000000005
 20
-0.131
 30
0
 11
4.743200000000004
 21
-0.125
 31
0
  0
LINE
  8
0
 62
7
 10
4.743200000000004
 20
-0.125
 30
0
 11
4.751300000000005
 21
-0.122
 31
0
  0
LINE
  8
0
 62
7
 10
4.751300000000005
 20
-0.122
 30
0
 11
4.767500000000005
 21
-0.122
 31
0
  0
LINE
  8
0
 62
7
 10
4.767500000000005
 20
-0.122
 30
0
 11
4.775600000000005
 21
-0.125
 31
0
  0
LINE
  8
0
 62
7
 10
4.775600000000005
 20
-0.125
 30
0
 11
4.783700000000006
 21
-0.131
 31
0
  0
LINE
  8
0
 62
7
 10
4.783700000000006
 20
-0.131
 30
0
 11
4.789100000000005
 21
-0.14
 31
0
  0
LINE
  8
0
 62
7
 10
4.789100000000005
 20
-0.14
 30
0
 11
4.791800000000005
 21
-0.152
 31
0
  0
LINE
  8
0
 62
7
 10
4.791800000000005
 20
-0.152
 30
0
 11
4.791800000000005
 21
-0.17
 31
0
  0
LINE
  8
0
 62
7
 10
4.791800000000005
 20
-0.17
 30
0
 11
4.789100000000005
 21
-0.182
 31
0
  0
LINE
  8
0
 62
7
 10
4.789100000000005
 20
-0.182
 30
0
 11
4.783700000000006
 21
-0.191
 31
0
  0
LINE
  8
0
 62
7
 10
4.783700000000006
 20
-0.191
 30
0
 11
4.775600000000005
 21
-0.197
 31
0
  0
LINE
  8
0
 62
7
 10
4.775600000000005
 20
-0.197
 30
0
 11
4.767500000000005
 21
-0.2
 31
0
  0
LINE
  8
0
 62
7
 10
4.767500000000005
 20
-0.2
 30
0
 11
4.751300000000005
 21
-0.2
 31
0
  0
LINE
  8
0
 62
7
 10
4.751300000000005
 20
-0.2
 30
0
 11
4.743200000000004
 21
-0.197
 31
0
  0
LINE
  8
0
 62
7
 10
4.743200000000004
 20
-0.197
 30
0
 11
4.735100000000005
 21
-0.191
 31
0
  0
LINE
  8
0
 62
7
 10
4.735100000000005
 20
-0.191
 30
0
 11
4.729700000000005
 21
-0.182
 31
0
  0
LINE
  8
0
 62
7
 10
4.729700000000005
 20
-0.182
 30
0
 11
4.727000000000006
 21
-0.17
 31
0
  0
LINE
  8
0
 62
7
 10
4.727000000000006
 20
-0.17
 30
0
 11
4.727000000000006
 21
-0.152
 31
0
  0
LINE
  8
0
 62
7
 10
4.727000000000006
 20
-0.11
 30
0
 11
4.729700000000005
 21
-0.098
 31
0
  0
LINE
  8
0
 62
7
 10
4.729700000000005
 20
-0.098
 30
0
 11
4.735100000000005
 21
-0.08900000000000001
 31
0
  0
LINE
  8
0
 62
7
 10
4.735100000000005
 20
-0.08900000000000001
 30
0
 11
4.743200000000004
 21
-0.08300000000000002
 31
0
  0
LINE
  8
0
 62
7
 10
4.743200000000004
 20
-0.08300000000000002
 30
0
 11
4.751300000000005
 21
-0.08000000000000002
 31
0
  0
LINE
  8
0
 62
7
 10
4.751300000000005
 20
-0.08000000000000002
 30
0
 11
4.767500000000005
 21
-0.08000000000000002
 31
0
  0
LINE
  8
0
 62
7
 10
4.767500000000005
 20
-0.08000000000000002
 30
0
 11
4.775600000000005
 21
-0.08300000000000002
 31
0
  0
LINE
  8
0
 62
7
 10
4.775600000000005
 20
-0.08300000000000002
 30
0
 11
4.783700000000006
 21
-0.08900000000000001
 31
0
  0
LINE
  8
0
 62
7
 10
4.783700000000006
 20
-0.08900000000000001
 30
0
 11
4.789100000000005
 21
-0.098
 31
0
  0
LINE
  8
0
 62
7
 10
4.727000000000006
 20
-0.152
 30
0
 11
4.727000000000006
 21
-0.11
 31
0
  0
LINE
  8
0
 62
7
 10
6.525000000000005
 20
-0.2
 30
0
 11
6.525000000000005
 21
-0.1
 31
0
  0
LINE
  8
0
 62
7
 10
6.525000000000005
 20
-0.1
 30
0
 11
6.588000000000005
 21
-0.2
 31
0
  0
LINE
  8
0
 62
7
 10
6.588000000000005
 20
-0.2
 30
0
 11
6.588000000000005
 21
-0.1
 31
0
  0
LINE
  8
0
 62
7
 10
6.669000000000006
 20
-0.2
 30
0
 11
6.615000000000006
 21
-0.2
 31
0
  0
LINE
  8
0
 62
7
 10
6.615000000000006
 20
-0.2
 30
0
 11
6.615000000000006
 21
-0.1
 31
0
  0
LINE
  8
0
 62
7
 10
6.696000000000005
 20
-0.15
 30
0
 11
6.732000000000006
 21
-0.15
 31
0
  0
LINE
  8
0
 62
7
 10
6.732000000000006
 20
-0.15
 30
0
 11
6.736500000000006
 21
-0.15
 31
0
  0
LINE
  8
0
 62
7
 10
6.736500000000006
 20
-0.15
 30
0
 11
6.745500000000006
 21
-0.155
 31
0
  0
LINE
  8
0
 62
7
 10
6.745500000000006
 20
-0.155
 30
0
 11
6.750000000000004
 21
-0.16
 31
0
  0
LINE
  8
0
 62
7
 10
6.750000000000004
 20
-0.16
 30
0
 11
6.754500000000006
 21
-0.17
 31
0
  0
LINE
  8
0
 62
7
 10
6.754500000000006
 20
-0.17
 30
0
 11
6.754500000000006
 21
-0.18
 31
0
  0
LINE
  8
0
 62
7
 10
6.754500000000006
 20
-0.18
 30
0
 11
6.750000000000004
 21
-0.19
 31
0
  0
LINE
  8
0
 62
7
 10
6.750000000000004
 20
-0.19
 30
0
 11
6.745500000000006
 21
-0.195
 31
0
  0
LINE
  8
0
 62
7
 10
6.745500000000006
 20
-0.195
 30
0
 11
6.736500000000006
 21
-0.2
 31
0
  0
LINE
  8
0
 62
7
 10
6.736500000000006
 20
-0.2
 30
0
 11
6.696000000000005
 21
-0.2
 31
0
  0
LINE
  8
0
 62
7
 10
6.696000000000005
 20
-0.2
 30
0
 11
6.696000000000005
 21
-0.15
 31
0
  0
LINE
  8
0
 62
7
 10
6.696000000000005
 20
-0.1
 30
0
 11
6.729750000000005
 21
-0.1
 31
0
  0
LINE
  8
0
 62
7
 10
6.729750000000005
 20
-0.1
 30
0
 11
6.741000000000006
 21
-0.1025
 31
0
  0
LINE
  8
0
 62
7
 10
6.741000000000006
 20
-0.1025
 30
0
 11
6.747750000000005
 21
-0.11
 31
0
  0
LINE
  8
0
 62
7
 10
6.747750000000005
 20
-0.11
 30
0
 11
6.750000000000004
 21
-0.12
 31
0
  0
LINE
  8
0
 62
7
 10
6.750000000000004
 20
-0.12
 30
0
 11
6.750000000000004
 21
-0.13
 31
0
  0
LINE
  8
0
 62
7
 10
6.750000000000004
 20
-0.13
 30
0
 11
6.745500000000006
 21
-0.14
 31
0
  0
LINE
  8
0
 62
7
 10
6.745500000000006
 20
-0.14
 30
0
 11
6.738750000000005
 21
-0.1475
 31
0
  0
LINE
  8
0
 62
7
 10
6.738750000000005
 20
-0.1475
 30
0
 11
6.732000000000006
 21
-0.15
 31
0
  0
LINE
  8
0
 62
7
 10
6.696000000000005
 20
-0.15
 30
0
 11
6.696000000000005
 21
-0.1
 31
0
  0
LINE
  8
0
 62
7
 10
6.896250000000006
 20
-0.1475
 30
0
 11
6.889500000000005
 21
-0.1375
 31
0
  0
LINE
  8
0
 62
7
 10
6.889500000000005
 20
-0.1375
 30
0
 11
6.882750000000006
 21
-0.1325
 31
0
  0
LINE
  8
0
 62
7
 10
6.882750000000006
 20
-0.1325
 30
0
 11
6.876000000000005
 21
-0.13
 31
0
  0
LINE
  8
0
 62
7
 10
6.876000000000005
 20
-0.13
 30
0
 11
6.867000000000006
 21
-0.13
 31
0
  0
LINE
  8
0
 62
7
 10
6.867000000000006
 20
-0.13
 30
0
 11
6.860250000000007
 21
-0.1325
 31
0
  0
LINE
  8
0
 62
7
 10
6.860250000000007
 20
-0.1325
 30
0
 11
6.853500000000006
 21
-0.1375
 31
0
  0
LINE
  8
0
 62
7
 10
6.853500000000006
 20
-0.1375
 30
0
 11
6.846750000000006
 21
-0.1475
 31
0
  0
LINE
  8
0
 62
7
 10
6.846750000000006
 20
-0.1475
 30
0
 11
6.844500000000005
 21
-0.155
 31
0
  0
LINE
  8
0
 62
7
 10
6.844500000000005
 20
-0.155
 30
0
 11
6.844500000000005
 21
-0.175
 31
0
  0
LINE
  8
0
 62
7
 10
6.844500000000005
 20
-0.175
 30
0
 11
6.846750000000006
 21
-0.1825
 31
0
  0
LINE
  8
0
 62
7
 10
6.846750000000006
 20
-0.1825
 30
0
 11
6.853500000000006
 21
-0.1925
 31
0
  0
LINE
  8
0
 62
7
 10
6.853500000000006
 20
-0.1925
 30
0
 11
6.860250000000007
 21
-0.1975
 31
0
  0
LINE
  8
0
 62
7
 10
6.860250000000007
 20
-0.1975
 30
0
 11
6.867000000000006
 21
-0.2
 31
0
  0
LINE
  8
0
 62
7
 10
6.867000000000006
 20
-0.2
 30
0
 11
6.876000000000005
 21
-0.2
 31
0
  0
LINE
  8
0
 62
7
 10
6.876000000000005
 20
-0.2
 30
0
 11
6.882750000000006
 21
-0.1975
 31
0
  0
LINE
  8
0
 62
7
 10
6.882750000000006
 20
-0.1975
 30
0
 11
6.889500000000005
 21
-0.1925
 31
0
  0
LINE
  8
0
 62
7
 10
6.889500000000005
 20
-0.1925
 30
0
 11
6.896250000000006
 21
-0.1825
 31
0
  0
LINE
  8
0
 62
7
 10
6.968250000000006
 20
-0.155
 30
0
 11
6.966000000000006
 21
-0.1475
 31
0
  0
LINE
  8
0
 62
7
 10
6.966000000000006
 20
-0.1475
 30
0
 11
6.959250000000006
 21
-0.1375
 31
0
  0
LINE
  8
0
 62
7
 10
6.959250000000006
 20
-0.1375
 30
0
 11
6.952500000000005
 21
-0.1325
 31
0
  0
LINE
  8
0
 62
7
 10
6.952500000000005
 20
-0.1325
 30
0
 11
6.945750000000006
 21
-0.13
 31
0
  0
LINE
  8
0
 62
7
 10
6.945750000000006
 20
-0.13
 30
0
 11
6.936750000000005
 21
-0.13
 31
0
  0
LINE
  8
0
 62
7
 10
6.936750000000005
 20
-0.13
 30
0
 11
6.930000000000006
 21
-0.1325
 31
0
  0
LINE
  8
0
 62
7
 10
6.930000000000006
 20
-0.1325
 30
0
 11
6.923250000000007
 21
-0.1375
 31
0
  0
LINE
  8
0
 62
7
 10
6.923250000000007
 20
-0.1375
 30
0
 11
6.916500000000006
 21
-0.1475
 31
0
  0
LINE
  8
0
 62
7
 10
6.916500000000006
 20
-0.1475
 30
0
 11
6.914250000000006
 21
-0.155
 31
0
  0
LINE
  8
0
 62
7
 10
6.914250000000006
 20
-0.155
 30
0
 11
6.914250000000006
 21
-0.175
 31
0
  0
LINE
  8
0
 62
7
 10
6.914250000000006
 20
-0.175
 30
0
 11
6.916500000000006
 21
-0.1825
 31
0
  0
LINE
  8
0
 62
7
 10
6.916500000000006
 20
-0.1825
 30
0
 11
6.923250000000007
 21
-0.1925
 31
0
  0
LINE
  8
0
 62
7
 10
6.923250000000007
 20
-0.1925
 30
0
 11
6.930000000000006
 21
-0.1975
 31
0
  0
LINE
  8
0
 62
7
 10
6.930000000000006
 20
-0.1975
 30
0
 11
6.936750000000005
 21
-0.2
 31
0
  0
LINE
  8
0
 62
7
 10
6.936750000000005
 20
-0.2
 30
0
 11
6.945750000000006
 21
-0.2
 31
0
  0
LINE
  8
0
 62
7
 10
6.945750000000006
 20
-0.2
 30
0
 11
6.952500000000005
 21
-0.1975
 31
0
  0
LINE
  8
0
 62
7
 10
6.952500000000005
 20
-0.1975
 30
0
 11
6.959250000000006
 21
-0.1925
 31
0
  0
LINE
  8
0
 62
7
 10
6.959250000000006
 20
-0.1925
 30
0
 11
6.966000000000006
 21
-0.1825
 31
0
  0
LINE
  8
0
 62
7
 10
6.966000000000006
 20
-0.1825
 30
0
 11
6.968250000000006
 21
-0.175
 31
0
  0
LINE
  8
0
 62
7
 10
6.968250000000006
 20
-0.13
 30
0
 11
6.968250000000006
 21
-0.155
 31
0
  0
LINE
  8
0
 62
7
 10
6.968250000000006
 20
-0.1975
 30
0
 11
6.970500000000006
 21
-0.2
 31
0
  0
LINE
  8
0
 62
7
 10
6.970500000000006
 20
-0.2
 30
0
 11
6.972750000000007
 21
-0.2
 31
0
  0
LINE
  8
0
 62
7
 10
6.968250000000006
 20
-0.175
 30
0
 11
6.968250000000006
 21
-0.1975
 31
0
  0
LINE
  8
0
 62
7
 10
6.968250000000006
 20
-0.155
 30
0
 11
6.968250000000006
 21
-0.175
 31
0
  0
LINE
  8
0
 62
7
 10
6.990750000000006
 20
-0.2
 30
0
 11
6.990750000000006
 21
-0.1975
 31
0
  0
LINE
  8
0
 62
7
 10
6.990750000000006
 20
-0.1975
 30
0
 11
6.993000000000006
 21
-0.1975
 31
0
  0
LINE
  8
0
 62
7
 10
6.993000000000006
 20
-0.1975
 30
0
 11
6.993000000000006
 21
-0.2
 31
0
  0
LINE
  8
0
 62
7
 10
6.993000000000006
 20
-0.2
 30
0
 11
6.990750000000006
 21
-0.2
 31
0
  0
LINE
  8
0
 62
7
 10
7.116750000000007
 20
-0.1
 30
0
 11
7.125750000000005
 21
-0.1
 31
0
  0
LINE
  8
0
 62
7
 10
7.125750000000005
 20
-0.1
 30
0
 11
7.132500000000005
 21
-0.1025
 31
0
  0
LINE
  8
0
 62
7
 10
7.132500000000005
 20
-0.1025
 30
0
 11
7.137000000000007
 21
-0.1075
 31
0
  0
LINE
  8
0
 62
7
 10
7.137000000000007
 20
-0.1075
 30
0
 11
7.141500000000007
 21
-0.115
 31
0
  0
LINE
  8
0
 62
7
 10
7.141500000000007
 20
-0.115
 30
0
 11
7.141500000000007
 21
-0.125
 31
0
  0
LINE
  8
0
 62
7
 10
7.141500000000007
 20
-0.125
 30
0
 11
7.139250000000006
 21
-0.13
 31
0
  0
LINE
  8
0
 62
7
 10
7.139250000000006
 20
-0.13
 30
0
 11
7.132500000000005
 21
-0.1375
 31
0
  0
LINE
  8
0
 62
7
 10
7.132500000000005
 20
-0.1375
 30
0
 11
7.125750000000005
 21
-0.14
 31
0
  0
LINE
  8
0
 62
7
 10
7.125750000000005
 20
-0.14
 30
0
 11
7.116750000000007
 21
-0.14
 31
0
  0
LINE
  8
0
 62
7
 10
7.116750000000007
 20
-0.14
 30
0
 11
7.110000000000006
 21
-0.1375
 31
0
  0
LINE
  8
0
 62
7
 10
7.110000000000006
 20
-0.1375
 30
0
 11
7.103250000000006
 21
-0.13
 31
0
  0
LINE
  8
0
 62
7
 10
7.103250000000006
 20
-0.13
 30
0
 11
7.101000000000005
 21
-0.125
 31
0
  0
LINE
  8
0
 62
7
 10
7.101000000000005
 20
-0.125
 30
0
 11
7.101000000000005
 21
-0.115
 31
0
  0
LINE
  8
0
 62
7
 10
7.101000000000005
 20
-0.115
 30
0
 11
7.105500000000005
 21
-0.1075
 31
0
  0
LINE
  8
0
 62
7
 10
7.105500000000005
 20
-0.1075
 30
0
 11
7.110000000000006
 21
-0.1025
 31
0
  0
LINE
  8
0
 62
7
 10
7.110000000000006
 20
-0.1025
 30
0
 11
7.116750000000007
 21
-0.1
 31
0
  0
LINE
  8
0
 62
7
 10
7.116750000000007
 20
-0.14
 30
0
 11
7.105500000000005
 21
-0.145
 31
0
  0
LINE
  8
0
 62
7
 10
7.105500000000005
 20
-0.145
 30
0
 11
7.098750000000006
 21
-0.1525
 31
0
  0
LINE
  8
0
 62
7
 10
7.098750000000006
 20
-0.1525
 30
0
 11
7.094250000000006
 21
-0.1625
 31
0
  0
LINE
  8
0
 62
7
 10
7.094250000000006
 20
-0.1625
 30
0
 11
7.094250000000006
 21
-0.1775
 31
0
  0
LINE
  8
0
 62
7
 10
7.094250000000006
 20
-0.1775
 30
0
 11
7.098750000000006
 21
-0.1875
 31
0
  0
LINE
  8
0
 62
7
 10
7.098750000000006
 20
-0.1875
 30
0
 11
7.105500000000005
 21
-0.195
 31
0
  0
LINE
  8
0
 62
7
 10
7.105500000000005
 20
-0.195
 30
0
 11
7.114500000000006
 21
-0.2
 31
0
  0
LINE
  8
0
 62
7
 10
7.114500000000006
 20
-0.2
 30
0
 11
7.128000000000006
 21
-0.2
 31
0
  0
LINE
  8
0
 62
7
 10
7.128000000000006
 20
-0.2
 30
0
 11
7.137000000000007
 21
-0.195
 31
0
  0
LINE
  8
0
 62
7
 10
7.137000000000007
 20
-0.195
 30
0
 11
7.143750000000004
 21
-0.1875
 31
0
  0
LINE
  8
0
 62
7
 10
7.143750000000004
 20
-0.1875
 30
0
 11
7.148250000000006
 21
-0.1775
 31
0
  0
LINE
  8
0
 62
7
 10
7.148250000000006
 20
-0.1775
 30
0
 11
7.148250000000006
 21
-0.1625
 31
0
  0
LINE
  8
0
 62
7
 10
7.148250000000006
 20
-0.1625
 30
0
 11
7.143750000000004
 21
-0.1525
 31
0
  0
LINE
  8
0
 62
7
 10
7.143750000000004
 20
-0.1525
 30
0
 11
7.137000000000007
 21
-0.145
 31
0
  0
LINE
  8
0
 62
7
 10
7.137000000000007
 20
-0.145
 30
0
 11
7.125750000000005
 21
-0.14
 31
0
  0
LINE
  8
0
 62
7
 10
7.238250000000005
 20
-0.14
 30
0
 11
7.236000000000004
 21
-0.15
 31
0
  0
LINE
  8
0
 62
7
 10
7.236000000000004
 20
-0.15
 30
0
 11
7.231500000000006
 21
-0.1575
 31
0
  0
LINE
  8
0
 62
7
 10
7.231500000000006
 20
-0.1575
 30
0
 11
7.224750000000005
 21
-0.1625
 31
0
  0
LINE
  8
0
 62
7
 10
7.224750000000005
 20
-0.1625
 30
0
 11
7.218000000000005
 21
-0.165
 31
0
  0
LINE
  8
0
 62
7
 10
7.218000000000005
 20
-0.165
 30
0
 11
7.204500000000007
 21
-0.165
 31
0
  0
LINE
  8
0
 62
7
 10
7.204500000000007
 20
-0.165
 30
0
 11
7.197750000000006
 21
-0.1625
 31
0
  0
LINE
  8
0
 62
7
 10
7.197750000000006
 20
-0.1625
 30
0
 11
7.191000000000006
 21
-0.1575
 31
0
  0
LINE
  8
0
 62
7
 10
7.191000000000006
 20
-0.1575
 30
0
 11
7.186500000000006
 21
-0.15
 31
0
  0
LINE
  8
0
 62
7
 10
7.186500000000006
 20
-0.15
 30
0
 11
7.184250000000006
 21
-0.14
 31
0
  0
LINE
  8
0
 62
7
 10
7.184250000000006
 20
-0.14
 30
0
 11
7.184250000000006
 21
-0.125
 31
0
  0
LINE
  8
0
 62
7
 10
7.184250000000006
 20
-0.125
 30
0
 11
7.186500000000006
 21
-0.115
 31
0
  0
LINE
  8
0
 62
7
 10
7.186500000000006
 20
-0.115
 30
0
 11
7.191000000000006
 21
-0.1075
 31
0
  0
LINE
  8
0
 62
7
 10
7.191000000000006
 20
-0.1075
 30
0
 11
7.197750000000006
 21
-0.1025
 31
0
  0
LINE
  8
0
 62
7
 10
7.197750000000006
 20
-0.1025
 30
0
 11
7.204500000000007
 21
-0.1
 31
0
  0
LINE
  8
0
 62
7
 10
7.204500000000007
 20
-0.1
 30
0
 11
7.218000000000005
 21
-0.1
 31
0
  0
LINE
  8
0
 62
7
 10
7.218000000000005
 20
-0.1
 30
0
 11
7.224750000000005
 21
-0.1025
 31
0
  0
LINE
  8
0
 62
7
 10
7.224750000000005
 20
-0.1025
 30
0
 11
7.231500000000006
 21
-0.1075
 31
0
  0
LINE
  8
0
 62
7
 10
7.231500000000006
 20
-0.1075
 30
0
 11
7.236000000000004
 21
-0.115
 31
0
  0
LINE
  8
0
 62
7
 10
7.236000000000004
 20
-0.115
 30
0
 11
7.238250000000005
 21
-0.125
 31
0
  0
LINE
  8
0
 62
7
 10
7.238250000000005
 20
-0.125
 30
0
 11
7.238250000000005
 21
-0.14
 31
0
  0
LINE
  8
0
 62
7
 10
7.238250000000005
 20
-0.175
 30
0
 11
7.236000000000004
 21
-0.185
 31
0
  0
LINE
  8
0
 62
7
 10
7.236000000000004
 20
-0.185
 30
0
 11
7.231500000000006
 21
-0.1925
 31
0
  0
LINE
  8
0
 62
7
 10
7.231500000000006
 20
-0.1925
 30
0
 11
7.224750000000005
 21
-0.1975
 31
0
  0
LINE
  8
0
 62
7
 10
7.224750000000005
 20
-0.1975
 30
0
 11
7.218000000000005
 21
-0.2
 31
0
  0
LINE
  8
0
 62
7
 10
7.218000000000005
 20
-0.2
 30
0
 11
7.204500000000007
 21
-0.2
 31
0
  0
LINE
  8
0
 62
7
 10
7.204500000000007
 20
-0.2
 30
0
 11
7.197750000000006
 21
-0.1975
 31
0
  0
LINE
  8
0
 62
7
 10
7.197750000000006
 20
-0.1975
 30
0
 11
7.191000000000006
 21
-0.1925
 31
0
  0
LINE
  8
0
 62
7
 10
7.191000000000006
 20
-0.1925
 30
0
 11
7.186500000000006
 21
-0.185
 31
0
  0
LINE
  8
0
 62
7
 10
7.238250000000005
 20
-0.14
 30
0
 11
7.238250000000005
 21
-0.175
 31
0
  0
LINE
  8
0
 62
7
 10
7.389000000000006
 20
-0.1475
 30
0
 11
7.382250000000005
 21
-0.1375
 31
0
  0
LINE
  8
0
 62
7
 10
7.382250000000005
 20
-0.1375
 30
0
 11
7.375500000000006
 21
-0.1325
 31
0
  0
LINE
  8
0
 62
7
 10
7.375500000000006
 20
-0.1325
 30
0
 11
7.368750000000005
 21
-0.13
 31
0
  0
LINE
  8
0
 62
7
 10
7.368750000000005
 20
-0.13
 30
0
 11
7.359750000000005
 21
-0.13
 31
0
  0
LINE
  8
0
 62
7
 10
7.359750000000005
 20
-0.13
 30
0
 11
7.353000000000006
 21
-0.1325
 31
0
  0
LINE
  8
0
 62
7
 10
7.353000000000006
 20
-0.1325
 30
0
 11
7.346250000000005
 21
-0.1375
 31
0
  0
LINE
  8
0
 62
7
 10
7.346250000000005
 20
-0.1375
 30
0
 11
7.339500000000005
 21
-0.1475
 31
0
  0
LINE
  8
0
 62
7
 10
7.339500000000005
 20
-0.1475
 30
0
 11
7.337250000000004
 21
-0.155
 31
0
  0
LINE
  8
0
 62
7
 10
7.337250000000004
 20
-0.155
 30
0
 11
7.337250000000004
 21
-0.175
 31
0
  0
LINE
  8
0
 62
7
 10
7.337250000000004
 20
-0.175
 30
0
 11
7.339500000000005
 21
-0.1825
 31
0
  0
LINE
  8
0
 62
7
 10
7.339500000000005
 20
-0.1825
 30
0
 11
7.346250000000005
 21
-0.1925
 31
0
  0
LINE
  8
0
 62
7
 10
7.346250000000005
 20
-0.1925
 30
0
 11
7.353000000000006
 21
-0.1975
 31
0
  0
LINE
  8
0
 62
7
 10
7.353000000000006
 20
-0.1975
 30
0
 11
7.359750000000005
 21
-0.2
 31
0
  0
LINE
  8
0
 62
7
 10
7.359750000000005
 20
-0.2
 30
0
 11
7.368750000000005
 21
-0.2
 31
0
  0
LINE
  8
0
 62
7
 10
7.368750000000005
 20
-0.2
 30
0
 11
7.375500000000006
 21
-0.1975
 31
0
  0
LINE
  8
0
 62
7
 10
7.375500000000006
 20
-0.1975
 30
0
 11
7.382250000000005
 21
-0.1925
 31
0
  0
LINE
  8
0
 62
7
 10
7.382250000000005
 20
-0.1925
 30
0
 11
7.389000000000006
 21
-0.1825
 31
0
  0
LINE
  8
0
 62
7
 10
7.447500000000005
 20
-0.155
 30
0
 11
7.447500000000005
 21
-0.2
 31
0
  0
LINE
  8
0
 62
7
 10
7.407000000000005
 20
-0.13
 30
0
 11
7.407000000000005
 21
-0.155
 31
0
  0
LINE
  8
0
 62
7
 10
7.407000000000005
 20
-0.2
 30
0
 11
7.407000000000005
 21
-0.155
 31
0
  0
LINE
  8
0
 62
7
 10
7.407000000000005
 20
-0.155
 30
0
 11
7.409250000000006
 21
-0.1425
 31
0
  0
LINE
  8
0
 62
7
 10
7.409250000000006
 20
-0.1425
 30
0
 11
7.411500000000006
 21
-0.1375
 31
0
  0
LINE
  8
0
 62
7
 10
7.411500000000006
 20
-0.1375
 30
0
 11
7.416000000000006
 21
-0.1325
 31
0
  0
LINE
  8
0
 62
7
 10
7.416000000000006
 20
-0.1325
 30
0
 11
7.422750000000007
 21
-0.13
 31
0
  0
LINE
  8
0
 62
7
 10
7.422750000000007
 20
-0.13
 30
0
 11
7.431750000000005
 21
-0.13
 31
0
  0
LINE
  8
0
 62
7
 10
7.431750000000005
 20
-0.13
 30
0
 11
7.438500000000005
 21
-0.1325
 31
0
  0
LINE
  8
0
 62
7
 10
7.438500000000005
 20
-0.1325
 30
0
 11
7.443000000000005
 21
-0.1375
 31
0
  0
LINE
  8
0
 62
7
 10
7.443000000000005
 20
-0.1375
 30
0
 11
7.445250000000006
 21
-0.1425
 31
0
  0
LINE
  8
0
 62
7
 10
7.445250000000006
 20
-0.1425
 30
0
 11
7.447500000000005
 21
-0.155
 31
0
  0
LINE
  8
0
 62
7
 10
7.447500000000005
 20
-0.155
 30
0
 11
7.449750000000005
 21
-0.1425
 31
0
  0
LINE
  8
0
 62
7
 10
7.449750000000005
 20
-0.1425
 30
0
 11
7.452000000000005
 21
-0.1375
 31
0
  0
LINE
  8
0
 62
7
 10
7.452000000000005
 20
-0.1375
 30
0
 11
7.456500000000005
 21
-0.1325
 31
0
  0
LINE
  8
0
 62
7
 10
7.456500000000005
 20
-0.1325
 30
0
 11
7.463250000000006
 21
-0.13
 31
0
  0
LINE
  8
0
 62
7
 10
7.463250000000006
 20
-0.13
 30
0
 11
7.472250000000006
 21
-0.13
 31
0
  0
LINE
  8
0
 62
7
 10
7.472250000000006
 20
-0.13
 30
0
 11
7.479000000000006
 21
-0.1325
 31
0
  0
LINE
  8
0
 62
7
 10
7.483500000000006
 20
-0.1375
 30
0
 11
7.479000000000006
 21
-0.1325
 31
0
  0
LINE
  8
0
 62
7
 10
7.479000000000006
 20
-0.1325
 30
0
 11
7.483500000000006
 21
-0.1375
 31
0
  0
LINE
  8
0
 62
7
 10
7.483500000000006
 20
-0.1375
 30
0
 11
7.485750000000007
 21
-0.1425
 31
0
  0
LINE
  8
0
 62
7
 10
7.485750000000007
 20
-0.1425
 30
0
 11
7.488000000000006
 21
-0.155
 31
0
  0
LINE
  8
0
 62
7
 10
7.488000000000006
 20
-0.155
 30
0
 11
7.488000000000006
 21
-0.2
 31
0
  0
ARC
  8
0
 62
7
 10
6.070128922706243
 20
0.4051289227062498
 30
0
 40
0.5380000000000166
 50
359.9862700230317
 51
90.01372997655312
  0
ARC
  8
0
 62
7
 10
4.444871077293763
 20
0.4051289227062498
 30
0
 40
0.5380000000000095
 50
89.986270023034
 51
180.0137299731567
  0
CIRCLE
  8
0
 62
7
 10
3.906871092740843
 20
0.16
 30
0
 40
0.06000000000000094
  0
DIMENSION
  8
0
  6
CONTINUOUS
 62
7
  2
*D1
  3
DMST_1
 10
3.440000000000005
 20
8.44090223343545
 30
0
 11
5.23786485564628
 21
8.44090223343545
 31
0
 12
0
 22
0
 32
0
 70
0
 13
7.075000000000005
 23
8.110000000000001
 33
0
 14
3.440000000000005
 24
8.110000000000001
 34
0
 53
0
  0
DIMENSION
  8
0
  6
CONTINUOUS
 62
7
  2
*D2
  3
DMST_2
 10
2.91104728708899
 20
1.41
 30
0
 11
2.91104728708899
 21
0.818568819196039
 31
0
 12
0
 22
0
 32
0
 70
0
 13
3.265000000000005
 23
0.16
 33
0
 14
3.265000000000005
 24
1.41
 34
0
 50
90
 53
0
  0
DIMENSION
  8
0
  6
CONTINUOUS
 62
7
  2
*D3
  3
DMST_2
 10
3.440000000000005
 20
2.28572472449325
 30
0
 11
5.24932701115641
 21
2.28572472449325
 31
0
 12
0
 22
0
 32
0
 70
0
 13
7.075000000000005
 23
1.929999999999998
 33
0
 14
3.440000000000005
 24
1.929999999999998
 34
0
 53
0
  0
DIMENSION
  8
0
  6
CONTINUOUS
 62
7
  2
*D4
  3
DMST_2
 10
7.57614457971371
 20
1.41
 30
0
 11
7.57614457971371
 21
0.841493130216308
 31
0
 12
0
 22
0
 32
0
 70
0
 13
7.250000000000004
 23
0.26
 33
0
 14
7.250000000000004
 24
1.41
 34
0
 50
90
 53
0
  0
INSERT
  8
0
  2
*D0
 10
0
 20
0
 30
0
  0
ENDSEC
  0
EOF
