  0
SECTION
  2
HEADER
  9
$ACADVER
  1
AC1009
  9
$INSBASE
 10
0
 20
0
  9
$EXTMIN
 10
0.525
 20
2.889999999999999
  9
$EXTMAX
 10
8.25
 20
11.5601587557486
  9
$LIMMIN
 10
0.525
 20
2.889999999999999
  9
$LIMMAX
 10
8.25
 20
11.5601587557486
  9
$VIEWCTR
 10
10
 20
10
  9
$VIEWSIZE
 40
10
  9
$SNAPMODE
 70
0
  9
$SNAPUNIT
 10
1
 20
1
  9
$SNAPBASE
 10
0
 20
0
  9
$SNAPANG
 50
0
  9
$SNAPSTYLE
 70
0
  9
$SNAPISOPAIR
 70
0
  9
$GRIDMODE
 70
0
  9
$GRIDUNIT
 10
0
 20
0
  9
$ORTHOMODE
 70
0
  9
$REGENMODE
 70
1
  9
$FILLMODE
 70
1
  9
$QTEXTMODE
 70
0
  9
$DRAGMODE
 70
2
  9
$LTSCALE
 40
1
  9
$OSMODE
 70
0
  9
$ATTMODE
 70
1
  9
$TEXTSIZE
 40
3.5
  9
$TRACEWID
 40
0.5
  9
$TEXTSTYLE
  7
STANDARD
  9
$CLAYER
  8
0
  9
$CELTYPE
  6
BYLAYER
  9
$CECOLOR
 62
256
  9
$DIMSCALE
 40
1
  9
$DIMASZ
 40
0.18
  9
$DIMEXO
 40
0.0625
  9
$DIMDLI
 40
0.38
  9
$DIMRND
 40
0
  9
$DIMDLE
 40
0
  9
$DIMEXE
 40
0.18
  9
$DIMTP
 40
0
  9
$DIMTM
 40
0
  9
$DIMTXT
 40
0.18
  9
$DIMCEN
 40
0.09
  9
$DIMTSZ
 40
0
  9
$DIMTOL
 70
0
  9
$DIMLIM
 70
0
  9
$DIMTIH
 70
1
  9
$DIMTOH
 70
1
  9
$DIMSE1
 70
0
  9
$DIMSE2
 70
0
  9
$DIMTAD
 70
0
  9
$DIMZIN
 70
0
  9
$DIMBLK
  1

  9
$DIMASO
 70
1
  9
$DIMSHO
 70
1
  9
$DIMPOST
  1

  9
$DIMAPOST
  1

  9
$DIMALT
 70
0
  9
$DIMALTD
 70
2
  9
$DIMALTF
 40
25.4
  9
$DIMLFAC
 40
1
  9
$DIMTOFL
 70
0
  9
$DIMTVP
 40
0
  9
$DIMTIX
 70
0
  9
$DIMSOXD
 70
0
  9
$DIMSAH
 70
0
  9
$DIMBLK1
  1

  9
$DIMBLK2
  1

  9
$DIMSTYLE
  2
*UNNAMED
  9
$DIMCLRD
 70
0
  9
$DIMCLRE
 70
0
  9
$DIMCLRT
 70
0
  9
$DIMTFAC
 40
1
  9
$DIMGAP
 40
0.09
  9
$LUNITS
 70
2
  9
$LUPREC
 70
4
  9
$AXISMODE
 70
0
  9
$AXISUNIT
 10
0
 20
0
  9
$SKETCHINC
 40
0.1
  9
$FILLETRAD
 40
2
  9
$AUNITS
 70
0
  9
$AUPREC
 70
0
  9
$MENU
  1
ACAD
  9
$ELEVATION
 40
0
  9
$THICKNESS
 40
0
  9
$VIEWDIR
 10
0
 20
0
 30
1
  9
$LIMCHECK
 70
0
  9
$BLIPMODE
 70
1
  9
$CHAMFERA
 40
0
  9
$CHAMFERB
 40
0
  9
$FASTZOOM
 70
1
  9
$SKPOLY
 70
0
  9
$ANGBASE
 50
0
  9
$ANGDIR
 70
0
  9
$PDMODE
 70
0
  9
$PDSIZE
 40
0
  9
$PLINEWID
 40
0
  9
$COORDS
 70
2
  0
ENDSEC
  0
SECTION
  2
TABLES
  0
TABLE
  2
DIMSTYLE
 70
2
  0
DIMSTYLE
  2
DMST_1
 70
0
  3

  4

  5

  6

  7

 40
1
 41
0.1
 42
0
 43
0.7
 44
0.2
 45
0
 46
0
 47
0
 48
0
140
0.1
141
0
142
0.1
143
25.4
144
1
145
0
146
1
147
0.2
 71
0
 72
0
 73
0
 74
0
 75
0
 76
0
 77
0
 78
9
170
0
171
2
172
0
173
0
174
0
175
0
176
7
177
7
178
7
  0
DIMSTYLE
  2
DMST_2
 70
0
  3

  4

  5

  6

  7

 40
1
 41
0.1
 42
0
 43
0.7
 44
0.2
 45
0
 46
0
 47
0
 48
0
140
0.1
141
0
142
0.1
143
25.4
144
1
145
0
146
1
147
0.25
 71
0
 72
0
 73
0
 74
0
 75
0
 76
0
 77
0
 78
9
170
0
171
2
172
0
173
0
174
0
175
0
176
7
177
7
178
7
  0
ENDTAB
  0
TABLE
  2
LTYPE
 70
9
  0
LTYPE
  2
CONTINUOUS
 70
64
  3
Solid line
 72
65
 73
0
 40
0
  0
LTYPE
  2
BORDER
 70
64
  3
__ __ . __ __ .
 72
65
 73
6
 40
0.399283626909475
 49
0.11408103625985
 49
-0.057040518129925
 49
0.11408103625985
 49
-0.057040518129925
 49
0
 49
-0.057040518129925
  0
LTYPE
  2
CENTER
 70
64
  3
____ _ ____ _
 72
65
 73
4
 40
0.4563241450394
 49
0.285202590649625
 49
-0.057040518129925
 49
0.057040518129925
 49
-0.057040518129925
  0
LTYPE
  2
DASHDOT
 70
64
  3
__ . __ . __ .
 72
65
 73
4
 40
0.2281620725197
 49
0.11408103625985
 49
-0.057040518129925
 49
0
 49
-0.057040518129925
  0
LTYPE
  2
DASHED
 70
64
  3
__ __ __ __ __
 72
65
 73
2
 40
0.171121554389775
 49
0.11408103625985
 49
-0.057040518129925
  0
LTYPE
  2
DIVIDE
 70
64
  3
__ . . __ . . 
 72
65
 73
6
 40
0.285202590649625
 49
0.11408103625985
 49
-0.057040518129925
 49
0
 49
-0.057040518129925
 49
0
 49
-0.057040518129925
  0
LTYPE
  2
DOT
 70
64
  3
..............
 72
65
 73
4
 40
0.11408103625985
 49
0
 49
-0.057040518129925
 49
0
 49
-0.057040518129925
  0
LTYPE
  2
HIDDEN
 70
64
  3
_ _ _ _ _ _ _
 72
65
 73
2
 40
0.0855607771948875
 49
0.057040518129925
 49
-0.0285202590649625
  0
LTYPE
  2
PHANTOM
 70
64
  3
_____ _ _ _____ _ _ 
 72
65
 73
6
 40
0.57040518129925
 49
0.285202590649625
 49
-0.057040518129925
 49
0.057040518129925
 49
-0.057040518129925
 49
0.057040518129925
 49
-0.057040518129925
  0
ENDTAB
  0
TABLE
  2
LAYER
 70
2
  0
LAYER
  2
0
 70
0
 62
7
  6
CONTINUOUS
  0
ENDTAB
  0
TABLE
  2
STYLE
 70
4
  0
STYLE
  2
STANDARD
 70
0
 40
0
 41
1
 50
0
 71
0
 42
3.5
  3
txt
  4

  0
STYLE
  2
SIMPLEX
 70
0
 40
0
 41
1
 50
0
 71
0
 42
3.5
  3
simplex
  4

  0
STYLE
  2
COMPLEX
 70
0
 40
0
 41
1
 50
0
 71
0
 42
3.5
  3
complex
  4

  0
STYLE
  2
ITALIC
 70
0
 40
0
 41
1
 50
0
 71
0
 42
3.5
  3
italic
  4

  0
ENDTAB
  0
TABLE
  2
VIEW
 70
0
  0
ENDTAB
  0
ENDSEC
  0
SECTION
  2
BLOCKS
  0
BLOCK
  8
0
  2
*X0
 70
1
 10
0
 20
0
 30
0
  0
LINE
  8
0
 62
7
 10
1.099999999999999
 20
7.994291116568838
 30
0
 11
1.205708883431158
 21
8.099999999999996
 31
0
  0
LINE
  8
0
 62
7
 10
1.267840917787122
 20
7.949999999999996
 30
0
 11
1.275
 21
7.957159082212874
 31
0
  0
LINE
  8
0
 62
7
 10
1.16177490060914
 20
7.949999999999996
 30
0
 11
1.274999999999999
 21
8.063225099390854
 31
0
  0
ENDBLK
  8
0
  0
BLOCK
  8
0
  2
*X1
 70
1
 10
0
 20
0
 30
0
  0
LINE
  8
0
 62
7
 10
1.1
 20
10.75200756319637
 30
0
 11
1.197992436803626
 21
10.85
 31
0
  0
LINE
  8
0
 62
7
 10
1.1
 20
10.5398755288404
 30
0
 11
1.275
 21
10.7148755288404
 31
0
  0
LINE
  8
0
 62
7
 10
1.1
 20
10.32774349448444
 30
0
 11
1.275
 21
10.50274349448444
 31
0
  0
LINE
  8
0
 62
7
 10
1.1
 20
10.11561146012848
 30
0
 11
1.275
 21
10.29061146012848
 31
0
  0
LINE
  8
0
 62
7
 10
1.1
 20
9.903479425772513
 30
0
 11
1.275
 21
10.07847942577251
 31
0
  0
LINE
  8
0
 62
7
 10
1.1
 20
9.691347391416549
 30
0
 11
1.275
 21
9.866347391416548
 31
0
  0
LINE
  8
0
 62
7
 10
1.1
 20
9.479215357060585
 30
0
 11
1.275
 21
9.654215357060584
 31
0
  0
LINE
  8
0
 62
7
 10
1.1
 20
9.267083322704622
 30
0
 11
1.275
 21
9.442083322704621
 31
0
  0
LINE
  8
0
 62
7
 10
1.1
 20
9.054951288348658
 30
0
 11
1.275
 21
9.229951288348657
 31
0
  0
LINE
  8
0
 62
7
 10
1.1
 20
8.842819253992694
 30
0
 11
1.275
 21
9.017819253992693
 31
0
  0
LINE
  8
0
 62
7
 10
1.1
 20
8.63068721963673
 30
0
 11
1.275
 21
8.805687219636729
 31
0
  0
LINE
  8
0
 62
7
 10
1.1
 20
8.418555185280766
 30
0
 11
1.275
 21
8.593555185280765
 31
0
  0
LINE
  8
0
 62
7
 10
1.193576849075197
 20
8.299999999999997
 30
0
 11
1.275
 21
8.381423150924801
 31
0
  0
LINE
  8
0
 62
7
 10
1.100000000000001
 20
10.64594154601839
 30
0
 11
1.274999999999999
 21
10.82094154601838
 31
0
  0
LINE
  8
0
 62
7
 10
1.100000000000001
 20
10.43380951166242
 30
0
 11
1.274999999999999
 21
10.60880951166242
 31
0
  0
LINE
  8
0
 62
7
 10
1.100000000000001
 20
10.22167747730646
 30
0
 11
1.274999999999999
 21
10.39667747730646
 31
0
  0
LINE
  8
0
 62
7
 10
1.100000000000001
 20
10.0095454429505
 30
0
 11
1.274999999999999
 21
10.18454544295049
 31
0
  0
LINE
  8
0
 62
7
 10
1.100000000000001
 20
9.797413408594531
 30
0
 11
1.274999999999999
 21
9.972413408594528
 31
0
  0
LINE
  8
0
 62
7
 10
1.100000000000001
 20
9.585281374238567
 30
0
 11
1.274999999999999
 21
9.760281374238565
 31
0
  0
LINE
  8
0
 62
7
 10
1.100000000000001
 20
9.373149339882604
 30
0
 11
1.274999999999999
 21
9.548149339882601
 31
0
  0
LINE
  8
0
 62
7
 10
1.100000000000001
 20
9.16101730552664
 30
0
 11
1.274999999999999
 21
9.336017305526637
 31
0
  0
LINE
  8
0
 62
7
 10
1.100000000000001
 20
8.948885271170676
 30
0
 11
1.274999999999999
 21
9.123885271170673
 31
0
  0
LINE
  8
0
 62
7
 10
1.100000000000001
 20
8.736753236814712
 30
0
 11
1.274999999999999
 21
8.911753236814709
 31
0
  0
LINE
  8
0
 62
7
 10
1.100000000000001
 20
8.524621202458748
 30
0
 11
1.274999999999999
 21
8.699621202458745
 31
0
  0
LINE
  8
0
 62
7
 10
1.100000000000001
 20
8.312489168102784
 30
0
 11
1.274999999999999
 21
8.487489168102782
 31
0
  0
ENDBLK
  8
0
  0
BLOCK
  8
0
  2
*X2
 70
1
 10
0
 20
0
 30
0
  0
LINE
  8
0
 62
7
 10
1.100000000000001
 20
11.1762716319083
 30
0
 11
1.123728368091698
 21
11.2
 31
0
  0
LINE
  8
0
 62
7
 10
1.185860402447664
 20
11.05
 30
0
 11
1.274999999999999
 21
11.13913959755234
 31
0
  0
LINE
  8
0
 62
7
 10
1.1
 20
11.07020561473032
 30
0
 11
1.229794385269681
 21
11.2
 31
0
  0
ENDBLK
  8
0
  0
BLOCK
  8
0
  2
*X3
 70
1
 10
0
 20
0
 30
0
  0
LINE
  8
0
 62
7
 10
3.177029226990801
 20
7.949999999999996
 30
0
 11
3.327029226990802
 21
8.099999999999996
 31
0
  0
LINE
  8
0
 62
7
 10
3.16
 20
8.039036790187177
 30
0
 11
3.220963209812819
 21
8.099999999999996
 31
0
  0
LINE
  8
0
 62
7
 10
3.283095244168784
 20
7.949999999999996
 30
0
 11
3.335000000000001
 21
8.001904755831212
 31
0
  0
ENDBLK
  8
0
  0
BLOCK
  8
0
  2
*X4
 70
1
 10
0
 20
0
 30
0
  0
LINE
  8
0
 62
7
 10
3.16
 20
10.69068721963673
 30
0
 11
3.31931278036327
 21
10.85
 31
0
  0
LINE
  8
0
 62
7
 10
3.16
 20
10.47855518528076
 30
0
 11
3.335000000000001
 21
10.65355518528076
 31
0
  0
LINE
  8
0
 62
7
 10
3.16
 20
10.2664231509248
 30
0
 11
3.335000000000001
 21
10.4414231509248
 31
0
  0
LINE
  8
0
 62
7
 10
3.16
 20
10.05429111656883
 30
0
 11
3.335000000000001
 21
10.22929111656883
 31
0
  0
LINE
  8
0
 62
7
 10
3.16
 20
9.84215908221287
 30
0
 11
3.335000000000001
 21
10.01715908221287
 31
0
  0
LINE
  8
0
 62
7
 10
3.16
 20
9.630027047856906
 30
0
 11
3.335000000000001
 21
9.805027047856907
 31
0
  0
LINE
  8
0
 62
7
 10
3.16
 20
9.417895013500942
 30
0
 11
3.335000000000001
 21
9.592895013500943
 31
0
  0
LINE
  8
0
 62
7
 10
3.16
 20
9.205762979144978
 30
0
 11
3.335000000000001
 21
9.380762979144979
 31
0
  0
LINE
  8
0
 62
7
 10
3.16
 20
8.993630944789015
 30
0
 11
3.335000000000001
 21
9.168630944789015
 31
0
  0
LINE
  8
0
 62
7
 10
3.16
 20
8.781498910433051
 30
0
 11
3.335000000000001
 21
8.956498910433051
 31
0
  0
LINE
  8
0
 62
7
 10
3.16
 20
8.569366876077087
 30
0
 11
3.335000000000001
 21
8.744366876077088
 31
0
  0
LINE
  8
0
 62
7
 10
3.16
 20
8.357234841721123
 30
0
 11
3.335000000000001
 21
8.532234841721124
 31
0
  0
LINE
  8
0
 62
7
 10
3.314897192634839
 20
8.299999999999997
 30
0
 11
3.335000000000001
 21
8.32010280736516
 31
0
  0
LINE
  8
0
 62
7
 10
3.160000000000001
 20
10.79675323681471
 30
0
 11
3.213246763185286
 21
10.85
 31
0
  0
LINE
  8
0
 62
7
 10
3.160000000000001
 20
10.58462120245875
 30
0
 11
3.335
 21
10.75962120245874
 31
0
  0
LINE
  8
0
 62
7
 10
3.160000000000001
 20
10.37248916810278
 30
0
 11
3.335
 21
10.54748916810278
 31
0
  0
LINE
  8
0
 62
7
 10
3.160000000000001
 20
10.16035713374682
 30
0
 11
3.335
 21
10.33535713374681
 31
0
  0
LINE
  8
0
 62
7
 10
3.160000000000001
 20
9.948225099390854
 30
0
 11
3.335
 21
10.12322509939085
 31
0
  0
LINE
  8
0
 62
7
 10
3.160000000000001
 20
9.73609306503489
 30
0
 11
3.335
 21
9.911093065034887
 31
0
  0
LINE
  8
0
 62
7
 10
3.160000000000001
 20
9.523961030678926
 30
0
 11
3.335
 21
9.698961030678923
 31
0
  0
LINE
  8
0
 62
7
 10
3.160000000000001
 20
9.311828996322962
 30
0
 11
3.335
 21
9.486828996322959
 31
0
  0
LINE
  8
0
 62
7
 10
3.160000000000001
 20
9.099696961966998
 30
0
 11
3.335
 21
9.274696961966995
 31
0
  0
LINE
  8
0
 62
7
 10
3.160000000000001
 20
8.887564927611034
 30
0
 11
3.335
 21
9.062564927611032
 31
0
  0
LINE
  8
0
 62
7
 10
3.160000000000001
 20
8.675432893255071
 30
0
 11
3.335
 21
8.850432893255068
 31
0
  0
LINE
  8
0
 62
7
 10
3.160000000000001
 20
8.463300858899107
 30
0
 11
3.335
 21
8.638300858899104
 31
0
  0
LINE
  8
0
 62
7
 10
3.208831175456856
 20
8.299999999999997
 30
0
 11
3.335
 21
8.42616882454314
 31
0
  0
ENDBLK
  8
0
  0
BLOCK
  8
0
  2
*X5
 70
1
 10
0
 20
0
 30
0
  0
LINE
  8
0
 62
7
 10
3.160000000000001
 20
11.11495128834866
 30
0
 11
3.245048711651341
 21
11.2
 31
0
  0
LINE
  8
0
 62
7
 10
3.307180746007306
 20
11.05
 30
0
 11
3.334999999999999
 21
11.07781925399269
 31
0
  0
LINE
  8
0
 62
7
 10
3.201114728829325
 20
11.05
 30
0
 11
3.335000000000001
 21
11.18388527117068
 31
0
  0
ENDBLK
  8
0
  0
BLOCK
  8
0
  2
*X6
 70
1
 10
0
 20
0
 30
0
  0
LINE
  8
0
 62
7
  6
DASHED
 10
0.9500000000000002
 20
8.268555185280766
 30
0
 11
0.9814448147192314
 21
8.299999999999997
 31
0
  0
LINE
  8
0
 62
7
  6
DASHED
 10
0.9935768490751973
 20
8.099999999999998
 30
0
 11
1.193576849075196
 21
8.299999999999997
 31
0
  0
LINE
  8
0
 62
7
  6
DASHED
 10
1.205708883431162
 20
8.099999999999998
 30
0
 11
1.40570888343116
 21
8.299999999999997
 31
0
  0
LINE
  8
0
 62
7
  6
DASHED
 10
1.417840917787126
 20
8.099999999999998
 30
0
 11
1.617840917787124
 21
8.299999999999997
 31
0
  0
LINE
  8
0
 62
7
  6
DASHED
 10
1.62997295214309
 20
8.099999999999998
 30
0
 11
1.829972952143089
 21
8.299999999999997
 31
0
  0
LINE
  8
0
 62
7
  6
DASHED
 10
1.842104986499054
 20
8.099999999999998
 30
0
 11
2.042104986499053
 21
8.299999999999997
 31
0
  0
LINE
  8
0
 62
7
  6
DASHED
 10
2.054237020855019
 20
8.099999999999998
 30
0
 11
2.254237020855017
 21
8.299999999999997
 31
0
  0
LINE
  8
0
 62
7
  6
DASHED
 10
2.266369055210983
 20
8.099999999999998
 30
0
 11
2.466369055210981
 21
8.299999999999997
 31
0
  0
LINE
  8
0
 62
7
  6
DASHED
 10
2.478501089566947
 20
8.099999999999998
 30
0
 11
2.678501089566946
 21
8.299999999999997
 31
0
  0
LINE
  8
0
 62
7
  6
DASHED
 10
2.690633123922912
 20
8.099999999999998
 30
0
 11
2.89063312392291
 21
8.299999999999997
 31
0
  0
LINE
  8
0
 62
7
  6
DASHED
 10
2.902765158278876
 20
8.099999999999998
 30
0
 11
3.102765158278874
 21
8.299999999999997
 31
0
  0
LINE
  8
0
 62
7
  6
DASHED
 10
3.11489719263484
 20
8.099999999999998
 30
0
 11
3.314897192634839
 21
8.299999999999997
 31
0
  0
LINE
  8
0
 62
7
  6
DASHED
 10
3.327029226990804
 20
8.099999999999998
 30
0
 11
3.484999999999999
 21
8.257970773009195
 31
0
  0
LINE
  8
0
 62
7
 10
0.9499999999999997
 20
8.162489168102784
 30
0
 11
1.087510831897213
 21
8.299999999999995
 31
0
  0
LINE
  8
0
 62
7
 10
1.099642866253179
 20
8.099999999999998
 30
0
 11
1.299642866253177
 21
8.299999999999995
 31
0
  0
LINE
  8
0
 62
7
 10
1.311774900609143
 20
8.099999999999998
 30
0
 11
1.511774900609141
 21
8.299999999999995
 31
0
  0
LINE
  8
0
 62
7
 10
1.523906934965107
 20
8.099999999999998
 30
0
 11
1.723906934965106
 21
8.299999999999995
 31
0
  0
LINE
  8
0
 62
7
 10
1.736038969321072
 20
8.099999999999998
 30
0
 11
1.93603896932107
 21
8.299999999999995
 31
0
  0
LINE
  8
0
 62
7
 10
1.948171003677036
 20
8.099999999999998
 30
0
 11
2.148171003677034
 21
8.299999999999995
 31
0
  0
LINE
  8
0
 62
7
 10
2.160303038033
 20
8.099999999999998
 30
0
 11
2.360303038032999
 21
8.299999999999995
 31
0
  0
LINE
  8
0
 62
7
 10
2.372435072388964
 20
8.099999999999998
 30
0
 11
2.572435072388963
 21
8.299999999999995
 31
0
  0
LINE
  8
0
 62
7
 10
2.584567106744929
 20
8.099999999999998
 30
0
 11
2.784567106744927
 21
8.299999999999995
 31
0
  0
LINE
  8
0
 62
7
 10
2.796699141100893
 20
8.099999999999998
 30
0
 11
2.996699141100891
 21
8.299999999999995
 31
0
  0
LINE
  8
0
 62
7
 10
3.008831175456857
 20
8.099999999999998
 30
0
 11
3.208831175456856
 21
8.299999999999995
 31
0
  0
LINE
  8
0
 62
7
 10
3.220963209812822
 20
8.099999999999998
 30
0
 11
3.42096320981282
 21
8.299999999999995
 31
0
  0
LINE
  8
0
 62
7
 10
3.433095244168786
 20
8.099999999999998
 30
0
 11
3.484999999999999
 21
8.151904755831211
 31
0
  0
ENDBLK
  8
0
  0
BLOCK
  8
0
  2
*X7
 70
1
 10
0
 20
0
 30
0
  0
LINE
  8
0
 62
7
  6
DASHED
 10
0.9500000000000002
 20
11.0262716319083
 30
0
 11
0.9737283680916993
 21
11.05
 31
0
  0
LINE
  8
0
 62
7
  6
DASHED
 10
0.9858604024476634
 20
10.85
 30
0
 11
1.185860402447664
 21
11.05
 31
0
  0
LINE
  8
0
 62
7
  6
DASHED
 10
1.197992436803628
 20
10.85
 30
0
 11
1.397992436803628
 21
11.05
 31
0
  0
LINE
  8
0
 62
7
  6
DASHED
 10
1.410124471159592
 20
10.85
 30
0
 11
1.610124471159592
 21
11.05
 31
0
  0
LINE
  8
0
 62
7
  6
DASHED
 10
1.622256505515556
 20
10.85
 30
0
 11
1.822256505515556
 21
11.05
 31
0
  0
LINE
  8
0
 62
7
  6
DASHED
 10
1.834388539871521
 20
10.85
 30
0
 11
2.034388539871521
 21
11.05
 31
0
  0
LINE
  8
0
 62
7
  6
DASHED
 10
2.046520574227485
 20
10.85
 30
0
 11
2.246520574227485
 21
11.05
 31
0
  0
LINE
  8
0
 62
7
  6
DASHED
 10
2.258652608583449
 20
10.85
 30
0
 11
2.458652608583449
 21
11.05
 31
0
  0
LINE
  8
0
 62
7
  6
DASHED
 10
2.470784642939413
 20
10.85
 30
0
 11
2.670784642939414
 21
11.05
 31
0
  0
LINE
  8
0
 62
7
  6
DASHED
 10
2.682916677295378
 20
10.85
 30
0
 11
2.882916677295378
 21
11.05
 31
0
  0
LINE
  8
0
 62
7
  6
DASHED
 10
2.895048711651342
 20
10.85
 30
0
 11
3.095048711651342
 21
11.05
 31
0
  0
LINE
  8
0
 62
7
  6
DASHED
 10
3.107180746007306
 20
10.85
 30
0
 11
3.307180746007306
 21
11.05
 31
0
  0
LINE
  8
0
 62
7
  6
DASHED
 10
3.31931278036327
 20
10.85
 30
0
 11
3.485
 21
11.01568721963673
 31
0
  0
LINE
  8
0
 62
7
 10
0.9500000000000002
 20
10.92020561473032
 30
0
 11
1.079794385269682
 21
11.05
 31
0
  0
LINE
  8
0
 62
7
 10
1.091926419625645
 20
10.85
 30
0
 11
1.291926419625646
 21
11.05
 31
0
  0
LINE
  8
0
 62
7
 10
1.30405845398161
 20
10.85
 30
0
 11
1.504058453981611
 21
11.05
 31
0
  0
LINE
  8
0
 62
7
 10
1.516190488337574
 20
10.85
 30
0
 11
1.716190488337575
 21
11.05
 31
0
  0
LINE
  8
0
 62
7
 10
1.728322522693538
 20
10.85
 30
0
 11
1.928322522693539
 21
11.05
 31
0
  0
LINE
  8
0
 62
7
 10
1.940454557049502
 20
10.85
 30
0
 11
2.140454557049503
 21
11.05
 31
0
  0
LINE
  8
0
 62
7
 10
2.152586591405467
 20
10.85
 30
0
 11
2.352586591405468
 21
11.05
 31
0
  0
LINE
  8
0
 62
7
 10
2.364718625761431
 20
10.85
 30
0
 11
2.564718625761432
 21
11.05
 31
0
  0
LINE
  8
0
 62
7
 10
2.576850660117395
 20
10.85
 30
0
 11
2.776850660117396
 21
11.05
 31
0
  0
LINE
  8
0
 62
7
 10
2.78898269447336
 20
10.85
 30
0
 11
2.988982694473361
 21
11.05
 31
0
  0
LINE
  8
0
 62
7
 10
3.001114728829324
 20
10.85
 30
0
 11
3.201114728829325
 21
11.05
 31
0
  0
LINE
  8
0
 62
7
 10
3.213246763185288
 20
10.85
 30
0
 11
3.413246763185289
 21
11.05
 31
0
  0
LINE
  8
0
 62
7
 10
3.425378797541252
 20
10.85
 30
0
 11
3.484999999999999
 21
10.90962120245875
 31
0
  0
ENDBLK
  8
0
  0
BLOCK
  8
0
  2
*X8
 70
1
 10
0
 20
0
 30
0
  0
LINE
  8
0
 62
7
 10
7.960000000000002
 20
8.066066017177983
 30
0
 11
7.993933982822015
 21
8.099999999999996
 31
0
  0
LINE
  8
0
 62
7
 10
8.056066017177979
 20
7.949999999999997
 30
0
 11
8.200000000000001
 21
8.093933982822016
 31
0
  0
LINE
  8
0
 62
7
 10
7.960000000000001
 20
7.96
 30
0
 11
8.099999999999998
 21
8.099999999999996
 31
0
  0
LINE
  8
0
 62
7
 10
8.162132034355961
 20
7.949999999999996
 30
0
 11
8.200000000000001
 21
7.987867965644035
 31
0
  0
ENDBLK
  8
0
  0
BLOCK
  8
0
  2
*X9
 70
1
 10
0
 20
0
 30
0
  0
LINE
  8
0
 62
7
 10
7.960000000000001
 20
10.82378246380551
 30
0
 11
7.986217536194484
 21
10.85
 31
0
  0
LINE
  8
0
 62
7
 10
7.960000000000001
 20
10.61165042944955
 30
0
 11
8.198349570550448
 21
10.85
 31
0
  0
LINE
  8
0
 62
7
 10
7.960000000000001
 20
10.39951839509358
 30
0
 11
8.200000000000001
 21
10.63951839509359
 31
0
  0
LINE
  8
0
 62
7
 10
7.960000000000001
 20
10.18738636073762
 30
0
 11
8.200000000000001
 21
10.42738636073762
 31
0
  0
LINE
  8
0
 62
7
 10
7.960000000000001
 20
9.975254326381657
 30
0
 11
8.200000000000001
 21
10.21525432638166
 31
0
  0
LINE
  8
0
 62
7
 10
7.960000000000001
 20
9.763122292025693
 30
0
 11
8.200000000000001
 21
10.0031222920257
 31
0
  0
LINE
  8
0
 62
7
 10
7.960000000000001
 20
9.55099025766973
 30
0
 11
8.200000000000001
 21
9.790990257669732
 31
0
  0
LINE
  8
0
 62
7
 10
7.960000000000001
 20
9.338858223313766
 30
0
 11
8.200000000000001
 21
9.578858223313768
 31
0
  0
LINE
  8
0
 62
7
 10
7.960000000000001
 20
9.126726188957802
 30
0
 11
8.200000000000001
 21
9.366726188957804
 31
0
  0
LINE
  8
0
 62
7
 10
7.960000000000001
 20
8.914594154601838
 30
0
 11
8.200000000000001
 21
9.15459415460184
 31
0
  0
LINE
  8
0
 62
7
 10
7.960000000000001
 20
8.702462120245874
 30
0
 11
8.200000000000001
 21
8.942462120245876
 31
0
  0
LINE
  8
0
 62
7
 10
7.960000000000001
 20
8.49033008588991
 30
0
 11
8.200000000000001
 21
8.730330085889912
 31
0
  0
LINE
  8
0
 62
7
 10
7.98180194846605
 20
8.299999999999997
 30
0
 11
8.200000000000001
 21
8.518198051533949
 31
0
  0
LINE
  8
0
 62
7
 10
8.193933982822013
 20
8.299999999999997
 30
0
 11
8.200000000000001
 21
8.306066017177985
 31
0
  0
LINE
  8
0
 62
7
 10
7.960000000000003
 20
10.71771644662753
 30
0
 11
8.092283553372464
 21
10.85
 31
0
  0
LINE
  8
0
 62
7
 10
7.960000000000003
 20
10.50558441227157
 30
0
 11
8.200000000000001
 21
10.74558441227157
 31
0
  0
LINE
  8
0
 62
7
 10
7.960000000000003
 20
10.2934523779156
 30
0
 11
8.200000000000001
 21
10.5334523779156
 31
0
  0
LINE
  8
0
 62
7
 10
7.960000000000003
 20
10.08132034355964
 30
0
 11
8.200000000000001
 21
10.32132034355964
 31
0
  0
LINE
  8
0
 62
7
 10
7.960000000000003
 20
9.869188309203675
 30
0
 11
8.200000000000001
 21
10.10918830920367
 31
0
  0
LINE
  8
0
 62
7
 10
7.960000000000003
 20
9.657056274847712
 30
0
 11
8.200000000000001
 21
9.89705627484771
 31
0
  0
LINE
  8
0
 62
7
 10
7.960000000000003
 20
9.444924240491748
 30
0
 11
8.200000000000001
 21
9.684924240491746
 31
0
  0
LINE
  8
0
 62
7
 10
7.960000000000003
 20
9.232792206135784
 30
0
 11
8.200000000000001
 21
9.472792206135782
 31
0
  0
LINE
  8
0
 62
7
 10
7.960000000000003
 20
9.02066017177982
 30
0
 11
8.200000000000001
 21
9.260660171779818
 31
0
  0
LINE
  8
0
 62
7
 10
7.960000000000003
 20
8.808528137423856
 30
0
 11
8.200000000000001
 21
9.048528137423855
 31
0
  0
LINE
  8
0
 62
7
 10
7.960000000000003
 20
8.596396103067892
 30
0
 11
8.200000000000001
 21
8.836396103067891
 31
0
  0
LINE
  8
0
 62
7
 10
7.960000000000003
 20
8.384264068711929
 30
0
 11
8.200000000000001
 21
8.624264068711927
 31
0
  0
LINE
  8
0
 62
7
 10
8.087867965644033
 20
8.299999999999995
 30
0
 11
8.200000000000001
 21
8.412132034355963
 31
0
  0
ENDBLK
  8
0
  0
BLOCK
  8
0
  2
*X10
 70
1
 10
0
 20
0
 30
0
  0
LINE
  8
0
 62
7
 10
7.97408550183852
 20
11.05
 30
0
 11
8.12408550183852
 21
11.2
 31
0
  0
LINE
  8
0
 62
7
 10
8.186217536194484
 20
11.05
 30
0
 11
8.200000000000001
 21
11.06378246380552
 31
0
  0
LINE
  8
0
 62
7
 10
7.960000000000002
 20
11.14198051533946
 30
0
 11
8.018019484660535
 21
11.2
 31
0
  0
LINE
  8
0
 62
7
 10
8.0801515190165
 20
11.05
 30
0
 11
8.199999999999999
 21
11.1698484809835
 31
0
  0
ENDBLK
  8
0
  0
BLOCK
  8
0
  2
*X11
 70
1
 10
0
 20
0
 30
0
  0
LINE
  8
0
 62
7
  6
DASHED
 10
5.760000000000001
 20
8.199518395093589
 30
0
 11
5.86048160490641
 21
8.299999999999999
 31
0
  0
LINE
  8
0
 62
7
  6
DASHED
 10
5.872613639262374
 20
8.099999999999998
 30
0
 11
6.06
 21
8.287386360737624
 31
0
  0
LINE
  8
0
 62
7
 10
5.766547622084394
 20
8.099999999999998
 30
0
 11
5.966547622084391
 21
8.299999999999997
 31
0
  0
LINE
  8
0
 62
7
 10
5.978679656440358
 20
8.099999999999998
 30
0
 11
6.06
 21
8.181320343559641
 31
0
  0
ENDBLK
  8
0
  0
BLOCK
  8
0
  2
*X12
 70
1
 10
0
 20
0
 30
0
  0
LINE
  8
0
 62
7
  6
DASHED
 10
5.760000000000002
 20
10.95723484172112
 30
0
 11
5.852765158278878
 21
11.05
 31
0
  0
LINE
  8
0
 62
7
  6
DASHED
 10
5.864897192634842
 20
10.85
 30
0
 11
6.059999999999999
 21
11.04510280736516
 31
0
  0
LINE
  8
0
 62
7
 10
5.759999999999998
 20
10.85116882454314
 30
0
 11
5.95883117545686
 21
11.05
 31
0
  0
LINE
  8
0
 62
7
 10
5.970963209812825
 20
10.85
 30
0
 11
6.06
 21
10.93903679018717
 31
0
  0
ENDBLK
  8
0
  0
BLOCK
  8
0
  2
*X13
 70
1
 10
0
 20
0
 30
0
  0
LINE
  8
0
 62
7
  6
DASHED
 10
7.959999999999999
 20
11.03591449816148
 30
0
 11
7.97408550183852
 21
11.05
 31
0
  0
LINE
  8
0
 62
7
  6
DASHED
 10
7.986217536194484
 20
10.85
 30
0
 11
8.186217536194484
 21
11.05
 31
0
  0
LINE
  8
0
 62
7
  6
DASHED
 10
8.198349570550448
 20
10.85
 30
0
 11
8.200000000000001
 21
10.85165042944955
 31
0
  0
LINE
  8
0
 62
7
 10
7.960000000000002
 20
10.9298484809835
 30
0
 11
8.0801515190165
 21
11.05
 31
0
  0
LINE
  8
0
 62
7
 10
8.092283553372464
 20
10.85
 30
0
 11
8.199999999999999
 21
10.95771644662753
 31
0
  0
ENDBLK
  8
0
  0
BLOCK
  8
0
  2
*X14
 70
1
 10
0
 20
0
 30
0
  0
LINE
  8
0
 62
7
  6
DASHED
 10
7.960000000000002
 20
8.278198051533947
 30
0
 11
7.98180194846605
 21
8.299999999999997
 31
0
  0
LINE
  8
0
 62
7
  6
DASHED
 10
7.993933982822015
 20
8.099999999999996
 30
0
 11
8.193933982822013
 21
8.299999999999997
 31
0
  0
LINE
  8
0
 62
7
 10
7.960000000000001
 20
8.172132034355963
 30
0
 11
8.087867965644033
 21
8.299999999999995
 31
0
  0
LINE
  8
0
 62
7
 10
8.099999999999998
 20
8.099999999999996
 30
0
 11
8.200000000000001
 21
8.199999999999999
 31
0
  0
ENDBLK
  8
0
  0
BLOCK
  8
0
  2
*X15
 70
1
 10
0
 20
0
 30
0
  0
LINE
  8
0
 62
7
 10
1.1
 20
5.872970773009195
 30
0
 11
1.147029226990802
 21
5.919999999999998
 31
0
  0
LINE
  8
0
 62
7
 10
0.9350000000000005
 20
5.707970773009196
 30
0
 11
0.9970292269908017
 21
5.769999999999997
 31
0
  0
LINE
  8
0
 62
7
 10
0.9691612613467697
 20
5.530000000000001
 30
0
 11
1.275
 21
5.835838738653231
 31
0
  0
LINE
  8
0
 62
7
 10
1.181293295702734
 20
5.530000000000001
 30
0
 11
1.421293295702729
 21
5.769999999999997
 31
0
  0
LINE
  8
0
 62
7
 10
1.393425330058698
 20
5.530000000000001
 30
0
 11
1.633425330058694
 21
5.769999999999997
 31
0
  0
LINE
  8
0
 62
7
 10
1.605557364414663
 20
5.530000000000001
 30
0
 11
1.845557364414658
 21
5.769999999999997
 31
0
  0
LINE
  8
0
 62
7
 10
1.817689398770627
 20
5.530000000000001
 30
0
 11
2.057689398770622
 21
5.769999999999997
 31
0
  0
LINE
  8
0
 62
7
 10
2.029821433126591
 20
5.530000000000001
 30
0
 11
2.269821433126586
 21
5.769999999999997
 31
0
  0
LINE
  8
0
 62
7
 10
2.241953467482555
 20
5.530000000000001
 30
0
 11
2.481953467482551
 21
5.769999999999997
 31
0
  0
LINE
  8
0
 62
7
 10
2.45408550183852
 20
5.530000000000001
 30
0
 11
2.694085501838515
 21
5.769999999999997
 31
0
  0
LINE
  8
0
 62
7
 10
2.666217536194484
 20
5.530000000000001
 30
0
 11
2.906217536194479
 21
5.769999999999997
 31
0
  0
LINE
  8
0
 62
7
 10
3.16
 20
5.811650429449553
 30
0
 11
3.268349570550446
 21
5.919999999999998
 31
0
  0
LINE
  8
0
 62
7
 10
2.878349570550448
 20
5.530000000000001
 30
0
 11
3.118349570550444
 21
5.769999999999997
 31
0
  0
LINE
  8
0
 62
7
 10
3.090481604906413
 20
5.530000000000001
 30
0
 11
3.335
 21
5.774518395093589
 31
0
  0
LINE
  8
0
 62
7
 10
3.302613639262377
 20
5.530000000000001
 30
0
 11
3.485
 21
5.712386360737625
 31
0
  0
LINE
  8
0
 62
7
 10
0.9350000000000001
 20
5.601904755831214
 30
0
 11
1.253095244168785
 21
5.919999999999998
 31
0
  0
LINE
  8
0
 62
7
 10
1.075227278524752
 20
5.530000000000001
 30
0
 11
1.315227278524747
 21
5.769999999999996
 31
0
  0
LINE
  8
0
 62
7
 10
1.287359312880716
 20
5.530000000000001
 30
0
 11
1.527359312880712
 21
5.769999999999996
 31
0
  0
LINE
  8
0
 62
7
 10
1.499491347236681
 20
5.530000000000001
 30
0
 11
1.739491347236676
 21
5.769999999999996
 31
0
  0
LINE
  8
0
 62
7
 10
1.711623381592645
 20
5.530000000000001
 30
0
 11
1.95162338159264
 21
5.769999999999996
 31
0
  0
LINE
  8
0
 62
7
 10
1.923755415948609
 20
5.530000000000001
 30
0
 11
2.163755415948605
 21
5.769999999999996
 31
0
  0
LINE
  8
0
 62
7
 10
2.135887450304573
 20
5.530000000000001
 30
0
 11
2.375887450304569
 21
5.769999999999996
 31
0
  0
LINE
  8
0
 62
7
 10
2.348019484660538
 20
5.530000000000001
 30
0
 11
2.588019484660533
 21
5.769999999999996
 31
0
  0
LINE
  8
0
 62
7
 10
2.560151519016502
 20
5.530000000000001
 30
0
 11
2.800151519016497
 21
5.769999999999996
 31
0
  0
LINE
  8
0
 62
7
 10
3.16
 20
5.917716446627534
 30
0
 11
3.162283553372464
 21
5.919999999999998
 31
0
  0
LINE
  8
0
 62
7
 10
2.772283553372466
 20
5.530000000000001
 30
0
 11
3.012283553372462
 21
5.769999999999996
 31
0
  0
LINE
  8
0
 62
7
 10
2.984415587728431
 20
5.530000000000001
 30
0
 11
3.335
 21
5.88058441227157
 31
0
  0
LINE
  8
0
 62
7
 10
3.196547622084395
 20
5.530000000000001
 30
0
 11
3.436547622084391
 21
5.769999999999996
 31
0
  0
LINE
  8
0
 62
7
 10
3.408679656440359
 20
5.530000000000001
 30
0
 11
3.485
 21
5.606320343559641
 31
0
  0
ENDBLK
  8
0
  0
BLOCK
  8
0
  2
*X16
 70
1
 10
0
 20
0
 30
0
  0
LINE
  8
0
 62
7
 10
0.9349999999999996
 20
5.283706704297266
 30
0
 11
1.141293295702734
 21
5.49
 31
0
  0
LINE
  8
0
 62
7
 10
1.1
 20
5.236574669941301
 30
0
 11
1.353425330058698
 21
5.49
 31
0
  0
LINE
  8
0
 62
7
 10
1.325557364414662
 20
5.25
 30
0
 11
1.565557364414663
 21
5.49
 31
0
  0
LINE
  8
0
 62
7
 10
1.1
 20
5.024442635585337
 30
0
 11
1.275
 21
5.199442635585336
 31
0
  0
LINE
  8
0
 62
7
 10
1.537689398770626
 20
5.25
 30
0
 11
1.777689398770627
 21
5.49
 31
0
  0
LINE
  8
0
 62
7
 10
1.1
 20
4.812310601229373
 30
0
 11
1.275
 21
4.987310601229372
 31
0
  0
LINE
  8
0
 62
7
 10
1.74982143312659
 20
5.25
 30
0
 11
1.989821433126591
 21
5.49
 31
0
  0
LINE
  8
0
 62
7
 10
1.1
 20
4.600178566873409
 30
0
 11
1.275
 21
4.775178566873408
 31
0
  0
LINE
  8
0
 62
7
 10
1.961953467482555
 20
5.25
 30
0
 11
2.201953467482555
 21
5.49
 31
0
  0
LINE
  8
0
 62
7
 10
1.1
 20
4.388046532517445
 30
0
 11
1.275
 21
4.563046532517444
 31
0
  0
LINE
  8
0
 62
7
 10
2.174085501838519
 20
5.25
 30
0
 11
2.41408550183852
 21
5.49
 31
0
  0
LINE
  8
0
 62
7
 10
1.1
 20
4.175914498161482
 30
0
 11
1.275
 21
4.35091449816148
 31
0
  0
LINE
  8
0
 62
7
 10
2.386217536194483
 20
5.25
 30
0
 11
2.626217536194484
 21
5.49
 31
0
  0
LINE
  8
0
 62
7
 10
1.1
 20
3.963782463805517
 30
0
 11
1.275
 21
4.138782463805517
 31
0
  0
LINE
  8
0
 62
7
 10
2.598349570550448
 20
5.25
 30
0
 11
2.838349570550448
 21
5.49
 31
0
  0
LINE
  8
0
 62
7
 10
1.1
 20
3.751650429449553
 30
0
 11
1.275
 21
3.926650429449553
 31
0
  0
LINE
  8
0
 62
7
 10
2.810481604906412
 20
5.25
 30
0
 11
3.050481604906413
 21
5.49
 31
0
  0
LINE
  8
0
 62
7
 10
1.1
 20
3.539518395093589
 30
0
 11
1.275
 21
3.714518395093588
 31
0
  0
LINE
  8
0
 62
7
 10
3.022613639262376
 20
5.25
 30
0
 11
3.262613639262377
 21
5.49
 31
0
  0
LINE
  8
0
 62
7
 10
1.122613639262377
 20
3.350000000000001
 30
0
 11
1.275
 21
3.502386360737624
 31
0
  0
LINE
  8
0
 62
7
 10
3.16
 20
5.175254326381658
 30
0
 11
3.474745673618341
 21
5.49
 31
0
  0
LINE
  8
0
 62
7
 10
3.446877707974305
 20
5.25
 30
0
 11
3.484999999999999
 21
5.288122292025696
 31
0
  0
LINE
  8
0
 62
7
 10
3.16
 20
4.963122292025695
 30
0
 11
3.335
 21
5.138122292025693
 31
0
  0
LINE
  8
0
 62
7
 10
3.16
 20
4.750990257669731
 30
0
 11
3.335
 21
4.92599025766973
 31
0
  0
LINE
  8
0
 62
7
 10
3.16
 20
4.538858223313767
 30
0
 11
3.335
 21
4.713858223313766
 31
0
  0
LINE
  8
0
 62
7
 10
3.16
 20
4.326726188957803
 30
0
 11
3.335
 21
4.501726188957802
 31
0
  0
LINE
  8
0
 62
7
 10
3.16
 20
4.114594154601839
 30
0
 11
3.335
 21
4.289594154601838
 31
0
  0
LINE
  8
0
 62
7
 10
3.16
 20
3.902462120245875
 30
0
 11
3.335
 21
4.077462120245874
 31
0
  0
LINE
  8
0
 62
7
 10
3.16
 20
3.690330085889911
 30
0
 11
3.335
 21
3.86533008588991
 31
0
  0
LINE
  8
0
 62
7
 10
3.16
 20
3.478198051533946
 30
0
 11
3.335
 21
3.653198051533946
 31
0
  0
LINE
  8
0
 62
7
 10
3.16
 20
3.266066017177982
 30
0
 11
3.335
 21
3.441066017177982
 31
0
  0
LINE
  8
0
 62
7
 10
0.9350000000000001
 20
5.389772721475248
 30
0
 11
1.035227278524752
 21
5.49
 31
0
  0
LINE
  8
0
 62
7
 10
1.007359312880716
 20
5.25
 30
0
 11
1.247359312880716
 21
5.49
 31
0
  0
LINE
  8
0
 62
7
 10
1.1
 20
5.130508652763318
 30
0
 11
1.459491347236681
 21
5.49
 31
0
  0
LINE
  8
0
 62
7
 10
1.431623381592645
 20
5.25
 30
0
 11
1.671623381592645
 21
5.49
 31
0
  0
LINE
  8
0
 62
7
 10
1.1
 20
4.918376618407354
 30
0
 11
1.275
 21
5.093376618407355
 31
0
  0
LINE
  8
0
 62
7
 10
1.643755415948609
 20
5.25
 30
0
 11
1.883755415948609
 21
5.49
 31
0
  0
LINE
  8
0
 62
7
 10
1.1
 20
4.70624458405139
 30
0
 11
1.275
 21
4.881244584051391
 31
0
  0
LINE
  8
0
 62
7
 10
1.855887450304573
 20
5.25
 30
0
 11
2.095887450304573
 21
5.49
 31
0
  0
LINE
  8
0
 62
7
 10
1.1
 20
4.494112549695426
 30
0
 11
1.275
 21
4.669112549695427
 31
0
  0
LINE
  8
0
 62
7
 10
2.068019484660538
 20
5.25
 30
0
 11
2.308019484660538
 21
5.49
 31
0
  0
LINE
  8
0
 62
7
 10
1.1
 20
4.281980515339463
 30
0
 11
1.275
 21
4.456980515339463
 31
0
  0
LINE
  8
0
 62
7
 10
2.280151519016502
 20
5.25
 30
0
 11
2.520151519016502
 21
5.49
 31
0
  0
LINE
  8
0
 62
7
 10
1.1
 20
4.069848480983499
 30
0
 11
1.275
 21
4.244848480983499
 31
0
  0
LINE
  8
0
 62
7
 10
2.492283553372466
 20
5.25
 30
0
 11
2.732283553372466
 21
5.49
 31
0
  0
LINE
  8
0
 62
7
 10
1.1
 20
3.857716446627535
 30
0
 11
1.275
 21
4.032716446627536
 31
0
  0
LINE
  8
0
 62
7
 10
2.70441558772843
 20
5.25
 30
0
 11
2.944415587728431
 21
5.49
 31
0
  0
LINE
  8
0
 62
7
 10
1.1
 20
3.645584412271571
 30
0
 11
1.275
 21
3.820584412271571
 31
0
  0
LINE
  8
0
 62
7
 10
2.916547622084395
 20
5.25
 30
0
 11
3.156547622084395
 21
5.49
 31
0
  0
LINE
  8
0
 62
7
 10
1.1
 20
3.433452377915606
 30
0
 11
1.275
 21
3.608452377915607
 31
0
  0
LINE
  8
0
 62
7
 10
3.128679656440359
 20
5.25
 30
0
 11
3.368679656440359
 21
5.49
 31
0
  0
LINE
  8
0
 62
7
 10
1.228679656440359
 20
3.350000000000001
 30
0
 11
1.275
 21
3.396320343559642
 31
0
  0
LINE
  8
0
 62
7
 10
3.340811690796323
 20
5.25
 30
0
 11
3.484999999999999
 21
5.394188309203677
 31
0
  0
LINE
  8
0
 62
7
 10
3.160000000000001
 20
5.069188309203676
 30
0
 11
3.335
 21
5.244188309203676
 31
0
  0
LINE
  8
0
 62
7
 10
3.160000000000001
 20
4.857056274847713
 30
0
 11
3.335
 21
5.032056274847712
 31
0
  0
LINE
  8
0
 62
7
 10
3.160000000000001
 20
4.644924240491749
 30
0
 11
3.335
 21
4.819924240491749
 31
0
  0
LINE
  8
0
 62
7
 10
3.160000000000001
 20
4.432792206135785
 30
0
 11
3.335
 21
4.607792206135785
 31
0
  0
LINE
  8
0
 62
7
 10
3.160000000000001
 20
4.220660171779821
 30
0
 11
3.335
 21
4.395660171779821
 31
0
  0
LINE
  8
0
 62
7
 10
3.160000000000001
 20
4.008528137423857
 30
0
 11
3.335
 21
4.183528137423857
 31
0
  0
LINE
  8
0
 62
7
 10
3.160000000000001
 20
3.796396103067893
 30
0
 11
3.335
 21
3.971396103067893
 31
0
  0
LINE
  8
0
 62
7
 10
3.160000000000001
 20
3.584264068711929
 30
0
 11
3.335
 21
3.759264068711929
 31
0
  0
LINE
  8
0
 62
7
 10
3.160000000000001
 20
3.372132034355964
 30
0
 11
3.335
 21
3.547132034355964
 31
0
  0
LINE
  8
0
 62
7
 10
3.250000000000001
 20
3.250000000000001
 30
0
 11
3.335
 21
3.335
 31
0
  0
ENDBLK
  8
0
  0
BLOCK
  8
0
  2
*D0
 70
1
 10
0
 20
0
 30
0
  0
LINE
  8
0
 62
7
 10
3.77899360500766
 20
10.19427537301991
 30
0
 11
3.77899360500766
 21
11.05
 31
0
  0
LINE
  8
0
 62
7
 10
3.77899360500766
 20
8.299999999999997
 30
0
 11
3.77899360500766
 21
9.114275373019911
 31
0
  0
LINE
  8
0
 62
7
 10
0.9499999999999997
 20
11.05
 30
0
 11
3.82899360500766
 21
11.05
 31
0
  0
LINE
  8
0
 62
7
 10
0.9499999999999997
 20
8.299999999999997
 30
0
 11
3.82899360500766
 21
8.299999999999997
 31
0
  0
LINE
  8
0
 62
7
 10
3.743638265948332
 20
8.335355339059324
 30
0
 11
3.814348944066987
 21
8.26464466094067
 31
0
  0
LINE
  8
0
 62
7
 10
3.814348944066987
 20
11.01464466094067
 30
0
 11
3.743638265948332
 21
11.08535533905933
 31
0
  0
TEXT
  8
0
 62
7
 10
3.74899360500766
 20
9.516775373019913
 30
0
 40
0.1
  1
2,75
 50
90
 41
0.9
  0
TEXT
  8
0
 62
7
 10
3.90899360500766
 20
9.314275373019912
 30
0
 40
0.1
  1
(260-280)
 50
90
 41
0.9
  0
ENDBLK
  8
0
  0
BLOCK
  8
0
  2
*D1
 70
1
 10
0
 20
0
 30
0
  0
LINE
  8
0
 62
7
 10
2.55403372764435
 20
11.5051587557486
 30
0
 11
3.16
 21
11.5051587557486
 31
0
  0
LINE
  8
0
 62
7
 10
1.275
 20
11.5051587557486
 30
0
 11
1.90903372764435
 21
11.5051587557486
 31
0
  0
LINE
  8
0
 62
7
 10
3.16
 20
11.2
 30
0
 11
3.16
 21
11.5551587557486
 31
0
  0
LINE
  8
0
 62
7
 10
1.275
 20
11.2
 30
0
 11
1.275
 21
11.5551587557486
 31
0
  0
LINE
  8
0
 62
7
 10
1.310355339059327
 20
11.54051409480793
 30
0
 11
1.239644660940673
 21
11.46980341668927
 31
0
  0
LINE
  8
0
 62
7
 10
3.124644660940673
 20
11.46980341668927
 30
0
 11
3.195355339059327
 21
11.54051409480793
 31
0
  0
TEXT
  8
0
 62
7
 10
2.10903372764435
 20
11.4601587557486
 30
0
 40
0.1
  1
1,89
 41
0.9
  0
ENDBLK
  8
0
  0
BLOCK
  8
0
  2
*D2
 70
1
 10
0
 20
0
 30
0
  0
LINE
  8
0
 62
7
 10
3.78563946501357
 20
4.5472177743085
 30
0
 11
3.78563946501357
 21
5.25
 31
0
  0
LINE
  8
0
 62
7
 10
3.78563946501357
 20
3.250000000000001
 30
0
 11
3.78563946501357
 21
3.987217774308499
 31
0
  0
LINE
  8
0
 62
7
 10
3.335
 20
5.25
 30
0
 11
3.83563946501357
 21
5.25
 31
0
  0
LINE
  8
0
 62
7
 10
3.335
 20
3.250000000000001
 30
0
 11
3.83563946501357
 21
3.250000000000001
 31
0
  0
LINE
  8
0
 62
7
 10
3.750284125954243
 20
3.285355339059328
 30
0
 11
3.820994804072897
 21
3.214644660940674
 31
0
  0
LINE
  8
0
 62
7
 10
3.820994804072897
 20
5.214644660940673
 30
0
 11
3.750284125954243
 21
5.285355339059327
 31
0
  0
TEXT
  8
0
 62
7
 10
3.83563946501357
 20
4.237217774308499
 30
0
 40
0.1
  1
2
 50
90
 41
0.9
  0
ENDBLK
  8
0
  0
BLOCK
  8
0
  2
*D3
 70
1
 10
0
 20
0
 30
0
  0
LINE
  8
0
 62
7
 10
2.5840426812029
 20
6.191113843410431
 30
0
 11
3.16
 21
6.191113843410431
 31
0
  0
LINE
  8
0
 62
7
 10
1.275
 20
6.191113843410431
 30
0
 11
1.8390426812029
 21
6.191113843410431
 31
0
  0
LINE
  8
0
 62
7
 10
3.16
 20
5.769999999999998
 30
0
 11
3.16
 21
6.241113843410431
 31
0
  0
LINE
  8
0
 62
7
 10
1.275
 20
5.769999999999998
 30
0
 11
1.275
 21
6.241113843410431
 31
0
  0
LINE
  8
0
 62
7
 10
3.124644660940673
 20
6.155758504351104
 30
0
 11
3.195355339059327
 21
6.226469182469758
 31
0
  0
LINE
  8
0
 62
7
 10
1.310355339059327
 20
6.226469182469758
 30
0
 11
1.239644660940673
 21
6.155758504351104
 31
0
  0
TEXT
  8
0
 62
7
 10
2.0890426812029
 20
6.146113843410431
 30
0
 40
0.1
  1
1,89
 41
0.9
  0
ENDBLK
  8
0
  0
BLOCK
  8
0
  2
*D4
 70
1
 10
0
 20
0
 30
0
  0
LINE
  8
0
 62
7
 10
0.6785987544853221
 20
4.65644705994813
 30
0
 11
0.6785987544853221
 21
5.25
 31
0
  0
LINE
  8
0
 62
7
 10
0.6785987544853221
 20
3.350000000000001
 30
0
 11
0.6785987544853221
 21
4.001447059948131
 31
0
  0
LINE
  8
0
 62
7
 10
1.1
 20
5.25
 30
0
 11
0.6285987544853221
 21
5.25
 31
0
  0
LINE
  8
0
 62
7
 10
1.1
 20
3.350000000000001
 30
0
 11
0.6285987544853221
 21
3.350000000000001
 31
0
  0
LINE
  8
0
 62
7
 10
0.7139540935446496
 20
5.214644660940673
 30
0
 11
0.6432434154259947
 21
5.285355339059327
 31
0
  0
LINE
  8
0
 62
7
 10
0.6432434154259947
 20
3.385355339059328
 30
0
 11
0.7139540935446496
 21
3.314644660940673
 31
0
  0
TEXT
  8
0
 62
7
 10
0.7235987544853222
 20
4.251447059948131
 30
0
 40
0.1
  1
1,9
 50
90
 41
0.9
  0
ENDBLK
  8
0
  0
ENDSEC
  0
SECTION
  2
ENTITIES
  0
INSERT
  8
0
  2
*X0
 10
0
 20
0
 30
0
  0
INSERT
  8
0
  2
*X1
 10
0
 20
0
 30
0
  0
INSERT
  8
0
  2
*X2
 10
0
 20
0
 30
0
  0
INSERT
  8
0
  2
*X3
 10
0
 20
0
 30
0
  0
INSERT
  8
0
  2
*X4
 10
0
 20
0
 30
0
  0
INSERT
  8
0
  2
*X5
 10
0
 20
0
 30
0
  0
INSERT
  8
0
  2
*X6
 10
0
 20
0
 30
0
  0
INSERT
  8
0
  2
*X7
 10
0
 20
0
 30
0
  0
INSERT
  8
0
  2
*X8
 10
0
 20
0
 30
0
  0
INSERT
  8
0
  2
*X9
 10
0
 20
0
 30
0
  0
INSERT
  8
0
  2
*X10
 10
0
 20
0
 30
0
  0
INSERT
  8
0
  2
*X11
 10
0
 20
0
 30
0
  0
INSERT
  8
0
  2
*X12
 10
0
 20
0
 30
0
  0
INSERT
  8
0
  2
*X13
 10
0
 20
0
 30
0
  0
INSERT
  8
0
  2
*X14
 10
0
 20
0
 30
0
  0
INSERT
  8
0
  2
*X15
 10
0
 20
0
 30
0
  0
INSERT
  8
0
  2
*X16
 10
0
 20
0
 30
0
  0
LINE
  8
0
 62
7
 10
0.9500000000000001
 20
8.099999999999998
 30
0
 11
1.1
 21
8.099999999999996
 31
0
  0
LINE
  8
0
 62
7
 10
0.9500000000000001
 20
8.299999999999997
 30
0
 11
1.1
 21
8.299999999999997
 31
0
  0
LINE
  8
0
 62
7
 10
0.9500000000000001
 20
10.85
 30
0
 11
1.1
 21
10.85
 31
0
  0
LINE
  8
0
 62
7
 10
0.9500000000000001
 20
11.05
 30
0
 11
1.1
 21
11.05
 31
0
  0
LINE
  8
0
 62
7
 10
1.1
 20
7.949999999999996
 30
0
 11
1.1
 21
8.099999999999996
 31
0
  0
LINE
  8
0
 62
7
 10
1.1
 20
8.099999999999996
 30
0
 11
1.275
 21
8.099999999999996
 31
0
  0
LINE
  8
0
 62
7
 10
1.1
 20
8.299999999999997
 30
0
 11
1.1
 21
8.399999999999997
 31
0
  0
LINE
  8
0
 62
7
 10
1.1
 20
8.299999999999997
 30
0
 11
1.275
 21
8.299999999999997
 31
0
  0
LINE
  8
0
 62
7
 10
1.1
 20
10.85
 30
0
 11
1.275
 21
10.85
 31
0
  0
LINE
  8
0
 62
7
 10
1.1
 20
11.05
 30
0
 11
1.1
 21
11.15
 31
0
  0
LINE
  8
0
 62
7
 10
1.1
 20
11.05
 30
0
 11
1.275
 21
11.05
 31
0
  0
LINE
  8
0
 62
7
 10
1.275
 20
7.949999999999996
 30
0
 11
1.275
 21
8.099999999999996
 31
0
  0
LINE
  8
0
 62
7
 10
1.275
 20
8.099999999999996
 30
0
 11
3.16
 21
8.099999999999996
 31
0
  0
LINE
  8
0
 62
7
 10
1.275
 20
8.299999999999997
 30
0
 11
1.275
 21
8.399999999999997
 31
0
  0
LINE
  8
0
 62
7
 10
1.275
 20
8.299999999999997
 30
0
 11
3.16
 21
8.299999999999997
 31
0
  0
LINE
  8
0
 62
7
 10
1.275
 20
10.85
 30
0
 11
3.16
 21
10.85
 31
0
  0
LINE
  8
0
 62
7
 10
1.275
 20
11.05
 30
0
 11
1.275
 21
11.15
 31
0
  0
LINE
  8
0
 62
7
 10
1.275
 20
11.05
 30
0
 11
3.16
 21
11.05
 31
0
  0
LINE
  8
0
 62
7
 10
3.16
 20
7.949999999999996
 30
0
 11
3.16
 21
8.099999999999996
 31
0
  0
LINE
  8
0
 62
7
 10
3.16
 20
8.099999999999996
 30
0
 11
3.335
 21
8.099999999999996
 31
0
  0
LINE
  8
0
 62
7
 10
3.16
 20
8.299999999999997
 30
0
 11
3.16
 21
8.399999999999997
 31
0
  0
LINE
  8
0
 62
7
 10
3.16
 20
8.299999999999997
 30
0
 11
3.335
 21
8.299999999999997
 31
0
  0
LINE
  8
0
 62
7
 10
3.16
 20
10.85
 30
0
 11
3.335
 21
10.85
 31
0
  0
LINE
  8
0
 62
7
 10
3.16
 20
11.05
 30
0
 11
3.16
 21
11.15
 31
0
  0
LINE
  8
0
 62
7
 10
3.16
 20
11.05
 30
0
 11
3.335
 21
11.05
 31
0
  0
LINE
  8
0
 62
7
 10
3.335
 20
7.949999999999996
 30
0
 11
3.335
 21
8.099999999999996
 31
0
  0
LINE
  8
0
 62
7
 10
3.335
 20
8.099999999999996
 30
0
 11
3.485
 21
8.099999999999998
 31
0
  0
LINE
  8
0
 62
7
 10
3.335
 20
8.299999999999997
 30
0
 11
3.335
 21
8.399999999999997
 31
0
  0
LINE
  8
0
 62
7
 10
3.335
 20
8.299999999999997
 30
0
 11
3.485
 21
8.299999999999997
 31
0
  0
LINE
  8
0
 62
7
 10
3.335
 20
10.85
 30
0
 11
3.485
 21
10.85
 31
0
  0
LINE
  8
0
 62
7
 10
3.335
 20
11.05
 30
0
 11
3.335
 21
11.15
 31
0
  0
LINE
  8
0
 62
7
 10
3.335
 20
11.05
 30
0
 11
3.485
 21
11.05
 31
0
  0
LINE
  8
0
 62
7
  6
DASHDOT
 10
0.9500000000000001
 20
8.049999999999997
 30
0
 11
0.9500000000000001
 21
8.099999999999998
 31
0
  0
LINE
  8
0
 62
7
  6
DASHDOT
 10
0.9500000000000001
 20
10.8
 30
0
 11
0.9500000000000001
 21
10.85
 31
0
  0
LINE
  8
0
 62
7
  6
DASHDOT
 10
3.485
 20
8.049999999999997
 30
0
 11
3.485
 21
8.099999999999998
 31
0
  0
LINE
  8
0
 62
7
  6
DASHDOT
 10
3.485
 20
10.8
 30
0
 11
3.485
 21
10.85
 31
0
  0
LINE
  8
0
 62
7
  6
DASHDOT
 10
1.05
 20
11.2
 30
0
 11
1.1
 21
11.2
 31
0
  0
LINE
  8
0
 62
7
  6
DASHDOT
 10
1.05
 20
7.949999999999996
 30
0
 11
1.1
 21
7.949999999999996
 31
0
  0
LINE
  8
0
 62
7
  6
DASHDOT
 10
3.11
 20
11.2
 30
0
 11
3.16
 21
11.2
 31
0
  0
LINE
  8
0
 62
7
  6
DASHDOT
 10
3.11
 20
7.949999999999996
 30
0
 11
3.16
 21
7.949999999999996
 31
0
  0
LINE
  8
0
 62
7
 10
0.9500000000000001
 20
8.399999999999997
 30
0
 11
1.1
 21
8.399999999999997
 31
0
  0
LINE
  8
0
 62
7
 10
1.1
 20
8.399999999999997
 30
0
 11
1.1
 21
10.85
 31
0
  0
LINE
  8
0
 62
7
  6
DASHDOT
 10
0.9500000000000001
 20
8.399999999999997
 30
0
 11
0.9500000000000001
 21
8.449999999999998
 31
0
  0
LINE
  8
0
 62
7
 10
1.275
 20
8.399999999999997
 30
0
 11
3.16
 21
8.399999999999997
 31
0
  0
LINE
  8
0
 62
7
 10
1.275
 20
8.399999999999997
 30
0
 11
1.275
 21
10.85
 31
0
  0
LINE
  8
0
 62
7
 10
3.16
 20
8.399999999999997
 30
0
 11
3.16
 21
10.85
 31
0
  0
LINE
  8
0
 62
7
 10
3.335
 20
8.399999999999997
 30
0
 11
3.485
 21
8.399999999999997
 31
0
  0
LINE
  8
0
 62
7
 10
3.335
 20
8.399999999999997
 30
0
 11
3.335
 21
10.85
 31
0
  0
LINE
  8
0
 62
7
  6
DASHDOT
 10
3.485
 20
8.399999999999997
 30
0
 11
3.485
 21
8.449999999999998
 31
0
  0
LINE
  8
0
 62
7
 10
0.9500000000000001
 20
11.15
 30
0
 11
1.1
 21
11.15
 31
0
  0
LINE
  8
0
 62
7
 10
1.1
 20
11.15
 30
0
 11
1.1
 21
11.2
 31
0
  0
LINE
  8
0
 62
7
  6
DASHDOT
 10
0.9500000000000001
 20
11.15
 30
0
 11
0.9500000000000001
 21
11.2
 31
0
  0
LINE
  8
0
 62
7
 10
1.275
 20
11.15
 30
0
 11
3.16
 21
11.15
 31
0
  0
LINE
  8
0
 62
7
 10
1.275
 20
11.15
 30
0
 11
1.275
 21
11.2
 31
0
  0
LINE
  8
0
 62
7
 10
3.16
 20
11.15
 30
0
 11
3.16
 21
11.2
 31
0
  0
LINE
  8
0
 62
7
 10
3.335
 20
11.15
 30
0
 11
3.485
 21
11.15
 31
0
  0
LINE
  8
0
 62
7
 10
3.335
 20
11.15
 30
0
 11
3.335
 21
11.2
 31
0
  0
LINE
  8
0
 62
7
  6
DASHDOT
 10
3.485
 20
11.15
 30
0
 11
3.485
 21
11.2
 31
0
  0
LINE
  8
0
 62
7
  6
DASHDOT
 10
3.485
 20
8.099999999999998
 30
0
 11
3.485
 21
8.299999999999997
 31
0
  0
LINE
  8
0
 62
7
  6
DASHDOT
 10
3.485
 20
8.299999999999997
 30
0
 11
3.485
 21
8.399999999999997
 31
0
  0
LINE
  8
0
 62
7
  6
DASHDOT
 10
3.16
 20
7.949999999999996
 30
0
 11
3.335
 21
7.949999999999996
 31
0
  0
LINE
  8
0
 62
7
  6
DASHDOT
 10
3.335
 20
7.949999999999996
 30
0
 11
3.385
 21
7.949999999999996
 31
0
  0
LINE
  8
0
 62
7
  6
DASHDOT
 10
0.9500000000000001
 20
8.099999999999998
 30
0
 11
0.9500000000000001
 21
8.299999999999997
 31
0
  0
LINE
  8
0
 62
7
  6
DASHDOT
 10
0.9500000000000001
 20
8.299999999999997
 30
0
 11
0.9500000000000001
 21
8.399999999999997
 31
0
  0
LINE
  8
0
 62
7
  6
DASHDOT
 10
1.1
 20
7.949999999999996
 30
0
 11
1.275
 21
7.949999999999996
 31
0
  0
LINE
  8
0
 62
7
  6
DASHDOT
 10
1.275
 20
7.949999999999996
 30
0
 11
1.325
 21
7.949999999999996
 31
0
  0
LINE
  8
0
 62
7
  6
DASHDOT
 10
0.9500000000000001
 20
10.85
 30
0
 11
0.9500000000000001
 21
11.05
 31
0
  0
LINE
  8
0
 62
7
  6
DASHDOT
 10
0.9500000000000001
 20
11.05
 30
0
 11
0.9500000000000001
 21
11.15
 31
0
  0
LINE
  8
0
 62
7
  6
DASHDOT
 10
1.1
 20
11.2
 30
0
 11
1.275
 21
11.2
 31
0
  0
LINE
  8
0
 62
7
  6
DASHDOT
 10
1.275
 20
11.2
 30
0
 11
1.325
 21
11.2
 31
0
  0
LINE
  8
0
 62
7
  6
DASHDOT
 10
3.485
 20
10.85
 30
0
 11
3.485
 21
11.05
 31
0
  0
LINE
  8
0
 62
7
  6
DASHDOT
 10
3.485
 20
11.05
 30
0
 11
3.485
 21
11.15
 31
0
  0
LINE
  8
0
 62
7
  6
DASHDOT
 10
3.16
 20
11.2
 30
0
 11
3.335
 21
11.2
 31
0
  0
LINE
  8
0
 62
7
  6
DASHDOT
 10
3.335
 20
11.2
 30
0
 11
3.385
 21
11.2
 31
0
  0
LINE
  8
0
 62
7
 10
8.200000000000001
 20
8.099999999999996
 30
0
 11
8.200000000000001
 21
7.949999999999996
 31
0
  0
LINE
  8
0
 62
7
 10
7.960000000000001
 20
11.05
 30
0
 11
7.960000000000001
 21
11.2
 31
0
  0
LINE
  8
0
 62
7
 10
7.960000000000001
 20
11.05
 30
0
 11
8.200000000000001
 21
11.05
 31
0
  0
LINE
  8
0
 62
7
 10
8.200000000000001
 20
11.2
 30
0
 11
8.200000000000001
 21
11.05
 31
0
  0
LINE
  8
0
 62
7
 10
7.960000000000001
 20
10.85
 30
0
 11
7.960000000000001
 21
11.05
 31
0
  0
LINE
  8
0
 62
7
 10
7.960000000000001
 20
10.85
 30
0
 11
8.200000000000001
 21
10.85
 31
0
  0
LINE
  8
0
 62
7
 10
8.200000000000001
 20
11.05
 30
0
 11
8.200000000000001
 21
10.85
 31
0
  0
LINE
  8
0
 62
7
 10
7.960000000000001
 20
8.299999999999997
 30
0
 11
7.960000000000001
 21
10.85
 31
0
  0
LINE
  8
0
 62
7
 10
7.960000000000001
 20
8.299999999999997
 30
0
 11
8.200000000000001
 21
8.299999999999997
 31
0
  0
LINE
  8
0
 62
7
 10
8.200000000000001
 20
10.85
 30
0
 11
8.200000000000001
 21
8.299999999999997
 31
0
  0
LINE
  8
0
 62
7
 10
7.960000000000001
 20
8.099999999999996
 30
0
 11
7.960000000000001
 21
8.299999999999997
 31
0
  0
LINE
  8
0
 62
7
 10
7.960000000000001
 20
8.099999999999996
 30
0
 11
8.200000000000001
 21
8.099999999999996
 31
0
  0
LINE
  8
0
 62
7
 10
8.200000000000001
 20
8.299999999999997
 30
0
 11
8.200000000000001
 21
8.099999999999996
 31
0
  0
LINE
  8
0
 62
7
 10
7.960000000000001
 20
7.949999999999996
 30
0
 11
7.960000000000001
 21
8.099999999999996
 31
0
  0
LINE
  8
0
 62
7
 10
6.06
 20
10.85
 30
0
 11
6.06
 21
11.05
 31
0
  0
LINE
  8
0
 62
7
 10
5.760000000000001
 20
10.85
 30
0
 11
6.06
 21
10.85
 31
0
  0
LINE
  8
0
 62
7
 10
5.760000000000001
 20
11.05
 30
0
 11
6.06
 21
11.05
 31
0
  0
LINE
  8
0
 62
7
 10
5.760000000000001
 20
8.299999999999997
 30
0
 11
6.06
 21
8.299999999999997
 31
0
  0
LINE
  8
0
 62
7
 10
6.06
 20
8.099999999999998
 30
0
 11
6.06
 21
8.299999999999997
 31
0
  0
LINE
  8
0
 62
7
 10
5.760000000000001
 20
8.099999999999998
 30
0
 11
6.06
 21
8.099999999999998
 31
0
  0
LINE
  8
0
 62
7
  6
DASHDOT
 10
8.200000000000001
 20
11.2
 30
0
 11
8.25
 21
11.2
 31
0
  0
LINE
  8
0
 62
7
  6
DASHDOT
 10
5.760000000000001
 20
11.15
 30
0
 11
5.760000000000001
 21
11.2
 31
0
  0
LINE
  8
0
 62
7
  6
DASHDOT
 10
5.760000000000001
 20
8.099999999999998
 30
0
 11
5.760000000000001
 21
8.049999999999997
 31
0
  0
LINE
  8
0
 62
7
  6
DASHDOT
 10
8.200000000000001
 20
7.949999999999996
 30
0
 11
8.25
 21
7.949999999999996
 31
0
  0
LINE
  8
0
 62
7
 10
5.760000000000001
 20
8.399999999999997
 30
0
 11
6.06
 21
8.399999999999997
 31
0
  0
LINE
  8
0
 62
7
  6
DASHDOT
 10
5.760000000000001
 20
8.449999999999998
 30
0
 11
5.760000000000001
 21
8.399999999999997
 31
0
  0
LINE
  8
0
 62
7
 10
5.760000000000001
 20
11.15
 30
0
 11
6.06
 21
11.15
 31
0
  0
LINE
  8
0
 62
7
  6
DASHDOT
 10
5.760000000000001
 20
11.05
 30
0
 11
5.760000000000001
 21
11.15
 31
0
  0
LINE
  8
0
 62
7
  6
DASHDOT
 10
5.760000000000001
 20
8.399999999999997
 30
0
 11
5.760000000000001
 21
8.299999999999997
 31
0
  0
LINE
  8
0
 62
7
  6
DASHDOT
 10
5.760000000000001
 20
8.299999999999997
 30
0
 11
5.760000000000001
 21
8.099999999999998
 31
0
  0
LINE
  8
0
 62
7
  6
DASHDOT
 10
7.960000000000001
 20
7.949999999999996
 30
0
 11
8.200000000000001
 21
7.949999999999996
 31
0
  0
LINE
  8
0
 62
7
  6
DASHDOT
 10
7.910000000000001
 20
7.949999999999996
 30
0
 11
7.960000000000001
 21
7.949999999999996
 31
0
  0
LINE
  8
0
 62
7
  6
DASHDOT
 10
7.910000000000001
 20
11.2
 30
0
 11
7.960000000000001
 21
11.2
 31
0
  0
LINE
  8
0
 62
7
  6
DASHDOT
 10
7.960000000000001
 20
11.2
 30
0
 11
8.200000000000001
 21
11.2
 31
0
  0
LINE
  8
0
 62
7
  6
DASHDOT
 10
5.760000000000001
 20
10.8
 30
0
 11
5.760000000000001
 21
10.85
 31
0
  0
LINE
  8
0
 62
7
  6
DASHDOT
 10
5.760000000000001
 20
10.85
 30
0
 11
5.760000000000001
 21
11.05
 31
0
  0
LINE
  8
0
 62
7
  6
DASHED
 10
6.06
 20
11.05
 30
0
 11
7.960000000000001
 21
11.05
 31
0
  0
LINE
  8
0
 62
7
  6
DASHED
 10
6.06
 20
10.85
 30
0
 11
7.960000000000001
 21
10.85
 31
0
  0
LINE
  8
0
 62
7
  6
DASHED
 10
6.06
 20
8.299999999999997
 30
0
 11
7.960000000000001
 21
8.299999999999997
 31
0
  0
LINE
  8
0
 62
7
  6
DASHED
 10
6.06
 20
8.099999999999998
 30
0
 11
7.960000000000001
 21
8.099999999999996
 31
0
  0
LINE
  8
0
 62
7
 10
3.335
 20
5.769999999999997
 30
0
 11
3.485
 21
5.769999999999997
 31
0
  0
LINE
  8
0
 62
7
 10
3.335
 20
5.919999999999998
 30
0
 11
3.335
 21
5.769999999999997
 31
0
  0
LINE
  8
0
 62
7
 10
3.16
 20
5.769999999999997
 30
0
 11
3.16
 21
5.919999999999998
 31
0
  0
LINE
  8
0
 62
7
 10
1.275
 20
5.769999999999997
 30
0
 11
3.16
 21
5.769999999999997
 31
0
  0
LINE
  8
0
 62
7
 10
1.275
 20
5.919999999999998
 30
0
 11
1.275
 21
5.769999999999997
 31
0
  0
LINE
  8
0
 62
7
 10
1.1
 20
5.769999999999997
 30
0
 11
1.1
 21
5.919999999999998
 31
0
  0
LINE
  8
0
 62
7
 10
0.9350000000000001
 20
5.769999999999997
 30
0
 11
1.1
 21
5.769999999999997
 31
0
  0
LINE
  8
0
 62
7
 10
0.9350000000000001
 20
5.530000000000001
 30
0
 11
3.485
 21
5.530000000000001
 31
0
  0
LINE
  8
0
 62
7
 10
0.9350000000000001
 20
5.49
 30
0
 11
3.485
 21
5.49
 31
0
  0
LINE
  8
0
 62
7
 10
3.335
 20
5.25
 30
0
 11
3.485
 21
5.25
 31
0
  0
LINE
  8
0
 62
7
 10
3.16
 20
3.350000000000001
 30
0
 11
3.16
 21
3.250000000000001
 31
0
  0
LINE
  8
0
 62
7
 10
3.16
 20
3.250000000000001
 30
0
 11
3.335
 21
3.250000000000001
 31
0
  0
LINE
  8
0
 62
7
 10
3.335
 20
3.250000000000001
 30
0
 11
3.335
 21
5.25
 31
0
  0
LINE
  8
0
 62
7
 10
1.275
 20
5.25
 30
0
 11
3.16
 21
5.25
 31
0
  0
LINE
  8
0
 62
7
 10
1.275
 20
3.400000000000001
 30
0
 11
1.275
 21
5.25
 31
0
  0
LINE
  8
0
 62
7
 10
1.1
 20
5.25
 30
0
 11
1.1
 21
3.350000000000001
 31
0
  0
LINE
  8
0
 62
7
 10
0.9350000000000001
 20
5.25
 30
0
 11
1.1
 21
5.25
 31
0
  0
LINE
  8
0
 62
7
 10
1.1
 20
3.350000000000001
 30
0
 11
1.275
 21
3.350000000000001
 31
0
  0
LINE
  8
0
 62
7
 10
3.16
 20
3.400000000000001
 30
0
 11
1.275
 21
3.400000000000001
 31
0
  0
LINE
  8
0
 62
7
 10
3.16
 20
5.25
 30
0
 11
3.16
 21
3.400000000000001
 31
0
  0
LINE
  8
0
 62
7
 10
1.275
 20
3.350000000000001
 30
0
 11
1.275
 21
3.400000000000001
 31
0
  0
LINE
  8
0
 62
7
  6
DASHDOT
 10
3.16
 20
3.350000000000001
 30
0
 11
1.275
 21
3.350000000000001
 31
0
  0
LINE
  8
0
 62
7
 10
3.16
 20
3.400000000000001
 30
0
 11
3.16
 21
3.350000000000001
 31
0
  0
LINE
  8
0
 62
7
  6
DASHDOT
 10
3.335
 20
5.919999999999998
 30
0
 11
3.385
 21
5.919999999999997
 31
0
  0
LINE
  8
0
 62
7
  6
DASHDOT
 10
1.275
 20
5.919999999999998
 30
0
 11
1.325
 21
5.919999999999997
 31
0
  0
LINE
  8
0
 62
7
  6
DASHDOT
 10
3.485
 20
5.769999999999997
 30
0
 11
3.485
 21
5.819999999999997
 31
0
  0
LINE
  8
0
 62
7
  6
DASHDOT
 10
0.9350000000000001
 20
5.769999999999997
 30
0
 11
0.9350000000000001
 21
5.819999999999997
 31
0
  0
LINE
  8
0
 62
7
  6
DASHDOT
 10
0.9350000000000001
 20
5.530000000000001
 30
0
 11
0.9350000000000001
 21
5.769999999999997
 31
0
  0
LINE
  8
0
 62
7
  6
DASHDOT
 10
0.9350000000000001
 20
5.2
 30
0
 11
0.9350000000000001
 21
5.25
 31
0
  0
LINE
  8
0
 62
7
  6
DASHDOT
 10
3.16
 20
5.919999999999998
 30
0
 11
3.335
 21
5.919999999999998
 31
0
  0
LINE
  8
0
 62
7
  6
DASHDOT
 10
3.11
 20
5.919999999999997
 30
0
 11
3.16
 21
5.919999999999998
 31
0
  0
LINE
  8
0
 62
7
  6
DASHDOT
 10
3.485
 20
5.530000000000001
 30
0
 11
3.485
 21
5.769999999999997
 31
0
  0
LINE
  8
0
 62
7
  6
DASHDOT
 10
3.485
 20
5.2
 30
0
 11
3.485
 21
5.25
 31
0
  0
LINE
  8
0
 62
7
  6
DASHDOT
 10
0.9350000000000001
 20
5.49
 30
0
 11
0.9350000000000001
 21
5.530000000000001
 31
0
  0
LINE
  8
0
 62
7
  6
DASHDOT
 10
3.485
 20
5.49
 30
0
 11
3.485
 21
5.530000000000001
 31
0
  0
LINE
  8
0
 62
7
  6
DASHDOT
 10
0.9350000000000001
 20
5.25
 30
0
 11
0.9350000000000001
 21
5.49
 31
0
  0
LINE
  8
0
 62
7
  6
DASHDOT
 10
3.485
 20
5.25
 30
0
 11
3.485
 21
5.49
 31
0
  0
LINE
  8
0
 62
7
  6
DASHDOT
 10
1.05
 20
5.919999999999997
 30
0
 11
1.1
 21
5.919999999999998
 31
0
  0
LINE
  8
0
 62
7
  6
DASHDOT
 10
1.1
 20
5.919999999999998
 30
0
 11
1.275
 21
5.919999999999998
 31
0
  0
LINE
  8
0
 62
7
 10
3.10499981
 20
8.518333226666666
 30
0
 11
2.24499992
 21
8.518333226666666
 31
0
  0
LINE
  8
0
 62
7
 10
2.24499992
 20
8.518333226666666
 30
0
 11
2.24499992
 21
8.583333226666666
 31
0
  0
LINE
  8
0
 62
7
 10
3.10499981
 20
8.583333226666666
 30
0
 11
3.10499981
 21
8.518333226666666
 31
0
  0
LINE
  8
0
 62
7
 10
2.24499992
 20
8.583333226666666
 30
0
 11
3.10499981
 21
8.583333226666666
 31
0
  0
LINE
  8
0
 62
7
 10
3.104999960000001
 20
8.701666566666665
 30
0
 11
2.24499954
 21
8.701666566666665
 31
0
  0
LINE
  8
0
 62
7
 10
2.24499954
 20
8.701666566666665
 30
0
 11
2.24499954
 21
8.766666566666663
 31
0
  0
LINE
  8
0
 62
7
 10
3.104999960000001
 20
8.766666566666663
 30
0
 11
3.104999960000001
 21
8.701666566666665
 31
0
  0
LINE
  8
0
 62
7
 10
2.24499954
 20
8.766666566666663
 30
0
 11
3.104999960000001
 21
8.766666566666663
 31
0
  0
LINE
  8
0
 62
7
 10
3.104999919999998
 20
8.884999906666664
 30
0
 11
2.24499962
 21
8.884999906666664
 31
0
  0
LINE
  8
0
 62
7
 10
2.24499962
 20
8.884999906666664
 30
0
 11
2.24499962
 21
8.949999906666665
 31
0
  0
LINE
  8
0
 62
7
 10
3.104999919999998
 20
8.949999906666665
 30
0
 11
3.104999919999998
 21
8.884999906666664
 31
0
  0
LINE
  8
0
 62
7
 10
2.24499962
 20
8.949999906666665
 30
0
 11
3.104999919999998
 21
8.949999906666665
 31
0
  0
LINE
  8
0
 62
7
 10
3.104999840000003
 20
9.068333226666665
 30
0
 11
2.24499977
 21
9.068333226666665
 31
0
  0
LINE
  8
0
 62
7
 10
2.24499977
 20
9.068333226666665
 30
0
 11
2.24499977
 21
9.133333226666666
 31
0
  0
LINE
  8
0
 62
7
 10
3.104999840000003
 20
9.133333226666666
 30
0
 11
3.104999840000003
 21
9.068333226666665
 31
0
  0
LINE
  8
0
 62
7
 10
2.24499977
 20
9.133333226666666
 30
0
 11
3.104999840000003
 21
9.133333226666666
 31
0
  0
LINE
  8
0
 62
7
 10
3.10499977
 20
9.251666586666664
 30
0
 11
2.244999690000001
 21
9.251666586666664
 31
0
  0
LINE
  8
0
 62
7
 10
2.244999690000001
 20
9.251666586666664
 30
0
 11
2.244999690000001
 21
9.316666586666663
 31
0
  0
LINE
  8
0
 62
7
 10
3.10499977
 20
9.316666586666663
 30
0
 11
3.10499977
 21
9.251666586666664
 31
0
  0
LINE
  8
0
 62
7
 10
2.244999690000001
 20
9.316666586666663
 30
0
 11
3.10499977
 21
9.316666586666663
 31
0
  0
LINE
  8
0
 62
7
 10
2.244999690000001
 20
9.434999946666663
 30
0
 11
2.244999690000001
 21
9.499999946666664
 31
0
  0
LINE
  8
0
 62
7
 10
3.104999919999998
 20
9.499999946666664
 30
0
 11
3.104999919999998
 21
9.434999946666663
 31
0
  0
LINE
  8
0
 62
7
 10
3.104999919999998
 20
9.434999946666663
 30
0
 11
2.244999690000001
 21
9.434999946666663
 31
0
  0
LINE
  8
0
 62
7
 10
2.244999690000001
 20
9.499999946666664
 30
0
 11
3.104999919999998
 21
9.499999946666664
 31
0
  0
LINE
  8
0
 62
7
 10
2.17733986
 20
9.618333226666666
 30
0
 11
2.17733986
 21
9.683333226666667
 31
0
  0
LINE
  8
0
 62
7
 10
2.708645400000001
 20
9.683333226666667
 30
0
 11
2.708645400000001
 21
9.618333226666666
 31
0
  0
LINE
  8
0
 62
7
 10
2.17733986
 20
9.683333226666667
 30
0
 11
2.708645400000001
 21
9.683333226666667
 31
0
  0
LINE
  8
0
 62
7
 10
2.708645400000001
 20
9.618333226666666
 30
0
 11
2.17733986
 21
9.618333226666666
 31
0
  0
LINE
  8
0
 62
7
 10
1.83882004
 20
9.801666666666668
 30
0
 11
1.83882004
 21
9.866666666666667
 31
0
  0
LINE
  8
0
 62
7
 10
2.311136400000001
 20
9.866666666666667
 30
0
 11
2.311136400000001
 21
9.801666666666668
 31
0
  0
LINE
  8
0
 62
7
 10
1.83882004
 20
9.866666666666667
 30
0
 11
2.311136400000001
 21
9.866666666666667
 31
0
  0
LINE
  8
0
 62
7
 10
2.311136400000001
 20
9.801666666666668
 30
0
 11
1.83882004
 21
9.801666666666668
 31
0
  0
LINE
  8
0
 62
7
 10
1.339957119999999
 20
9.984999946666669
 30
0
 11
1.339957119999999
 21
10.04999994666667
 31
0
  0
LINE
  8
0
 62
7
 10
2.18999992
 20
10.04999994666667
 30
0
 11
2.18999992
 21
9.984999946666669
 31
0
  0
LINE
  8
0
 62
7
 10
2.18999992
 20
9.984999946666669
 30
0
 11
1.339957119999999
 21
9.984999946666669
 31
0
  0
LINE
  8
0
 62
7
 10
1.339957119999999
 20
10.04999994666667
 30
0
 11
2.18999992
 21
10.04999994666667
 31
0
  0
LINE
  8
0
 62
7
 10
1.32999984
 20
10.16833322666667
 30
0
 11
1.32999984
 21
10.23333322666667
 31
0
  0
LINE
  8
0
 62
7
 10
2.19
 20
10.23333322666667
 30
0
 11
2.19
 21
10.16833322666667
 31
0
  0
LINE
  8
0
 62
7
 10
2.19
 20
10.16833322666667
 30
0
 11
1.32999984
 21
10.16833322666667
 31
0
  0
LINE
  8
0
 62
7
 10
1.32999984
 20
10.23333322666667
 30
0
 11
2.19
 21
10.23333322666667
 31
0
  0
LINE
  8
0
 62
7
 10
2.18999977
 20
10.35166666666667
 30
0
 11
1.32999984
 21
10.35166666666667
 31
0
  0
LINE
  8
0
 62
7
 10
1.32999984
 20
10.35166666666667
 30
0
 11
1.32999984
 21
10.41666666666667
 31
0
  0
LINE
  8
0
 62
7
 10
2.18999977
 20
10.41666666666667
 30
0
 11
2.18999977
 21
10.35166666666667
 31
0
  0
LINE
  8
0
 62
7
 10
1.32999984
 20
10.41666666666667
 30
0
 11
2.18999977
 21
10.41666666666667
 31
0
  0
LINE
  8
0
 62
7
 10
2.190000070000002
 20
10.53499994666667
 30
0
 11
1.33
 21
10.53499994666667
 31
0
  0
LINE
  8
0
 62
7
 10
1.33
 20
10.53499994666667
 30
0
 11
1.33
 21
10.59999994666667
 31
0
  0
LINE
  8
0
 62
7
 10
2.190000070000002
 20
10.59999994666667
 30
0
 11
2.190000070000002
 21
10.53499994666667
 31
0
  0
LINE
  8
0
 62
7
 10
1.33
 20
10.59999994666667
 30
0
 11
2.190000070000002
 21
10.59999994666667
 31
0
  0
LINE
  8
0
 62
7
 10
2.189999920000001
 20
10.71833322666667
 30
0
 11
1.329999539999999
 21
10.71833322666667
 31
0
  0
LINE
  8
0
 62
7
 10
1.329999539999999
 20
10.71833322666667
 30
0
 11
1.329999539999999
 21
10.78333322666667
 31
0
  0
LINE
  8
0
 62
7
 10
2.189999920000001
 20
10.78333322666667
 30
0
 11
2.189999920000001
 21
10.71833322666667
 31
0
  0
LINE
  8
0
 62
7
 10
1.329999539999999
 20
10.78333322666667
 30
0
 11
2.189999920000001
 21
10.78333322666667
 31
0
  0
LINE
  8
0
 62
7
  6
DASHED
 10
2.190000000000001
 20
10.90166666666667
 30
0
 11
1.33
 21
10.90166666666667
 31
0
  0
LINE
  8
0
 62
7
  6
DASHED
 10
1.33
 20
10.90166666666667
 30
0
 11
1.33
 21
10.96666666666667
 31
0
  0
LINE
  8
0
 62
7
  6
DASHED
 10
2.190000000000001
 20
10.96666666666667
 30
0
 11
2.190000000000001
 21
10.90166666666667
 31
0
  0
LINE
  8
0
 62
7
  6
DASHED
 10
1.33
 20
10.96666666666667
 30
0
 11
2.190000000000001
 21
10.96666666666667
 31
0
  0
LINE
  8
0
 62
7
 10
6.310000190000001
 20
8.518333226666666
 30
0
 11
5.96000011
 21
8.518333226666666
 31
0
  0
LINE
  8
0
 62
7
 10
6.310000190000001
 20
8.583333226666666
 30
0
 11
6.310000190000001
 21
8.518333226666666
 31
0
  0
LINE
  8
0
 62
7
 10
5.96000011
 20
8.518333226666666
 30
0
 11
5.96000011
 21
8.583333226666666
 31
0
  0
LINE
  8
0
 62
7
 10
5.96000011
 20
8.583333226666666
 30
0
 11
6.310000190000001
 21
8.583333226666666
 31
0
  0
LINE
  8
0
 62
7
 10
6.65708541
 20
8.766666566666663
 30
0
 11
6.65708541
 21
8.701666566666665
 31
0
  0
LINE
  8
0
 62
7
 10
6.220000000000001
 20
8.701666566666665
 30
0
 11
6.220000000000001
 21
8.766666566666663
 31
0
  0
LINE
  8
0
 62
7
 10
6.65708541
 20
8.701666566666665
 30
0
 11
6.220000000000001
 21
8.701666566666665
 31
0
  0
LINE
  8
0
 62
7
 10
6.220000000000001
 20
8.766666566666663
 30
0
 11
6.65708541
 21
8.766666566666663
 31
0
  0
LINE
  8
0
 62
7
 10
7.011974640000002
 20
8.949999906666665
 30
0
 11
7.011974640000002
 21
8.884999906666664
 31
0
  0
LINE
  8
0
 62
7
 10
6.337444949999999
 20
8.884999906666664
 30
0
 11
6.337444949999999
 21
8.949999906666665
 31
0
  0
LINE
  8
0
 62
7
 10
6.337444949999999
 20
8.949999906666665
 30
0
 11
7.011974640000002
 21
8.949999906666665
 31
0
  0
LINE
  8
0
 62
7
 10
7.011974640000002
 20
8.884999906666664
 30
0
 11
6.337444949999999
 21
8.884999906666664
 31
0
  0
LINE
  8
0
 62
7
 10
7.373519890000003
 20
9.133333226666666
 30
0
 11
7.373519890000003
 21
9.068333226666665
 31
0
  0
LINE
  8
0
 62
7
 10
6.451567609999998
 20
9.068333226666665
 30
0
 11
6.451567609999998
 21
9.133333226666666
 31
0
  0
LINE
  8
0
 62
7
 10
6.451567609999998
 20
9.133333226666666
 30
0
 11
7.373519890000003
 21
9.133333226666666
 31
0
  0
LINE
  8
0
 62
7
 10
7.373519890000003
 20
9.068333226666665
 30
0
 11
6.451567609999998
 21
9.068333226666665
 31
0
  0
LINE
  8
0
 62
7
 10
7.885709680000001
 20
9.316666586666667
 30
0
 11
7.885709680000001
 21
9.251666586666664
 31
0
  0
LINE
  8
0
 62
7
 10
6.562941510000001
 20
9.251666586666664
 30
0
 11
6.562941510000001
 21
9.316666586666667
 31
0
  0
LINE
  8
0
 62
7
 10
6.562941510000001
 20
9.316666586666667
 30
0
 11
7.885709680000001
 21
9.316666586666667
 31
0
  0
LINE
  8
0
 62
7
 10
7.885709680000001
 20
9.251666586666664
 30
0
 11
6.562941510000001
 21
9.251666586666664
 31
0
  0
LINE
  8
0
 62
7
 10
7.904999840000001
 20
9.499999946666664
 30
0
 11
7.904999840000001
 21
9.434999946666663
 31
0
  0
LINE
  8
0
 62
7
 10
6.654865870000004
 20
9.434999946666663
 30
0
 11
6.654865870000004
 21
9.499999946666664
 31
0
  0
LINE
  8
0
 62
7
 10
6.654865870000004
 20
9.499999946666664
 30
0
 11
7.904999840000001
 21
9.499999946666664
 31
0
  0
LINE
  8
0
 62
7
 10
7.904999840000001
 20
9.434999946666663
 30
0
 11
6.654865870000004
 21
9.434999946666663
 31
0
  0
LINE
  8
0
 62
7
 10
7.904999840000001
 20
9.683333226666667
 30
0
 11
7.904999840000001
 21
9.618333226666666
 31
0
  0
LINE
  8
0
 62
7
 10
6.834068520000002
 20
9.618333226666666
 30
0
 11
6.834068520000002
 21
9.683333226666667
 31
0
  0
LINE
  8
0
 62
7
 10
7.904999840000001
 20
9.618333226666666
 30
0
 11
6.834068520000002
 21
9.618333226666666
 31
0
  0
LINE
  8
0
 62
7
 10
6.834068520000002
 20
9.683333226666667
 30
0
 11
7.904999840000001
 21
9.683333226666667
 31
0
  0
LINE
  8
0
 62
7
 10
7.904999840000001
 20
9.866666666666665
 30
0
 11
7.904999840000001
 21
9.801666666666666
 31
0
  0
LINE
  8
0
 62
7
 10
6.852874830000001
 20
9.801666666666666
 30
0
 11
6.852874830000001
 21
9.866666666666665
 31
0
  0
LINE
  8
0
 62
7
 10
7.904999840000001
 20
9.801666666666666
 30
0
 11
6.852874830000001
 21
9.801666666666666
 31
0
  0
LINE
  8
0
 62
7
 10
6.852874830000001
 20
9.866666666666665
 30
0
 11
7.904999840000001
 21
9.866666666666665
 31
0
  0
LINE
  8
0
 62
7
 10
7.905
 20
10.04999994666666
 30
0
 11
7.905
 21
9.984999946666663
 31
0
  0
LINE
  8
0
 62
7
 10
6.647608179999999
 20
9.984999946666663
 30
0
 11
6.647608179999999
 21
10.04999994666666
 31
0
  0
LINE
  8
0
 62
7
 10
7.905
 20
9.984999946666663
 30
0
 11
6.647608179999999
 21
9.984999946666663
 31
0
  0
LINE
  8
0
 62
7
 10
6.647608179999999
 20
10.04999994666666
 30
0
 11
7.905
 21
10.04999994666666
 31
0
  0
LINE
  8
0
 62
7
 10
7.905
 20
10.23333322666667
 30
0
 11
7.905
 21
10.16833322666667
 31
0
  0
LINE
  8
0
 62
7
 10
6.57162773
 20
10.16833322666667
 30
0
 11
6.57162773
 21
10.23333322666667
 31
0
  0
LINE
  8
0
 62
7
 10
6.57162773
 20
10.23333322666667
 30
0
 11
7.905
 21
10.23333322666667
 31
0
  0
LINE
  8
0
 62
7
 10
7.905
 20
10.16833322666667
 30
0
 11
6.57162773
 21
10.16833322666667
 31
0
  0
LINE
  8
0
 62
7
 10
7.453728180000001
 20
10.41666666666667
 30
0
 11
7.453728180000001
 21
10.35166666666667
 31
0
  0
LINE
  8
0
 62
7
 10
6.463519780000002
 20
10.35166666666667
 30
0
 11
6.463519780000002
 21
10.41666666666667
 31
0
  0
LINE
  8
0
 62
7
 10
6.463519780000002
 20
10.41666666666667
 30
0
 11
7.453728180000001
 21
10.41666666666667
 31
0
  0
LINE
  8
0
 62
7
 10
7.453728180000001
 20
10.35166666666667
 30
0
 11
6.463519780000002
 21
10.35166666666667
 31
0
  0
LINE
  8
0
 62
7
 10
7.079889980000001
 20
10.59999994666666
 30
0
 11
7.079889980000001
 21
10.53499994666666
 31
0
  0
LINE
  8
0
 62
7
 10
6.349986830000001
 20
10.53499994666666
 30
0
 11
6.349986830000001
 21
10.59999994666666
 31
0
  0
LINE
  8
0
 62
7
 10
6.349986830000001
 20
10.59999994666666
 30
0
 11
7.079889980000001
 21
10.59999994666666
 31
0
  0
LINE
  8
0
 62
7
 10
7.079889980000001
 20
10.53499994666666
 30
0
 11
6.349986830000001
 21
10.53499994666666
 31
0
  0
LINE
  8
0
 62
7
 10
6.739231330000003
 20
10.78333322666667
 30
0
 11
6.739231330000003
 21
10.71833322666667
 31
0
  0
LINE
  8
0
 62
7
 10
6.23437934
 20
10.71833322666667
 30
0
 11
6.23437934
 21
10.78333322666667
 31
0
  0
LINE
  8
0
 62
7
 10
6.23437934
 20
10.78333322666667
 30
0
 11
6.739231330000003
 21
10.78333322666667
 31
0
  0
LINE
  8
0
 62
7
 10
6.739231330000003
 20
10.71833322666667
 30
0
 11
6.23437934
 21
10.71833322666667
 31
0
  0
LINE
  8
0
 62
7
 10
6.396963339999999
 20
10.96666666666667
 30
0
 11
6.396963339999999
 21
10.90166666666667
 31
0
  0
LINE
  8
0
 62
7
 10
6.100000090000003
 20
10.90166666666667
 30
0
 11
6.100000090000003
 21
10.96666666666667
 31
0
  0
LINE
  8
0
 62
7
 10
6.396963339999999
 20
10.90166666666667
 30
0
 11
6.100000090000003
 21
10.90166666666667
 31
0
  0
LINE
  8
0
 62
7
 10
6.100000090000003
 20
10.96666666666667
 30
0
 11
6.396963339999999
 21
10.96666666666667
 31
0
  0
LINE
  8
0
 62
7
 10
2.245
 20
3.25
 30
0
 11
2.726102778686669
 21
3.25
 31
0
  0
LINE
  8
0
 62
7
 10
2.19
 20
4.17557098212641
 30
0
 11
2.180808298202365
 21
4.211842844174569
 31
0
  0
LINE
  8
0
 62
7
 10
2.180808298202365
 20
4.211842844174569
 30
0
 11
2.217755286843982
 21
4.245652718935864
 31
0
  0
LINE
  8
0
 62
7
 10
2.217755286843982
 20
4.245652718935864
 30
0
 11
2.245000000000001
 21
4.212332418135129
 31
0
  0
LINE
  8
0
 62
7
 10
2.245
 20
3.96864823369356
 30
0
 11
2.245000000000001
 21
3.944865709400752
 31
0
  0
LINE
  8
0
 62
7
 10
2.245
 20
4.08982705935143
 30
0
 11
2.245000000000001
 21
3.944865709400752
 31
0
  0
LINE
  8
0
 62
7
 10
2.245000000000001
 20
3.944865709400752
 30
0
 11
2.245000000000001
 21
3.944865709400752
 31
0
  0
LINE
  8
0
 62
7
 10
2.245000000000001
 20
4.212332418135129
 30
0
 11
2.245000000000001
 21
3.944865709400752
 31
0
  0
LINE
  8
0
 62
7
 10
2.726102778686669
 20
3.25
 30
0
 11
3.105
 21
3.25
 31
0
  0
LINE
  8
0
 62
7
 10
2.245
 20
3.6
 30
0
 11
2.245
 21
3.25
 31
0
  0
LINE
  8
0
 62
7
 10
3.105
 20
3.25
 30
0
 11
3.105
 21
3.6
 31
0
  0
LINE
  8
0
 62
7
 10
2.245
 20
3.51
 30
0
 11
3.105
 21
3.51
 31
0
  0
LINE
  8
0
 62
7
 10
2.245
 20
3.72051577154552
 30
0
 11
2.245
 21
3.51
 31
0
  0
LINE
  8
0
 62
7
 10
3.105
 20
3.51
 30
0
 11
3.105
 21
3.947085388198919
 31
0
  0
LINE
  8
0
 62
7
 10
2.245
 20
3.62744482658473
 30
0
 11
3.105
 21
3.854014443238141
 31
0
  0
LINE
  8
0
 62
7
 10
2.245
 20
3.84355537274948
 30
0
 11
2.245
 21
3.62744482658473
 31
0
  0
LINE
  8
0
 62
7
 10
3.105
 20
3.854014443238141
 30
0
 11
3.105
 21
4.301974568283461
 31
0
  0
LINE
  8
0
 62
7
 10
2.245
 20
3.7415675575503
 30
0
 11
3.105
 21
4.199986753084282
 31
0
  0
LINE
  8
0
 62
7
 10
2.245000000000001
 20
3.944865709400752
 30
0
 11
2.245
 21
3.7415675575503
 31
0
  0
LINE
  8
0
 62
7
 10
3.105
 20
4.199986753084282
 30
0
 11
3.105
 21
4.663519674490661
 31
0
  0
LINE
  8
0
 62
7
 10
2.245
 20
3.852941413990691
 30
0
 11
3.105
 21
4.547812854787792
 31
0
  0
LINE
  8
0
 62
7
 10
2.245000000000001
 20
3.944865709400752
 30
0
 11
2.245
 21
3.852941413990691
 31
0
  0
LINE
  8
0
 62
7
 10
3.105
 20
4.547812854787792
 30
0
 11
3.105
 21
5.17570960351096
 31
0
  0
LINE
  8
0
 62
7
 10
2.245000000000001
 20
3.944865709400752
 30
0
 11
3.105
 21
5.030748253560279
 31
0
  0
LINE
  8
0
 62
7
 10
3.105
 20
5.195
 30
0
 11
2.61282101354751
 21
5.195
 31
0
  0
LINE
  8
0
 62
7
 10
3.105
 20
5.030748253560279
 30
0
 11
3.105
 21
5.195
 31
0
  0
LINE
  8
0
 62
7
 10
2.31717016087433
 20
4.12406826738416
 30
0
 11
2.708645629639681
 21
5.195
 31
0
  0
LINE
  8
0
 62
7
 10
2.245000000000001
 20
4.212332418135129
 30
0
 11
2.31717016087433
 21
4.12406826738416
 31
0
  0
LINE
  8
0
 62
7
 10
2.708645629639681
 20
5.195
 30
0
 11
2.221030678516109
 21
5.195
 31
0
  0
LINE
  8
0
 62
7
 10
2.267244841567603
 20
4.29094018913887
 30
0
 11
2.31113668443821
 21
5.195
 31
0
  0
LINE
  8
0
 62
7
 10
2.217755286843982
 20
4.245652718935864
 30
0
 11
2.267244841567603
 21
4.29094018913887
 31
0
  0
LINE
  8
0
 62
7
 10
2.31113668443821
 20
5.195
 30
0
 11
1.83882029062599
 21
5.195
 31
0
  0
LINE
  8
0
 62
7
 10
2.180808298202365
 20
4.211842844174569
 30
0
 11
1.93166510879128
 21
5.195
 31
0
  0
LINE
  8
0
 62
7
 10
2.19
 20
3.937607991308969
 30
0
 11
2.19
 21
4.17557098212641
 31
0
  0
LINE
  8
0
 62
7
 10
1.93166510879128
 20
5.195
 30
0
 11
1.339956966233511
 21
5.195
 31
0
  0
LINE
  8
0
 62
7
 10
2.19
 20
4.098304288289063
 30
0
 11
1.448593546437478
 21
5.195
 31
0
  0
LINE
  8
0
 62
7
 10
2.19
 20
3.861627498167319
 30
0
 11
2.19
 21
4.098304288289063
 31
0
  0
LINE
  8
0
 62
7
 10
1.33
 20
5.195
 30
0
 11
1.33
 21
4.623491524634239
 31
0
  0
LINE
  8
0
 62
7
 10
1.448593546437478
 20
5.195
 30
0
 11
1.33
 21
5.195
 31
0
  0
LINE
  8
0
 62
7
 10
2.19
 20
3.981864206060239
 30
0
 11
1.33
 21
4.743728232527161
 31
0
  0
LINE
  8
0
 62
7
 10
2.19
 20
3.753519654507081
 30
0
 11
2.19
 21
3.981864206060239
 31
0
  0
LINE
  8
0
 62
7
 10
1.33
 20
4.743728232527161
 30
0
 11
1.33
 21
4.26516679125896
 31
0
  0
LINE
  8
0
 62
7
 10
2.19
 20
3.85824314772586
 30
0
 11
1.33
 21
4.369890284477741
 31
0
  0
LINE
  8
0
 62
7
 10
2.19
 20
3.63998665976738
 30
0
 11
2.19
 21
3.85824314772586
 31
0
  0
LINE
  8
0
 62
7
 10
1.33
 20
4.369890284477741
 30
0
 11
1.33
 21
3.934113241650302
 31
0
  0
LINE
  8
0
 62
7
 10
2.19
 20
3.73510474849453
 30
0
 11
1.33
 21
4.029231330377452
 31
0
  0
LINE
  8
0
 62
7
 10
2.19
 20
3.524379397129628
 30
0
 11
2.19
 21
3.73510474849453
 31
0
  0
LINE
  8
0
 62
7
 10
1.33
 20
4.029231330377452
 30
0
 11
1.33
 21
3.596646119654151
 31
0
  0
LINE
  8
0
 62
7
 10
2.19
 20
3.61469659311995
 30
0
 11
1.33
 21
3.686963315644471
 31
0
  0
LINE
  8
0
 62
7
 10
2.19
 20
3.389999999999999
 30
0
 11
2.19
 21
3.61469659311995
 31
0
  0
LINE
  8
0
 62
7
 10
1.33
 20
3.686963315644471
 30
0
 11
1.33
 21
3.389999999999999
 31
0
  0
LINE
  8
0
 62
7
 10
2.786102778686669
 20
4.27500065718748
 30
0
 11
2.786102778686669
 21
3.25
 31
0
  0
LINE
  8
0
 62
7
 10
2.189999342848201
 20
4.816102778686671
 30
0
 11
2.245000657143429
 21
4.816102778686671
 31
0
  0
LINE
  8
0
 62
7
 10
1.754552320575034
 20
3.461
 30
0
 11
1.648897221313331
 21
3.399999999999999
 31
0
  0
LINE
  8
0
 62
7
 10
1.543242122051628
 20
3.461
 30
0
 11
1.754552320575034
 21
3.461
 31
0
  0
LINE
  8
0
 62
7
 10
1.648897221313331
 20
3.399999999999999
 30
0
 11
1.543242122051628
 21
3.461
 31
0
  0
LINE
  8
0
 62
7
 10
1.648897221313331
 20
3.399999999999999
 30
0
 11
1.648897221313331
 21
4.27500065714383
 31
0
  0
LINE
  8
0
 62
7
 10
1.392922505393741
 20
4.935531823085221
 30
0
 11
1.392922505393741
 21
5.055531823085221
 31
0
  0
LINE
  8
0
 62
7
 10
1.468522505393741
 20
5.055531823085221
 30
0
 11
1.414522505393741
 21
4.99553182308522
 31
0
  0
LINE
  8
0
 62
7
 10
1.414522505393741
 20
4.99553182308522
 30
0
 11
1.468522505393741
 21
4.935531823085221
 31
0
  0
LINE
  8
0
 62
7
 10
1.414522505393741
 20
4.99553182308522
 30
0
 11
1.392922505393741
 21
4.97153182308522
 31
0
  0
LINE
  8
0
 62
7
 10
1.576522505393741
 20
5.055531823085221
 30
0
 11
1.500922505393741
 21
5.055531823085221
 31
0
  0
LINE
  8
0
 62
7
 10
1.500922505393741
 20
5.055531823085221
 30
0
 11
1.500922505393741
 21
4.99553182308522
 31
0
  0
LINE
  8
0
 62
7
 10
1.500922505393741
 20
4.935531823085221
 30
0
 11
1.576522505393741
 21
4.935531823085221
 31
0
  0
LINE
  8
0
 62
7
 10
1.565722505393741
 20
4.99553182308522
 30
0
 11
1.500922505393741
 21
4.99553182308522
 31
0
  0
LINE
  8
0
 62
7
 10
1.500922505393741
 20
4.99553182308522
 30
0
 11
1.500922505393741
 21
4.935531823085221
 31
0
  0
LINE
  8
0
 62
7
 10
1.608922505393741
 20
4.935531823085221
 30
0
 11
1.608922505393741
 21
5.055531823085221
 31
0
  0
LINE
  8
0
 62
7
 10
1.608922505393741
 20
5.055531823085221
 30
0
 11
1.684522505393741
 21
4.935531823085221
 31
0
  0
LINE
  8
0
 62
7
 10
1.684522505393741
 20
4.935531823085221
 30
0
 11
1.684522505393741
 21
5.055531823085221
 31
0
  0
LINE
  8
0
 62
7
 10
1.716922505393741
 20
4.935531823085221
 30
0
 11
1.716922505393741
 21
5.055531823085221
 31
0
  0
LINE
  8
0
 62
7
 10
1.716922505393741
 20
5.055531823085221
 30
0
 11
1.792522505393741
 21
4.935531823085221
 31
0
  0
LINE
  8
0
 62
7
 10
1.792522505393741
 20
4.935531823085221
 30
0
 11
1.792522505393741
 21
5.055531823085221
 31
0
  0
LINE
  8
0
 62
7
 10
1.900522505393741
 20
5.01953182308522
 30
0
 11
1.897822505393741
 21
5.031531823085221
 31
0
  0
LINE
  8
0
 62
7
 10
1.897822505393741
 20
5.031531823085221
 30
0
 11
1.892422505393741
 21
5.040531823085221
 31
0
  0
LINE
  8
0
 62
7
 10
1.892422505393741
 20
5.040531823085221
 30
0
 11
1.887022505393741
 21
5.04653182308522
 31
0
  0
LINE
  8
0
 62
7
 10
1.887022505393741
 20
5.04653182308522
 30
0
 11
1.878922505393741
 21
5.052531823085221
 31
0
  0
LINE
  8
0
 62
7
 10
1.878922505393741
 20
5.052531823085221
 30
0
 11
1.870822505393741
 21
5.055531823085221
 31
0
  0
LINE
  8
0
 62
7
 10
1.870822505393741
 20
5.055531823085221
 30
0
 11
1.854622505393741
 21
5.055531823085221
 31
0
  0
LINE
  8
0
 62
7
 10
1.854622505393741
 20
5.055531823085221
 30
0
 11
1.846522505393741
 21
5.052531823085221
 31
0
  0
LINE
  8
0
 62
7
 10
1.846522505393741
 20
5.052531823085221
 30
0
 11
1.838422505393742
 21
5.04653182308522
 31
0
  0
LINE
  8
0
 62
7
 10
1.838422505393742
 20
5.04653182308522
 30
0
 11
1.833022505393741
 21
5.040531823085221
 31
0
  0
LINE
  8
0
 62
7
 10
1.833022505393741
 20
5.040531823085221
 30
0
 11
1.827622505393741
 21
5.031531823085221
 31
0
  0
LINE
  8
0
 62
7
 10
1.827622505393741
 20
5.031531823085221
 30
0
 11
1.824922505393741
 21
5.01953182308522
 31
0
  0
LINE
  8
0
 62
7
 10
1.824922505393741
 20
5.01953182308522
 30
0
 11
1.824922505393741
 21
4.97153182308522
 31
0
  0
LINE
  8
0
 62
7
 10
1.824922505393741
 20
4.97153182308522
 30
0
 11
1.827622505393741
 21
4.959531823085221
 31
0
  0
LINE
  8
0
 62
7
 10
1.827622505393741
 20
4.959531823085221
 30
0
 11
1.833022505393741
 21
4.95053182308522
 31
0
  0
LINE
  8
0
 62
7
 10
1.833022505393741
 20
4.95053182308522
 30
0
 11
1.838422505393742
 21
4.944531823085221
 31
0
  0
LINE
  8
0
 62
7
 10
1.838422505393742
 20
4.944531823085221
 30
0
 11
1.846522505393741
 21
4.938531823085221
 31
0
  0
LINE
  8
0
 62
7
 10
1.846522505393741
 20
4.938531823085221
 30
0
 11
1.854622505393741
 21
4.935531823085221
 31
0
  0
LINE
  8
0
 62
7
 10
1.854622505393741
 20
4.935531823085221
 30
0
 11
1.870822505393741
 21
4.935531823085221
 31
0
  0
LINE
  8
0
 62
7
 10
1.870822505393741
 20
4.935531823085221
 30
0
 11
1.878922505393741
 21
4.938531823085221
 31
0
  0
LINE
  8
0
 62
7
 10
1.878922505393741
 20
4.938531823085221
 30
0
 11
1.887022505393741
 21
4.944531823085221
 31
0
  0
LINE
  8
0
 62
7
 10
1.887022505393741
 20
4.944531823085221
 30
0
 11
1.892422505393741
 21
4.95053182308522
 31
0
  0
LINE
  8
0
 62
7
 10
1.892422505393741
 20
4.95053182308522
 30
0
 11
1.897822505393741
 21
4.959531823085221
 31
0
  0
LINE
  8
0
 62
7
 10
1.897822505393741
 20
4.959531823085221
 30
0
 11
1.900522505393741
 21
4.97153182308522
 31
0
  0
LINE
  8
0
 62
7
 10
1.900522505393741
 20
4.97153182308522
 30
0
 11
1.900522505393741
 21
4.99553182308522
 31
0
  0
LINE
  8
0
 62
7
 10
1.900522505393741
 20
4.99553182308522
 30
0
 11
1.868122505393741
 21
4.99553182308522
 31
0
  0
LINE
  8
0
 62
7
 10
1.978822505393741
 20
5.055531823085221
 30
0
 11
1.962622505393741
 21
5.055531823085221
 31
0
  0
LINE
  8
0
 62
7
 10
1.962622505393741
 20
5.055531823085221
 30
0
 11
1.954522505393741
 21
5.052531823085221
 31
0
  0
LINE
  8
0
 62
7
 10
1.954522505393741
 20
5.052531823085221
 30
0
 11
1.946422505393741
 21
5.04653182308522
 31
0
  0
LINE
  8
0
 62
7
 10
1.946422505393741
 20
5.04653182308522
 30
0
 11
1.941022505393741
 21
5.040531823085221
 31
0
  0
LINE
  8
0
 62
7
 10
1.941022505393741
 20
5.040531823085221
 30
0
 11
1.935622505393741
 21
5.031531823085221
 31
0
  0
LINE
  8
0
 62
7
 10
1.935622505393741
 20
5.031531823085221
 30
0
 11
1.932922505393741
 21
5.01953182308522
 31
0
  0
LINE
  8
0
 62
7
 10
1.932922505393741
 20
5.01953182308522
 30
0
 11
1.932922505393741
 21
4.97153182308522
 31
0
  0
LINE
  8
0
 62
7
 10
1.932922505393741
 20
4.97153182308522
 30
0
 11
1.935622505393741
 21
4.959531823085221
 31
0
  0
LINE
  8
0
 62
7
 10
1.935622505393741
 20
4.959531823085221
 30
0
 11
1.941022505393741
 21
4.95053182308522
 31
0
  0
LINE
  8
0
 62
7
 10
1.941022505393741
 20
4.95053182308522
 30
0
 11
1.946422505393741
 21
4.944531823085221
 31
0
  0
LINE
  8
0
 62
7
 10
1.946422505393741
 20
4.944531823085221
 30
0
 11
1.954522505393741
 21
4.938531823085221
 31
0
  0
LINE
  8
0
 62
7
 10
1.954522505393741
 20
4.938531823085221
 30
0
 11
1.962622505393741
 21
4.935531823085221
 31
0
  0
LINE
  8
0
 62
7
 10
1.962622505393741
 20
4.935531823085221
 30
0
 11
1.978822505393741
 21
4.935531823085221
 31
0
  0
LINE
  8
0
 62
7
 10
1.978822505393741
 20
4.935531823085221
 30
0
 11
1.986922505393741
 21
4.938531823085221
 31
0
  0
LINE
  8
0
 62
7
 10
1.986922505393741
 20
4.938531823085221
 30
0
 11
1.995022505393741
 21
4.944531823085221
 31
0
  0
LINE
  8
0
 62
7
 10
1.995022505393741
 20
4.944531823085221
 30
0
 11
2.000422505393741
 21
4.95053182308522
 31
0
  0
LINE
  8
0
 62
7
 10
2.000422505393741
 20
4.95053182308522
 30
0
 11
2.005822505393741
 21
4.959531823085221
 31
0
  0
LINE
  8
0
 62
7
 10
2.005822505393741
 20
4.959531823085221
 30
0
 11
2.008522505393741
 21
4.97153182308522
 31
0
  0
LINE
  8
0
 62
7
 10
2.008522505393741
 20
4.97153182308522
 30
0
 11
2.008522505393741
 21
5.01953182308522
 31
0
  0
LINE
  8
0
 62
7
 10
2.008522505393741
 20
5.01953182308522
 30
0
 11
2.005822505393741
 21
5.031531823085221
 31
0
  0
LINE
  8
0
 62
7
 10
2.005822505393741
 20
5.031531823085221
 30
0
 11
2.000422505393741
 21
5.040531823085221
 31
0
  0
LINE
  8
0
 62
7
 10
2.000422505393741
 20
5.040531823085221
 30
0
 11
1.995022505393741
 21
5.04653182308522
 31
0
  0
LINE
  8
0
 62
7
 10
1.995022505393741
 20
5.04653182308522
 30
0
 11
1.986922505393741
 21
5.052531823085221
 31
0
  0
LINE
  8
0
 62
7
 10
1.986922505393741
 20
5.052531823085221
 30
0
 11
1.978822505393741
 21
5.055531823085221
 31
0
  0
LINE
  8
0
 62
7
 10
2.030122505393741
 20
5.055531823085221
 30
0
 11
2.067922505393741
 21
5.055531823085221
 31
0
  0
LINE
  8
0
 62
7
 10
2.067922505393741
 20
5.055531823085221
 30
0
 11
2.067922505393741
 21
4.935531823085221
 31
0
  0
LINE
  8
0
 62
7
 10
2.067922505393741
 20
5.055531823085221
 30
0
 11
2.105722505393741
 21
5.055531823085221
 31
0
  0
LINE
  8
0
 62
7
 10
2.138122505393741
 20
5.055531823085221
 30
0
 11
2.175922505393741
 21
5.055531823085221
 31
0
  0
LINE
  8
0
 62
7
 10
2.175922505393741
 20
5.055531823085221
 30
0
 11
2.175922505393741
 21
4.935531823085221
 31
0
  0
LINE
  8
0
 62
7
 10
2.175922505393741
 20
5.055531823085221
 30
0
 11
2.213722505393741
 21
5.055531823085221
 31
0
  0
LINE
  8
0
 62
7
 10
2.332522505393742
 20
4.97753182308522
 30
0
 11
2.386522505393741
 21
4.97753182308522
 31
0
  0
LINE
  8
0
 62
7
 10
2.494522505393741
 20
5.055531823085221
 30
0
 11
2.532322505393741
 21
5.055531823085221
 31
0
  0
LINE
  8
0
 62
7
 10
2.532322505393741
 20
5.055531823085221
 30
0
 11
2.532322505393741
 21
4.935531823085221
 31
0
  0
LINE
  8
0
 62
7
 10
2.532322505393741
 20
5.055531823085221
 30
0
 11
2.570122505393742
 21
5.055531823085221
 31
0
  0
LINE
  8
0
 62
7
 10
2.602522505393741
 20
4.935531823085221
 30
0
 11
2.602522505393741
 21
5.055531823085221
 31
0
  0
LINE
  8
0
 62
7
 10
2.602522505393741
 20
5.055531823085221
 30
0
 11
2.653822505393741
 21
5.055531823085221
 31
0
  0
LINE
  8
0
 62
7
 10
2.653822505393741
 20
5.055531823085221
 30
0
 11
2.664622505393741
 21
5.052531823085221
 31
0
  0
LINE
  8
0
 62
7
 10
2.664622505393741
 20
5.052531823085221
 30
0
 11
2.672722505393741
 21
5.04653182308522
 31
0
  0
LINE
  8
0
 62
7
 10
2.672722505393741
 20
5.04653182308522
 30
0
 11
2.675422505393742
 21
5.040531823085221
 31
0
  0
LINE
  8
0
 62
7
 10
2.675422505393742
 20
5.040531823085221
 30
0
 11
2.678122505393741
 21
5.031531823085221
 31
0
  0
LINE
  8
0
 62
7
 10
2.678122505393741
 20
5.031531823085221
 30
0
 11
2.678122505393741
 21
5.01953182308522
 31
0
  0
LINE
  8
0
 62
7
 10
2.678122505393741
 20
5.01953182308522
 30
0
 11
2.675422505393742
 21
5.01053182308522
 31
0
  0
LINE
  8
0
 62
7
 10
2.675422505393742
 20
5.01053182308522
 30
0
 11
2.672722505393741
 21
5.00453182308522
 31
0
  0
LINE
  8
0
 62
7
 10
2.672722505393741
 20
5.00453182308522
 30
0
 11
2.664622505393741
 21
4.99853182308522
 31
0
  0
LINE
  8
0
 62
7
 10
2.664622505393741
 20
4.99853182308522
 30
0
 11
2.653822505393741
 21
4.99553182308522
 31
0
  0
LINE
  8
0
 62
7
 10
2.653822505393741
 20
4.99553182308522
 30
0
 11
2.645722505393742
 21
4.99553182308522
 31
0
  0
LINE
  8
0
 62
7
 10
2.645722505393742
 20
4.99553182308522
 30
0
 11
2.678122505393741
 21
4.935531823085221
 31
0
  0
LINE
  8
0
 62
7
 10
2.645722505393742
 20
4.99553182308522
 30
0
 11
2.602522505393741
 21
4.99553182308522
 31
0
  0
LINE
  8
0
 62
7
 10
2.775322505393742
 20
5.055531823085221
 30
0
 11
2.699722505393741
 21
5.055531823085221
 31
0
  0
LINE
  8
0
 62
7
 10
2.699722505393741
 20
5.055531823085221
 30
0
 11
2.699722505393741
 21
4.99553182308522
 31
0
  0
LINE
  8
0
 62
7
 10
2.699722505393741
 20
4.935531823085221
 30
0
 11
2.775322505393742
 21
4.935531823085221
 31
0
  0
LINE
  8
0
 62
7
 10
2.764522505393741
 20
4.99553182308522
 30
0
 11
2.699722505393741
 21
4.99553182308522
 31
0
  0
LINE
  8
0
 62
7
 10
2.699722505393741
 20
4.99553182308522
 30
0
 11
2.699722505393741
 21
4.935531823085221
 31
0
  0
LINE
  8
0
 62
7
 10
2.807722505393741
 20
4.935531823085221
 30
0
 11
2.807722505393741
 21
4.99553182308522
 31
0
  0
LINE
  8
0
 62
7
 10
2.807722505393741
 20
5.055531823085221
 30
0
 11
2.859022505393741
 21
5.055531823085221
 31
0
  0
LINE
  8
0
 62
7
 10
2.859022505393741
 20
5.055531823085221
 30
0
 11
2.869822505393741
 21
5.052531823085221
 31
0
  0
LINE
  8
0
 62
7
 10
2.869822505393741
 20
5.052531823085221
 30
0
 11
2.877922505393741
 21
5.04653182308522
 31
0
  0
LINE
  8
0
 62
7
 10
2.877922505393741
 20
5.04653182308522
 30
0
 11
2.880622505393741
 21
5.040531823085221
 31
0
  0
LINE
  8
0
 62
7
 10
2.880622505393741
 20
5.040531823085221
 30
0
 11
2.883322505393741
 21
5.031531823085221
 31
0
  0
LINE
  8
0
 62
7
 10
2.883322505393741
 20
5.031531823085221
 30
0
 11
2.883322505393741
 21
5.01953182308522
 31
0
  0
LINE
  8
0
 62
7
 10
2.883322505393741
 20
5.01953182308522
 30
0
 11
2.880622505393741
 21
5.01053182308522
 31
0
  0
LINE
  8
0
 62
7
 10
2.880622505393741
 20
5.01053182308522
 30
0
 11
2.877922505393741
 21
5.00453182308522
 31
0
  0
LINE
  8
0
 62
7
 10
2.877922505393741
 20
5.00453182308522
 30
0
 11
2.869822505393741
 21
4.99853182308522
 31
0
  0
LINE
  8
0
 62
7
 10
2.869822505393741
 20
4.99853182308522
 30
0
 11
2.859022505393741
 21
4.99553182308522
 31
0
  0
LINE
  8
0
 62
7
 10
2.859022505393741
 20
4.99553182308522
 30
0
 11
2.807722505393741
 21
4.99553182308522
 31
0
  0
LINE
  8
0
 62
7
 10
2.807722505393741
 20
4.99553182308522
 30
0
 11
2.807722505393741
 21
5.055531823085221
 31
0
  0
LINE
  8
0
 62
7
 10
2.904922505393741
 20
4.935531823085221
 30
0
 11
2.904922505393741
 21
4.99553182308522
 31
0
  0
LINE
  8
0
 62
7
 10
2.904922505393741
 20
5.055531823085221
 30
0
 11
2.956222505393741
 21
5.055531823085221
 31
0
  0
LINE
  8
0
 62
7
 10
2.956222505393741
 20
5.055531823085221
 30
0
 11
2.967022505393741
 21
5.052531823085221
 31
0
  0
LINE
  8
0
 62
7
 10
2.967022505393741
 20
5.052531823085221
 30
0
 11
2.975122505393742
 21
5.04653182308522
 31
0
  0
LINE
  8
0
 62
7
 10
2.975122505393742
 20
5.04653182308522
 30
0
 11
2.977822505393741
 21
5.040531823085221
 31
0
  0
LINE
  8
0
 62
7
 10
2.977822505393741
 20
5.040531823085221
 30
0
 11
2.980522505393742
 21
5.031531823085221
 31
0
  0
LINE
  8
0
 62
7
 10
2.980522505393742
 20
5.031531823085221
 30
0
 11
2.980522505393742
 21
5.01953182308522
 31
0
  0
LINE
  8
0
 62
7
 10
2.980522505393742
 20
5.01953182308522
 30
0
 11
2.977822505393741
 21
5.01053182308522
 31
0
  0
LINE
  8
0
 62
7
 10
2.977822505393741
 20
5.01053182308522
 30
0
 11
2.975122505393742
 21
5.00453182308522
 31
0
  0
LINE
  8
0
 62
7
 10
2.975122505393742
 20
5.00453182308522
 30
0
 11
2.967022505393741
 21
4.99853182308522
 31
0
  0
LINE
  8
0
 62
7
 10
2.967022505393741
 20
4.99853182308522
 30
0
 11
2.956222505393741
 21
4.99553182308522
 31
0
  0
LINE
  8
0
 62
7
 10
2.956222505393741
 20
4.99553182308522
 30
0
 11
2.904922505393741
 21
4.99553182308522
 31
0
  0
LINE
  8
0
 62
7
 10
2.904922505393741
 20
4.99553182308522
 30
0
 11
2.904922505393741
 21
5.055531823085221
 31
0
  0
LINE
  8
0
 62
7
 10
3.077722505393741
 20
5.055531823085221
 30
0
 11
3.002122505393741
 21
5.055531823085221
 31
0
  0
LINE
  8
0
 62
7
 10
3.002122505393741
 20
5.055531823085221
 30
0
 11
3.002122505393741
 21
4.99553182308522
 31
0
  0
LINE
  8
0
 62
7
 10
3.002122505393741
 20
4.935531823085221
 30
0
 11
3.077722505393741
 21
4.935531823085221
 31
0
  0
LINE
  8
0
 62
7
 10
3.066922505393741
 20
4.99553182308522
 30
0
 11
3.002122505393741
 21
4.99553182308522
 31
0
  0
LINE
  8
0
 62
7
 10
3.002122505393741
 20
4.99553182308522
 30
0
 11
3.002122505393741
 21
4.935531823085221
 31
0
  0
LINE
  8
0
 62
7
 10
0.525
 20
3.009999999999999
 30
0
 11
0.6006
 21
3.009999999999999
 31
0
  0
LINE
  8
0
 62
7
 10
0.6006
 20
3.009999999999999
 30
0
 11
0.525
 21
2.889999999999999
 31
0
  0
LINE
  8
0
 62
7
 10
0.525
 20
2.889999999999999
 30
0
 11
0.6006
 21
2.889999999999999
 31
0
  0
LINE
  8
0
 62
7
 10
0.633
 20
3.009999999999999
 30
0
 11
0.633
 21
2.949999999999999
 31
0
  0
LINE
  8
0
 62
7
 10
0.633
 20
2.949999999999999
 30
0
 11
0.7086000000000001
 21
2.949999999999999
 31
0
  0
LINE
  8
0
 62
7
 10
0.7086000000000001
 20
3.009999999999999
 30
0
 11
0.7086000000000001
 21
2.949999999999999
 31
0
  0
LINE
  8
0
 62
7
 10
0.7086000000000001
 20
2.949999999999999
 30
0
 11
0.7086000000000001
 21
2.889999999999999
 31
0
  0
LINE
  8
0
 62
7
 10
0.633
 20
2.949999999999999
 30
0
 11
0.633
 21
2.889999999999999
 31
0
  0
LINE
  8
0
 62
7
 10
0.7410000000000001
 20
3.009999999999999
 30
0
 11
0.7707000000000002
 21
2.889999999999999
 31
0
  0
LINE
  8
0
 62
7
 10
0.7707000000000002
 20
2.889999999999999
 30
0
 11
0.795
 21
3.009999999999999
 31
0
  0
LINE
  8
0
 62
7
 10
0.795
 20
3.009999999999999
 30
0
 11
0.8193000000000001
 21
2.889999999999999
 31
0
  0
LINE
  8
0
 62
7
 10
0.8193000000000001
 20
2.889999999999999
 30
0
 11
0.8490000000000001
 21
3.009999999999999
 31
0
  0
LINE
  8
0
 62
7
 10
0.8706000000000002
 20
2.974
 30
0
 11
0.9030000000000001
 21
3.009999999999999
 31
0
  0
LINE
  8
0
 62
7
 10
0.9030000000000001
 20
3.009999999999999
 30
0
 11
0.9030000000000001
 21
2.889999999999999
 31
0
  0
LINE
  8
0
 62
7
 10
0.9624000000000001
 20
3.009999999999999
 30
0
 11
0.9732000000000002
 21
3.009999999999999
 31
0
  0
LINE
  8
0
 62
7
 10
0.9732000000000002
 20
3.009999999999999
 30
0
 11
0.9813000000000001
 21
3.007
 31
0
  0
LINE
  8
0
 62
7
 10
0.9813000000000001
 20
3.007
 30
0
 11
0.9867000000000004
 21
3.001
 31
0
  0
LINE
  8
0
 62
7
 10
0.9867000000000004
 20
3.001
 30
0
 11
0.9921000000000003
 21
2.992
 31
0
  0
LINE
  8
0
 62
7
 10
0.9921000000000003
 20
2.992
 30
0
 11
0.9921000000000003
 21
2.979999999999999
 31
0
  0
LINE
  8
0
 62
7
 10
0.9921000000000003
 20
2.979999999999999
 30
0
 11
0.9894000000000003
 21
2.974
 31
0
  0
LINE
  8
0
 62
7
 10
0.9894000000000003
 20
2.974
 30
0
 11
0.9813000000000001
 21
2.964999999999999
 31
0
  0
LINE
  8
0
 62
7
 10
0.9813000000000001
 20
2.964999999999999
 30
0
 11
0.9732000000000002
 21
2.962
 31
0
  0
LINE
  8
0
 62
7
 10
0.9732000000000002
 20
2.962
 30
0
 11
0.9624000000000001
 21
2.962
 31
0
  0
LINE
  8
0
 62
7
 10
0.9624000000000001
 20
2.962
 30
0
 11
0.9543000000000001
 21
2.964999999999999
 31
0
  0
LINE
  8
0
 62
7
 10
0.9543000000000001
 20
2.964999999999999
 30
0
 11
0.9462000000000002
 21
2.974
 31
0
  0
LINE
  8
0
 62
7
 10
0.9462000000000002
 20
2.974
 30
0
 11
0.9435000000000002
 21
2.979999999999999
 31
0
  0
LINE
  8
0
 62
7
 10
0.9435000000000002
 20
2.979999999999999
 30
0
 11
0.9435000000000002
 21
2.992
 31
0
  0
LINE
  8
0
 62
7
 10
0.9435000000000002
 20
2.992
 30
0
 11
0.9489000000000001
 21
3.001
 31
0
  0
LINE
  8
0
 62
7
 10
0.9489000000000001
 20
3.001
 30
0
 11
0.9543000000000001
 21
3.007
 31
0
  0
LINE
  8
0
 62
7
 10
0.9543000000000001
 20
3.007
 30
0
 11
0.9624000000000001
 21
3.009999999999999
 31
0
  0
LINE
  8
0
 62
7
 10
0.9624000000000001
 20
2.962
 30
0
 11
0.9489000000000001
 21
2.956
 31
0
  0
LINE
  8
0
 62
7
 10
0.9489000000000001
 20
2.956
 30
0
 11
0.9408000000000002
 21
2.947
 31
0
  0
LINE
  8
0
 62
7
 10
0.9408000000000002
 20
2.947
 30
0
 11
0.9354000000000003
 21
2.934999999999999
 31
0
  0
LINE
  8
0
 62
7
 10
0.9354000000000003
 20
2.934999999999999
 30
0
 11
0.9354000000000003
 21
2.917
 31
0
  0
LINE
  8
0
 62
7
 10
0.9354000000000003
 20
2.917
 30
0
 11
0.9408000000000002
 21
2.904999999999999
 31
0
  0
LINE
  8
0
 62
7
 10
0.9408000000000002
 20
2.904999999999999
 30
0
 11
0.9489000000000001
 21
2.896
 31
0
  0
LINE
  8
0
 62
7
 10
0.9489000000000001
 20
2.896
 30
0
 11
0.9597000000000002
 21
2.889999999999999
 31
0
  0
LINE
  8
0
 62
7
 10
0.9597000000000002
 20
2.889999999999999
 30
0
 11
0.9759000000000002
 21
2.889999999999999
 31
0
  0
LINE
  8
0
 62
7
 10
0.9759000000000002
 20
2.889999999999999
 30
0
 11
0.9867000000000004
 21
2.896
 31
0
  0
LINE
  8
0
 62
7
 10
0.9867000000000004
 20
2.896
 30
0
 11
0.9948000000000002
 21
2.904999999999999
 31
0
  0
LINE
  8
0
 62
7
 10
0.9948000000000002
 20
2.904999999999999
 30
0
 11
1.0002
 21
2.917
 31
0
  0
LINE
  8
0
 62
7
 10
1.0002
 20
2.917
 30
0
 11
1.0002
 21
2.934999999999999
 31
0
  0
LINE
  8
0
 62
7
 10
1.0002
 20
2.934999999999999
 30
0
 11
0.9948000000000002
 21
2.947
 31
0
  0
LINE
  8
0
 62
7
 10
0.9948000000000002
 20
2.947
 30
0
 11
0.9867000000000004
 21
2.956
 31
0
  0
LINE
  8
0
 62
7
 10
0.9867000000000004
 20
2.956
 30
0
 11
0.9732000000000002
 21
2.962
 31
0
  0
LINE
  8
0
 62
7
 10
1.0704
 20
3.009999999999999
 30
0
 11
1.0812
 21
3.009999999999999
 31
0
  0
LINE
  8
0
 62
7
 10
1.0812
 20
3.009999999999999
 30
0
 11
1.0893
 21
3.007
 31
0
  0
LINE
  8
0
 62
7
 10
1.0893
 20
3.007
 30
0
 11
1.0947
 21
3.001
 31
0
  0
LINE
  8
0
 62
7
 10
1.0947
 20
3.001
 30
0
 11
1.1001
 21
2.992
 31
0
  0
LINE
  8
0
 62
7
 10
1.1001
 20
2.992
 30
0
 11
1.1001
 21
2.979999999999999
 31
0
  0
LINE
  8
0
 62
7
 10
1.1001
 20
2.979999999999999
 30
0
 11
1.0974
 21
2.974
 31
0
  0
LINE
  8
0
 62
7
 10
1.0974
 20
2.974
 30
0
 11
1.0893
 21
2.964999999999999
 31
0
  0
LINE
  8
0
 62
7
 10
1.0893
 20
2.964999999999999
 30
0
 11
1.0812
 21
2.962
 31
0
  0
LINE
  8
0
 62
7
 10
1.0812
 20
2.962
 30
0
 11
1.0704
 21
2.962
 31
0
  0
LINE
  8
0
 62
7
 10
1.0704
 20
2.962
 30
0
 11
1.0623
 21
2.964999999999999
 31
0
  0
LINE
  8
0
 62
7
 10
1.0623
 20
2.964999999999999
 30
0
 11
1.0542
 21
2.974
 31
0
  0
LINE
  8
0
 62
7
 10
1.0542
 20
2.974
 30
0
 11
1.0515
 21
2.979999999999999
 31
0
  0
LINE
  8
0
 62
7
 10
1.0515
 20
2.979999999999999
 30
0
 11
1.0515
 21
2.992
 31
0
  0
LINE
  8
0
 62
7
 10
1.0515
 20
2.992
 30
0
 11
1.0569
 21
3.001
 31
0
  0
LINE
  8
0
 62
7
 10
1.0569
 20
3.001
 30
0
 11
1.0623
 21
3.007
 31
0
  0
LINE
  8
0
 62
7
 10
1.0623
 20
3.007
 30
0
 11
1.0704
 21
3.009999999999999
 31
0
  0
LINE
  8
0
 62
7
 10
1.0704
 20
2.962
 30
0
 11
1.0569
 21
2.956
 31
0
  0
LINE
  8
0
 62
7
 10
1.0569
 20
2.956
 30
0
 11
1.0488
 21
2.947
 31
0
  0
LINE
  8
0
 62
7
 10
1.0488
 20
2.947
 30
0
 11
1.0434
 21
2.934999999999999
 31
0
  0
LINE
  8
0
 62
7
 10
1.0434
 20
2.934999999999999
 30
0
 11
1.0434
 21
2.917
 31
0
  0
LINE
  8
0
 62
7
 10
1.0434
 20
2.917
 30
0
 11
1.0488
 21
2.904999999999999
 31
0
  0
LINE
  8
0
 62
7
 10
1.0488
 20
2.904999999999999
 30
0
 11
1.0569
 21
2.896
 31
0
  0
LINE
  8
0
 62
7
 10
1.0569
 20
2.896
 30
0
 11
1.0677
 21
2.889999999999999
 31
0
  0
LINE
  8
0
 62
7
 10
1.0677
 20
2.889999999999999
 30
0
 11
1.0839
 21
2.889999999999999
 31
0
  0
LINE
  8
0
 62
7
 10
1.0839
 20
2.889999999999999
 30
0
 11
1.0947
 21
2.896
 31
0
  0
LINE
  8
0
 62
7
 10
1.0947
 20
2.896
 30
0
 11
1.1028
 21
2.904999999999999
 31
0
  0
LINE
  8
0
 62
7
 10
1.1028
 20
2.904999999999999
 30
0
 11
1.1082
 21
2.917
 31
0
  0
LINE
  8
0
 62
7
 10
1.1082
 20
2.917
 30
0
 11
1.1082
 21
2.934999999999999
 31
0
  0
LINE
  8
0
 62
7
 10
1.1082
 20
2.934999999999999
 30
0
 11
1.1028
 21
2.947
 31
0
  0
LINE
  8
0
 62
7
 10
1.1028
 20
2.947
 30
0
 11
1.0947
 21
2.956
 31
0
  0
LINE
  8
0
 62
7
 10
1.0947
 20
2.956
 30
0
 11
1.0812
 21
2.962
 31
0
  0
LINE
  8
0
 62
7
 10
1.2162
 20
2.889999999999999
 30
0
 11
1.1514
 21
2.889999999999999
 31
0
  0
LINE
  8
0
 62
7
 10
1.1514
 20
2.889999999999999
 30
0
 11
1.1514
 21
3.009999999999999
 31
0
  0
LINE
  8
0
 62
7
 10
1.2486
 20
2.938
 30
0
 11
1.2513
 21
2.949999999999999
 31
0
  0
LINE
  8
0
 62
7
 10
1.2513
 20
2.949999999999999
 30
0
 11
1.2567
 21
2.959
 31
0
  0
LINE
  8
0
 62
7
 10
1.2567
 20
2.959
 30
0
 11
1.2648
 21
2.964999999999999
 31
0
  0
LINE
  8
0
 62
7
 10
1.2648
 20
2.964999999999999
 30
0
 11
1.2729
 21
2.968
 31
0
  0
LINE
  8
0
 62
7
 10
1.2729
 20
2.968
 30
0
 11
1.2891
 21
2.968
 31
0
  0
LINE
  8
0
 62
7
 10
1.2891
 20
2.968
 30
0
 11
1.2972
 21
2.964999999999999
 31
0
  0
LINE
  8
0
 62
7
 10
1.2972
 20
2.964999999999999
 30
0
 11
1.3053
 21
2.959
 31
0
  0
LINE
  8
0
 62
7
 10
1.3053
 20
2.959
 30
0
 11
1.3107
 21
2.949999999999999
 31
0
  0
LINE
  8
0
 62
7
 10
1.3107
 20
2.949999999999999
 30
0
 11
1.3134
 21
2.938
 31
0
  0
LINE
  8
0
 62
7
 10
1.3134
 20
2.938
 30
0
 11
1.3134
 21
2.919999999999999
 31
0
  0
LINE
  8
0
 62
7
 10
1.3134
 20
2.919999999999999
 30
0
 11
1.3107
 21
2.908
 31
0
  0
LINE
  8
0
 62
7
 10
1.3107
 20
2.908
 30
0
 11
1.3053
 21
2.899
 31
0
  0
LINE
  8
0
 62
7
 10
1.3053
 20
2.899
 30
0
 11
1.2972
 21
2.893
 31
0
  0
LINE
  8
0
 62
7
 10
1.2972
 20
2.893
 30
0
 11
1.2891
 21
2.889999999999999
 31
0
  0
LINE
  8
0
 62
7
 10
1.2891
 20
2.889999999999999
 30
0
 11
1.2729
 21
2.889999999999999
 31
0
  0
LINE
  8
0
 62
7
 10
1.2729
 20
2.889999999999999
 30
0
 11
1.2648
 21
2.893
 31
0
  0
LINE
  8
0
 62
7
 10
1.2648
 20
2.893
 30
0
 11
1.2567
 21
2.899
 31
0
  0
LINE
  8
0
 62
7
 10
1.2567
 20
2.899
 30
0
 11
1.2513
 21
2.908
 31
0
  0
LINE
  8
0
 62
7
 10
1.2513
 20
2.908
 30
0
 11
1.2486
 21
2.919999999999999
 31
0
  0
LINE
  8
0
 62
7
 10
1.2486
 20
2.919999999999999
 30
0
 11
1.2486
 21
2.938
 31
0
  0
LINE
  8
0
 62
7
 10
1.2486
 20
2.979999999999999
 30
0
 11
1.2513
 21
2.992
 31
0
  0
LINE
  8
0
 62
7
 10
1.2513
 20
2.992
 30
0
 11
1.2567
 21
3.001
 31
0
  0
LINE
  8
0
 62
7
 10
1.2567
 20
3.001
 30
0
 11
1.2648
 21
3.007
 31
0
  0
LINE
  8
0
 62
7
 10
1.2648
 20
3.007
 30
0
 11
1.2729
 21
3.009999999999999
 31
0
  0
LINE
  8
0
 62
7
 10
1.2729
 20
3.009999999999999
 30
0
 11
1.2891
 21
3.009999999999999
 31
0
  0
LINE
  8
0
 62
7
 10
1.2891
 20
3.009999999999999
 30
0
 11
1.2972
 21
3.007
 31
0
  0
LINE
  8
0
 62
7
 10
1.2972
 20
3.007
 30
0
 11
1.3053
 21
3.001
 31
0
  0
LINE
  8
0
 62
7
 10
1.3053
 20
3.001
 30
0
 11
1.3107
 21
2.992
 31
0
  0
LINE
  8
0
 62
7
 10
1.2486
 20
2.938
 30
0
 11
1.2486
 21
2.979999999999999
 31
0
  0
LINE
  8
0
 62
7
 10
3.025
 20
2.889999999999999
 30
0
 11
3.025
 21
2.989999999999999
 31
0
  0
LINE
  8
0
 62
7
 10
3.025
 20
2.989999999999999
 30
0
 11
3.088
 21
2.889999999999999
 31
0
  0
LINE
  8
0
 62
7
 10
3.088
 20
2.889999999999999
 30
0
 11
3.088
 21
2.989999999999999
 31
0
  0
LINE
  8
0
 62
7
 10
3.169
 20
2.889999999999999
 30
0
 11
3.115
 21
2.889999999999999
 31
0
  0
LINE
  8
0
 62
7
 10
3.115
 20
2.889999999999999
 30
0
 11
3.115
 21
2.989999999999999
 31
0
  0
LINE
  8
0
 62
7
 10
3.196
 20
2.94
 30
0
 11
3.232
 21
2.94
 31
0
  0
LINE
  8
0
 62
7
 10
3.232
 20
2.94
 30
0
 11
3.2365
 21
2.94
 31
0
  0
LINE
  8
0
 62
7
 10
3.2365
 20
2.94
 30
0
 11
3.2455
 21
2.934999999999999
 31
0
  0
LINE
  8
0
 62
7
 10
3.2455
 20
2.934999999999999
 30
0
 11
3.25
 21
2.929999999999999
 31
0
  0
LINE
  8
0
 62
7
 10
3.25
 20
2.929999999999999
 30
0
 11
3.2545
 21
2.919999999999999
 31
0
  0
LINE
  8
0
 62
7
 10
3.2545
 20
2.919999999999999
 30
0
 11
3.2545
 21
2.909999999999999
 31
0
  0
LINE
  8
0
 62
7
 10
3.2545
 20
2.909999999999999
 30
0
 11
3.25
 21
2.899999999999999
 31
0
  0
LINE
  8
0
 62
7
 10
3.25
 20
2.899999999999999
 30
0
 11
3.2455
 21
2.895
 31
0
  0
LINE
  8
0
 62
7
 10
3.2455
 20
2.895
 30
0
 11
3.2365
 21
2.889999999999999
 31
0
  0
LINE
  8
0
 62
7
 10
3.2365
 20
2.889999999999999
 30
0
 11
3.196
 21
2.889999999999999
 31
0
  0
LINE
  8
0
 62
7
 10
3.196
 20
2.889999999999999
 30
0
 11
3.196
 21
2.94
 31
0
  0
LINE
  8
0
 62
7
 10
3.196
 20
2.989999999999999
 30
0
 11
3.22975
 21
2.989999999999999
 31
0
  0
LINE
  8
0
 62
7
 10
3.22975
 20
2.989999999999999
 30
0
 11
3.241000000000001
 21
2.987499999999999
 31
0
  0
LINE
  8
0
 62
7
 10
3.241000000000001
 20
2.987499999999999
 30
0
 11
3.24775
 21
2.979999999999999
 31
0
  0
LINE
  8
0
 62
7
 10
3.24775
 20
2.979999999999999
 30
0
 11
3.25
 21
2.969999999999999
 31
0
  0
LINE
  8
0
 62
7
 10
3.25
 20
2.969999999999999
 30
0
 11
3.25
 21
2.959999999999999
 31
0
  0
LINE
  8
0
 62
7
 10
3.25
 20
2.959999999999999
 30
0
 11
3.2455
 21
2.949999999999999
 31
0
  0
LINE
  8
0
 62
7
 10
3.2455
 20
2.949999999999999
 30
0
 11
3.23875
 21
2.942499999999999
 31
0
  0
LINE
  8
0
 62
7
 10
3.23875
 20
2.942499999999999
 30
0
 11
3.232
 21
2.94
 31
0
  0
LINE
  8
0
 62
7
 10
3.196
 20
2.94
 30
0
 11
3.196
 21
2.989999999999999
 31
0
  0
LINE
  8
0
 62
7
 10
3.39625
 20
2.942499999999999
 30
0
 11
3.3895
 21
2.952499999999999
 31
0
  0
LINE
  8
0
 62
7
 10
3.3895
 20
2.952499999999999
 30
0
 11
3.38275
 21
2.9575
 31
0
  0
LINE
  8
0
 62
7
 10
3.38275
 20
2.9575
 30
0
 11
3.376
 21
2.959999999999999
 31
0
  0
LINE
  8
0
 62
7
 10
3.376
 20
2.959999999999999
 30
0
 11
3.367
 21
2.959999999999999
 31
0
  0
LINE
  8
0
 62
7
 10
3.367
 20
2.959999999999999
 30
0
 11
3.36025
 21
2.9575
 31
0
  0
LINE
  8
0
 62
7
 10
3.36025
 20
2.9575
 30
0
 11
3.3535
 21
2.952499999999999
 31
0
  0
LINE
  8
0
 62
7
 10
3.3535
 20
2.952499999999999
 30
0
 11
3.34675
 21
2.942499999999999
 31
0
  0
LINE
  8
0
 62
7
 10
3.34675
 20
2.942499999999999
 30
0
 11
3.3445
 21
2.934999999999999
 31
0
  0
LINE
  8
0
 62
7
 10
3.3445
 20
2.934999999999999
 30
0
 11
3.3445
 21
2.914999999999999
 31
0
  0
LINE
  8
0
 62
7
 10
3.3445
 20
2.914999999999999
 30
0
 11
3.34675
 21
2.907499999999999
 31
0
  0
LINE
  8
0
 62
7
 10
3.34675
 20
2.907499999999999
 30
0
 11
3.3535
 21
2.897499999999999
 31
0
  0
LINE
  8
0
 62
7
 10
3.3535
 20
2.897499999999999
 30
0
 11
3.36025
 21
2.892499999999999
 31
0
  0
LINE
  8
0
 62
7
 10
3.36025
 20
2.892499999999999
 30
0
 11
3.367
 21
2.889999999999999
 31
0
  0
LINE
  8
0
 62
7
 10
3.367
 20
2.889999999999999
 30
0
 11
3.376
 21
2.889999999999999
 31
0
  0
LINE
  8
0
 62
7
 10
3.376
 20
2.889999999999999
 30
0
 11
3.38275
 21
2.892499999999999
 31
0
  0
LINE
  8
0
 62
7
 10
3.38275
 20
2.892499999999999
 30
0
 11
3.3895
 21
2.897499999999999
 31
0
  0
LINE
  8
0
 62
7
 10
3.3895
 20
2.897499999999999
 30
0
 11
3.39625
 21
2.907499999999999
 31
0
  0
LINE
  8
0
 62
7
 10
3.46825
 20
2.934999999999999
 30
0
 11
3.466000000000001
 21
2.942499999999999
 31
0
  0
LINE
  8
0
 62
7
 10
3.466000000000001
 20
2.942499999999999
 30
0
 11
3.45925
 21
2.952499999999999
 31
0
  0
LINE
  8
0
 62
7
 10
3.45925
 20
2.952499999999999
 30
0
 11
3.4525
 21
2.9575
 31
0
  0
LINE
  8
0
 62
7
 10
3.4525
 20
2.9575
 30
0
 11
3.44575
 21
2.959999999999999
 31
0
  0
LINE
  8
0
 62
7
 10
3.44575
 20
2.959999999999999
 30
0
 11
3.43675
 21
2.959999999999999
 31
0
  0
LINE
  8
0
 62
7
 10
3.43675
 20
2.959999999999999
 30
0
 11
3.430000000000001
 21
2.9575
 31
0
  0
LINE
  8
0
 62
7
 10
3.430000000000001
 20
2.9575
 30
0
 11
3.42325
 21
2.952499999999999
 31
0
  0
LINE
  8
0
 62
7
 10
3.42325
 20
2.952499999999999
 30
0
 11
3.4165
 21
2.942499999999999
 31
0
  0
LINE
  8
0
 62
7
 10
3.4165
 20
2.942499999999999
 30
0
 11
3.41425
 21
2.934999999999999
 31
0
  0
LINE
  8
0
 62
7
 10
3.41425
 20
2.934999999999999
 30
0
 11
3.41425
 21
2.914999999999999
 31
0
  0
LINE
  8
0
 62
7
 10
3.41425
 20
2.914999999999999
 30
0
 11
3.4165
 21
2.907499999999999
 31
0
  0
LINE
  8
0
 62
7
 10
3.4165
 20
2.907499999999999
 30
0
 11
3.42325
 21
2.897499999999999
 31
0
  0
LINE
  8
0
 62
7
 10
3.42325
 20
2.897499999999999
 30
0
 11
3.430000000000001
 21
2.892499999999999
 31
0
  0
LINE
  8
0
 62
7
 10
3.430000000000001
 20
2.892499999999999
 30
0
 11
3.43675
 21
2.889999999999999
 31
0
  0
LINE
  8
0
 62
7
 10
3.43675
 20
2.889999999999999
 30
0
 11
3.44575
 21
2.889999999999999
 31
0
  0
LINE
  8
0
 62
7
 10
3.44575
 20
2.889999999999999
 30
0
 11
3.4525
 21
2.892499999999999
 31
0
  0
LINE
  8
0
 62
7
 10
3.4525
 20
2.892499999999999
 30
0
 11
3.45925
 21
2.897499999999999
 31
0
  0
LINE
  8
0
 62
7
 10
3.45925
 20
2.897499999999999
 30
0
 11
3.466000000000001
 21
2.907499999999999
 31
0
  0
LINE
  8
0
 62
7
 10
3.466000000000001
 20
2.907499999999999
 30
0
 11
3.46825
 21
2.914999999999999
 31
0
  0
LINE
  8
0
 62
7
 10
3.46825
 20
2.959999999999999
 30
0
 11
3.46825
 21
2.934999999999999
 31
0
  0
LINE
  8
0
 62
7
 10
3.46825
 20
2.892499999999999
 30
0
 11
3.4705
 21
2.889999999999999
 31
0
  0
LINE
  8
0
 62
7
 10
3.4705
 20
2.889999999999999
 30
0
 11
3.47275
 21
2.889999999999999
 31
0
  0
LINE
  8
0
 62
7
 10
3.46825
 20
2.914999999999999
 30
0
 11
3.46825
 21
2.892499999999999
 31
0
  0
LINE
  8
0
 62
7
 10
3.46825
 20
2.934999999999999
 30
0
 11
3.46825
 21
2.914999999999999
 31
0
  0
LINE
  8
0
 62
7
 10
3.49075
 20
2.889999999999999
 30
0
 11
3.49075
 21
2.892499999999999
 31
0
  0
LINE
  8
0
 62
7
 10
3.49075
 20
2.892499999999999
 30
0
 11
3.493
 21
2.892499999999999
 31
0
  0
LINE
  8
0
 62
7
 10
3.493
 20
2.892499999999999
 30
0
 11
3.493
 21
2.889999999999999
 31
0
  0
LINE
  8
0
 62
7
 10
3.493
 20
2.889999999999999
 30
0
 11
3.49075
 21
2.889999999999999
 31
0
  0
LINE
  8
0
 62
7
 10
3.616750000000001
 20
2.989999999999999
 30
0
 11
3.62575
 21
2.989999999999999
 31
0
  0
LINE
  8
0
 62
7
 10
3.62575
 20
2.989999999999999
 30
0
 11
3.6325
 21
2.987499999999999
 31
0
  0
LINE
  8
0
 62
7
 10
3.6325
 20
2.987499999999999
 30
0
 11
3.637
 21
2.982499999999999
 31
0
  0
LINE
  8
0
 62
7
 10
3.637
 20
2.982499999999999
 30
0
 11
3.6415
 21
2.975
 31
0
  0
LINE
  8
0
 62
7
 10
3.6415
 20
2.975
 30
0
 11
3.6415
 21
2.964999999999999
 31
0
  0
LINE
  8
0
 62
7
 10
3.6415
 20
2.964999999999999
 30
0
 11
3.63925
 21
2.959999999999999
 31
0
  0
LINE
  8
0
 62
7
 10
3.63925
 20
2.959999999999999
 30
0
 11
3.6325
 21
2.952499999999999
 31
0
  0
LINE
  8
0
 62
7
 10
3.6325
 20
2.952499999999999
 30
0
 11
3.62575
 21
2.949999999999999
 31
0
  0
LINE
  8
0
 62
7
 10
3.62575
 20
2.949999999999999
 30
0
 11
3.616750000000001
 21
2.949999999999999
 31
0
  0
LINE
  8
0
 62
7
 10
3.616750000000001
 20
2.949999999999999
 30
0
 11
3.61
 21
2.952499999999999
 31
0
  0
LINE
  8
0
 62
7
 10
3.61
 20
2.952499999999999
 30
0
 11
3.60325
 21
2.959999999999999
 31
0
  0
LINE
  8
0
 62
7
 10
3.60325
 20
2.959999999999999
 30
0
 11
3.601
 21
2.964999999999999
 31
0
  0
LINE
  8
0
 62
7
 10
3.601
 20
2.964999999999999
 30
0
 11
3.601
 21
2.975
 31
0
  0
LINE
  8
0
 62
7
 10
3.601
 20
2.975
 30
0
 11
3.6055
 21
2.982499999999999
 31
0
  0
LINE
  8
0
 62
7
 10
3.6055
 20
2.982499999999999
 30
0
 11
3.61
 21
2.987499999999999
 31
0
  0
LINE
  8
0
 62
7
 10
3.61
 20
2.987499999999999
 30
0
 11
3.616750000000001
 21
2.989999999999999
 31
0
  0
LINE
  8
0
 62
7
 10
3.616750000000001
 20
2.949999999999999
 30
0
 11
3.6055
 21
2.944999999999999
 31
0
  0
LINE
  8
0
 62
7
 10
3.6055
 20
2.944999999999999
 30
0
 11
3.598750000000001
 21
2.9375
 31
0
  0
LINE
  8
0
 62
7
 10
3.598750000000001
 20
2.9375
 30
0
 11
3.594250000000001
 21
2.927499999999999
 31
0
  0
LINE
  8
0
 62
7
 10
3.594250000000001
 20
2.927499999999999
 30
0
 11
3.594250000000001
 21
2.9125
 31
0
  0
LINE
  8
0
 62
7
 10
3.594250000000001
 20
2.9125
 30
0
 11
3.598750000000001
 21
2.902499999999999
 31
0
  0
LINE
  8
0
 62
7
 10
3.598750000000001
 20
2.902499999999999
 30
0
 11
3.6055
 21
2.895
 31
0
  0
LINE
  8
0
 62
7
 10
3.6055
 20
2.895
 30
0
 11
3.6145
 21
2.889999999999999
 31
0
  0
LINE
  8
0
 62
7
 10
3.6145
 20
2.889999999999999
 30
0
 11
3.628
 21
2.889999999999999
 31
0
  0
LINE
  8
0
 62
7
 10
3.628
 20
2.889999999999999
 30
0
 11
3.637
 21
2.895
 31
0
  0
LINE
  8
0
 62
7
 10
3.637
 20
2.895
 30
0
 11
3.64375
 21
2.902499999999999
 31
0
  0
LINE
  8
0
 62
7
 10
3.64375
 20
2.902499999999999
 30
0
 11
3.64825
 21
2.9125
 31
0
  0
LINE
  8
0
 62
7
 10
3.64825
 20
2.9125
 30
0
 11
3.64825
 21
2.927499999999999
 31
0
  0
LINE
  8
0
 62
7
 10
3.64825
 20
2.927499999999999
 30
0
 11
3.64375
 21
2.9375
 31
0
  0
LINE
  8
0
 62
7
 10
3.64375
 20
2.9375
 30
0
 11
3.637
 21
2.944999999999999
 31
0
  0
LINE
  8
0
 62
7
 10
3.637
 20
2.944999999999999
 30
0
 11
3.62575
 21
2.949999999999999
 31
0
  0
LINE
  8
0
 62
7
 10
3.68425
 20
2.964999999999999
 30
0
 11
3.686500000000001
 21
2.975
 31
0
  0
LINE
  8
0
 62
7
 10
3.686500000000001
 20
2.975
 30
0
 11
3.691000000000001
 21
2.982499999999999
 31
0
  0
LINE
  8
0
 62
7
 10
3.691000000000001
 20
2.982499999999999
 30
0
 11
3.69775
 21
2.987499999999999
 31
0
  0
LINE
  8
0
 62
7
 10
3.69775
 20
2.987499999999999
 30
0
 11
3.7045
 21
2.989999999999999
 31
0
  0
LINE
  8
0
 62
7
 10
3.7045
 20
2.989999999999999
 30
0
 11
3.718
 21
2.989999999999999
 31
0
  0
LINE
  8
0
 62
7
 10
3.718
 20
2.989999999999999
 30
0
 11
3.72475
 21
2.987499999999999
 31
0
  0
LINE
  8
0
 62
7
 10
3.72475
 20
2.987499999999999
 30
0
 11
3.7315
 21
2.982499999999999
 31
0
  0
LINE
  8
0
 62
7
 10
3.7315
 20
2.982499999999999
 30
0
 11
3.736
 21
2.975
 31
0
  0
LINE
  8
0
 62
7
 10
3.736
 20
2.975
 30
0
 11
3.73825
 21
2.964999999999999
 31
0
  0
LINE
  8
0
 62
7
 10
3.73825
 20
2.964999999999999
 30
0
 11
3.73825
 21
2.914999999999999
 31
0
  0
LINE
  8
0
 62
7
 10
3.73825
 20
2.914999999999999
 30
0
 11
3.736
 21
2.904999999999999
 31
0
  0
LINE
  8
0
 62
7
 10
3.736
 20
2.904999999999999
 30
0
 11
3.7315
 21
2.897499999999999
 31
0
  0
LINE
  8
0
 62
7
 10
3.7315
 20
2.897499999999999
 30
0
 11
3.72475
 21
2.892499999999999
 31
0
  0
LINE
  8
0
 62
7
 10
3.72475
 20
2.892499999999999
 30
0
 11
3.718
 21
2.889999999999999
 31
0
  0
LINE
  8
0
 62
7
 10
3.718
 20
2.889999999999999
 30
0
 11
3.7045
 21
2.889999999999999
 31
0
  0
LINE
  8
0
 62
7
 10
3.7045
 20
2.889999999999999
 30
0
 11
3.69775
 21
2.892499999999999
 31
0
  0
LINE
  8
0
 62
7
 10
3.69775
 20
2.892499999999999
 30
0
 11
3.691000000000001
 21
2.897499999999999
 31
0
  0
LINE
  8
0
 62
7
 10
3.691000000000001
 20
2.897499999999999
 30
0
 11
3.686500000000001
 21
2.904999999999999
 31
0
  0
LINE
  8
0
 62
7
 10
3.686500000000001
 20
2.904999999999999
 30
0
 11
3.68425
 21
2.914999999999999
 31
0
  0
LINE
  8
0
 62
7
 10
3.68425
 20
2.914999999999999
 30
0
 11
3.68425
 21
2.964999999999999
 31
0
  0
LINE
  8
0
 62
7
 10
3.889
 20
2.942499999999999
 30
0
 11
3.88225
 21
2.952499999999999
 31
0
  0
LINE
  8
0
 62
7
 10
3.88225
 20
2.952499999999999
 30
0
 11
3.875500000000001
 21
2.9575
 31
0
  0
LINE
  8
0
 62
7
 10
3.875500000000001
 20
2.9575
 30
0
 11
3.86875
 21
2.959999999999999
 31
0
  0
LINE
  8
0
 62
7
 10
3.86875
 20
2.959999999999999
 30
0
 11
3.85975
 21
2.959999999999999
 31
0
  0
LINE
  8
0
 62
7
 10
3.85975
 20
2.959999999999999
 30
0
 11
3.853
 21
2.9575
 31
0
  0
LINE
  8
0
 62
7
 10
3.853
 20
2.9575
 30
0
 11
3.84625
 21
2.952499999999999
 31
0
  0
LINE
  8
0
 62
7
 10
3.84625
 20
2.952499999999999
 30
0
 11
3.839500000000001
 21
2.942499999999999
 31
0
  0
LINE
  8
0
 62
7
 10
3.839500000000001
 20
2.942499999999999
 30
0
 11
3.83725
 21
2.934999999999999
 31
0
  0
LINE
  8
0
 62
7
 10
3.83725
 20
2.934999999999999
 30
0
 11
3.83725
 21
2.914999999999999
 31
0
  0
LINE
  8
0
 62
7
 10
3.83725
 20
2.914999999999999
 30
0
 11
3.839500000000001
 21
2.907499999999999
 31
0
  0
LINE
  8
0
 62
7
 10
3.839500000000001
 20
2.907499999999999
 30
0
 11
3.84625
 21
2.897499999999999
 31
0
  0
LINE
  8
0
 62
7
 10
3.84625
 20
2.897499999999999
 30
0
 11
3.853
 21
2.892499999999999
 31
0
  0
LINE
  8
0
 62
7
 10
3.853
 20
2.892499999999999
 30
0
 11
3.85975
 21
2.889999999999999
 31
0
  0
LINE
  8
0
 62
7
 10
3.85975
 20
2.889999999999999
 30
0
 11
3.86875
 21
2.889999999999999
 31
0
  0
LINE
  8
0
 62
7
 10
3.86875
 20
2.889999999999999
 30
0
 11
3.875500000000001
 21
2.892499999999999
 31
0
  0
LINE
  8
0
 62
7
 10
3.875500000000001
 20
2.892499999999999
 30
0
 11
3.88225
 21
2.897499999999999
 31
0
  0
LINE
  8
0
 62
7
 10
3.88225
 20
2.897499999999999
 30
0
 11
3.889
 21
2.907499999999999
 31
0
  0
LINE
  8
0
 62
7
 10
3.9475
 20
2.934999999999999
 30
0
 11
3.9475
 21
2.889999999999999
 31
0
  0
LINE
  8
0
 62
7
 10
3.907
 20
2.959999999999999
 30
0
 11
3.907
 21
2.934999999999999
 31
0
  0
LINE
  8
0
 62
7
 10
3.907
 20
2.889999999999999
 30
0
 11
3.907
 21
2.934999999999999
 31
0
  0
LINE
  8
0
 62
7
 10
3.907
 20
2.934999999999999
 30
0
 11
3.90925
 21
2.947499999999999
 31
0
  0
LINE
  8
0
 62
7
 10
3.90925
 20
2.947499999999999
 30
0
 11
3.9115
 21
2.952499999999999
 31
0
  0
LINE
  8
0
 62
7
 10
3.9115
 20
2.952499999999999
 30
0
 11
3.916
 21
2.9575
 31
0
  0
LINE
  8
0
 62
7
 10
3.916
 20
2.9575
 30
0
 11
3.92275
 21
2.959999999999999
 31
0
  0
LINE
  8
0
 62
7
 10
3.92275
 20
2.959999999999999
 30
0
 11
3.931750000000001
 21
2.959999999999999
 31
0
  0
LINE
  8
0
 62
7
 10
3.931750000000001
 20
2.959999999999999
 30
0
 11
3.9385
 21
2.9575
 31
0
  0
LINE
  8
0
 62
7
 10
3.9385
 20
2.9575
 30
0
 11
3.943
 21
2.952499999999999
 31
0
  0
LINE
  8
0
 62
7
 10
3.943
 20
2.952499999999999
 30
0
 11
3.94525
 21
2.947499999999999
 31
0
  0
LINE
  8
0
 62
7
 10
3.94525
 20
2.947499999999999
 30
0
 11
3.9475
 21
2.934999999999999
 31
0
  0
LINE
  8
0
 62
7
 10
3.9475
 20
2.934999999999999
 30
0
 11
3.94975
 21
2.947499999999999
 31
0
  0
LINE
  8
0
 62
7
 10
3.94975
 20
2.947499999999999
 30
0
 11
3.952
 21
2.952499999999999
 31
0
  0
LINE
  8
0
 62
7
 10
3.952
 20
2.952499999999999
 30
0
 11
3.9565
 21
2.9575
 31
0
  0
LINE
  8
0
 62
7
 10
3.9565
 20
2.9575
 30
0
 11
3.96325
 21
2.959999999999999
 31
0
  0
LINE
  8
0
 62
7
 10
3.96325
 20
2.959999999999999
 30
0
 11
3.972250000000001
 21
2.959999999999999
 31
0
  0
LINE
  8
0
 62
7
 10
3.972250000000001
 20
2.959999999999999
 30
0
 11
3.979
 21
2.9575
 31
0
  0
LINE
  8
0
 62
7
 10
3.9835
 20
2.952499999999999
 30
0
 11
3.979
 21
2.9575
 31
0
  0
LINE
  8
0
 62
7
 10
3.979
 20
2.9575
 30
0
 11
3.9835
 21
2.952499999999999
 31
0
  0
LINE
  8
0
 62
7
 10
3.9835
 20
2.952499999999999
 30
0
 11
3.98575
 21
2.947499999999999
 31
0
  0
LINE
  8
0
 62
7
 10
3.98575
 20
2.947499999999999
 30
0
 11
3.988
 21
2.934999999999999
 31
0
  0
LINE
  8
0
 62
7
 10
3.988
 20
2.934999999999999
 30
0
 11
3.988
 21
2.889999999999999
 31
0
  0
ARC
  8
0
 62
7
 10
2.24610390568529
 20
4.276103905685381
 30
0
 40
0.5400000000000069
 50
359.8829416172986
 51
90.1170583873657
  0
ARC
  8
0
 62
7
 10
2.18889609431462
 20
4.27610390568537
 30
0
 40
0.5400000000000013
 50
89.8829416135128
 51
180.1170583873317
  0
CIRCLE
  8
0
 62
7
 10
2.786102778686669
 20
3.25
 30
0
 40
0.06000000000000005
  0
DIMENSION
  8
0
  6
CONTINUOUS
 62
7
  2
*D1
  3
DMST_1
 10
3.16
 20
11.5051587557486
 30
0
 11
2.23153372764435
 21
11.5051587557486
 31
0
 12
0
 22
0
 32
0
 70
0
 13
1.275
 23
11.2
 33
0
 14
3.16
 24
11.2
 34
0
 53
0
  0
DIMENSION
  8
0
  6
CONTINUOUS
 62
7
  2
*D2
  3
DMST_2
 10
3.78563946501357
 20
5.25
 30
0
 11
3.78563946501357
 21
4.2672177743085
 31
0
 12
0
 22
0
 32
0
 70
0
 13
3.335
 23
3.250000000000001
 33
0
 14
3.335
 24
5.25
 34
0
 50
90
 53
0
  0
DIMENSION
  8
0
  6
CONTINUOUS
 62
7
  2
*D3
  3
DMST_2
 10
1.275
 20
6.191113843410431
 30
0
 11
2.2115426812029
 21
6.191113843410431
 31
0
 12
0
 22
0
 32
0
 70
0
 13
3.16
 23
5.769999999999997
 33
0
 14
1.275
 24
5.769999999999997
 34
0
 53
0
  0
DIMENSION
  8
0
  6
CONTINUOUS
 62
7
  2
*D4
  3
DMST_2
 10
0.6785987544853221
 20
5.25
 30
0
 11
0.6785987544853221
 21
4.32894705994813
 31
0
 12
0
 22
0
 32
0
 70
0
 13
1.1
 23
3.350000000000001
 33
0
 14
1.1
 24
5.25
 34
0
 50
90
 53
0
  0
INSERT
  8
0
  2
*D0
 10
0
 20
0
 30
0
  0
ENDSEC
  0
EOF
