  0
SECTION
  2
HEADER
  9
$ACADVER
  1
AC1009
  9
$INSBASE
 10
0
 20
0
  9
$EXTMIN
 10
0.401563098279682
 20
2.890000000000001
  9
$EXTMAX
 10
8.250000000000005
 20
11.4738507920286
  9
$LIMMIN
 10
0.401563098279682
 20
2.890000000000001
  9
$LIMMAX
 10
8.250000000000005
 20
11.4738507920286
  9
$VIEWCTR
 10
10
 20
10
  9
$VIEWSIZE
 40
10
  9
$SNAPMODE
 70
0
  9
$SNAPUNIT
 10
1
 20
1
  9
$SNAPBASE
 10
0
 20
0
  9
$SNAPANG
 50
0
  9
$SNAPSTYLE
 70
0
  9
$SNAPISOPAIR
 70
0
  9
$GRIDMODE
 70
0
  9
$GRIDUNIT
 10
0
 20
0
  9
$ORTHOMODE
 70
0
  9
$REGENMODE
 70
1
  9
$FILLMODE
 70
1
  9
$QTEXTMODE
 70
0
  9
$DRAGMODE
 70
2
  9
$LTSCALE
 40
1
  9
$OSMODE
 70
0
  9
$ATTMODE
 70
1
  9
$TEXTSIZE
 40
3.5
  9
$TRACEWID
 40
0.5
  9
$TEXTSTYLE
  7
STANDARD
  9
$CLAYER
  8
0
  9
$CELTYPE
  6
BYLAYER
  9
$CECOLOR
 62
256
  9
$DIMSCALE
 40
1
  9
$DIMASZ
 40
0.18
  9
$DIMEXO
 40
0.0625
  9
$DIMDLI
 40
0.38
  9
$DIMRND
 40
0
  9
$DIMDLE
 40
0
  9
$DIMEXE
 40
0.18
  9
$DIMTP
 40
0
  9
$DIMTM
 40
0
  9
$DIMTXT
 40
0.18
  9
$DIMCEN
 40
0.09
  9
$DIMTSZ
 40
0
  9
$DIMTOL
 70
0
  9
$DIMLIM
 70
0
  9
$DIMTIH
 70
1
  9
$DIMTOH
 70
1
  9
$DIMSE1
 70
0
  9
$DIMSE2
 70
0
  9
$DIMTAD
 70
0
  9
$DIMZIN
 70
0
  9
$DIMBLK
  1

  9
$DIMASO
 70
1
  9
$DIMSHO
 70
1
  9
$DIMPOST
  1

  9
$DIMAPOST
  1

  9
$DIMALT
 70
0
  9
$DIMALTD
 70
2
  9
$DIMALTF
 40
25.4
  9
$DIMLFAC
 40
1
  9
$DIMTOFL
 70
0
  9
$DIMTVP
 40
0
  9
$DIMTIX
 70
0
  9
$DIMSOXD
 70
0
  9
$DIMSAH
 70
0
  9
$DIMBLK1
  1

  9
$DIMBLK2
  1

  9
$DIMSTYLE
  2
*UNNAMED
  9
$DIMCLRD
 70
0
  9
$DIMCLRE
 70
0
  9
$DIMCLRT
 70
0
  9
$DIMTFAC
 40
1
  9
$DIMGAP
 40
0.09
  9
$LUNITS
 70
2
  9
$LUPREC
 70
4
  9
$AXISMODE
 70
0
  9
$AXISUNIT
 10
0
 20
0
  9
$SKETCHINC
 40
0.1
  9
$FILLETRAD
 40
2
  9
$AUNITS
 70
0
  9
$AUPREC
 70
0
  9
$MENU
  1
ACAD
  9
$ELEVATION
 40
0
  9
$THICKNESS
 40
0
  9
$VIEWDIR
 10
0
 20
0
 30
1
  9
$LIMCHECK
 70
0
  9
$BLIPMODE
 70
1
  9
$CHAMFERA
 40
0
  9
$CHAMFERB
 40
0
  9
$FASTZOOM
 70
1
  9
$SKPOLY
 70
0
  9
$ANGBASE
 50
0
  9
$ANGDIR
 70
0
  9
$PDMODE
 70
0
  9
$PDSIZE
 40
0
  9
$PLINEWID
 40
0
  9
$COORDS
 70
2
  0
ENDSEC
  0
SECTION
  2
TABLES
  0
TABLE
  2
DIMSTYLE
 70
2
  0
DIMSTYLE
  2
DMST_1
 70
0
  3

  4

  5

  6

  7

 40
1
 41
0.1
 42
0
 43
0.7
 44
0.2
 45
0
 46
0
 47
0
 48
0
140
0.1
141
0
142
0.1
143
25.4
144
1
145
0
146
1
147
0.25
 71
0
 72
0
 73
0
 74
0
 75
0
 76
0
 77
0
 78
9
170
0
171
2
172
0
173
0
174
0
175
0
176
7
177
7
178
7
  0
DIMSTYLE
  2
DMST_2
 70
0
  3

  4

  5

  6

  7

 40
1
 41
0.1
 42
0
 43
0.7
 44
0.2
 45
0
 46
0
 47
0
 48
0
140
0.1
141
0
142
0.1
143
25.4
144
1
145
0
146
1
147
0.2
 71
0
 72
0
 73
0
 74
0
 75
0
 76
0
 77
0
 78
9
170
0
171
2
172
0
173
0
174
0
175
0
176
7
177
7
178
7
  0
ENDTAB
  0
TABLE
  2
LTYPE
 70
9
  0
LTYPE
  2
CONTINUOUS
 70
64
  3
Solid line
 72
65
 73
0
 40
0
  0
LTYPE
  2
BORDER
 70
64
  3
__ __ . __ __ .
 72
65
 73
6
 40
0.3953089180539487
 49
0.112945405158271
 49
-0.05647270257913552
 49
0.112945405158271
 49
-0.05647270257913552
 49
0
 49
-0.05647270257913552
  0
LTYPE
  2
CENTER
 70
64
  3
____ _ ____ _
 72
65
 73
4
 40
0.4517816206330842
 49
0.2823635128956776
 49
-0.05647270257913552
 49
0.05647270257913552
 49
-0.05647270257913552
  0
LTYPE
  2
DASHDOT
 70
64
  3
__ . __ . __ .
 72
65
 73
4
 40
0.2258908103165421
 49
0.112945405158271
 49
-0.05647270257913552
 49
0
 49
-0.05647270257913552
  0
LTYPE
  2
DASHED
 70
64
  3
__ __ __ __ __
 72
65
 73
2
 40
0.1694181077374066
 49
0.112945405158271
 49
-0.05647270257913552
  0
LTYPE
  2
DIVIDE
 70
64
  3
__ . . __ . . 
 72
65
 73
6
 40
0.2823635128956776
 49
0.112945405158271
 49
-0.05647270257913552
 49
0
 49
-0.05647270257913552
 49
0
 49
-0.05647270257913552
  0
LTYPE
  2
DOT
 70
64
  3
..............
 72
65
 73
4
 40
0.112945405158271
 49
0
 49
-0.05647270257913552
 49
0
 49
-0.05647270257913552
  0
LTYPE
  2
HIDDEN
 70
64
  3
_ _ _ _ _ _ _
 72
65
 73
2
 40
0.08470905386870328
 49
0.05647270257913552
 49
-0.02823635128956776
  0
LTYPE
  2
PHANTOM
 70
64
  3
_____ _ _ _____ _ _ 
 72
65
 73
6
 40
0.5647270257913553
 49
0.2823635128956776
 49
-0.05647270257913552
 49
0.05647270257913552
 49
-0.05647270257913552
 49
0.05647270257913552
 49
-0.05647270257913552
  0
ENDTAB
  0
TABLE
  2
LAYER
 70
2
  0
LAYER
  2
0
 70
0
 62
7
  6
CONTINUOUS
  0
ENDTAB
  0
TABLE
  2
STYLE
 70
4
  0
STYLE
  2
STANDARD
 70
0
 40
0
 41
1
 50
0
 71
0
 42
3.5
  3
txt
  4

  0
STYLE
  2
SIMPLEX
 70
0
 40
0
 41
1
 50
0
 71
0
 42
3.5
  3
simplex
  4

  0
STYLE
  2
COMPLEX
 70
0
 40
0
 41
1
 50
0
 71
0
 42
3.5
  3
complex
  4

  0
STYLE
  2
ITALIC
 70
0
 40
0
 41
1
 50
0
 71
0
 42
3.5
  3
italic
  4

  0
ENDTAB
  0
TABLE
  2
VIEW
 70
0
  0
ENDTAB
  0
ENDSEC
  0
SECTION
  2
BLOCKS
  0
BLOCK
  8
0
  2
*X0
 70
1
 10
0
 20
0
 30
0
  0
LINE
  8
0
 62
7
  6
DASHED
 10
7.960000000000007
 20
8.278198051533952
 30
0
 11
7.981801948466053
 21
8.299999999999999
 31
0
  0
LINE
  8
0
 62
7
  6
DASHED
 10
7.993933982822019
 20
8.1
 30
0
 11
8.193933982822017
 21
8.299999999999999
 31
0
  0
LINE
  8
0
 62
7
 10
7.960000000000004
 20
8.172132034355968
 30
0
 11
8.087867965644037
 21
8.299999999999999
 31
0
  0
LINE
  8
0
 62
7
 10
8.1
 20
8.099999999999998
 30
0
 11
8.200000000000006
 21
8.200000000000006
 31
0
  0
ENDBLK
  8
0
  0
BLOCK
  8
0
  2
*X1
 70
1
 10
0
 20
0
 30
0
  0
LINE
  8
0
 62
7
  6
DASHED
 10
7.960000000000003
 20
11.03591449816148
 30
0
 11
7.974085501838523
 21
11.05
 31
0
  0
LINE
  8
0
 62
7
  6
DASHED
 10
7.986217536194484
 20
10.85
 30
0
 11
8.186217536194487
 21
11.05
 31
0
  0
LINE
  8
0
 62
7
  6
DASHED
 10
8.198349570550448
 20
10.85
 30
0
 11
8.200000000000006
 21
10.85165042944956
 31
0
  0
LINE
  8
0
 62
7
 10
7.960000000000005
 20
10.9298484809835
 30
0
 11
8.080151519016503
 21
11.05
 31
0
  0
LINE
  8
0
 62
7
 10
8.092283553372466
 20
10.85
 30
0
 11
8.200000000000005
 21
10.95771644662754
 31
0
  0
ENDBLK
  8
0
  0
BLOCK
  8
0
  2
*X2
 70
1
 10
0
 20
0
 30
0
  0
LINE
  8
0
 62
7
  6
DASHED
 10
5.660000000000004
 20
10.85723484172113
 30
0
 11
5.852765158278876
 21
11.05
 31
0
  0
LINE
  8
0
 62
7
  6
DASHED
 10
5.864897192634842
 20
10.85
 30
0
 11
5.960000000000003
 21
10.94510280736516
 31
0
  0
LINE
  8
0
 62
7
 10
5.660000000000004
 20
10.96330085889911
 30
0
 11
5.746699141100895
 21
11.05
 31
0
  0
LINE
  8
0
 62
7
 10
5.758831175456858
 20
10.85
 30
0
 11
5.958831175456859
 21
11.05
 31
0
  0
ENDBLK
  8
0
  0
BLOCK
  8
0
  2
*X3
 70
1
 10
0
 20
0
 30
0
  0
LINE
  8
0
 62
7
  6
DASHED
 10
5.66048160490641
 20
8.099999999999998
 30
0
 11
5.86048160490641
 21
8.299999999999999
 31
0
  0
LINE
  8
0
 62
7
  6
DASHED
 10
5.872613639262374
 20
8.099999999999998
 30
0
 11
5.960000000000006
 21
8.18738636073763
 31
0
  0
LINE
  8
0
 62
7
 10
5.660000000000005
 20
8.205584412271575
 30
0
 11
5.754415587728428
 21
8.299999999999999
 31
0
  0
LINE
  8
0
 62
7
 10
5.766547622084394
 20
8.1
 30
0
 11
5.960000000000004
 21
8.29345237791561
 31
0
  0
ENDBLK
  8
0
  0
BLOCK
  8
0
  2
*X4
 70
1
 10
0
 20
0
 30
0
  0
LINE
  8
0
 62
7
 10
7.974085501838523
 20
11.05
 30
0
 11
8.12408550183852
 21
11.2
 31
0
  0
LINE
  8
0
 62
7
 10
8.186217536194487
 20
11.05
 30
0
 11
8.200000000000006
 21
11.06378246380552
 31
0
  0
LINE
  8
0
 62
7
 10
7.960000000000005
 20
11.14198051533947
 30
0
 11
8.018019484660536
 21
11.2
 31
0
  0
LINE
  8
0
 62
7
 10
8.080151519016503
 20
11.05
 30
0
 11
8.200000000000006
 21
11.16984848098351
 31
0
  0
ENDBLK
  8
0
  0
BLOCK
  8
0
  2
*X5
 70
1
 10
0
 20
0
 30
0
  0
LINE
  8
0
 62
7
 10
7.960000000000004
 20
10.82378246380552
 30
0
 11
7.986217536194484
 21
10.85
 31
0
  0
LINE
  8
0
 62
7
 10
7.960000000000004
 20
10.61165042944955
 30
0
 11
8.198349570550448
 21
10.85
 31
0
  0
LINE
  8
0
 62
7
 10
7.960000000000004
 20
10.39951839509359
 30
0
 11
8.200000000000006
 21
10.63951839509359
 31
0
  0
LINE
  8
0
 62
7
 10
7.960000000000004
 20
10.18738636073762
 30
0
 11
8.200000000000006
 21
10.42738636073763
 31
0
  0
LINE
  8
0
 62
7
 10
7.960000000000004
 20
9.975254326381661
 30
0
 11
8.200000000000006
 21
10.21525432638166
 31
0
  0
LINE
  8
0
 62
7
 10
7.960000000000004
 20
9.763122292025697
 30
0
 11
8.200000000000006
 21
10.0031222920257
 31
0
  0
LINE
  8
0
 62
7
 10
7.960000000000004
 20
9.550990257669733
 30
0
 11
8.200000000000006
 21
9.790990257669737
 31
0
  0
LINE
  8
0
 62
7
 10
7.960000000000004
 20
9.338858223313769
 30
0
 11
8.200000000000006
 21
9.578858223313773
 31
0
  0
LINE
  8
0
 62
7
 10
7.960000000000004
 20
9.126726188957806
 30
0
 11
8.200000000000006
 21
9.366726188957809
 31
0
  0
LINE
  8
0
 62
7
 10
7.960000000000004
 20
8.914594154601842
 30
0
 11
8.200000000000006
 21
9.154594154601845
 31
0
  0
LINE
  8
0
 62
7
 10
7.960000000000004
 20
8.702462120245878
 30
0
 11
8.200000000000006
 21
8.942462120245882
 31
0
  0
LINE
  8
0
 62
7
 10
7.960000000000004
 20
8.490330085889914
 30
0
 11
8.200000000000006
 21
8.730330085889918
 31
0
  0
LINE
  8
0
 62
7
 10
7.981801948466053
 20
8.299999999999999
 30
0
 11
8.200000000000006
 21
8.518198051533954
 31
0
  0
LINE
  8
0
 62
7
 10
8.193933982822017
 20
8.299999999999999
 30
0
 11
8.200000000000006
 21
8.30606601717799
 31
0
  0
LINE
  8
0
 62
7
 10
7.960000000000006
 20
10.71771644662754
 30
0
 11
8.092283553372464
 21
10.85
 31
0
  0
LINE
  8
0
 62
7
 10
7.960000000000006
 20
10.50558441227157
 30
0
 11
8.200000000000006
 21
10.74558441227157
 31
0
  0
LINE
  8
0
 62
7
 10
7.960000000000006
 20
10.29345237791561
 30
0
 11
8.200000000000006
 21
10.53345237791561
 31
0
  0
LINE
  8
0
 62
7
 10
7.960000000000006
 20
10.08132034355964
 30
0
 11
8.200000000000006
 21
10.32132034355964
 31
0
  0
LINE
  8
0
 62
7
 10
7.960000000000006
 20
9.869188309203681
 30
0
 11
8.200000000000006
 21
10.10918830920368
 31
0
  0
LINE
  8
0
 62
7
 10
7.960000000000006
 20
9.657056274847717
 30
0
 11
8.200000000000006
 21
9.897056274847715
 31
0
  0
LINE
  8
0
 62
7
 10
7.960000000000006
 20
9.444924240491753
 30
0
 11
8.200000000000006
 21
9.684924240491751
 31
0
  0
LINE
  8
0
 62
7
 10
7.960000000000006
 20
9.232792206135789
 30
0
 11
8.200000000000006
 21
9.472792206135788
 31
0
  0
LINE
  8
0
 62
7
 10
7.960000000000006
 20
9.020660171779825
 30
0
 11
8.200000000000006
 21
9.260660171779824
 31
0
  0
LINE
  8
0
 62
7
 10
7.960000000000006
 20
8.808528137423862
 30
0
 11
8.200000000000006
 21
9.04852813742386
 31
0
  0
LINE
  8
0
 62
7
 10
7.960000000000006
 20
8.596396103067898
 30
0
 11
8.200000000000006
 21
8.836396103067896
 31
0
  0
LINE
  8
0
 62
7
 10
7.960000000000006
 20
8.384264068711934
 30
0
 11
8.200000000000006
 21
8.624264068711932
 31
0
  0
LINE
  8
0
 62
7
 10
8.087867965644037
 20
8.299999999999999
 30
0
 11
8.200000000000006
 21
8.412132034355968
 31
0
  0
ENDBLK
  8
0
  0
BLOCK
  8
0
  2
*X6
 70
1
 10
0
 20
0
 30
0
  0
LINE
  8
0
 62
7
 10
7.960000000000005
 20
8.066066017177986
 30
0
 11
7.993933982822019
 21
8.1
 31
0
  0
LINE
  8
0
 62
7
 10
8.056066017177985
 20
7.95
 30
0
 11
8.200000000000006
 21
8.093933982822021
 31
0
  0
LINE
  8
0
 62
7
 10
7.960000000000006
 20
7.960000000000004
 30
0
 11
8.1
 21
8.099999999999998
 31
0
  0
LINE
  8
0
 62
7
 10
8.162132034355965
 20
7.949999999999999
 30
0
 11
8.200000000000006
 21
7.987867965644041
 31
0
  0
ENDBLK
  8
0
  0
BLOCK
  8
0
  2
*X7
 70
1
 10
0
 20
0
 30
0
  0
LINE
  8
0
 62
7
  6
DASHED
 10
0.9500000000000002
 20
11.0262716319083
 30
0
 11
0.9737283680916988
 21
11.05
 31
0
  0
LINE
  8
0
 62
7
  6
DASHED
 10
0.9858604024476638
 20
10.85
 30
0
 11
1.185860402447663
 21
11.05
 31
0
  0
LINE
  8
0
 62
7
  6
DASHED
 10
1.197992436803628
 20
10.85
 30
0
 11
1.397992436803627
 21
11.05
 31
0
  0
LINE
  8
0
 62
7
  6
DASHED
 10
1.410124471159592
 20
10.85
 30
0
 11
1.610124471159592
 21
11.05
 31
0
  0
LINE
  8
0
 62
7
  6
DASHED
 10
1.622256505515557
 20
10.85
 30
0
 11
1.822256505515556
 21
11.05
 31
0
  0
LINE
  8
0
 62
7
  6
DASHED
 10
1.834388539871521
 20
10.85
 30
0
 11
2.03438853987152
 21
11.05
 31
0
  0
LINE
  8
0
 62
7
  6
DASHED
 10
2.046520574227485
 20
10.85
 30
0
 11
2.246520574227485
 21
11.05
 31
0
  0
LINE
  8
0
 62
7
  6
DASHED
 10
2.25865260858345
 20
10.85
 30
0
 11
2.458652608583449
 21
11.05
 31
0
  0
LINE
  8
0
 62
7
  6
DASHED
 10
2.470784642939414
 20
10.85
 30
0
 11
2.670784642939413
 21
11.05
 31
0
  0
LINE
  8
0
 62
7
  6
DASHED
 10
2.682916677295378
 20
10.85
 30
0
 11
2.882916677295377
 21
11.05
 31
0
  0
LINE
  8
0
 62
7
  6
DASHED
 10
2.895048711651342
 20
10.85
 30
0
 11
3.095048711651342
 21
11.05
 31
0
  0
LINE
  8
0
 62
7
  6
DASHED
 10
3.107180746007307
 20
10.85
 30
0
 11
3.307180746007306
 21
11.05
 31
0
  0
LINE
  8
0
 62
7
  6
DASHED
 10
3.319312780363271
 20
10.85
 30
0
 11
3.51931278036327
 21
11.05
 31
0
  0
LINE
  8
0
 62
7
  6
DASHED
 10
3.531444814719235
 20
10.85
 30
0
 11
3.731444814719235
 21
11.05
 31
0
  0
LINE
  8
0
 62
7
 10
0.9500000000000002
 20
10.92020561473032
 30
0
 11
1.079794385269681
 21
11.05
 31
0
  0
LINE
  8
0
 62
7
 10
1.091926419625645
 20
10.85
 30
0
 11
1.291926419625645
 21
11.05
 31
0
  0
LINE
  8
0
 62
7
 10
1.30405845398161
 20
10.85
 30
0
 11
1.50405845398161
 21
11.05
 31
0
  0
LINE
  8
0
 62
7
 10
1.516190488337574
 20
10.85
 30
0
 11
1.716190488337574
 21
11.05
 31
0
  0
LINE
  8
0
 62
7
 10
1.728322522693538
 20
10.85
 30
0
 11
1.928322522693538
 21
11.05
 31
0
  0
LINE
  8
0
 62
7
 10
1.940454557049502
 20
10.85
 30
0
 11
2.140454557049503
 21
11.05
 31
0
  0
LINE
  8
0
 62
7
 10
2.152586591405467
 20
10.85
 30
0
 11
2.352586591405467
 21
11.05
 31
0
  0
LINE
  8
0
 62
7
 10
2.364718625761431
 20
10.85
 30
0
 11
2.564718625761431
 21
11.05
 31
0
  0
LINE
  8
0
 62
7
 10
2.576850660117395
 20
10.85
 30
0
 11
2.776850660117395
 21
11.05
 31
0
  0
LINE
  8
0
 62
7
 10
2.78898269447336
 20
10.85
 30
0
 11
2.98898269447336
 21
11.05
 31
0
  0
LINE
  8
0
 62
7
 10
3.001114728829324
 20
10.85
 30
0
 11
3.201114728829324
 21
11.05
 31
0
  0
LINE
  8
0
 62
7
 10
3.213246763185288
 20
10.85
 30
0
 11
3.413246763185288
 21
11.05
 31
0
  0
LINE
  8
0
 62
7
 10
3.425378797541252
 20
10.85
 30
0
 11
3.625378797541253
 21
11.05
 31
0
  0
LINE
  8
0
 62
7
 10
3.637510831897217
 20
10.85
 30
0
 11
3.735000000000005
 21
10.94748916810279
 31
0
  0
ENDBLK
  8
0
  0
BLOCK
  8
0
  2
*X8
 70
1
 10
0
 20
0
 30
0
  0
LINE
  8
0
 62
7
  6
DASHED
 10
0.9500000000000002
 20
8.268555185280766
 30
0
 11
0.9814448147192332
 21
8.299999999999999
 31
0
  0
LINE
  8
0
 62
7
  6
DASHED
 10
0.9935768490751973
 20
8.099999999999998
 30
0
 11
1.193576849075197
 21
8.299999999999999
 31
0
  0
LINE
  8
0
 62
7
  6
DASHED
 10
1.205708883431162
 20
8.099999999999998
 30
0
 11
1.405708883431162
 21
8.299999999999999
 31
0
  0
LINE
  8
0
 62
7
  6
DASHED
 10
1.417840917787126
 20
8.099999999999998
 30
0
 11
1.617840917787126
 21
8.299999999999999
 31
0
  0
LINE
  8
0
 62
7
  6
DASHED
 10
1.62997295214309
 20
8.099999999999998
 30
0
 11
1.82997295214309
 21
8.299999999999999
 31
0
  0
LINE
  8
0
 62
7
  6
DASHED
 10
1.842104986499054
 20
8.099999999999998
 30
0
 11
2.042104986499055
 21
8.299999999999999
 31
0
  0
LINE
  8
0
 62
7
  6
DASHED
 10
2.054237020855019
 20
8.099999999999998
 30
0
 11
2.254237020855019
 21
8.299999999999999
 31
0
  0
LINE
  8
0
 62
7
  6
DASHED
 10
2.266369055210983
 20
8.099999999999998
 30
0
 11
2.466369055210983
 21
8.299999999999999
 31
0
  0
LINE
  8
0
 62
7
  6
DASHED
 10
2.478501089566947
 20
8.099999999999998
 30
0
 11
2.678501089566947
 21
8.299999999999999
 31
0
  0
LINE
  8
0
 62
7
  6
DASHED
 10
2.690633123922912
 20
8.099999999999998
 30
0
 11
2.890633123922912
 21
8.299999999999999
 31
0
  0
LINE
  8
0
 62
7
  6
DASHED
 10
2.902765158278876
 20
8.099999999999998
 30
0
 11
3.102765158278876
 21
8.299999999999999
 31
0
  0
LINE
  8
0
 62
7
  6
DASHED
 10
3.11489719263484
 20
8.099999999999998
 30
0
 11
3.31489719263484
 21
8.299999999999999
 31
0
  0
LINE
  8
0
 62
7
  6
DASHED
 10
3.327029226990804
 20
8.099999999999998
 30
0
 11
3.527029226990805
 21
8.299999999999999
 31
0
  0
LINE
  8
0
 62
7
  6
DASHED
 10
3.539161261346769
 20
8.099999999999998
 30
0
 11
3.735000000000005
 21
8.295838738653234
 31
0
  0
LINE
  8
0
 62
7
 10
0.9500000000000011
 20
8.162489168102784
 30
0
 11
1.087510831897215
 21
8.299999999999999
 31
0
  0
LINE
  8
0
 62
7
 10
1.099642866253181
 20
8.1
 30
0
 11
1.299642866253179
 21
8.299999999999999
 31
0
  0
LINE
  8
0
 62
7
 10
1.311774900609145
 20
8.1
 30
0
 11
1.511774900609144
 21
8.299999999999999
 31
0
  0
LINE
  8
0
 62
7
 10
1.52390693496511
 20
8.1
 30
0
 11
1.723906934965108
 21
8.299999999999999
 31
0
  0
LINE
  8
0
 62
7
 10
1.736038969321074
 20
8.1
 30
0
 11
1.936038969321072
 21
8.299999999999999
 31
0
  0
LINE
  8
0
 62
7
 10
1.948171003677038
 20
8.1
 30
0
 11
2.148171003677037
 21
8.299999999999999
 31
0
  0
LINE
  8
0
 62
7
 10
2.160303038033002
 20
8.1
 30
0
 11
2.360303038033001
 21
8.299999999999999
 31
0
  0
LINE
  8
0
 62
7
 10
2.372435072388967
 20
8.1
 30
0
 11
2.572435072388965
 21
8.299999999999999
 31
0
  0
LINE
  8
0
 62
7
 10
2.584567106744931
 20
8.1
 30
0
 11
2.784567106744929
 21
8.299999999999999
 31
0
  0
LINE
  8
0
 62
7
 10
2.796699141100895
 20
8.1
 30
0
 11
2.996699141100894
 21
8.299999999999999
 31
0
  0
LINE
  8
0
 62
7
 10
3.00883117545686
 20
8.1
 30
0
 11
3.208831175456858
 21
8.299999999999999
 31
0
  0
LINE
  8
0
 62
7
 10
3.220963209812824
 20
8.1
 30
0
 11
3.420963209812822
 21
8.299999999999999
 31
0
  0
LINE
  8
0
 62
7
 10
3.433095244168788
 20
8.1
 30
0
 11
3.633095244168786
 21
8.299999999999999
 31
0
  0
LINE
  8
0
 62
7
 10
3.645227278524752
 20
8.1
 30
0
 11
3.735000000000006
 21
8.189772721475254
 31
0
  0
ENDBLK
  8
0
  0
BLOCK
  8
0
  2
*X9
 70
1
 10
0
 20
0
 30
0
  0
LINE
  8
0
 62
7
 10
3.410000000000004
 20
11.1528192539927
 30
0
 11
3.457180746007305
 21
11.2
 31
0
  0
LINE
  8
0
 62
7
 10
3.519312780363272
 20
11.05
 30
0
 11
3.585000000000005
 21
11.11568721963673
 31
0
  0
LINE
  8
0
 62
7
 10
3.41324676318529
 20
11.05
 30
0
 11
3.563246763185288
 21
11.2
 31
0
  0
ENDBLK
  8
0
  0
BLOCK
  8
0
  2
*X10
 70
1
 10
0
 20
0
 30
0
  0
LINE
  8
0
 62
7
 10
3.410000000000005
 20
10.72855518528077
 30
0
 11
3.531444814719235
 21
10.85
 31
0
  0
LINE
  8
0
 62
7
 10
3.410000000000005
 20
10.5164231509248
 30
0
 11
3.585000000000004
 21
10.6914231509248
 31
0
  0
LINE
  8
0
 62
7
 10
3.410000000000005
 20
10.30429111656884
 30
0
 11
3.585000000000004
 21
10.47929111656884
 31
0
  0
LINE
  8
0
 62
7
 10
3.410000000000005
 20
10.09215908221288
 30
0
 11
3.585000000000004
 21
10.26715908221287
 31
0
  0
LINE
  8
0
 62
7
 10
3.410000000000005
 20
9.880027047856911
 30
0
 11
3.585000000000004
 21
10.05502704785691
 31
0
  0
LINE
  8
0
 62
7
 10
3.410000000000005
 20
9.667895013500948
 30
0
 11
3.585000000000004
 21
9.842895013500945
 31
0
  0
LINE
  8
0
 62
7
 10
3.410000000000005
 20
9.455762979144984
 30
0
 11
3.585000000000004
 21
9.630762979144981
 31
0
  0
LINE
  8
0
 62
7
 10
3.410000000000005
 20
9.24363094478902
 30
0
 11
3.585000000000004
 21
9.418630944789017
 31
0
  0
LINE
  8
0
 62
7
 10
3.410000000000005
 20
9.031498910433056
 30
0
 11
3.585000000000004
 21
9.206498910433053
 31
0
  0
LINE
  8
0
 62
7
 10
3.410000000000005
 20
8.819366876077092
 30
0
 11
3.585000000000004
 21
8.994366876077089
 31
0
  0
LINE
  8
0
 62
7
 10
3.410000000000005
 20
8.607234841721128
 30
0
 11
3.585000000000004
 21
8.782234841721126
 31
0
  0
LINE
  8
0
 62
7
 10
3.410000000000005
 20
8.395102807365165
 30
0
 11
3.585000000000004
 21
8.570102807365162
 31
0
  0
LINE
  8
0
 62
7
 10
3.527029226990805
 20
8.299999999999999
 30
0
 11
3.585000000000004
 21
8.357970773009198
 31
0
  0
LINE
  8
0
 62
7
 10
3.410000000000005
 20
10.83462120245875
 30
0
 11
3.425378797541253
 21
10.85
 31
0
  0
LINE
  8
0
 62
7
 10
3.410000000000005
 20
10.62248916810278
 30
0
 11
3.585000000000003
 21
10.79748916810278
 31
0
  0
LINE
  8
0
 62
7
 10
3.410000000000005
 20
10.41035713374682
 30
0
 11
3.585000000000003
 21
10.58535713374682
 31
0
  0
LINE
  8
0
 62
7
 10
3.410000000000005
 20
10.19822509939086
 30
0
 11
3.585000000000003
 21
10.37322509939085
 31
0
  0
LINE
  8
0
 62
7
 10
3.410000000000005
 20
9.986093065034892
 30
0
 11
3.585000000000003
 21
10.16109306503489
 31
0
  0
LINE
  8
0
 62
7
 10
3.410000000000005
 20
9.773961030678928
 30
0
 11
3.585000000000003
 21
9.948961030678927
 31
0
  0
LINE
  8
0
 62
7
 10
3.410000000000005
 20
9.561828996322964
 30
0
 11
3.585000000000003
 21
9.736828996322963
 31
0
  0
LINE
  8
0
 62
7
 10
3.410000000000005
 20
9.349696961967
 30
0
 11
3.585000000000003
 21
9.524696961966999
 31
0
  0
LINE
  8
0
 62
7
 10
3.410000000000005
 20
9.137564927611036
 30
0
 11
3.585000000000003
 21
9.312564927611035
 31
0
  0
LINE
  8
0
 62
7
 10
3.410000000000005
 20
8.925432893255072
 30
0
 11
3.585000000000003
 21
9.100432893255071
 31
0
  0
LINE
  8
0
 62
7
 10
3.410000000000005
 20
8.713300858899109
 30
0
 11
3.585000000000003
 21
8.888300858899107
 31
0
  0
LINE
  8
0
 62
7
 10
3.410000000000005
 20
8.501168824543145
 30
0
 11
3.585000000000003
 21
8.676168824543144
 31
0
  0
LINE
  8
0
 62
7
 10
3.420963209812824
 20
8.300000000000001
 30
0
 11
3.585000000000003
 21
8.46403679018718
 31
0
  0
ENDBLK
  8
0
  0
BLOCK
  8
0
  2
*X11
 70
1
 10
0
 20
0
 30
0
  0
LINE
  8
0
 62
7
 10
3.410000000000004
 20
7.970838738653234
 30
0
 11
3.53916126134677
 21
8.1
 31
0
  0
LINE
  8
0
 62
7
 10
3.410000000000002
 20
8.076904755831215
 30
0
 11
3.433095244168788
 21
8.100000000000001
 31
0
  0
LINE
  8
0
 62
7
 10
3.495227278524752
 20
7.949999999999999
 30
0
 11
3.585000000000004
 21
8.039772721475252
 31
0
  0
ENDBLK
  8
0
  0
BLOCK
  8
0
  2
*X12
 70
1
 10
0
 20
0
 30
0
  0
LINE
  8
0
 62
7
 10
1.1
 20
11.1762716319083
 30
0
 11
1.1237283680917
 21
11.2
 31
0
  0
LINE
  8
0
 62
7
 10
1.185860402447664
 20
11.05
 30
0
 11
1.274999999999999
 21
11.13913959755234
 31
0
  0
LINE
  8
0
 62
7
 10
1.1
 20
11.07020561473032
 30
0
 11
1.229794385269681
 21
11.2
 31
0
  0
ENDBLK
  8
0
  0
BLOCK
  8
0
  2
*X13
 70
1
 10
0
 20
0
 30
0
  0
LINE
  8
0
 62
7
 10
1.1
 20
10.75200756319637
 30
0
 11
1.197992436803626
 21
10.85
 31
0
  0
LINE
  8
0
 62
7
 10
1.1
 20
10.5398755288404
 30
0
 11
1.275
 21
10.7148755288404
 31
0
  0
LINE
  8
0
 62
7
 10
1.1
 20
10.32774349448444
 30
0
 11
1.275
 21
10.50274349448444
 31
0
  0
LINE
  8
0
 62
7
 10
1.1
 20
10.11561146012848
 30
0
 11
1.275
 21
10.29061146012848
 31
0
  0
LINE
  8
0
 62
7
 10
1.1
 20
9.903479425772513
 30
0
 11
1.275
 21
10.07847942577251
 31
0
  0
LINE
  8
0
 62
7
 10
1.1
 20
9.691347391416549
 30
0
 11
1.275
 21
9.866347391416548
 31
0
  0
LINE
  8
0
 62
7
 10
1.1
 20
9.479215357060585
 30
0
 11
1.275
 21
9.654215357060584
 31
0
  0
LINE
  8
0
 62
7
 10
1.1
 20
9.267083322704622
 30
0
 11
1.275
 21
9.442083322704621
 31
0
  0
LINE
  8
0
 62
7
 10
1.1
 20
9.054951288348658
 30
0
 11
1.275
 21
9.229951288348657
 31
0
  0
LINE
  8
0
 62
7
 10
1.1
 20
8.842819253992694
 30
0
 11
1.275
 21
9.017819253992693
 31
0
  0
LINE
  8
0
 62
7
 10
1.1
 20
8.63068721963673
 30
0
 11
1.275
 21
8.805687219636729
 31
0
  0
LINE
  8
0
 62
7
 10
1.1
 20
8.418555185280766
 30
0
 11
1.275
 21
8.593555185280765
 31
0
  0
LINE
  8
0
 62
7
 10
1.193576849075199
 20
8.299999999999999
 30
0
 11
1.275
 21
8.381423150924801
 31
0
  0
LINE
  8
0
 62
7
 10
1.100000000000001
 20
10.64594154601838
 30
0
 11
1.274999999999999
 21
10.82094154601838
 31
0
  0
LINE
  8
0
 62
7
 10
1.100000000000001
 20
10.43380951166242
 30
0
 11
1.274999999999999
 21
10.60880951166242
 31
0
  0
LINE
  8
0
 62
7
 10
1.100000000000001
 20
10.22167747730646
 30
0
 11
1.274999999999999
 21
10.39667747730646
 31
0
  0
LINE
  8
0
 62
7
 10
1.100000000000001
 20
10.00954544295049
 30
0
 11
1.274999999999999
 21
10.18454544295049
 31
0
  0
LINE
  8
0
 62
7
 10
1.100000000000001
 20
9.797413408594529
 30
0
 11
1.274999999999999
 21
9.972413408594528
 31
0
  0
LINE
  8
0
 62
7
 10
1.100000000000001
 20
9.585281374238566
 30
0
 11
1.274999999999999
 21
9.760281374238565
 31
0
  0
LINE
  8
0
 62
7
 10
1.100000000000001
 20
9.373149339882602
 30
0
 11
1.274999999999999
 21
9.548149339882601
 31
0
  0
LINE
  8
0
 62
7
 10
1.100000000000001
 20
9.161017305526638
 30
0
 11
1.274999999999999
 21
9.336017305526637
 31
0
  0
LINE
  8
0
 62
7
 10
1.100000000000001
 20
8.948885271170674
 30
0
 11
1.274999999999999
 21
9.123885271170673
 31
0
  0
LINE
  8
0
 62
7
 10
1.100000000000001
 20
8.73675323681471
 30
0
 11
1.274999999999999
 21
8.911753236814709
 31
0
  0
LINE
  8
0
 62
7
 10
1.100000000000001
 20
8.524621202458746
 30
0
 11
1.274999999999999
 21
8.699621202458745
 31
0
  0
LINE
  8
0
 62
7
 10
1.100000000000001
 20
8.312489168102783
 30
0
 11
1.274999999999999
 21
8.487489168102782
 31
0
  0
ENDBLK
  8
0
  0
BLOCK
  8
0
  2
*X14
 70
1
 10
0
 20
0
 30
0
  0
LINE
  8
0
 62
7
 10
1.099999999999999
 20
7.994291116568837
 30
0
 11
1.205708883431162
 21
8.1
 31
0
  0
LINE
  8
0
 62
7
 10
1.267840917787126
 20
7.949999999999999
 30
0
 11
1.275
 21
7.957159082212874
 31
0
  0
LINE
  8
0
 62
7
 10
1.161774900609143
 20
7.949999999999999
 30
0
 11
1.274999999999999
 21
8.063225099390854
 31
0
  0
ENDBLK
  8
0
  0
BLOCK
  8
0
  2
*X15
 70
1
 10
0
 20
0
 30
0
  0
LINE
  8
0
 62
7
 10
1.1
 20
5.872970773009195
 30
0
 11
1.247029226990802
 21
6.019999999999997
 31
0
  0
LINE
  8
0
 62
7
 10
0.9350000000000005
 20
5.707970773009196
 30
0
 11
1.097029226990802
 21
5.869999999999997
 31
0
  0
LINE
  8
0
 62
7
 10
1.06916126134677
 20
5.630000000000001
 30
0
 11
1.309161261346766
 21
5.869999999999997
 31
0
  0
LINE
  8
0
 62
7
 10
1.281293295702735
 20
5.630000000000001
 30
0
 11
1.52129329570273
 21
5.869999999999997
 31
0
  0
LINE
  8
0
 62
7
 10
1.493425330058699
 20
5.630000000000001
 30
0
 11
1.733425330058694
 21
5.869999999999997
 31
0
  0
LINE
  8
0
 62
7
 10
1.705557364414663
 20
5.630000000000001
 30
0
 11
1.945557364414658
 21
5.869999999999997
 31
0
  0
LINE
  8
0
 62
7
 10
1.917689398770627
 20
5.630000000000001
 30
0
 11
2.157689398770623
 21
5.869999999999997
 31
0
  0
LINE
  8
0
 62
7
 10
2.129821433126592
 20
5.630000000000001
 30
0
 11
2.369821433126587
 21
5.869999999999997
 31
0
  0
LINE
  8
0
 62
7
 10
2.341953467482556
 20
5.630000000000001
 30
0
 11
2.581953467482551
 21
5.869999999999997
 31
0
  0
LINE
  8
0
 62
7
 10
2.55408550183852
 20
5.630000000000001
 30
0
 11
2.794085501838516
 21
5.869999999999997
 31
0
  0
LINE
  8
0
 62
7
 10
2.766217536194485
 20
5.630000000000001
 30
0
 11
3.00621753619448
 21
5.869999999999997
 31
0
  0
LINE
  8
0
 62
7
 10
2.978349570550449
 20
5.630000000000001
 30
0
 11
3.218349570550444
 21
5.869999999999997
 31
0
  0
LINE
  8
0
 62
7
 10
3.190481604906413
 20
5.630000000000001
 30
0
 11
3.580481604906409
 21
6.019999999999997
 31
0
  0
LINE
  8
0
 62
7
 10
3.402613639262377
 20
5.630000000000001
 30
0
 11
3.642613639262374
 21
5.869999999999997
 31
0
  0
LINE
  8
0
 62
7
 10
3.614745673618342
 20
5.630000000000001
 30
0
 11
3.735000000000006
 21
5.750254326381665
 31
0
  0
LINE
  8
0
 62
7
 10
1.099999999999999
 20
5.979036790187177
 30
0
 11
1.14096320981282
 21
6.019999999999996
 31
0
  0
LINE
  8
0
 62
7
 10
0.9350000000000001
 20
5.814036790187177
 30
0
 11
0.9909632098128207
 21
5.869999999999997
 31
0
  0
LINE
  8
0
 62
7
 10
0.9630952441687879
 20
5.630000000000001
 30
0
 11
1.274999999999999
 21
5.941904755831212
 31
0
  0
LINE
  8
0
 62
7
 10
1.175227278524752
 20
5.630000000000001
 30
0
 11
1.415227278524749
 21
5.869999999999997
 31
0
  0
LINE
  8
0
 62
7
 10
1.387359312880716
 20
5.630000000000001
 30
0
 11
1.627359312880713
 21
5.869999999999997
 31
0
  0
LINE
  8
0
 62
7
 10
1.599491347236681
 20
5.630000000000001
 30
0
 11
1.839491347236677
 21
5.869999999999997
 31
0
  0
LINE
  8
0
 62
7
 10
1.811623381592645
 20
5.630000000000001
 30
0
 11
2.051623381592642
 21
5.869999999999997
 31
0
  0
LINE
  8
0
 62
7
 10
2.023755415948609
 20
5.630000000000001
 30
0
 11
2.263755415948606
 21
5.869999999999997
 31
0
  0
LINE
  8
0
 62
7
 10
2.235887450304574
 20
5.630000000000001
 30
0
 11
2.47588745030457
 21
5.869999999999997
 31
0
  0
LINE
  8
0
 62
7
 10
2.448019484660538
 20
5.630000000000001
 30
0
 11
2.688019484660535
 21
5.869999999999997
 31
0
  0
LINE
  8
0
 62
7
 10
2.660151519016502
 20
5.630000000000001
 30
0
 11
2.900151519016499
 21
5.869999999999997
 31
0
  0
LINE
  8
0
 62
7
 10
2.872283553372466
 20
5.630000000000001
 30
0
 11
3.112283553372463
 21
5.869999999999997
 31
0
  0
LINE
  8
0
 62
7
 10
3.410000000000004
 20
5.955584412271574
 30
0
 11
3.474415587728427
 21
6.019999999999997
 31
0
  0
LINE
  8
0
 62
7
 10
3.084415587728431
 20
5.630000000000001
 30
0
 11
3.324415587728427
 21
5.869999999999997
 31
0
  0
LINE
  8
0
 62
7
 10
3.296547622084395
 20
5.630000000000001
 30
0
 11
3.585000000000005
 21
5.91845237791561
 31
0
  0
LINE
  8
0
 62
7
 10
3.508679656440359
 20
5.630000000000001
 30
0
 11
3.735000000000005
 21
5.856320343559646
 31
0
  0
LINE
  8
0
 62
7
 10
3.720811690796324
 20
5.630000000000001
 30
0
 11
3.735000000000005
 21
5.644188309203682
 31
0
  0
ENDBLK
  8
0
  0
BLOCK
  8
0
  2
*X16
 70
1
 10
0
 20
0
 30
0
  0
LINE
  8
0
 62
7
 10
0.9350000000000001
 20
5.49583873865323
 30
0
 11
1.029161261346769
 21
5.59
 31
0
  0
LINE
  8
0
 62
7
 10
1.001293295702735
 20
5.350000000000001
 30
0
 11
1.241293295702734
 21
5.59
 31
0
  0
LINE
  8
0
 62
7
 10
1.099999999999999
 20
5.236574669941301
 30
0
 11
1.453425330058698
 21
5.59
 31
0
  0
LINE
  8
0
 62
7
 10
1.425557364414664
 20
5.350000000000001
 30
0
 11
1.665557364414662
 21
5.59
 31
0
  0
LINE
  8
0
 62
7
 10
1.099999999999999
 20
5.024442635585337
 30
0
 11
1.275
 21
5.199442635585336
 31
0
  0
LINE
  8
0
 62
7
 10
1.637689398770628
 20
5.350000000000001
 30
0
 11
1.877689398770626
 21
5.59
 31
0
  0
LINE
  8
0
 62
7
 10
1.099999999999999
 20
4.812310601229373
 30
0
 11
1.275
 21
4.987310601229372
 31
0
  0
LINE
  8
0
 62
7
 10
1.849821433126592
 20
5.350000000000001
 30
0
 11
2.089821433126591
 21
5.59
 31
0
  0
LINE
  8
0
 62
7
 10
1.099999999999999
 20
4.600178566873409
 30
0
 11
1.275
 21
4.775178566873408
 31
0
  0
LINE
  8
0
 62
7
 10
2.061953467482557
 20
5.350000000000001
 30
0
 11
2.301953467482555
 21
5.59
 31
0
  0
LINE
  8
0
 62
7
 10
1.099999999999999
 20
4.388046532517445
 30
0
 11
1.275
 21
4.563046532517444
 31
0
  0
LINE
  8
0
 62
7
 10
2.274085501838521
 20
5.350000000000001
 30
0
 11
2.514085501838519
 21
5.59
 31
0
  0
LINE
  8
0
 62
7
 10
1.099999999999999
 20
4.175914498161482
 30
0
 11
1.275
 21
4.35091449816148
 31
0
  0
LINE
  8
0
 62
7
 10
2.486217536194485
 20
5.350000000000001
 30
0
 11
2.726217536194484
 21
5.59
 31
0
  0
LINE
  8
0
 62
7
 10
1.099999999999999
 20
3.963782463805517
 30
0
 11
1.275
 21
4.138782463805517
 31
0
  0
LINE
  8
0
 62
7
 10
2.698349570550449
 20
5.350000000000001
 30
0
 11
2.938349570550448
 21
5.59
 31
0
  0
LINE
  8
0
 62
7
 10
1.099999999999999
 20
3.751650429449553
 30
0
 11
1.275
 21
3.926650429449553
 31
0
  0
LINE
  8
0
 62
7
 10
2.910481604906414
 20
5.350000000000001
 30
0
 11
3.150481604906412
 21
5.59
 31
0
  0
LINE
  8
0
 62
7
 10
1.099999999999999
 20
3.539518395093589
 30
0
 11
1.275
 21
3.714518395093588
 31
0
  0
LINE
  8
0
 62
7
 10
3.122613639262378
 20
5.350000000000001
 30
0
 11
3.362613639262376
 21
5.59
 31
0
  0
LINE
  8
0
 62
7
 10
1.122613639262376
 20
3.350000000000001
 30
0
 11
1.275
 21
3.502386360737624
 31
0
  0
LINE
  8
0
 62
7
 10
3.334745673618342
 20
5.350000000000001
 30
0
 11
3.574745673618341
 21
5.59
 31
0
  0
LINE
  8
0
 62
7
 10
3.410000000000007
 20
5.213122292025702
 30
0
 11
3.735000000000006
 21
5.538122292025701
 31
0
  0
LINE
  8
0
 62
7
 10
3.410000000000007
 20
5.000990257669737
 30
0
 11
3.585000000000004
 21
5.175990257669733
 31
0
  0
LINE
  8
0
 62
7
 10
3.410000000000006
 20
4.788858223313772
 30
0
 11
3.585000000000004
 21
4.963858223313769
 31
0
  0
LINE
  8
0
 62
7
 10
3.410000000000006
 20
4.576726188957807
 30
0
 11
3.585000000000004
 21
4.751726188957806
 31
0
  0
LINE
  8
0
 62
7
 10
3.410000000000005
 20
4.364594154601843
 30
0
 11
3.585000000000004
 21
4.539594154601842
 31
0
  0
LINE
  8
0
 62
7
 10
3.410000000000005
 20
4.152462120245878
 30
0
 11
3.585000000000004
 21
4.327462120245878
 31
0
  0
LINE
  8
0
 62
7
 10
3.410000000000005
 20
3.940330085889913
 30
0
 11
3.585000000000004
 21
4.115330085889914
 31
0
  0
LINE
  8
0
 62
7
 10
3.410000000000004
 20
3.728198051533949
 30
0
 11
3.585000000000004
 21
3.90319805153395
 31
0
  0
LINE
  8
0
 62
7
 10
3.410000000000004
 20
3.516066017177985
 30
0
 11
3.585000000000004
 21
3.691066017177985
 31
0
  0
LINE
  8
0
 62
7
 10
3.410000000000005
 20
3.303933982822023
 30
0
 11
3.585000000000004
 21
3.478933982822021
 31
0
  0
LINE
  8
0
 62
7
 10
3.568198051533948
 20
3.25
 30
0
 11
3.585000000000004
 21
3.266801948466057
 31
0
  0
LINE
  8
0
 62
7
 10
0.9350000000000001
 20
5.389772721475248
 30
0
 11
1.135227278524751
 21
5.59
 31
0
  0
LINE
  8
0
 62
7
 10
1.1
 20
5.342640687119282
 30
0
 11
1.347359312880716
 21
5.59
 31
0
  0
LINE
  8
0
 62
7
 10
1.319491347236681
 20
5.350000000000001
 30
0
 11
1.55949134723668
 21
5.59
 31
0
  0
LINE
  8
0
 62
7
 10
1.1
 20
5.130508652763318
 30
0
 11
1.275
 21
5.305508652763319
 31
0
  0
LINE
  8
0
 62
7
 10
1.531623381592646
 20
5.350000000000001
 30
0
 11
1.771623381592644
 21
5.59
 31
0
  0
LINE
  8
0
 62
7
 10
1.1
 20
4.918376618407354
 30
0
 11
1.275
 21
5.093376618407355
 31
0
  0
LINE
  8
0
 62
7
 10
1.74375541594861
 20
5.350000000000001
 30
0
 11
1.983755415948608
 21
5.59
 31
0
  0
LINE
  8
0
 62
7
 10
1.1
 20
4.70624458405139
 30
0
 11
1.275
 21
4.881244584051391
 31
0
  0
LINE
  8
0
 62
7
 10
1.955887450304574
 20
5.350000000000001
 30
0
 11
2.195887450304573
 21
5.59
 31
0
  0
LINE
  8
0
 62
7
 10
1.1
 20
4.494112549695426
 30
0
 11
1.275
 21
4.669112549695427
 31
0
  0
LINE
  8
0
 62
7
 10
2.168019484660539
 20
5.350000000000001
 30
0
 11
2.408019484660537
 21
5.59
 31
0
  0
LINE
  8
0
 62
7
 10
1.1
 20
4.281980515339463
 30
0
 11
1.275
 21
4.456980515339463
 31
0
  0
LINE
  8
0
 62
7
 10
2.380151519016503
 20
5.350000000000001
 30
0
 11
2.620151519016501
 21
5.59
 31
0
  0
LINE
  8
0
 62
7
 10
1.1
 20
4.069848480983499
 30
0
 11
1.275
 21
4.244848480983499
 31
0
  0
LINE
  8
0
 62
7
 10
2.592283553372467
 20
5.350000000000001
 30
0
 11
2.832283553372466
 21
5.59
 31
0
  0
LINE
  8
0
 62
7
 10
1.1
 20
3.857716446627535
 30
0
 11
1.275
 21
4.032716446627536
 31
0
  0
LINE
  8
0
 62
7
 10
2.804415587728431
 20
5.350000000000001
 30
0
 11
3.04441558772843
 21
5.59
 31
0
  0
LINE
  8
0
 62
7
 10
1.1
 20
3.645584412271571
 30
0
 11
1.275
 21
3.820584412271571
 31
0
  0
LINE
  8
0
 62
7
 10
3.016547622084396
 20
5.350000000000001
 30
0
 11
3.256547622084394
 21
5.59
 31
0
  0
LINE
  8
0
 62
7
 10
1.1
 20
3.433452377915606
 30
0
 11
1.275
 21
3.608452377915607
 31
0
  0
LINE
  8
0
 62
7
 10
3.22867965644036
 20
5.350000000000001
 30
0
 11
3.468679656440358
 21
5.59
 31
0
  0
LINE
  8
0
 62
7
 10
1.228679656440357
 20
3.35
 30
0
 11
1.275
 21
3.396320343559642
 31
0
  0
LINE
  8
0
 62
7
 10
3.410000000000007
 20
5.319188309203684
 30
0
 11
3.680811690796323
 21
5.59
 31
0
  0
LINE
  8
0
 62
7
 10
3.652943725152287
 20
5.350000000000001
 30
0
 11
3.735000000000006
 21
5.432056274847719
 31
0
  0
LINE
  8
0
 62
7
 10
3.410000000000007
 20
5.10705627484772
 30
0
 11
3.585000000000004
 21
5.282056274847716
 31
0
  0
LINE
  8
0
 62
7
 10
3.410000000000006
 20
4.894924240491755
 30
0
 11
3.585000000000004
 21
5.069924240491752
 31
0
  0
LINE
  8
0
 62
7
 10
3.410000000000006
 20
4.68279220613579
 30
0
 11
3.585000000000004
 21
4.857792206135788
 31
0
  0
LINE
  8
0
 62
7
 10
3.410000000000005
 20
4.470660171779826
 30
0
 11
3.585000000000004
 21
4.645660171779824
 31
0
  0
LINE
  8
0
 62
7
 10
3.410000000000005
 20
4.258528137423861
 30
0
 11
3.585000000000004
 21
4.433528137423861
 31
0
  0
LINE
  8
0
 62
7
 10
3.410000000000005
 20
4.046396103067896
 30
0
 11
3.585000000000004
 21
4.221396103067897
 31
0
  0
LINE
  8
0
 62
7
 10
3.410000000000004
 20
3.834264068711931
 30
0
 11
3.585000000000004
 21
4.009264068711933
 31
0
  0
LINE
  8
0
 62
7
 10
3.410000000000004
 20
3.622132034355967
 30
0
 11
3.585000000000004
 21
3.797132034355969
 31
0
  0
LINE
  8
0
 62
7
 10
3.410000000000003
 20
3.410000000000003
 30
0
 11
3.585000000000004
 21
3.585000000000004
 31
0
  0
LINE
  8
0
 62
7
 10
3.462132034355964
 20
3.25
 30
0
 11
3.585000000000004
 21
3.37286796564404
 31
0
  0
ENDBLK
  8
0
  0
BLOCK
  8
0
  2
*D0
 70
1
 10
0
 20
0
 30
0
  0
LINE
  8
0
 62
7
 10
0.707710489411232
 20
4.615209277238399
 30
0
 11
0.707710489411232
 21
5.35
 31
0
  0
LINE
  8
0
 62
7
 10
0.707710489411232
 20
3.350000000000001
 30
0
 11
0.707710489411232
 21
4.055209277238401
 31
0
  0
LINE
  8
0
 62
7
 10
1.1
 20
5.35
 30
0
 11
0.657710489411232
 21
5.35
 31
0
  0
LINE
  8
0
 62
7
 10
1.1
 20
3.350000000000001
 30
0
 11
0.657710489411232
 21
3.350000000000001
 31
0
  0
LINE
  8
0
 62
7
 10
0.7430658284705595
 20
5.314644660940672
 30
0
 11
0.6723551503519046
 21
5.385355339059327
 31
0
  0
LINE
  8
0
 62
7
 10
0.6723551503519046
 20
3.385355339059328
 30
0
 11
0.7430658284705595
 21
3.314644660940673
 31
0
  0
TEXT
  8
0
 62
7
 10
0.7577104894112321
 20
4.3052092772384
 30
0
 40
0.1
  1
2
 50
90
 41
0.9
  0
ENDBLK
  8
0
  0
BLOCK
  8
0
  2
*D1
 70
1
 10
0
 20
0
 30
0
  0
LINE
  8
0
 62
7
 10
2.74102874865156
 20
6.272830579685451
 30
0
 11
3.410000000000005
 21
6.272830579685451
 31
0
  0
LINE
  8
0
 62
7
 10
1.275
 20
6.272830579685451
 30
0
 11
1.99602874865156
 21
6.272830579685451
 31
0
  0
LINE
  8
0
 62
7
 10
3.410000000000005
 20
5.869999999999997
 30
0
 11
3.410000000000005
 21
6.32283057968545
 31
0
  0
LINE
  8
0
 62
7
 10
1.275
 20
5.869999999999997
 30
0
 11
1.275
 21
6.32283057968545
 31
0
  0
LINE
  8
0
 62
7
 10
3.374644660940677
 20
6.237475240626123
 30
0
 11
3.445355339059332
 21
6.308185918744778
 31
0
  0
LINE
  8
0
 62
7
 10
1.310355339059327
 20
6.308185918744778
 30
0
 11
1.239644660940673
 21
6.237475240626123
 31
0
  0
TEXT
  8
0
 62
7
 10
2.24602874865156
 20
6.227830579685451
 30
0
 40
0.1
  1
2,14
 41
0.9
  0
ENDBLK
  8
0
  0
BLOCK
  8
0
  2
*D2
 70
1
 10
0
 20
0
 30
0
  0
LINE
  8
0
 62
7
 10
3.91610939930732
 20
4.599799494691419
 30
0
 11
3.91610939930732
 21
5.35
 31
0
  0
LINE
  8
0
 62
7
 10
3.91610939930732
 20
3.25
 30
0
 11
3.91610939930732
 21
3.94479949469142
 31
0
  0
LINE
  8
0
 62
7
 10
3.585000000000004
 20
5.35
 30
0
 11
3.96610939930732
 21
5.35
 31
0
  0
LINE
  8
0
 62
7
 10
3.585000000000004
 20
3.25
 30
0
 11
3.96610939930732
 21
3.25
 31
0
  0
LINE
  8
0
 62
7
 10
3.880754060247993
 20
3.285355339059327
 30
0
 11
3.951464738366647
 21
3.214644660940673
 31
0
  0
LINE
  8
0
 62
7
 10
3.951464738366647
 20
5.314644660940672
 30
0
 11
3.880754060247993
 21
5.385355339059327
 31
0
  0
TEXT
  8
0
 62
7
 10
3.96110939930732
 20
4.19479949469142
 30
0
 40
0.1
  1
2,1
 50
90
 41
0.9
  0
ENDBLK
  8
0
  0
BLOCK
  8
0
  2
*D3
 70
1
 10
0
 20
0
 30
0
  0
LINE
  8
0
 62
7
 10
2.70361070516096
 20
11.4188507920286
 30
0
 11
3.410000000000003
 21
11.4188507920286
 31
0
  0
LINE
  8
0
 62
7
 10
1.274999999999999
 20
11.4188507920286
 30
0
 11
2.05861070516096
 21
11.4188507920286
 31
0
  0
LINE
  8
0
 62
7
 10
3.410000000000003
 20
11.2
 30
0
 11
3.410000000000003
 21
11.4688507920286
 31
0
  0
LINE
  8
0
 62
7
 10
1.274999999999999
 20
11.2
 30
0
 11
1.274999999999999
 21
11.4688507920286
 31
0
  0
LINE
  8
0
 62
7
 10
1.310355339059326
 20
11.45420613108793
 30
0
 11
1.239644660940671
 21
11.38349545296927
 31
0
  0
LINE
  8
0
 62
7
 10
3.374644660940676
 20
11.38349545296927
 30
0
 11
3.44535533905933
 21
11.45420613108793
 31
0
  0
TEXT
  8
0
 62
7
 10
2.25861070516096
 20
11.3738507920286
 30
0
 40
0.1
  1
2,14
 41
0.9
  0
ENDBLK
  8
0
  0
BLOCK
  8
0
  2
*D4
 70
1
 10
0
 20
0
 30
0
  0
LINE
  8
0
 62
7
 10
0.531563098279682
 20
10.23512275024127
 30
0
 11
0.531563098279682
 21
11.05
 31
0
  0
LINE
  8
0
 62
7
 10
0.531563098279682
 20
8.299999999999999
 30
0
 11
0.531563098279682
 21
9.155122750241269
 31
0
  0
LINE
  8
0
 62
7
 10
0.9500000000000001
 20
11.05
 30
0
 11
0.481563098279682
 21
11.05
 31
0
  0
LINE
  8
0
 62
7
 10
0.9500000000000001
 20
8.299999999999999
 30
0
 11
0.481563098279682
 21
8.299999999999999
 31
0
  0
LINE
  8
0
 62
7
 10
0.4962077592203545
 20
8.335355339059326
 30
0
 11
0.5669184373390094
 21
8.264644660940672
 31
0
  0
LINE
  8
0
 62
7
 10
0.5669184373390094
 20
11.01464466094067
 30
0
 11
0.4962077592203546
 21
11.08535533905933
 31
0
  0
TEXT
  8
0
 62
7
 10
0.5015630982796819
 20
9.55762275024127
 30
0
 40
0.1
  1
2,75
 50
90
 41
0.9
  0
TEXT
  8
0
 62
7
 10
0.661563098279682
 20
9.35512275024127
 30
0
 40
0.1
  1
(260-280)
 50
90
 41
0.9
  0
ENDBLK
  8
0
  0
ENDSEC
  0
SECTION
  2
ENTITIES
  0
INSERT
  8
0
  2
*X0
 10
0
 20
0
 30
0
  0
INSERT
  8
0
  2
*X1
 10
0
 20
0
 30
0
  0
INSERT
  8
0
  2
*X2
 10
0
 20
0
 30
0
  0
INSERT
  8
0
  2
*X3
 10
0
 20
0
 30
0
  0
INSERT
  8
0
  2
*X4
 10
0
 20
0
 30
0
  0
INSERT
  8
0
  2
*X5
 10
0
 20
0
 30
0
  0
INSERT
  8
0
  2
*X6
 10
0
 20
0
 30
0
  0
INSERT
  8
0
  2
*X7
 10
0
 20
0
 30
0
  0
INSERT
  8
0
  2
*X8
 10
0
 20
0
 30
0
  0
INSERT
  8
0
  2
*X9
 10
0
 20
0
 30
0
  0
INSERT
  8
0
  2
*X10
 10
0
 20
0
 30
0
  0
INSERT
  8
0
  2
*X11
 10
0
 20
0
 30
0
  0
INSERT
  8
0
  2
*X12
 10
0
 20
0
 30
0
  0
INSERT
  8
0
  2
*X13
 10
0
 20
0
 30
0
  0
INSERT
  8
0
  2
*X14
 10
0
 20
0
 30
0
  0
INSERT
  8
0
  2
*X15
 10
0
 20
0
 30
0
  0
INSERT
  8
0
  2
*X16
 10
0
 20
0
 30
0
  0
LINE
  8
0
 62
7
 10
2.405
 20
3.25
 30
0
 11
3.355000000000004
 21
3.25
 31
0
  0
LINE
  8
0
 62
7
 10
2.405
 20
3.6
 30
0
 11
2.405
 21
3.25
 31
0
  0
LINE
  8
0
 62
7
 10
3.355000000000004
 20
3.25
 30
0
 11
3.355000000000004
 21
3.6
 31
0
  0
LINE
  8
0
 62
7
 10
2.405
 20
3.51
 30
0
 11
3.355000000000004
 21
3.51
 31
0
  0
LINE
  8
0
 62
7
 10
2.405
 20
3.836874186908769
 30
0
 11
2.405
 21
3.51
 31
0
  0
LINE
  8
0
 62
7
 10
3.355000000000004
 20
3.51
 30
0
 11
3.355000000000004
 21
3.8833450917575
 31
0
  0
LINE
  8
0
 62
7
 10
2.405
 20
3.74676657310225
 30
0
 11
3.355000000000004
 21
3.79323747795097
 31
0
  0
LINE
  8
0
 62
7
 10
2.405
 20
4.058247544450069
 30
0
 11
2.405
 21
3.74676657310225
 31
0
  0
LINE
  8
0
 62
7
 10
3.355000000000004
 20
3.79323747795097
 30
0
 11
3.355000000000004
 21
4.183316549764282
 31
0
  0
LINE
  8
0
 62
7
 10
2.405
 20
3.9674709487237
 30
0
 11
3.355000000000004
 21
4.09253995403791
 31
0
  0
LINE
  8
0
 62
7
 10
2.405
 20
4.179384101421118
 30
0
 11
2.405
 21
3.9674709487237
 31
0
  0
LINE
  8
0
 62
7
 10
3.355000000000004
 20
4.09253995403791
 30
0
 11
3.355000000000004
 21
4.597299477003252
 31
0
  0
LINE
  8
0
 62
7
 10
2.405
 20
4.276104795845089
 30
0
 11
2.405
 21
4.081060527879961
 31
0
  0
LINE
  8
0
 62
7
 10
2.405
 20
4.081060527879961
 30
0
 11
3.355000000000004
 21
4.49897590346209
 31
0
  0
LINE
  8
0
 62
7
 10
3.355000000000004
 20
4.49897590346209
 30
0
 11
3.355000000000004
 21
5.103312520565689
 31
0
  0
LINE
  8
0
 62
7
 10
2.358465520000631
 20
4.345000000000001
 30
0
 11
2.44541150188501
 21
4.21627478006728
 31
0
  0
LINE
  8
0
 62
7
 10
2.44541150188501
 20
4.21627478006728
 30
0
 11
3.355000000000004
 21
4.985447390236562
 31
0
  0
LINE
  8
0
 62
7
 10
3.355000000000004
 20
5.295000000000001
 30
0
 11
2.920340141104261
 21
5.295000000000001
 31
0
  0
LINE
  8
0
 62
7
 10
3.355000000000004
 20
4.985447390236562
 30
0
 11
3.355000000000004
 21
5.295000000000001
 31
0
  0
LINE
  8
0
 62
7
 10
2.317333718274544
 20
4.345000000000001
 30
0
 11
2.40415039542601
 21
4.345000000000001
 31
0
  0
LINE
  8
0
 62
7
 10
2.40415039542601
 20
4.345000000000001
 30
0
 11
3.028011497354314
 21
5.295000000000001
 31
0
  0
LINE
  8
0
 62
7
 10
3.028011497354314
 20
5.295000000000001
 30
0
 11
2.42483339479172
 21
5.295000000000001
 31
0
  0
LINE
  8
0
 62
7
 10
2.268444923640407
 20
4.254967067963793
 30
0
 11
2.31480009808682
 21
4.332932845132029
 31
0
  0
LINE
  8
0
 62
7
 10
2.31480009808682
 20
4.332932845132029
 30
0
 11
2.516795745958261
 21
5.295000000000001
 31
0
  0
LINE
  8
0
 62
7
 10
2.516795745958261
 20
5.295000000000001
 30
0
 11
1.966500835289538
 21
5.295000000000001
 31
0
  0
LINE
  8
0
 62
7
 10
2.28
 20
4.197774322322039
 30
0
 11
2.058319324470071
 21
5.295000000000001
 31
0
  0
LINE
  8
0
 62
7
 10
2.28
 20
3.971737268732281
 30
0
 11
2.28
 21
4.197774322322039
 31
0
  0
LINE
  8
0
 62
7
 10
2.058319324470071
 20
5.295000000000001
 30
0
 11
1.422615252062169
 21
5.295000000000001
 31
0
  0
LINE
  8
0
 62
7
 10
2.28
 20
4.137249053925411
 30
0
 11
1.529855694096379
 21
5.295000000000001
 31
0
  0
LINE
  8
0
 62
7
 10
2.28
 20
3.89790147038203
 30
0
 11
2.28
 21
4.137249053925411
 31
0
  0
LINE
  8
0
 62
7
 10
1.33
 20
5.295000000000001
 30
0
 11
1.33
 21
4.757060298675381
 31
0
  0
LINE
  8
0
 62
7
 10
1.529855694096379
 20
5.295000000000001
 30
0
 11
1.33
 21
5.295000000000001
 31
0
  0
LINE
  8
0
 62
7
 10
2.28
 20
4.0192480084517
 30
0
 11
1.33
 21
4.878406836745051
 31
0
  0
LINE
  8
0
 62
7
 10
2.28
 20
3.788012171394601
 30
0
 11
2.28
 21
4.0192480084517
 31
0
  0
LINE
  8
0
 62
7
 10
1.33
 20
4.878406836745051
 30
0
 11
1.33
 21
4.36248645787107
 31
0
  0
LINE
  8
0
 62
7
 10
2.28
 20
3.89318801790595
 30
0
 11
1.33
 21
4.46766230438242
 31
0
  0
LINE
  8
0
 62
7
 10
2.28
 20
3.674495799444919
 30
0
 11
2.28
 21
3.89318801790595
 31
0
  0
LINE
  8
0
 62
7
 10
1.33
 20
4.46766230438242
 30
0
 11
1.33
 21
3.977402455143821
 31
0
  0
LINE
  8
0
 62
7
 10
2.28
 20
3.7689599964806
 30
0
 11
1.33
 21
4.071866652179502
 31
0
  0
LINE
  8
0
 62
7
 10
2.28
 20
3.55833888859147
 30
0
 11
2.28
 21
3.7689599964806
 31
0
  0
LINE
  8
0
 62
7
 10
1.33
 20
4.071866652179502
 30
0
 11
1.33
 21
3.58240570105744
 31
0
  0
LINE
  8
0
 62
7
 10
2.28
 20
3.648367764309131
 30
0
 11
1.33
 21
3.672434576775091
 31
0
  0
LINE
  8
0
 62
7
 10
2.28
 20
3.39
 30
0
 11
2.28
 21
3.648367764309131
 31
0
  0
LINE
  8
0
 62
7
 10
1.33
 20
3.672434576775091
 30
0
 11
1.33
 21
3.39
 31
0
  0
LINE
  8
0
 62
7
 10
2.879958592364672
 20
4.344999758694319
 30
0
 11
2.879958592364672
 21
3.25
 31
0
  0
LINE
  8
0
 62
7
 10
2.28000024131096
 20
4.819958592364673
 30
0
 11
2.40499975868595
 21
4.819958592364673
 31
0
  0
LINE
  8
0
 62
7
 10
1.910696506897031
 20
3.461
 30
0
 11
1.80504140763533
 21
3.4
 31
0
  0
LINE
  8
0
 62
7
 10
1.699386308373627
 20
3.461
 30
0
 11
1.910696506897031
 21
3.461
 31
0
  0
LINE
  8
0
 62
7
 10
1.80504140763533
 20
3.4
 30
0
 11
1.699386308373627
 21
3.461
 31
0
  0
LINE
  8
0
 62
7
 10
1.80504140763533
 20
3.4
 30
0
 11
1.80504140763533
 21
4.344999758685588
 31
0
  0
LINE
  8
0
 62
7
 10
5.859999820000002
 20
8.583333226666662
 30
0
 11
6.209999850000004
 21
8.583333226666662
 31
0
  0
LINE
  8
0
 62
7
 10
5.859999820000002
 20
8.518333226666662
 30
0
 11
5.859999820000002
 21
8.583333226666662
 31
0
  0
LINE
  8
0
 62
7
 10
6.209999850000004
 20
8.583333226666662
 30
0
 11
6.209999850000004
 21
8.518333226666662
 31
0
  0
LINE
  8
0
 62
7
 10
6.209999850000004
 20
8.518333226666662
 30
0
 11
5.859999820000002
 21
8.518333226666662
 31
0
  0
LINE
  8
0
 62
7
 10
6.119999810000002
 20
8.766666566666663
 30
0
 11
6.493344880000004
 21
8.766666566666663
 31
0
  0
LINE
  8
0
 62
7
 10
6.493344880000004
 20
8.701666566666661
 30
0
 11
6.119999810000002
 21
8.701666566666661
 31
0
  0
LINE
  8
0
 62
7
 10
6.119999810000002
 20
8.701666566666661
 30
0
 11
6.119999810000002
 21
8.766666566666663
 31
0
  0
LINE
  8
0
 62
7
 10
6.493344880000004
 20
8.766666566666663
 30
0
 11
6.493344880000004
 21
8.701666566666661
 31
0
  0
LINE
  8
0
 62
7
 10
6.793316120000005
 20
8.884999906666662
 30
0
 11
6.356766210000002
 21
8.884999906666662
 31
0
  0
LINE
  8
0
 62
7
 10
6.356766210000002
 20
8.94999990666666
 30
0
 11
6.793316120000005
 21
8.94999990666666
 31
0
  0
LINE
  8
0
 62
7
 10
6.356766210000002
 20
8.884999906666662
 30
0
 11
6.356766210000002
 21
8.94999990666666
 31
0
  0
LINE
  8
0
 62
7
 10
6.793316120000005
 20
8.94999990666666
 30
0
 11
6.793316120000005
 21
8.884999906666662
 31
0
  0
LINE
  8
0
 62
7
 10
7.207299500000001
 20
9.068333226666663
 30
0
 11
6.577470550000003
 21
9.068333226666663
 31
0
  0
LINE
  8
0
 62
7
 10
6.577470550000003
 20
9.133333226666663
 30
0
 11
7.207299500000001
 21
9.133333226666663
 31
0
  0
LINE
  8
0
 62
7
 10
6.577470550000003
 20
9.068333226666663
 30
0
 11
6.577470550000003
 21
9.133333226666663
 31
0
  0
LINE
  8
0
 62
7
 10
7.207299500000001
 20
9.133333226666663
 30
0
 11
7.207299500000001
 21
9.068333226666663
 31
0
  0
LINE
  8
0
 62
7
 10
7.713312530000002
 20
9.251666586666659
 30
0
 11
6.691060410000002
 21
9.251666586666659
 31
0
  0
LINE
  8
0
 62
7
 10
6.691060410000002
 20
9.31666658666666
 30
0
 11
7.713312530000002
 21
9.31666658666666
 31
0
  0
LINE
  8
0
 62
7
 10
6.691060410000002
 20
9.251666586666659
 30
0
 11
6.691060410000002
 21
9.31666658666666
 31
0
  0
LINE
  8
0
 62
7
 10
7.713312530000002
 20
9.31666658666666
 30
0
 11
7.713312530000002
 21
9.251666586666659
 31
0
  0
LINE
  8
0
 62
7
 10
7.904999540000002
 20
9.434999946666661
 30
0
 11
6.826274570000002
 21
9.434999946666661
 31
0
  0
LINE
  8
0
 62
7
 10
6.826274570000002
 20
9.49999994666666
 30
0
 11
7.904999540000002
 21
9.49999994666666
 31
0
  0
LINE
  8
0
 62
7
 10
6.826274570000002
 20
9.434999946666661
 30
0
 11
6.826274570000002
 21
9.49999994666666
 31
0
  0
LINE
  8
0
 62
7
 10
7.904999540000002
 20
9.49999994666666
 30
0
 11
7.904999540000002
 21
9.434999946666661
 31
0
  0
LINE
  8
0
 62
7
 10
6.954999770000004
 20
9.683333226666662
 30
0
 11
7.904999540000002
 21
9.683333226666662
 31
0
  0
LINE
  8
0
 62
7
 10
6.954999770000004
 20
9.618333226666664
 30
0
 11
6.954999770000004
 21
9.683333226666662
 31
0
  0
LINE
  8
0
 62
7
 10
7.904999540000002
 20
9.683333226666662
 30
0
 11
7.904999540000002
 21
9.618333226666664
 31
0
  0
LINE
  8
0
 62
7
 10
7.904999540000002
 20
9.618333226666664
 30
0
 11
6.954999770000004
 21
9.618333226666664
 31
0
  0
LINE
  8
0
 62
7
 10
6.864967120000002
 20
9.866666666666664
 30
0
 11
7.904999700000001
 21
9.866666666666664
 31
0
  0
LINE
  8
0
 62
7
 10
7.904999700000001
 20
9.801666666666661
 30
0
 11
6.864967120000002
 21
9.801666666666661
 31
0
  0
LINE
  8
0
 62
7
 10
6.864967120000002
 20
9.801666666666661
 30
0
 11
6.864967120000002
 21
9.866666666666664
 31
0
  0
LINE
  8
0
 62
7
 10
7.904999700000001
 20
9.866666666666664
 30
0
 11
7.904999700000001
 21
9.801666666666661
 31
0
  0
LINE
  8
0
 62
7
 10
6.581736830000001
 20
10.04999994666666
 30
0
 11
7.904999700000001
 21
10.04999994666666
 31
0
  0
LINE
  8
0
 62
7
 10
7.904999700000001
 20
9.984999946666663
 30
0
 11
6.581736830000001
 21
9.984999946666663
 31
0
  0
LINE
  8
0
 62
7
 10
6.581736830000001
 20
9.984999946666663
 30
0
 11
6.581736830000001
 21
10.04999994666666
 31
0
  0
LINE
  8
0
 62
7
 10
7.904999700000001
 20
10.04999994666666
 30
0
 11
7.904999700000001
 21
9.984999946666663
 31
0
  0
LINE
  8
0
 62
7
 10
7.905000000000006
 20
10.16833322666666
 30
0
 11
6.507901080000003
 21
10.16833322666666
 31
0
  0
LINE
  8
0
 62
7
 10
6.507901080000003
 20
10.23333322666666
 30
0
 11
7.905000000000006
 21
10.23333322666666
 31
0
  0
LINE
  8
0
 62
7
 10
6.507901080000003
 20
10.16833322666666
 30
0
 11
6.507901080000003
 21
10.23333322666666
 31
0
  0
LINE
  8
0
 62
7
 10
7.905000000000006
 20
10.23333322666666
 30
0
 11
7.905000000000006
 21
10.16833322666666
 31
0
  0
LINE
  8
0
 62
7
 10
7.488406370000002
 20
10.35166666666666
 30
0
 11
6.398011860000003
 21
10.35166666666666
 31
0
  0
LINE
  8
0
 62
7
 10
6.398011860000003
 20
10.41666666666666
 30
0
 11
7.488406370000002
 21
10.41666666666666
 31
0
  0
LINE
  8
0
 62
7
 10
6.398011860000003
 20
10.35166666666666
 30
0
 11
6.398011860000003
 21
10.41666666666666
 31
0
  0
LINE
  8
0
 62
7
 10
7.488406370000002
 20
10.41666666666666
 30
0
 11
7.488406370000002
 21
10.35166666666666
 31
0
  0
LINE
  8
0
 62
7
 10
7.077661900000003
 20
10.53499994666666
 30
0
 11
6.284495770000003
 21
10.53499994666666
 31
0
  0
LINE
  8
0
 62
7
 10
6.284495770000003
 20
10.59999994666666
 30
0
 11
7.077661900000003
 21
10.59999994666666
 31
0
  0
LINE
  8
0
 62
7
 10
6.284495770000003
 20
10.53499994666666
 30
0
 11
6.284495770000003
 21
10.59999994666666
 31
0
  0
LINE
  8
0
 62
7
 10
7.077661900000003
 20
10.59999994666666
 30
0
 11
7.077661900000003
 21
10.53499994666666
 31
0
  0
LINE
  8
0
 62
7
 10
6.681866150000002
 20
10.71833322666666
 30
0
 11
6.168338700000003
 21
10.71833322666666
 31
0
  0
LINE
  8
0
 62
7
 10
6.168338700000003
 20
10.78333322666666
 30
0
 11
6.681866150000002
 21
10.78333322666666
 31
0
  0
LINE
  8
0
 62
7
 10
6.168338700000003
 20
10.71833322666666
 30
0
 11
6.168338700000003
 21
10.78333322666666
 31
0
  0
LINE
  8
0
 62
7
 10
6.681866150000002
 20
10.78333322666666
 30
0
 11
6.681866150000002
 21
10.71833322666666
 31
0
  0
LINE
  8
0
 62
7
 10
5.999999180000003
 20
10.96666666666666
 30
0
 11
6.282433930000003
 21
10.96666666666666
 31
0
  0
LINE
  8
0
 62
7
 10
6.282433930000003
 20
10.90166666666666
 30
0
 11
5.999999180000003
 21
10.90166666666666
 31
0
  0
LINE
  8
0
 62
7
 10
5.999999180000003
 20
10.90166666666666
 30
0
 11
5.999999180000003
 21
10.96666666666666
 31
0
  0
LINE
  8
0
 62
7
 10
6.282433930000003
 20
10.96666666666666
 30
0
 11
6.282433930000003
 21
10.90166666666666
 31
0
  0
LINE
  8
0
 62
7
 10
2.405000150000004
 20
8.583333226666662
 30
0
 11
3.355000530000003
 21
8.583333226666662
 31
0
  0
LINE
  8
0
 62
7
 10
3.355000530000003
 20
8.583333226666662
 30
0
 11
3.355000530000003
 21
8.518333226666662
 31
0
  0
LINE
  8
0
 62
7
 10
2.405000150000004
 20
8.518333226666662
 30
0
 11
2.405000150000004
 21
8.583333226666662
 31
0
  0
LINE
  8
0
 62
7
 10
3.355000530000003
 20
8.518333226666662
 30
0
 11
2.405000150000004
 21
8.518333226666662
 31
0
  0
LINE
  8
0
 62
7
 10
2.405000300000005
 20
8.766666566666663
 30
0
 11
3.355000360000002
 21
8.766666566666663
 31
0
  0
LINE
  8
0
 62
7
 10
3.355000360000002
 20
8.766666566666663
 30
0
 11
3.355000360000002
 21
8.701666566666661
 31
0
  0
LINE
  8
0
 62
7
 10
2.405000300000005
 20
8.701666566666661
 30
0
 11
2.405000300000005
 21
8.766666566666663
 31
0
  0
LINE
  8
0
 62
7
 10
3.355000360000002
 20
8.701666566666661
 30
0
 11
2.405000300000005
 21
8.701666566666661
 31
0
  0
LINE
  8
0
 62
7
 10
2.405000300000005
 20
8.94999990666666
 30
0
 11
3.355001010000002
 21
8.94999990666666
 31
0
  0
LINE
  8
0
 62
7
 10
3.355001010000002
 20
8.94999990666666
 30
0
 11
3.355001010000002
 21
8.884999906666662
 31
0
  0
LINE
  8
0
 62
7
 10
2.405000300000005
 20
8.884999906666662
 30
0
 11
2.405000300000005
 21
8.94999990666666
 31
0
  0
LINE
  8
0
 62
7
 10
3.355001010000002
 20
8.884999906666662
 30
0
 11
2.405000300000005
 21
8.884999906666662
 31
0
  0
LINE
  8
0
 62
7
 10
2.405000150000004
 20
9.133333226666663
 30
0
 11
3.355000470000003
 21
9.133333226666663
 31
0
  0
LINE
  8
0
 62
7
 10
3.355000470000003
 20
9.133333226666663
 30
0
 11
3.355000470000003
 21
9.068333226666663
 31
0
  0
LINE
  8
0
 62
7
 10
2.405000150000004
 20
9.068333226666663
 30
0
 11
2.405000150000004
 21
9.133333226666663
 31
0
  0
LINE
  8
0
 62
7
 10
3.355000470000003
 20
9.068333226666663
 30
0
 11
2.405000150000004
 21
9.068333226666663
 31
0
  0
LINE
  8
0
 62
7
 10
2.405000220000006
 20
9.316666586666662
 30
0
 11
3.355000510000002
 21
9.316666586666662
 31
0
  0
LINE
  8
0
 62
7
 10
3.355000510000002
 20
9.316666586666662
 30
0
 11
3.355000510000002
 21
9.251666586666662
 31
0
  0
LINE
  8
0
 62
7
 10
2.405000220000006
 20
9.251666586666662
 30
0
 11
2.405000220000006
 21
9.316666586666662
 31
0
  0
LINE
  8
0
 62
7
 10
3.355000510000002
 20
9.251666586666662
 30
0
 11
2.405000220000006
 21
9.251666586666662
 31
0
  0
LINE
  8
0
 62
7
 10
3.355000400000002
 20
9.434999946666663
 30
0
 11
2.358465720000004
 21
9.434999946666663
 31
0
  0
LINE
  8
0
 62
7
 10
2.358465720000004
 20
9.499999946666664
 30
0
 11
3.355000400000002
 21
9.499999946666664
 31
0
  0
LINE
  8
0
 62
7
 10
3.355000400000002
 20
9.499999946666664
 30
0
 11
3.355000400000002
 21
9.434999946666663
 31
0
  0
LINE
  8
0
 62
7
 10
2.358465720000004
 20
9.434999946666663
 30
0
 11
2.358465720000004
 21
9.499999946666664
 31
0
  0
LINE
  8
0
 62
7
 10
3.028011850000001
 20
9.618333226666664
 30
0
 11
2.317333900000003
 21
9.618333226666664
 31
0
  0
LINE
  8
0
 62
7
 10
2.317333900000003
 20
9.683333226666662
 30
0
 11
3.028011850000001
 21
9.683333226666662
 31
0
  0
LINE
  8
0
 62
7
 10
3.028011850000001
 20
9.683333226666662
 30
0
 11
3.028011850000001
 21
9.618333226666664
 31
0
  0
LINE
  8
0
 62
7
 10
2.317333900000003
 20
9.618333226666664
 30
0
 11
2.317333900000003
 21
9.683333226666662
 31
0
  0
LINE
  8
0
 62
7
 10
2.516796030000002
 20
9.801666666666662
 30
0
 11
1.966501160000004
 21
9.801666666666662
 31
0
  0
LINE
  8
0
 62
7
 10
1.966501160000004
 20
9.866666666666662
 30
0
 11
2.516796030000002
 21
9.866666666666662
 31
0
  0
LINE
  8
0
 62
7
 10
2.516796030000002
 20
9.866666666666662
 30
0
 11
2.516796030000002
 21
9.801666666666662
 31
0
  0
LINE
  8
0
 62
7
 10
1.966501160000004
 20
9.801666666666662
 30
0
 11
1.966501160000004
 21
9.866666666666662
 31
0
  0
LINE
  8
0
 62
7
 10
1.422615810000003
 20
10.04999994666666
 30
0
 11
2.280000380000005
 21
10.04999994666666
 31
0
  0
LINE
  8
0
 62
7
 10
2.280000380000005
 20
9.984999946666663
 30
0
 11
1.422615810000003
 21
9.984999946666663
 31
0
  0
LINE
  8
0
 62
7
 10
2.280000380000005
 20
10.04999994666666
 30
0
 11
2.280000380000005
 21
9.984999946666663
 31
0
  0
LINE
  8
0
 62
7
 10
1.422615810000003
 20
9.984999946666663
 30
0
 11
1.422615810000003
 21
10.04999994666666
 31
0
  0
LINE
  8
0
 62
7
 10
1.330000300000004
 20
10.23333322666666
 30
0
 11
2.280000530000003
 21
10.23333322666666
 31
0
  0
LINE
  8
0
 62
7
 10
2.280000530000003
 20
10.16833322666666
 30
0
 11
1.330000300000004
 21
10.16833322666666
 31
0
  0
LINE
  8
0
 62
7
 10
2.280000530000003
 20
10.23333322666666
 30
0
 11
2.280000530000003
 21
10.16833322666666
 31
0
  0
LINE
  8
0
 62
7
 10
1.330000300000004
 20
10.16833322666666
 30
0
 11
1.330000300000004
 21
10.23333322666666
 31
0
  0
LINE
  8
0
 62
7
 10
1.330000300000004
 20
10.41666666666666
 30
0
 11
2.280000220000006
 21
10.41666666666666
 31
0
  0
LINE
  8
0
 62
7
 10
2.280000220000006
 20
10.41666666666666
 30
0
 11
2.280000220000006
 21
10.35166666666666
 31
0
  0
LINE
  8
0
 62
7
 10
1.330000300000004
 20
10.35166666666666
 30
0
 11
1.330000300000004
 21
10.41666666666666
 31
0
  0
LINE
  8
0
 62
7
 10
2.280000220000006
 20
10.35166666666666
 30
0
 11
1.330000300000004
 21
10.35166666666666
 31
0
  0
LINE
  8
0
 62
7
 10
1.330000150000004
 20
10.59999994666666
 30
0
 11
2.280000380000005
 21
10.59999994666666
 31
0
  0
LINE
  8
0
 62
7
 10
2.280000380000005
 20
10.59999994666666
 30
0
 11
2.280000380000005
 21
10.53499994666666
 31
0
  0
LINE
  8
0
 62
7
 10
1.330000150000004
 20
10.53499994666666
 30
0
 11
1.330000150000004
 21
10.59999994666666
 31
0
  0
LINE
  8
0
 62
7
 10
2.280000380000005
 20
10.53499994666666
 30
0
 11
1.330000150000004
 21
10.53499994666666
 31
0
  0
LINE
  8
0
 62
7
 10
1.330000150000004
 20
10.78333322666666
 30
0
 11
2.280000610000003
 21
10.78333322666666
 31
0
  0
LINE
  8
0
 62
7
 10
2.280000610000003
 20
10.78333322666666
 30
0
 11
2.280000610000003
 21
10.71833322666666
 31
0
  0
LINE
  8
0
 62
7
 10
1.330000150000004
 20
10.71833322666666
 30
0
 11
1.330000150000004
 21
10.78333322666666
 31
0
  0
LINE
  8
0
 62
7
 10
2.280000610000003
 20
10.71833322666666
 30
0
 11
1.330000150000004
 21
10.71833322666666
 31
0
  0
LINE
  8
0
 62
7
  6
DASHED
 10
1.330000000000004
 20
10.96666666666666
 30
0
 11
2.280000450000003
 21
10.96666666666666
 31
0
  0
LINE
  8
0
 62
7
  6
DASHED
 10
2.280000450000003
 20
10.96666666666666
 30
0
 11
2.280000450000003
 21
10.90166666666666
 31
0
  0
LINE
  8
0
 62
7
  6
DASHED
 10
1.330000000000004
 20
10.90166666666666
 30
0
 11
1.330000000000004
 21
10.96666666666666
 31
0
  0
LINE
  8
0
 62
7
  6
DASHED
 10
2.280000450000003
 20
10.90166666666666
 30
0
 11
1.330000000000004
 21
10.90166666666666
 31
0
  0
LINE
  8
0
 62
7
  6
DASHDOT
 10
1.099999999999999
 20
6.019999999999997
 30
0
 11
1.274999999999999
 21
6.019999999999997
 31
0
  0
LINE
  8
0
 62
7
  6
DASHDOT
 10
1.05
 20
6.019999999999997
 30
0
 11
1.099999999999999
 21
6.019999999999997
 31
0
  0
LINE
  8
0
 62
7
  6
DASHDOT
 10
3.735000000000005
 20
5.350000000000001
 30
0
 11
3.735000000000005
 21
5.59
 31
0
  0
LINE
  8
0
 62
7
  6
DASHDOT
 10
0.9350000000000001
 20
5.350000000000001
 30
0
 11
0.9350000000000001
 21
5.59
 31
0
  0
LINE
  8
0
 62
7
  6
DASHDOT
 10
3.735000000000005
 20
5.59
 30
0
 11
3.735000000000005
 21
5.630000000000001
 31
0
  0
LINE
  8
0
 62
7
  6
DASHDOT
 10
0.9350000000000001
 20
5.59
 30
0
 11
0.9350000000000001
 21
5.630000000000001
 31
0
  0
LINE
  8
0
 62
7
  6
DASHDOT
 10
3.735000000000005
 20
5.300000000000001
 30
0
 11
3.735000000000005
 21
5.350000000000001
 31
0
  0
LINE
  8
0
 62
7
  6
DASHDOT
 10
3.735000000000005
 20
5.630000000000001
 30
0
 11
3.735000000000005
 21
5.869999999999997
 31
0
  0
LINE
  8
0
 62
7
  6
DASHDOT
 10
3.360000000000005
 20
6.019999999999997
 30
0
 11
3.410000000000003
 21
6.019999999999997
 31
0
  0
LINE
  8
0
 62
7
  6
DASHDOT
 10
3.410000000000003
 20
6.019999999999997
 30
0
 11
3.585000000000003
 21
6.019999999999997
 31
0
  0
LINE
  8
0
 62
7
  6
DASHDOT
 10
0.9350000000000001
 20
5.300000000000001
 30
0
 11
0.9350000000000001
 21
5.350000000000001
 31
0
  0
LINE
  8
0
 62
7
  6
DASHDOT
 10
0.9350000000000001
 20
5.630000000000001
 30
0
 11
0.9350000000000001
 21
5.869999999999997
 31
0
  0
LINE
  8
0
 62
7
  6
DASHDOT
 10
0.9350000000000001
 20
5.869999999999997
 30
0
 11
0.9350000000000001
 21
5.919999999999997
 31
0
  0
LINE
  8
0
 62
7
  6
DASHDOT
 10
3.735000000000005
 20
5.869999999999997
 30
0
 11
3.735000000000005
 21
5.919999999999997
 31
0
  0
LINE
  8
0
 62
7
  6
DASHDOT
 10
1.274999999999999
 20
6.019999999999997
 30
0
 11
1.325
 21
6.019999999999997
 31
0
  0
LINE
  8
0
 62
7
  6
DASHDOT
 10
3.585000000000003
 20
6.019999999999997
 30
0
 11
3.635000000000005
 21
6.019999999999997
 31
0
  0
LINE
  8
0
 62
7
 10
3.410000000000003
 20
3.4
 30
0
 11
3.410000000000005
 21
3.35
 31
0
  0
LINE
  8
0
 62
7
  6
DASHDOT
 10
3.410000000000005
 20
3.35
 30
0
 11
1.275
 21
3.35
 31
0
  0
LINE
  8
0
 62
7
 10
1.275
 20
3.35
 30
0
 11
1.275
 21
3.4
 31
0
  0
LINE
  8
0
 62
7
 10
3.410000000000005
 20
5.350000000000001
 30
0
 11
3.410000000000003
 21
3.4
 31
0
  0
LINE
  8
0
 62
7
 10
3.410000000000003
 20
3.4
 30
0
 11
1.275
 21
3.4
 31
0
  0
LINE
  8
0
 62
7
 10
1.1
 20
3.35
 30
0
 11
1.275
 21
3.35
 31
0
  0
LINE
  8
0
 62
7
 10
0.9350000000000001
 20
5.350000000000001
 30
0
 11
1.1
 21
5.350000000000001
 31
0
  0
LINE
  8
0
 62
7
 10
1.1
 20
5.350000000000001
 30
0
 11
1.1
 21
3.35
 31
0
  0
LINE
  8
0
 62
7
 10
1.275
 20
3.4
 30
0
 11
1.275
 21
5.350000000000001
 31
0
  0
LINE
  8
0
 62
7
 10
1.275
 20
5.350000000000001
 30
0
 11
3.410000000000005
 21
5.350000000000001
 31
0
  0
LINE
  8
0
 62
7
 10
3.585000000000004
 20
3.25
 30
0
 11
3.585000000000004
 21
5.350000000000001
 31
0
  0
LINE
  8
0
 62
7
 10
3.410000000000005
 20
3.25
 30
0
 11
3.585000000000004
 21
3.25
 31
0
  0
LINE
  8
0
 62
7
 10
3.410000000000005
 20
3.35
 30
0
 11
3.410000000000005
 21
3.25
 31
0
  0
LINE
  8
0
 62
7
 10
3.585000000000004
 20
5.350000000000001
 30
0
 11
3.735000000000005
 21
5.350000000000001
 31
0
  0
LINE
  8
0
 62
7
 10
0.9350000000000001
 20
5.59
 30
0
 11
3.735000000000005
 21
5.59
 31
0
  0
LINE
  8
0
 62
7
 10
0.9350000000000001
 20
5.630000000000001
 30
0
 11
3.735000000000005
 21
5.630000000000001
 31
0
  0
LINE
  8
0
 62
7
 10
0.9350000000000001
 20
5.869999999999997
 30
0
 11
1.1
 21
5.869999999999997
 31
0
  0
LINE
  8
0
 62
7
 10
1.1
 20
5.869999999999997
 30
0
 11
1.099999999999999
 21
6.019999999999997
 31
0
  0
LINE
  8
0
 62
7
 10
1.274999999999999
 20
6.019999999999997
 30
0
 11
1.275
 21
5.869999999999997
 31
0
  0
LINE
  8
0
 62
7
 10
1.275
 20
5.869999999999997
 30
0
 11
3.410000000000005
 21
5.869999999999997
 31
0
  0
LINE
  8
0
 62
7
 10
3.410000000000005
 20
5.869999999999997
 30
0
 11
3.410000000000003
 21
6.019999999999997
 31
0
  0
LINE
  8
0
 62
7
 10
3.585000000000003
 20
6.019999999999997
 30
0
 11
3.585000000000004
 21
5.869999999999997
 31
0
  0
LINE
  8
0
 62
7
 10
3.585000000000004
 20
5.869999999999997
 30
0
 11
3.735000000000005
 21
5.869999999999997
 31
0
  0
LINE
  8
0
 62
7
  6
DASHED
 10
5.960000000000004
 20
8.1
 30
0
 11
7.960000000000004
 21
8.1
 31
0
  0
LINE
  8
0
 62
7
  6
DASHED
 10
5.960000000000004
 20
8.299999999999999
 30
0
 11
7.960000000000005
 21
8.299999999999999
 31
0
  0
LINE
  8
0
 62
7
  6
DASHED
 10
5.960000000000004
 20
10.85
 30
0
 11
7.960000000000005
 21
10.85
 31
0
  0
LINE
  8
0
 62
7
  6
DASHED
 10
5.960000000000004
 20
11.05
 30
0
 11
7.960000000000005
 21
11.05
 31
0
  0
LINE
  8
0
 62
7
  6
DASHDOT
 10
5.660000000000004
 20
10.85
 30
0
 11
5.660000000000004
 21
11.05
 31
0
  0
LINE
  8
0
 62
7
  6
DASHDOT
 10
5.660000000000004
 20
10.8
 30
0
 11
5.660000000000004
 21
10.85
 31
0
  0
LINE
  8
0
 62
7
  6
DASHDOT
 10
7.960000000000004
 20
11.2
 30
0
 11
8.200000000000006
 21
11.2
 31
0
  0
LINE
  8
0
 62
7
  6
DASHDOT
 10
7.910000000000005
 20
11.2
 30
0
 11
7.960000000000004
 21
11.2
 31
0
  0
LINE
  8
0
 62
7
  6
DASHDOT
 10
7.910000000000005
 20
7.949999999999999
 30
0
 11
7.960000000000005
 21
7.949999999999999
 31
0
  0
LINE
  8
0
 62
7
  6
DASHDOT
 10
7.960000000000005
 20
7.949999999999999
 30
0
 11
8.200000000000006
 21
7.949999999999999
 31
0
  0
LINE
  8
0
 62
7
  6
DASHDOT
 10
5.660000000000004
 20
8.299999999999999
 30
0
 11
5.660000000000004
 21
8.1
 31
0
  0
LINE
  8
0
 62
7
  6
DASHDOT
 10
5.660000000000004
 20
8.399999999999999
 30
0
 11
5.660000000000004
 21
8.299999999999999
 31
0
  0
LINE
  8
0
 62
7
  6
DASHDOT
 10
5.660000000000004
 20
11.05
 30
0
 11
5.660000000000004
 21
11.15
 31
0
  0
LINE
  8
0
 62
7
 10
5.660000000000004
 20
11.15
 30
0
 11
5.960000000000004
 21
11.15
 31
0
  0
LINE
  8
0
 62
7
  6
DASHDOT
 10
5.660000000000004
 20
8.449999999999999
 30
0
 11
5.660000000000004
 21
8.399999999999999
 31
0
  0
LINE
  8
0
 62
7
 10
5.660000000000004
 20
8.399999999999999
 30
0
 11
5.960000000000004
 21
8.399999999999999
 31
0
  0
LINE
  8
0
 62
7
  6
DASHDOT
 10
8.200000000000006
 20
7.949999999999999
 30
0
 11
8.250000000000005
 21
7.949999999999999
 31
0
  0
LINE
  8
0
 62
7
  6
DASHDOT
 10
5.660000000000004
 20
8.1
 30
0
 11
5.660000000000004
 21
8.049999999999999
 31
0
  0
LINE
  8
0
 62
7
  6
DASHDOT
 10
5.660000000000004
 20
11.15
 30
0
 11
5.660000000000004
 21
11.2
 31
0
  0
LINE
  8
0
 62
7
  6
DASHDOT
 10
8.200000000000006
 20
11.2
 30
0
 11
8.250000000000005
 21
11.2
 31
0
  0
LINE
  8
0
 62
7
 10
5.660000000000004
 20
8.1
 30
0
 11
5.960000000000004
 21
8.1
 31
0
  0
LINE
  8
0
 62
7
 10
5.960000000000004
 20
8.1
 30
0
 11
5.960000000000004
 21
8.299999999999999
 31
0
  0
LINE
  8
0
 62
7
 10
5.660000000000004
 20
8.299999999999999
 30
0
 11
5.960000000000004
 21
8.299999999999999
 31
0
  0
LINE
  8
0
 62
7
 10
5.660000000000004
 20
11.05
 30
0
 11
5.960000000000004
 21
11.05
 31
0
  0
LINE
  8
0
 62
7
 10
5.660000000000004
 20
10.85
 30
0
 11
5.960000000000004
 21
10.85
 31
0
  0
LINE
  8
0
 62
7
 10
5.960000000000004
 20
10.85
 30
0
 11
5.960000000000004
 21
11.05
 31
0
  0
LINE
  8
0
 62
7
 10
7.960000000000005
 20
7.949999999999999
 30
0
 11
7.960000000000004
 21
8.1
 31
0
  0
LINE
  8
0
 62
7
 10
8.200000000000006
 20
8.299999999999999
 30
0
 11
8.200000000000006
 21
8.1
 31
0
  0
LINE
  8
0
 62
7
 10
7.960000000000004
 20
8.1
 30
0
 11
8.200000000000006
 21
8.1
 31
0
  0
LINE
  8
0
 62
7
 10
7.960000000000004
 20
8.1
 30
0
 11
7.960000000000005
 21
8.299999999999999
 31
0
  0
LINE
  8
0
 62
7
 10
8.200000000000006
 20
10.85
 30
0
 11
8.200000000000006
 21
8.299999999999999
 31
0
  0
LINE
  8
0
 62
7
 10
7.960000000000005
 20
8.299999999999999
 30
0
 11
8.200000000000006
 21
8.299999999999999
 31
0
  0
LINE
  8
0
 62
7
 10
7.960000000000005
 20
8.299999999999999
 30
0
 11
7.960000000000005
 21
10.85
 31
0
  0
LINE
  8
0
 62
7
 10
8.200000000000006
 20
11.05
 30
0
 11
8.200000000000006
 21
10.85
 31
0
  0
LINE
  8
0
 62
7
 10
7.960000000000005
 20
10.85
 30
0
 11
8.200000000000006
 21
10.85
 31
0
  0
LINE
  8
0
 62
7
 10
7.960000000000005
 20
10.85
 30
0
 11
7.960000000000005
 21
11.05
 31
0
  0
LINE
  8
0
 62
7
 10
8.200000000000006
 20
11.2
 30
0
 11
8.200000000000006
 21
11.05
 31
0
  0
LINE
  8
0
 62
7
 10
7.960000000000005
 20
11.05
 30
0
 11
8.200000000000006
 21
11.05
 31
0
  0
LINE
  8
0
 62
7
 10
7.960000000000005
 20
11.05
 30
0
 11
7.960000000000004
 21
11.2
 31
0
  0
LINE
  8
0
 62
7
 10
8.200000000000006
 20
8.1
 30
0
 11
8.200000000000006
 21
7.949999999999999
 31
0
  0
LINE
  8
0
 62
7
  6
DASHDOT
 10
3.585000000000003
 20
11.2
 30
0
 11
3.635000000000005
 21
11.2
 31
0
  0
LINE
  8
0
 62
7
  6
DASHDOT
 10
3.410000000000003
 20
11.2
 30
0
 11
3.585000000000003
 21
11.2
 31
0
  0
LINE
  8
0
 62
7
  6
DASHDOT
 10
3.735000000000005
 20
11.05
 30
0
 11
3.735000000000005
 21
11.15
 31
0
  0
LINE
  8
0
 62
7
  6
DASHDOT
 10
3.735000000000005
 20
10.85
 30
0
 11
3.735000000000005
 21
11.05
 31
0
  0
LINE
  8
0
 62
7
  6
DASHDOT
 10
1.274999999999999
 20
11.2
 30
0
 11
1.325
 21
11.2
 31
0
  0
LINE
  8
0
 62
7
  6
DASHDOT
 10
1.099999999999999
 20
11.2
 30
0
 11
1.274999999999999
 21
11.2
 31
0
  0
LINE
  8
0
 62
7
  6
DASHDOT
 10
0.9500000000000001
 20
11.05
 30
0
 11
0.9500000000000001
 21
11.15
 31
0
  0
LINE
  8
0
 62
7
  6
DASHDOT
 10
0.9500000000000001
 20
10.85
 30
0
 11
0.9500000000000001
 21
11.05
 31
0
  0
LINE
  8
0
 62
7
  6
DASHDOT
 10
1.275
 20
7.949999999999999
 30
0
 11
1.325
 21
7.949999999999999
 31
0
  0
LINE
  8
0
 62
7
  6
DASHDOT
 10
1.1
 20
7.949999999999999
 30
0
 11
1.275
 21
7.949999999999999
 31
0
  0
LINE
  8
0
 62
7
  6
DASHDOT
 10
0.9500000000000001
 20
8.299999999999999
 30
0
 11
0.9500000000000001
 21
8.399999999999999
 31
0
  0
LINE
  8
0
 62
7
  6
DASHDOT
 10
0.9500000000000001
 20
8.1
 30
0
 11
0.9500000000000001
 21
8.299999999999999
 31
0
  0
LINE
  8
0
 62
7
  6
DASHDOT
 10
3.585000000000004
 20
7.949999999999999
 30
0
 11
3.635000000000005
 21
7.949999999999999
 31
0
  0
LINE
  8
0
 62
7
  6
DASHDOT
 10
3.410000000000005
 20
7.949999999999999
 30
0
 11
3.585000000000004
 21
7.949999999999999
 31
0
  0
LINE
  8
0
 62
7
  6
DASHDOT
 10
3.735000000000005
 20
8.299999999999999
 30
0
 11
3.735000000000005
 21
8.399999999999999
 31
0
  0
LINE
  8
0
 62
7
  6
DASHDOT
 10
3.735000000000005
 20
8.1
 30
0
 11
3.735000000000005
 21
8.299999999999999
 31
0
  0
LINE
  8
0
 62
7
  6
DASHDOT
 10
3.735000000000005
 20
11.15
 30
0
 11
3.735000000000003
 21
11.2
 31
0
  0
LINE
  8
0
 62
7
 10
3.585000000000004
 20
11.15
 30
0
 11
3.585000000000003
 21
11.2
 31
0
  0
LINE
  8
0
 62
7
 10
3.585000000000004
 20
11.15
 30
0
 11
3.735000000000005
 21
11.15
 31
0
  0
LINE
  8
0
 62
7
 10
3.410000000000005
 20
11.15
 30
0
 11
3.410000000000003
 21
11.2
 31
0
  0
LINE
  8
0
 62
7
 10
1.275
 20
11.15
 30
0
 11
1.274999999999999
 21
11.2
 31
0
  0
LINE
  8
0
 62
7
 10
1.275
 20
11.15
 30
0
 11
3.410000000000005
 21
11.15
 31
0
  0
LINE
  8
0
 62
7
  6
DASHDOT
 10
0.9500000000000001
 20
11.15
 30
0
 11
0.9499999999999992
 21
11.2
 31
0
  0
LINE
  8
0
 62
7
 10
1.1
 20
11.15
 30
0
 11
1.099999999999999
 21
11.2
 31
0
  0
LINE
  8
0
 62
7
 10
0.9500000000000001
 20
11.15
 30
0
 11
1.1
 21
11.15
 31
0
  0
LINE
  8
0
 62
7
  6
DASHDOT
 10
3.735000000000005
 20
8.399999999999999
 30
0
 11
3.735000000000003
 21
8.449999999999999
 31
0
  0
LINE
  8
0
 62
7
 10
3.585000000000004
 20
8.399999999999999
 30
0
 11
3.585000000000004
 21
10.85
 31
0
  0
LINE
  8
0
 62
7
 10
3.585000000000004
 20
8.399999999999999
 30
0
 11
3.735000000000005
 21
8.399999999999999
 31
0
  0
LINE
  8
0
 62
7
 10
3.410000000000005
 20
8.399999999999999
 30
0
 11
3.410000000000005
 21
10.85
 31
0
  0
LINE
  8
0
 62
7
 10
1.275
 20
8.399999999999999
 30
0
 11
1.275
 21
10.85
 31
0
  0
LINE
  8
0
 62
7
 10
1.275
 20
8.399999999999999
 30
0
 11
3.410000000000005
 21
8.399999999999999
 31
0
  0
LINE
  8
0
 62
7
  6
DASHDOT
 10
0.9500000000000001
 20
8.399999999999999
 30
0
 11
0.9499999999999992
 21
8.449999999999999
 31
0
  0
LINE
  8
0
 62
7
 10
1.1
 20
8.399999999999999
 30
0
 11
1.1
 21
10.85
 31
0
  0
LINE
  8
0
 62
7
 10
0.9500000000000001
 20
8.399999999999999
 30
0
 11
1.1
 21
8.399999999999999
 31
0
  0
LINE
  8
0
 62
7
  6
DASHDOT
 10
3.360000000000005
 20
7.949999999999999
 30
0
 11
3.410000000000005
 21
7.949999999999999
 31
0
  0
LINE
  8
0
 62
7
  6
DASHDOT
 10
3.360000000000005
 20
11.2
 30
0
 11
3.410000000000003
 21
11.2
 31
0
  0
LINE
  8
0
 62
7
  6
DASHDOT
 10
1.05
 20
7.949999999999999
 30
0
 11
1.1
 21
7.949999999999999
 31
0
  0
LINE
  8
0
 62
7
  6
DASHDOT
 10
1.05
 20
11.2
 30
0
 11
1.099999999999999
 21
11.2
 31
0
  0
LINE
  8
0
 62
7
  6
DASHDOT
 10
3.735000000000005
 20
10.8
 30
0
 11
3.735000000000005
 21
10.85
 31
0
  0
LINE
  8
0
 62
7
  6
DASHDOT
 10
3.735000000000005
 20
8.049999999999999
 30
0
 11
3.735000000000005
 21
8.1
 31
0
  0
LINE
  8
0
 62
7
  6
DASHDOT
 10
0.9500000000000001
 20
10.8
 30
0
 11
0.9500000000000001
 21
10.85
 31
0
  0
LINE
  8
0
 62
7
  6
DASHDOT
 10
0.9500000000000001
 20
8.049999999999999
 30
0
 11
0.9500000000000001
 21
8.1
 31
0
  0
LINE
  8
0
 62
7
 10
3.585000000000004
 20
11.05
 30
0
 11
3.735000000000005
 21
11.05
 31
0
  0
LINE
  8
0
 62
7
 10
3.585000000000004
 20
11.05
 30
0
 11
3.585000000000004
 21
11.15
 31
0
  0
LINE
  8
0
 62
7
 10
3.585000000000004
 20
10.85
 30
0
 11
3.735000000000005
 21
10.85
 31
0
  0
LINE
  8
0
 62
7
 10
3.585000000000004
 20
8.299999999999999
 30
0
 11
3.735000000000005
 21
8.299999999999999
 31
0
  0
LINE
  8
0
 62
7
 10
3.585000000000004
 20
8.299999999999999
 30
0
 11
3.585000000000004
 21
8.399999999999999
 31
0
  0
LINE
  8
0
 62
7
 10
3.585000000000003
 20
8.1
 30
0
 11
3.735000000000005
 21
8.1
 31
0
  0
LINE
  8
0
 62
7
 10
3.585000000000004
 20
7.949999999999999
 30
0
 11
3.585000000000003
 21
8.1
 31
0
  0
LINE
  8
0
 62
7
 10
3.410000000000005
 20
11.05
 30
0
 11
3.585000000000004
 21
11.05
 31
0
  0
LINE
  8
0
 62
7
 10
3.410000000000005
 20
11.05
 30
0
 11
3.410000000000005
 21
11.15
 31
0
  0
LINE
  8
0
 62
7
 10
3.410000000000005
 20
10.85
 30
0
 11
3.585000000000004
 21
10.85
 31
0
  0
LINE
  8
0
 62
7
 10
3.410000000000005
 20
8.299999999999999
 30
0
 11
3.585000000000004
 21
8.299999999999999
 31
0
  0
LINE
  8
0
 62
7
 10
3.410000000000005
 20
8.299999999999999
 30
0
 11
3.410000000000005
 21
8.399999999999999
 31
0
  0
LINE
  8
0
 62
7
 10
3.410000000000003
 20
8.1
 30
0
 11
3.585000000000003
 21
8.1
 31
0
  0
LINE
  8
0
 62
7
 10
3.410000000000005
 20
7.949999999999999
 30
0
 11
3.410000000000003
 21
8.1
 31
0
  0
LINE
  8
0
 62
7
 10
1.275
 20
11.05
 30
0
 11
3.410000000000005
 21
11.05
 31
0
  0
LINE
  8
0
 62
7
 10
1.275
 20
11.05
 30
0
 11
1.275
 21
11.15
 31
0
  0
LINE
  8
0
 62
7
 10
1.275
 20
10.85
 30
0
 11
3.410000000000005
 21
10.85
 31
0
  0
LINE
  8
0
 62
7
 10
1.275
 20
8.299999999999999
 30
0
 11
3.410000000000005
 21
8.299999999999999
 31
0
  0
LINE
  8
0
 62
7
 10
1.275
 20
8.299999999999999
 30
0
 11
1.275
 21
8.399999999999999
 31
0
  0
LINE
  8
0
 62
7
 10
1.274999999999999
 20
8.1
 30
0
 11
3.410000000000003
 21
8.1
 31
0
  0
LINE
  8
0
 62
7
 10
1.275
 20
7.949999999999999
 30
0
 11
1.274999999999999
 21
8.1
 31
0
  0
LINE
  8
0
 62
7
 10
1.1
 20
11.05
 30
0
 11
1.275
 21
11.05
 31
0
  0
LINE
  8
0
 62
7
 10
1.1
 20
11.05
 30
0
 11
1.1
 21
11.15
 31
0
  0
LINE
  8
0
 62
7
 10
1.1
 20
10.85
 30
0
 11
1.275
 21
10.85
 31
0
  0
LINE
  8
0
 62
7
 10
1.1
 20
8.299999999999999
 30
0
 11
1.275
 21
8.299999999999999
 31
0
  0
LINE
  8
0
 62
7
 10
1.1
 20
8.299999999999999
 30
0
 11
1.1
 21
8.399999999999999
 31
0
  0
LINE
  8
0
 62
7
 10
1.099999999999999
 20
8.1
 30
0
 11
1.274999999999999
 21
8.1
 31
0
  0
LINE
  8
0
 62
7
 10
1.1
 20
7.949999999999999
 30
0
 11
1.099999999999999
 21
8.1
 31
0
  0
LINE
  8
0
 62
7
 10
0.9500000000000001
 20
11.05
 30
0
 11
1.1
 21
11.05
 31
0
  0
LINE
  8
0
 62
7
 10
0.9500000000000001
 20
10.85
 30
0
 11
1.1
 21
10.85
 31
0
  0
LINE
  8
0
 62
7
 10
0.9500000000000001
 20
8.299999999999999
 30
0
 11
1.1
 21
8.299999999999999
 31
0
  0
LINE
  8
0
 62
7
 10
0.9500000000000001
 20
8.1
 30
0
 11
1.099999999999999
 21
8.1
 31
0
  0
LINE
  8
0
 62
7
 10
1.49791516268799
 20
4.998845933513241
 30
0
 11
1.49791516268799
 21
5.11884593351324
 31
0
  0
LINE
  8
0
 62
7
 10
1.57351516268799
 20
5.11884593351324
 30
0
 11
1.51951516268799
 21
5.058845933513241
 31
0
  0
LINE
  8
0
 62
7
 10
1.51951516268799
 20
5.058845933513241
 30
0
 11
1.57351516268799
 21
4.998845933513241
 31
0
  0
LINE
  8
0
 62
7
 10
1.51951516268799
 20
5.058845933513241
 30
0
 11
1.49791516268799
 21
5.034845933513242
 31
0
  0
LINE
  8
0
 62
7
 10
1.68151516268799
 20
5.11884593351324
 30
0
 11
1.60591516268799
 21
5.11884593351324
 31
0
  0
LINE
  8
0
 62
7
 10
1.60591516268799
 20
5.11884593351324
 30
0
 11
1.60591516268799
 21
5.058845933513241
 31
0
  0
LINE
  8
0
 62
7
 10
1.60591516268799
 20
4.998845933513241
 30
0
 11
1.68151516268799
 21
4.998845933513241
 31
0
  0
LINE
  8
0
 62
7
 10
1.67071516268799
 20
5.058845933513241
 30
0
 11
1.60591516268799
 21
5.058845933513241
 31
0
  0
LINE
  8
0
 62
7
 10
1.60591516268799
 20
5.058845933513241
 30
0
 11
1.60591516268799
 21
4.998845933513241
 31
0
  0
LINE
  8
0
 62
7
 10
1.71391516268799
 20
4.998845933513241
 30
0
 11
1.71391516268799
 21
5.11884593351324
 31
0
  0
LINE
  8
0
 62
7
 10
1.71391516268799
 20
5.11884593351324
 30
0
 11
1.78951516268799
 21
4.998845933513241
 31
0
  0
LINE
  8
0
 62
7
 10
1.78951516268799
 20
4.998845933513241
 30
0
 11
1.78951516268799
 21
5.11884593351324
 31
0
  0
LINE
  8
0
 62
7
 10
1.82191516268799
 20
4.998845933513241
 30
0
 11
1.82191516268799
 21
5.11884593351324
 31
0
  0
LINE
  8
0
 62
7
 10
1.82191516268799
 20
5.11884593351324
 30
0
 11
1.89751516268799
 21
4.998845933513241
 31
0
  0
LINE
  8
0
 62
7
 10
1.89751516268799
 20
4.998845933513241
 30
0
 11
1.89751516268799
 21
5.11884593351324
 31
0
  0
LINE
  8
0
 62
7
 10
2.00551516268799
 20
5.082845933513241
 30
0
 11
2.00281516268799
 21
5.094845933513241
 31
0
  0
LINE
  8
0
 62
7
 10
2.00281516268799
 20
5.094845933513241
 30
0
 11
1.99741516268799
 21
5.103845933513241
 31
0
  0
LINE
  8
0
 62
7
 10
1.99741516268799
 20
5.103845933513241
 30
0
 11
1.99201516268799
 21
5.109845933513242
 31
0
  0
LINE
  8
0
 62
7
 10
1.99201516268799
 20
5.109845933513242
 30
0
 11
1.98391516268799
 21
5.115845933513239
 31
0
  0
LINE
  8
0
 62
7
 10
1.98391516268799
 20
5.115845933513239
 30
0
 11
1.97581516268799
 21
5.11884593351324
 31
0
  0
LINE
  8
0
 62
7
 10
1.97581516268799
 20
5.11884593351324
 30
0
 11
1.95961516268799
 21
5.11884593351324
 31
0
  0
LINE
  8
0
 62
7
 10
1.95961516268799
 20
5.11884593351324
 30
0
 11
1.95151516268799
 21
5.115845933513239
 31
0
  0
LINE
  8
0
 62
7
 10
1.95151516268799
 20
5.115845933513239
 30
0
 11
1.94341516268799
 21
5.109845933513242
 31
0
  0
LINE
  8
0
 62
7
 10
1.94341516268799
 20
5.109845933513242
 30
0
 11
1.93801516268799
 21
5.103845933513241
 31
0
  0
LINE
  8
0
 62
7
 10
1.93801516268799
 20
5.103845933513241
 30
0
 11
1.93261516268799
 21
5.094845933513241
 31
0
  0
LINE
  8
0
 62
7
 10
1.93261516268799
 20
5.094845933513241
 30
0
 11
1.92991516268799
 21
5.082845933513241
 31
0
  0
LINE
  8
0
 62
7
 10
1.92991516268799
 20
5.082845933513241
 30
0
 11
1.92991516268799
 21
5.034845933513242
 31
0
  0
LINE
  8
0
 62
7
 10
1.92991516268799
 20
5.034845933513242
 30
0
 11
1.93261516268799
 21
5.022845933513241
 31
0
  0
LINE
  8
0
 62
7
 10
1.93261516268799
 20
5.022845933513241
 30
0
 11
1.93801516268799
 21
5.013845933513241
 31
0
  0
LINE
  8
0
 62
7
 10
1.93801516268799
 20
5.013845933513241
 30
0
 11
1.94341516268799
 21
5.007845933513241
 31
0
  0
LINE
  8
0
 62
7
 10
1.94341516268799
 20
5.007845933513241
 30
0
 11
1.95151516268799
 21
5.001845933513241
 31
0
  0
LINE
  8
0
 62
7
 10
1.95151516268799
 20
5.001845933513241
 30
0
 11
1.95961516268799
 21
4.998845933513241
 31
0
  0
LINE
  8
0
 62
7
 10
1.95961516268799
 20
4.998845933513241
 30
0
 11
1.97581516268799
 21
4.998845933513241
 31
0
  0
LINE
  8
0
 62
7
 10
1.97581516268799
 20
4.998845933513241
 30
0
 11
1.98391516268799
 21
5.001845933513241
 31
0
  0
LINE
  8
0
 62
7
 10
1.98391516268799
 20
5.001845933513241
 30
0
 11
1.99201516268799
 21
5.007845933513241
 31
0
  0
LINE
  8
0
 62
7
 10
1.99201516268799
 20
5.007845933513241
 30
0
 11
1.99741516268799
 21
5.013845933513241
 31
0
  0
LINE
  8
0
 62
7
 10
1.99741516268799
 20
5.013845933513241
 30
0
 11
2.00281516268799
 21
5.022845933513241
 31
0
  0
LINE
  8
0
 62
7
 10
2.00281516268799
 20
5.022845933513241
 30
0
 11
2.00551516268799
 21
5.034845933513242
 31
0
  0
LINE
  8
0
 62
7
 10
2.00551516268799
 20
5.034845933513242
 30
0
 11
2.00551516268799
 21
5.058845933513241
 31
0
  0
LINE
  8
0
 62
7
 10
2.00551516268799
 20
5.058845933513241
 30
0
 11
1.97311516268799
 21
5.058845933513241
 31
0
  0
LINE
  8
0
 62
7
 10
2.08381516268799
 20
5.11884593351324
 30
0
 11
2.06761516268799
 21
5.11884593351324
 31
0
  0
LINE
  8
0
 62
7
 10
2.06761516268799
 20
5.11884593351324
 30
0
 11
2.05951516268799
 21
5.115845933513239
 31
0
  0
LINE
  8
0
 62
7
 10
2.05951516268799
 20
5.115845933513239
 30
0
 11
2.05141516268799
 21
5.109845933513242
 31
0
  0
LINE
  8
0
 62
7
 10
2.05141516268799
 20
5.109845933513242
 30
0
 11
2.04601516268799
 21
5.103845933513241
 31
0
  0
LINE
  8
0
 62
7
 10
2.04601516268799
 20
5.103845933513241
 30
0
 11
2.04061516268799
 21
5.094845933513241
 31
0
  0
LINE
  8
0
 62
7
 10
2.04061516268799
 20
5.094845933513241
 30
0
 11
2.03791516268799
 21
5.082845933513241
 31
0
  0
LINE
  8
0
 62
7
 10
2.03791516268799
 20
5.082845933513241
 30
0
 11
2.03791516268799
 21
5.034845933513242
 31
0
  0
LINE
  8
0
 62
7
 10
2.03791516268799
 20
5.034845933513242
 30
0
 11
2.04061516268799
 21
5.022845933513241
 31
0
  0
LINE
  8
0
 62
7
 10
2.04061516268799
 20
5.022845933513241
 30
0
 11
2.04601516268799
 21
5.013845933513241
 31
0
  0
LINE
  8
0
 62
7
 10
2.04601516268799
 20
5.013845933513241
 30
0
 11
2.05141516268799
 21
5.007845933513241
 31
0
  0
LINE
  8
0
 62
7
 10
2.05141516268799
 20
5.007845933513241
 30
0
 11
2.05951516268799
 21
5.001845933513241
 31
0
  0
LINE
  8
0
 62
7
 10
2.05951516268799
 20
5.001845933513241
 30
0
 11
2.06761516268799
 21
4.998845933513241
 31
0
  0
LINE
  8
0
 62
7
 10
2.06761516268799
 20
4.998845933513241
 30
0
 11
2.08381516268799
 21
4.998845933513241
 31
0
  0
LINE
  8
0
 62
7
 10
2.08381516268799
 20
4.998845933513241
 30
0
 11
2.09191516268799
 21
5.001845933513241
 31
0
  0
LINE
  8
0
 62
7
 10
2.09191516268799
 20
5.001845933513241
 30
0
 11
2.10001516268799
 21
5.007845933513241
 31
0
  0
LINE
  8
0
 62
7
 10
2.10001516268799
 20
5.007845933513241
 30
0
 11
2.10541516268799
 21
5.013845933513241
 31
0
  0
LINE
  8
0
 62
7
 10
2.10541516268799
 20
5.013845933513241
 30
0
 11
2.11081516268799
 21
5.022845933513241
 31
0
  0
LINE
  8
0
 62
7
 10
2.11081516268799
 20
5.022845933513241
 30
0
 11
2.11351516268799
 21
5.034845933513242
 31
0
  0
LINE
  8
0
 62
7
 10
2.11351516268799
 20
5.034845933513242
 30
0
 11
2.11351516268799
 21
5.082845933513241
 31
0
  0
LINE
  8
0
 62
7
 10
2.11351516268799
 20
5.082845933513241
 30
0
 11
2.11081516268799
 21
5.094845933513241
 31
0
  0
LINE
  8
0
 62
7
 10
2.11081516268799
 20
5.094845933513241
 30
0
 11
2.10541516268799
 21
5.103845933513241
 31
0
  0
LINE
  8
0
 62
7
 10
2.10541516268799
 20
5.103845933513241
 30
0
 11
2.10001516268799
 21
5.109845933513242
 31
0
  0
LINE
  8
0
 62
7
 10
2.10001516268799
 20
5.109845933513242
 30
0
 11
2.09191516268799
 21
5.115845933513239
 31
0
  0
LINE
  8
0
 62
7
 10
2.09191516268799
 20
5.115845933513239
 30
0
 11
2.08381516268799
 21
5.11884593351324
 31
0
  0
LINE
  8
0
 62
7
 10
2.13511516268799
 20
5.11884593351324
 30
0
 11
2.17291516268799
 21
5.11884593351324
 31
0
  0
LINE
  8
0
 62
7
 10
2.17291516268799
 20
5.11884593351324
 30
0
 11
2.17291516268799
 21
4.998845933513241
 31
0
  0
LINE
  8
0
 62
7
 10
2.17291516268799
 20
5.11884593351324
 30
0
 11
2.21071516268799
 21
5.11884593351324
 31
0
  0
LINE
  8
0
 62
7
 10
2.24311516268799
 20
5.11884593351324
 30
0
 11
2.28091516268799
 21
5.11884593351324
 31
0
  0
LINE
  8
0
 62
7
 10
2.28091516268799
 20
5.11884593351324
 30
0
 11
2.28091516268799
 21
4.998845933513241
 31
0
  0
LINE
  8
0
 62
7
 10
2.28091516268799
 20
5.11884593351324
 30
0
 11
2.31871516268799
 21
5.11884593351324
 31
0
  0
LINE
  8
0
 62
7
 10
2.437515162687991
 20
5.040845933513239
 30
0
 11
2.49151516268799
 21
5.040845933513239
 31
0
  0
LINE
  8
0
 62
7
 10
2.599515162687991
 20
5.11884593351324
 30
0
 11
2.637315162687992
 21
5.11884593351324
 31
0
  0
LINE
  8
0
 62
7
 10
2.637315162687992
 20
5.11884593351324
 30
0
 11
2.637315162687992
 21
4.998845933513241
 31
0
  0
LINE
  8
0
 62
7
 10
2.637315162687992
 20
5.11884593351324
 30
0
 11
2.675115162687991
 21
5.11884593351324
 31
0
  0
LINE
  8
0
 62
7
 10
2.707515162687991
 20
4.998845933513241
 30
0
 11
2.707515162687991
 21
5.11884593351324
 31
0
  0
LINE
  8
0
 62
7
 10
2.707515162687991
 20
5.11884593351324
 30
0
 11
2.758815162687991
 21
5.11884593351324
 31
0
  0
LINE
  8
0
 62
7
 10
2.758815162687991
 20
5.11884593351324
 30
0
 11
2.769615162687991
 21
5.115845933513239
 31
0
  0
LINE
  8
0
 62
7
 10
2.769615162687991
 20
5.115845933513239
 30
0
 11
2.777715162687991
 21
5.109845933513242
 31
0
  0
LINE
  8
0
 62
7
 10
2.777715162687991
 20
5.109845933513242
 30
0
 11
2.780415162687991
 21
5.103845933513241
 31
0
  0
LINE
  8
0
 62
7
 10
2.780415162687991
 20
5.103845933513241
 30
0
 11
2.78311516268799
 21
5.094845933513241
 31
0
  0
LINE
  8
0
 62
7
 10
2.78311516268799
 20
5.094845933513241
 30
0
 11
2.78311516268799
 21
5.082845933513241
 31
0
  0
LINE
  8
0
 62
7
 10
2.78311516268799
 20
5.082845933513241
 30
0
 11
2.780415162687991
 21
5.07384593351324
 31
0
  0
LINE
  8
0
 62
7
 10
2.780415162687991
 20
5.07384593351324
 30
0
 11
2.777715162687991
 21
5.06784593351324
 31
0
  0
LINE
  8
0
 62
7
 10
2.777715162687991
 20
5.06784593351324
 30
0
 11
2.769615162687991
 21
5.061845933513242
 31
0
  0
LINE
  8
0
 62
7
 10
2.769615162687991
 20
5.061845933513242
 30
0
 11
2.758815162687991
 21
5.058845933513241
 31
0
  0
LINE
  8
0
 62
7
 10
2.758815162687991
 20
5.058845933513241
 30
0
 11
2.75071516268799
 21
5.058845933513241
 31
0
  0
LINE
  8
0
 62
7
 10
2.75071516268799
 20
5.058845933513241
 30
0
 11
2.78311516268799
 21
4.998845933513241
 31
0
  0
LINE
  8
0
 62
7
 10
2.75071516268799
 20
5.058845933513241
 30
0
 11
2.707515162687991
 21
5.058845933513241
 31
0
  0
LINE
  8
0
 62
7
 10
2.880315162687991
 20
5.11884593351324
 30
0
 11
2.804715162687991
 21
5.11884593351324
 31
0
  0
LINE
  8
0
 62
7
 10
2.804715162687991
 20
5.11884593351324
 30
0
 11
2.804715162687991
 21
5.058845933513241
 31
0
  0
LINE
  8
0
 62
7
 10
2.804715162687991
 20
4.998845933513241
 30
0
 11
2.880315162687991
 21
4.998845933513241
 31
0
  0
LINE
  8
0
 62
7
 10
2.869515162687991
 20
5.058845933513241
 30
0
 11
2.804715162687991
 21
5.058845933513241
 31
0
  0
LINE
  8
0
 62
7
 10
2.804715162687991
 20
5.058845933513241
 30
0
 11
2.804715162687991
 21
4.998845933513241
 31
0
  0
LINE
  8
0
 62
7
 10
2.912715162687991
 20
4.998845933513241
 30
0
 11
2.912715162687991
 21
5.058845933513241
 31
0
  0
LINE
  8
0
 62
7
 10
2.912715162687991
 20
5.11884593351324
 30
0
 11
2.964015162687992
 21
5.11884593351324
 31
0
  0
LINE
  8
0
 62
7
 10
2.964015162687992
 20
5.11884593351324
 30
0
 11
2.974815162687992
 21
5.115845933513239
 31
0
  0
LINE
  8
0
 62
7
 10
2.974815162687992
 20
5.115845933513239
 30
0
 11
2.982915162687991
 21
5.109845933513242
 31
0
  0
LINE
  8
0
 62
7
 10
2.982915162687991
 20
5.109845933513242
 30
0
 11
2.98561516268799
 21
5.103845933513241
 31
0
  0
LINE
  8
0
 62
7
 10
2.98561516268799
 20
5.103845933513241
 30
0
 11
2.988315162687991
 21
5.094845933513241
 31
0
  0
LINE
  8
0
 62
7
 10
2.988315162687991
 20
5.094845933513241
 30
0
 11
2.988315162687991
 21
5.082845933513241
 31
0
  0
LINE
  8
0
 62
7
 10
2.988315162687991
 20
5.082845933513241
 30
0
 11
2.98561516268799
 21
5.07384593351324
 31
0
  0
LINE
  8
0
 62
7
 10
2.98561516268799
 20
5.07384593351324
 30
0
 11
2.982915162687991
 21
5.06784593351324
 31
0
  0
LINE
  8
0
 62
7
 10
2.982915162687991
 20
5.06784593351324
 30
0
 11
2.974815162687992
 21
5.061845933513242
 31
0
  0
LINE
  8
0
 62
7
 10
2.974815162687992
 20
5.061845933513242
 30
0
 11
2.964015162687992
 21
5.058845933513241
 31
0
  0
LINE
  8
0
 62
7
 10
2.964015162687992
 20
5.058845933513241
 30
0
 11
2.912715162687991
 21
5.058845933513241
 31
0
  0
LINE
  8
0
 62
7
 10
2.912715162687991
 20
5.058845933513241
 30
0
 11
2.912715162687991
 21
5.11884593351324
 31
0
  0
LINE
  8
0
 62
7
 10
3.00991516268799
 20
4.998845933513241
 30
0
 11
3.00991516268799
 21
5.058845933513241
 31
0
  0
LINE
  8
0
 62
7
 10
3.00991516268799
 20
5.11884593351324
 30
0
 11
3.06121516268799
 21
5.11884593351324
 31
0
  0
LINE
  8
0
 62
7
 10
3.06121516268799
 20
5.11884593351324
 30
0
 11
3.07201516268799
 21
5.115845933513239
 31
0
  0
LINE
  8
0
 62
7
 10
3.07201516268799
 20
5.115845933513239
 30
0
 11
3.08011516268799
 21
5.109845933513242
 31
0
  0
LINE
  8
0
 62
7
 10
3.08011516268799
 20
5.109845933513242
 30
0
 11
3.082815162687991
 21
5.103845933513241
 31
0
  0
LINE
  8
0
 62
7
 10
3.082815162687991
 20
5.103845933513241
 30
0
 11
3.08551516268799
 21
5.094845933513241
 31
0
  0
LINE
  8
0
 62
7
 10
3.08551516268799
 20
5.094845933513241
 30
0
 11
3.08551516268799
 21
5.082845933513241
 31
0
  0
LINE
  8
0
 62
7
 10
3.08551516268799
 20
5.082845933513241
 30
0
 11
3.082815162687991
 21
5.07384593351324
 31
0
  0
LINE
  8
0
 62
7
 10
3.082815162687991
 20
5.07384593351324
 30
0
 11
3.08011516268799
 21
5.06784593351324
 31
0
  0
LINE
  8
0
 62
7
 10
3.08011516268799
 20
5.06784593351324
 30
0
 11
3.07201516268799
 21
5.061845933513242
 31
0
  0
LINE
  8
0
 62
7
 10
3.07201516268799
 20
5.061845933513242
 30
0
 11
3.06121516268799
 21
5.058845933513241
 31
0
  0
LINE
  8
0
 62
7
 10
3.06121516268799
 20
5.058845933513241
 30
0
 11
3.00991516268799
 21
5.058845933513241
 31
0
  0
LINE
  8
0
 62
7
 10
3.00991516268799
 20
5.058845933513241
 30
0
 11
3.00991516268799
 21
5.11884593351324
 31
0
  0
LINE
  8
0
 62
7
 10
3.182715162687991
 20
5.11884593351324
 30
0
 11
3.107115162687991
 21
5.11884593351324
 31
0
  0
LINE
  8
0
 62
7
 10
3.107115162687991
 20
5.11884593351324
 30
0
 11
3.107115162687991
 21
5.058845933513241
 31
0
  0
LINE
  8
0
 62
7
 10
3.107115162687991
 20
4.998845933513241
 30
0
 11
3.182715162687991
 21
4.998845933513241
 31
0
  0
LINE
  8
0
 62
7
 10
3.171915162687991
 20
5.058845933513241
 30
0
 11
3.107115162687991
 21
5.058845933513241
 31
0
  0
LINE
  8
0
 62
7
 10
3.107115162687991
 20
5.058845933513241
 30
0
 11
3.107115162687991
 21
4.998845933513241
 31
0
  0
LINE
  8
0
 62
7
 10
0.525
 20
3.01
 30
0
 11
0.6006
 21
3.01
 31
0
  0
LINE
  8
0
 62
7
 10
0.6006
 20
3.01
 30
0
 11
0.525
 21
2.890000000000001
 31
0
  0
LINE
  8
0
 62
7
 10
0.525
 20
2.890000000000001
 30
0
 11
0.6006
 21
2.890000000000001
 31
0
  0
LINE
  8
0
 62
7
 10
0.633
 20
3.01
 30
0
 11
0.633
 21
2.95
 31
0
  0
LINE
  8
0
 62
7
 10
0.633
 20
2.95
 30
0
 11
0.7086000000000001
 21
2.95
 31
0
  0
LINE
  8
0
 62
7
 10
0.7086000000000001
 20
3.01
 30
0
 11
0.7086000000000001
 21
2.95
 31
0
  0
LINE
  8
0
 62
7
 10
0.7086000000000001
 20
2.95
 30
0
 11
0.7086000000000001
 21
2.890000000000001
 31
0
  0
LINE
  8
0
 62
7
 10
0.633
 20
2.95
 30
0
 11
0.633
 21
2.890000000000001
 31
0
  0
LINE
  8
0
 62
7
 10
0.7410000000000001
 20
3.01
 30
0
 11
0.7707000000000002
 21
2.890000000000001
 31
0
  0
LINE
  8
0
 62
7
 10
0.7707000000000002
 20
2.890000000000001
 30
0
 11
0.795
 21
3.01
 31
0
  0
LINE
  8
0
 62
7
 10
0.795
 20
3.01
 30
0
 11
0.8193000000000001
 21
2.890000000000001
 31
0
  0
LINE
  8
0
 62
7
 10
0.8193000000000001
 20
2.890000000000001
 30
0
 11
0.8490000000000001
 21
3.01
 31
0
  0
LINE
  8
0
 62
7
 10
0.8706000000000002
 20
2.992
 30
0
 11
0.8760000000000002
 21
3.001
 31
0
  0
LINE
  8
0
 62
7
 10
0.8760000000000002
 20
3.001
 30
0
 11
0.8841000000000001
 21
3.007
 31
0
  0
LINE
  8
0
 62
7
 10
0.8841000000000001
 20
3.007
 30
0
 11
0.8949000000000003
 21
3.01
 31
0
  0
LINE
  8
0
 62
7
 10
0.8949000000000003
 20
3.01
 30
0
 11
0.9111000000000002
 21
3.01
 31
0
  0
LINE
  8
0
 62
7
 10
0.9111000000000002
 20
3.01
 30
0
 11
0.9218999999999999
 21
3.007
 31
0
  0
LINE
  8
0
 62
7
 10
0.9218999999999999
 20
3.007
 30
0
 11
0.9300000000000002
 21
3.001
 31
0
  0
LINE
  8
0
 62
7
 10
0.9300000000000002
 20
3.001
 30
0
 11
0.9354000000000001
 21
2.992
 31
0
  0
LINE
  8
0
 62
7
 10
0.9354000000000001
 20
2.992
 30
0
 11
0.9354000000000001
 21
2.98
 31
0
  0
LINE
  8
0
 62
7
 10
0.9354000000000001
 20
2.98
 30
0
 11
0.9300000000000002
 21
2.968
 31
0
  0
LINE
  8
0
 62
7
 10
0.9300000000000002
 20
2.968
 30
0
 11
0.8706000000000002
 21
2.890000000000001
 31
0
  0
LINE
  8
0
 62
7
 10
0.8706000000000002
 20
2.890000000000001
 30
0
 11
0.9354000000000001
 21
2.890000000000001
 31
0
  0
LINE
  8
0
 62
7
 10
0.9678
 20
2.974
 30
0
 11
1.0002
 21
3.01
 31
0
  0
LINE
  8
0
 62
7
 10
1.0002
 20
3.01
 30
0
 11
1.0002
 21
2.890000000000001
 31
0
  0
LINE
  8
0
 62
7
 10
1.0326
 20
2.992
 30
0
 11
1.038
 21
3.001
 31
0
  0
LINE
  8
0
 62
7
 10
1.038
 20
3.001
 30
0
 11
1.0461
 21
3.007
 31
0
  0
LINE
  8
0
 62
7
 10
1.0461
 20
3.007
 30
0
 11
1.0569
 21
3.01
 31
0
  0
LINE
  8
0
 62
7
 10
1.0569
 20
3.01
 30
0
 11
1.0731
 21
3.01
 31
0
  0
LINE
  8
0
 62
7
 10
1.0731
 20
3.01
 30
0
 11
1.0812
 21
3.007
 31
0
  0
LINE
  8
0
 62
7
 10
1.0812
 20
3.007
 30
0
 11
1.0893
 21
3.001
 31
0
  0
LINE
  8
0
 62
7
 10
1.0893
 20
3.001
 30
0
 11
1.0947
 21
2.992
 31
0
  0
LINE
  8
0
 62
7
 10
1.0947
 20
2.992
 30
0
 11
1.0974
 21
2.98
 31
0
  0
LINE
  8
0
 62
7
 10
1.0974
 20
2.98
 30
0
 11
1.0974
 21
2.971
 31
0
  0
LINE
  8
0
 62
7
 10
1.0974
 20
2.971
 30
0
 11
1.0947
 21
2.962
 31
0
  0
LINE
  8
0
 62
7
 10
1.0947
 20
2.962
 30
0
 11
1.0893
 21
2.956
 31
0
  0
LINE
  8
0
 62
7
 10
1.0893
 20
2.956
 30
0
 11
1.0758
 21
2.95
 31
0
  0
LINE
  8
0
 62
7
 10
1.0569
 20
2.95
 30
0
 11
1.0758
 21
2.95
 31
0
  0
LINE
  8
0
 62
7
 10
1.0758
 20
2.95
 30
0
 11
1.0893
 21
2.944
 31
0
  0
LINE
  8
0
 62
7
 10
1.0893
 20
2.944
 30
0
 11
1.0947
 21
2.938
 31
0
  0
LINE
  8
0
 62
7
 10
1.0947
 20
2.938
 30
0
 11
1.0974
 21
2.929
 31
0
  0
LINE
  8
0
 62
7
 10
1.0974
 20
2.929
 30
0
 11
1.0974
 21
2.92
 31
0
  0
LINE
  8
0
 62
7
 10
1.0974
 20
2.92
 30
0
 11
1.0947
 21
2.908
 31
0
  0
LINE
  8
0
 62
7
 10
1.0947
 20
2.908
 30
0
 11
1.0893
 21
2.899
 31
0
  0
LINE
  8
0
 62
7
 10
1.0893
 20
2.899
 30
0
 11
1.0812
 21
2.893
 31
0
  0
LINE
  8
0
 62
7
 10
1.0812
 20
2.893
 30
0
 11
1.0731
 21
2.890000000000001
 31
0
  0
LINE
  8
0
 62
7
 10
1.0731
 20
2.890000000000001
 30
0
 11
1.0569
 21
2.890000000000001
 31
0
  0
LINE
  8
0
 62
7
 10
1.0569
 20
2.890000000000001
 30
0
 11
1.0461
 21
2.893
 31
0
  0
LINE
  8
0
 62
7
 10
1.0461
 20
2.893
 30
0
 11
1.038
 21
2.899
 31
0
  0
LINE
  8
0
 62
7
 10
1.038
 20
2.899
 30
0
 11
1.0326
 21
2.908
 31
0
  0
LINE
  8
0
 62
7
 10
1.1946
 20
2.890000000000001
 30
0
 11
1.1298
 21
2.890000000000001
 31
0
  0
LINE
  8
0
 62
7
 10
1.1298
 20
2.890000000000001
 30
0
 11
1.1298
 21
3.01
 31
0
  0
LINE
  8
0
 62
7
 10
1.227
 20
2.938
 30
0
 11
1.2297
 21
2.95
 31
0
  0
LINE
  8
0
 62
7
 10
1.2297
 20
2.95
 30
0
 11
1.2351
 21
2.959
 31
0
  0
LINE
  8
0
 62
7
 10
1.2351
 20
2.959
 30
0
 11
1.2432
 21
2.965
 31
0
  0
LINE
  8
0
 62
7
 10
1.2432
 20
2.965
 30
0
 11
1.2513
 21
2.968
 31
0
  0
LINE
  8
0
 62
7
 10
1.2513
 20
2.968
 30
0
 11
1.2675
 21
2.968
 31
0
  0
LINE
  8
0
 62
7
 10
1.2675
 20
2.968
 30
0
 11
1.2756
 21
2.965
 31
0
  0
LINE
  8
0
 62
7
 10
1.2756
 20
2.965
 30
0
 11
1.2837
 21
2.959
 31
0
  0
LINE
  8
0
 62
7
 10
1.2837
 20
2.959
 30
0
 11
1.2891
 21
2.95
 31
0
  0
LINE
  8
0
 62
7
 10
1.2891
 20
2.95
 30
0
 11
1.2918
 21
2.938
 31
0
  0
LINE
  8
0
 62
7
 10
1.2918
 20
2.938
 30
0
 11
1.2918
 21
2.92
 31
0
  0
LINE
  8
0
 62
7
 10
1.2918
 20
2.92
 30
0
 11
1.2891
 21
2.908
 31
0
  0
LINE
  8
0
 62
7
 10
1.2891
 20
2.908
 30
0
 11
1.2837
 21
2.899
 31
0
  0
LINE
  8
0
 62
7
 10
1.2837
 20
2.899
 30
0
 11
1.2756
 21
2.893
 31
0
  0
LINE
  8
0
 62
7
 10
1.2756
 20
2.893
 30
0
 11
1.2675
 21
2.890000000000001
 31
0
  0
LINE
  8
0
 62
7
 10
1.2675
 20
2.890000000000001
 30
0
 11
1.2513
 21
2.890000000000001
 31
0
  0
LINE
  8
0
 62
7
 10
1.2513
 20
2.890000000000001
 30
0
 11
1.2432
 21
2.893
 31
0
  0
LINE
  8
0
 62
7
 10
1.2432
 20
2.893
 30
0
 11
1.2351
 21
2.899
 31
0
  0
LINE
  8
0
 62
7
 10
1.2351
 20
2.899
 30
0
 11
1.2297
 21
2.908
 31
0
  0
LINE
  8
0
 62
7
 10
1.2297
 20
2.908
 30
0
 11
1.227
 21
2.92
 31
0
  0
LINE
  8
0
 62
7
 10
1.227
 20
2.92
 30
0
 11
1.227
 21
2.938
 31
0
  0
LINE
  8
0
 62
7
 10
1.227
 20
2.98
 30
0
 11
1.2297
 21
2.992
 31
0
  0
LINE
  8
0
 62
7
 10
1.2297
 20
2.992
 30
0
 11
1.2351
 21
3.001
 31
0
  0
LINE
  8
0
 62
7
 10
1.2351
 20
3.001
 30
0
 11
1.2432
 21
3.007
 31
0
  0
LINE
  8
0
 62
7
 10
1.2432
 20
3.007
 30
0
 11
1.2513
 21
3.01
 31
0
  0
LINE
  8
0
 62
7
 10
1.2513
 20
3.01
 30
0
 11
1.2675
 21
3.01
 31
0
  0
LINE
  8
0
 62
7
 10
1.2675
 20
3.01
 30
0
 11
1.2756
 21
3.007
 31
0
  0
LINE
  8
0
 62
7
 10
1.2756
 20
3.007
 30
0
 11
1.2837
 21
3.001
 31
0
  0
LINE
  8
0
 62
7
 10
1.2837
 20
3.001
 30
0
 11
1.2891
 21
2.992
 31
0
  0
LINE
  8
0
 62
7
 10
1.227
 20
2.938
 30
0
 11
1.227
 21
2.98
 31
0
  0
LINE
  8
0
 62
7
 10
3.025
 20
2.890000000000001
 30
0
 11
3.025
 21
2.99
 31
0
  0
LINE
  8
0
 62
7
 10
3.025
 20
2.99
 30
0
 11
3.088
 21
2.890000000000001
 31
0
  0
LINE
  8
0
 62
7
 10
3.088
 20
2.890000000000001
 30
0
 11
3.088
 21
2.99
 31
0
  0
LINE
  8
0
 62
7
 10
3.169
 20
2.890000000000001
 30
0
 11
3.115
 21
2.890000000000001
 31
0
  0
LINE
  8
0
 62
7
 10
3.115
 20
2.890000000000001
 30
0
 11
3.115
 21
2.99
 31
0
  0
LINE
  8
0
 62
7
 10
3.196
 20
2.94
 30
0
 11
3.232
 21
2.94
 31
0
  0
LINE
  8
0
 62
7
 10
3.232
 20
2.94
 30
0
 11
3.2365
 21
2.94
 31
0
  0
LINE
  8
0
 62
7
 10
3.2365
 20
2.94
 30
0
 11
3.2455
 21
2.935
 31
0
  0
LINE
  8
0
 62
7
 10
3.2455
 20
2.935
 30
0
 11
3.25
 21
2.93
 31
0
  0
LINE
  8
0
 62
7
 10
3.25
 20
2.93
 30
0
 11
3.2545
 21
2.92
 31
0
  0
LINE
  8
0
 62
7
 10
3.2545
 20
2.92
 30
0
 11
3.2545
 21
2.91
 31
0
  0
LINE
  8
0
 62
7
 10
3.2545
 20
2.91
 30
0
 11
3.25
 21
2.9
 31
0
  0
LINE
  8
0
 62
7
 10
3.25
 20
2.9
 30
0
 11
3.2455
 21
2.895
 31
0
  0
LINE
  8
0
 62
7
 10
3.2455
 20
2.895
 30
0
 11
3.2365
 21
2.890000000000001
 31
0
  0
LINE
  8
0
 62
7
 10
3.2365
 20
2.890000000000001
 30
0
 11
3.196
 21
2.890000000000001
 31
0
  0
LINE
  8
0
 62
7
 10
3.196
 20
2.890000000000001
 30
0
 11
3.196
 21
2.94
 31
0
  0
LINE
  8
0
 62
7
 10
3.196
 20
2.99
 30
0
 11
3.22975
 21
2.99
 31
0
  0
LINE
  8
0
 62
7
 10
3.22975
 20
2.99
 30
0
 11
3.241000000000001
 21
2.9875
 31
0
  0
LINE
  8
0
 62
7
 10
3.241000000000001
 20
2.9875
 30
0
 11
3.24775
 21
2.98
 31
0
  0
LINE
  8
0
 62
7
 10
3.24775
 20
2.98
 30
0
 11
3.25
 21
2.97
 31
0
  0
LINE
  8
0
 62
7
 10
3.25
 20
2.97
 30
0
 11
3.25
 21
2.96
 31
0
  0
LINE
  8
0
 62
7
 10
3.25
 20
2.96
 30
0
 11
3.2455
 21
2.95
 31
0
  0
LINE
  8
0
 62
7
 10
3.2455
 20
2.95
 30
0
 11
3.23875
 21
2.9425
 31
0
  0
LINE
  8
0
 62
7
 10
3.23875
 20
2.9425
 30
0
 11
3.232
 21
2.94
 31
0
  0
LINE
  8
0
 62
7
 10
3.196
 20
2.94
 30
0
 11
3.196
 21
2.99
 31
0
  0
LINE
  8
0
 62
7
 10
3.39625
 20
2.9425
 30
0
 11
3.3895
 21
2.952500000000001
 31
0
  0
LINE
  8
0
 62
7
 10
3.3895
 20
2.952500000000001
 30
0
 11
3.38275
 21
2.9575
 31
0
  0
LINE
  8
0
 62
7
 10
3.38275
 20
2.9575
 30
0
 11
3.376
 21
2.96
 31
0
  0
LINE
  8
0
 62
7
 10
3.376
 20
2.96
 30
0
 11
3.367
 21
2.96
 31
0
  0
LINE
  8
0
 62
7
 10
3.367
 20
2.96
 30
0
 11
3.36025
 21
2.9575
 31
0
  0
LINE
  8
0
 62
7
 10
3.36025
 20
2.9575
 30
0
 11
3.3535
 21
2.952500000000001
 31
0
  0
LINE
  8
0
 62
7
 10
3.3535
 20
2.952500000000001
 30
0
 11
3.34675
 21
2.9425
 31
0
  0
LINE
  8
0
 62
7
 10
3.34675
 20
2.9425
 30
0
 11
3.3445
 21
2.935
 31
0
  0
LINE
  8
0
 62
7
 10
3.3445
 20
2.935
 30
0
 11
3.3445
 21
2.915
 31
0
  0
LINE
  8
0
 62
7
 10
3.3445
 20
2.915
 30
0
 11
3.34675
 21
2.9075
 31
0
  0
LINE
  8
0
 62
7
 10
3.34675
 20
2.9075
 30
0
 11
3.3535
 21
2.8975
 31
0
  0
LINE
  8
0
 62
7
 10
3.3535
 20
2.8975
 30
0
 11
3.36025
 21
2.8925
 31
0
  0
LINE
  8
0
 62
7
 10
3.36025
 20
2.8925
 30
0
 11
3.367
 21
2.890000000000001
 31
0
  0
LINE
  8
0
 62
7
 10
3.367
 20
2.890000000000001
 30
0
 11
3.376
 21
2.890000000000001
 31
0
  0
LINE
  8
0
 62
7
 10
3.376
 20
2.890000000000001
 30
0
 11
3.38275
 21
2.8925
 31
0
  0
LINE
  8
0
 62
7
 10
3.38275
 20
2.8925
 30
0
 11
3.3895
 21
2.8975
 31
0
  0
LINE
  8
0
 62
7
 10
3.3895
 20
2.8975
 30
0
 11
3.39625
 21
2.9075
 31
0
  0
LINE
  8
0
 62
7
 10
3.46825
 20
2.935
 30
0
 11
3.466000000000001
 21
2.9425
 31
0
  0
LINE
  8
0
 62
7
 10
3.466000000000001
 20
2.9425
 30
0
 11
3.45925
 21
2.952500000000001
 31
0
  0
LINE
  8
0
 62
7
 10
3.45925
 20
2.952500000000001
 30
0
 11
3.4525
 21
2.9575
 31
0
  0
LINE
  8
0
 62
7
 10
3.4525
 20
2.9575
 30
0
 11
3.44575
 21
2.96
 31
0
  0
LINE
  8
0
 62
7
 10
3.44575
 20
2.96
 30
0
 11
3.43675
 21
2.96
 31
0
  0
LINE
  8
0
 62
7
 10
3.43675
 20
2.96
 30
0
 11
3.430000000000001
 21
2.9575
 31
0
  0
LINE
  8
0
 62
7
 10
3.430000000000001
 20
2.9575
 30
0
 11
3.42325
 21
2.952500000000001
 31
0
  0
LINE
  8
0
 62
7
 10
3.42325
 20
2.952500000000001
 30
0
 11
3.4165
 21
2.9425
 31
0
  0
LINE
  8
0
 62
7
 10
3.4165
 20
2.9425
 30
0
 11
3.41425
 21
2.935
 31
0
  0
LINE
  8
0
 62
7
 10
3.41425
 20
2.935
 30
0
 11
3.41425
 21
2.915
 31
0
  0
LINE
  8
0
 62
7
 10
3.41425
 20
2.915
 30
0
 11
3.4165
 21
2.9075
 31
0
  0
LINE
  8
0
 62
7
 10
3.4165
 20
2.9075
 30
0
 11
3.42325
 21
2.8975
 31
0
  0
LINE
  8
0
 62
7
 10
3.42325
 20
2.8975
 30
0
 11
3.430000000000001
 21
2.8925
 31
0
  0
LINE
  8
0
 62
7
 10
3.430000000000001
 20
2.8925
 30
0
 11
3.43675
 21
2.890000000000001
 31
0
  0
LINE
  8
0
 62
7
 10
3.43675
 20
2.890000000000001
 30
0
 11
3.44575
 21
2.890000000000001
 31
0
  0
LINE
  8
0
 62
7
 10
3.44575
 20
2.890000000000001
 30
0
 11
3.4525
 21
2.8925
 31
0
  0
LINE
  8
0
 62
7
 10
3.4525
 20
2.8925
 30
0
 11
3.45925
 21
2.8975
 31
0
  0
LINE
  8
0
 62
7
 10
3.45925
 20
2.8975
 30
0
 11
3.466000000000001
 21
2.9075
 31
0
  0
LINE
  8
0
 62
7
 10
3.466000000000001
 20
2.9075
 30
0
 11
3.46825
 21
2.915
 31
0
  0
LINE
  8
0
 62
7
 10
3.46825
 20
2.96
 30
0
 11
3.46825
 21
2.935
 31
0
  0
LINE
  8
0
 62
7
 10
3.46825
 20
2.8925
 30
0
 11
3.4705
 21
2.890000000000001
 31
0
  0
LINE
  8
0
 62
7
 10
3.4705
 20
2.890000000000001
 30
0
 11
3.47275
 21
2.890000000000001
 31
0
  0
LINE
  8
0
 62
7
 10
3.46825
 20
2.915
 30
0
 11
3.46825
 21
2.8925
 31
0
  0
LINE
  8
0
 62
7
 10
3.46825
 20
2.935
 30
0
 11
3.46825
 21
2.915
 31
0
  0
LINE
  8
0
 62
7
 10
3.49075
 20
2.890000000000001
 30
0
 11
3.49075
 21
2.8925
 31
0
  0
LINE
  8
0
 62
7
 10
3.49075
 20
2.8925
 30
0
 11
3.493
 21
2.8925
 31
0
  0
LINE
  8
0
 62
7
 10
3.493
 20
2.8925
 30
0
 11
3.493
 21
2.890000000000001
 31
0
  0
LINE
  8
0
 62
7
 10
3.493
 20
2.890000000000001
 30
0
 11
3.49075
 21
2.890000000000001
 31
0
  0
LINE
  8
0
 62
7
 10
3.616750000000001
 20
2.99
 30
0
 11
3.62575
 21
2.99
 31
0
  0
LINE
  8
0
 62
7
 10
3.62575
 20
2.99
 30
0
 11
3.6325
 21
2.9875
 31
0
  0
LINE
  8
0
 62
7
 10
3.6325
 20
2.9875
 30
0
 11
3.637
 21
2.9825
 31
0
  0
LINE
  8
0
 62
7
 10
3.637
 20
2.9825
 30
0
 11
3.6415
 21
2.975
 31
0
  0
LINE
  8
0
 62
7
 10
3.6415
 20
2.975
 30
0
 11
3.6415
 21
2.965
 31
0
  0
LINE
  8
0
 62
7
 10
3.6415
 20
2.965
 30
0
 11
3.63925
 21
2.96
 31
0
  0
LINE
  8
0
 62
7
 10
3.63925
 20
2.96
 30
0
 11
3.6325
 21
2.952500000000001
 31
0
  0
LINE
  8
0
 62
7
 10
3.6325
 20
2.952500000000001
 30
0
 11
3.62575
 21
2.95
 31
0
  0
LINE
  8
0
 62
7
 10
3.62575
 20
2.95
 30
0
 11
3.616750000000001
 21
2.95
 31
0
  0
LINE
  8
0
 62
7
 10
3.616750000000001
 20
2.95
 30
0
 11
3.61
 21
2.952500000000001
 31
0
  0
LINE
  8
0
 62
7
 10
3.61
 20
2.952500000000001
 30
0
 11
3.60325
 21
2.96
 31
0
  0
LINE
  8
0
 62
7
 10
3.60325
 20
2.96
 30
0
 11
3.601
 21
2.965
 31
0
  0
LINE
  8
0
 62
7
 10
3.601
 20
2.965
 30
0
 11
3.601
 21
2.975
 31
0
  0
LINE
  8
0
 62
7
 10
3.601
 20
2.975
 30
0
 11
3.6055
 21
2.9825
 31
0
  0
LINE
  8
0
 62
7
 10
3.6055
 20
2.9825
 30
0
 11
3.61
 21
2.9875
 31
0
  0
LINE
  8
0
 62
7
 10
3.61
 20
2.9875
 30
0
 11
3.616750000000001
 21
2.99
 31
0
  0
LINE
  8
0
 62
7
 10
3.616750000000001
 20
2.95
 30
0
 11
3.6055
 21
2.945
 31
0
  0
LINE
  8
0
 62
7
 10
3.6055
 20
2.945
 30
0
 11
3.598750000000001
 21
2.9375
 31
0
  0
LINE
  8
0
 62
7
 10
3.598750000000001
 20
2.9375
 30
0
 11
3.594250000000001
 21
2.9275
 31
0
  0
LINE
  8
0
 62
7
 10
3.594250000000001
 20
2.9275
 30
0
 11
3.594250000000001
 21
2.9125
 31
0
  0
LINE
  8
0
 62
7
 10
3.594250000000001
 20
2.9125
 30
0
 11
3.598750000000001
 21
2.9025
 31
0
  0
LINE
  8
0
 62
7
 10
3.598750000000001
 20
2.9025
 30
0
 11
3.6055
 21
2.895
 31
0
  0
LINE
  8
0
 62
7
 10
3.6055
 20
2.895
 30
0
 11
3.6145
 21
2.890000000000001
 31
0
  0
LINE
  8
0
 62
7
 10
3.6145
 20
2.890000000000001
 30
0
 11
3.628
 21
2.890000000000001
 31
0
  0
LINE
  8
0
 62
7
 10
3.628
 20
2.890000000000001
 30
0
 11
3.637
 21
2.895
 31
0
  0
LINE
  8
0
 62
7
 10
3.637
 20
2.895
 30
0
 11
3.64375
 21
2.9025
 31
0
  0
LINE
  8
0
 62
7
 10
3.64375
 20
2.9025
 30
0
 11
3.64825
 21
2.9125
 31
0
  0
LINE
  8
0
 62
7
 10
3.64825
 20
2.9125
 30
0
 11
3.64825
 21
2.9275
 31
0
  0
LINE
  8
0
 62
7
 10
3.64825
 20
2.9275
 30
0
 11
3.64375
 21
2.9375
 31
0
  0
LINE
  8
0
 62
7
 10
3.64375
 20
2.9375
 30
0
 11
3.637
 21
2.945
 31
0
  0
LINE
  8
0
 62
7
 10
3.637
 20
2.945
 30
0
 11
3.62575
 21
2.95
 31
0
  0
LINE
  8
0
 62
7
 10
3.73825
 20
2.95
 30
0
 11
3.736
 21
2.94
 31
0
  0
LINE
  8
0
 62
7
 10
3.736
 20
2.94
 30
0
 11
3.7315
 21
2.9325
 31
0
  0
LINE
  8
0
 62
7
 10
3.7315
 20
2.9325
 30
0
 11
3.72475
 21
2.9275
 31
0
  0
LINE
  8
0
 62
7
 10
3.72475
 20
2.9275
 30
0
 11
3.718
 21
2.925
 31
0
  0
LINE
  8
0
 62
7
 10
3.718
 20
2.925
 30
0
 11
3.7045
 21
2.925
 31
0
  0
LINE
  8
0
 62
7
 10
3.7045
 20
2.925
 30
0
 11
3.69775
 21
2.9275
 31
0
  0
LINE
  8
0
 62
7
 10
3.69775
 20
2.9275
 30
0
 11
3.691000000000001
 21
2.9325
 31
0
  0
LINE
  8
0
 62
7
 10
3.691000000000001
 20
2.9325
 30
0
 11
3.686500000000001
 21
2.94
 31
0
  0
LINE
  8
0
 62
7
 10
3.686500000000001
 20
2.94
 30
0
 11
3.68425
 21
2.95
 31
0
  0
LINE
  8
0
 62
7
 10
3.68425
 20
2.95
 30
0
 11
3.68425
 21
2.965
 31
0
  0
LINE
  8
0
 62
7
 10
3.68425
 20
2.965
 30
0
 11
3.686500000000001
 21
2.975
 31
0
  0
LINE
  8
0
 62
7
 10
3.686500000000001
 20
2.975
 30
0
 11
3.691000000000001
 21
2.9825
 31
0
  0
LINE
  8
0
 62
7
 10
3.691000000000001
 20
2.9825
 30
0
 11
3.69775
 21
2.9875
 31
0
  0
LINE
  8
0
 62
7
 10
3.69775
 20
2.9875
 30
0
 11
3.7045
 21
2.99
 31
0
  0
LINE
  8
0
 62
7
 10
3.7045
 20
2.99
 30
0
 11
3.718
 21
2.99
 31
0
  0
LINE
  8
0
 62
7
 10
3.718
 20
2.99
 30
0
 11
3.72475
 21
2.9875
 31
0
  0
LINE
  8
0
 62
7
 10
3.72475
 20
2.9875
 30
0
 11
3.7315
 21
2.9825
 31
0
  0
LINE
  8
0
 62
7
 10
3.7315
 20
2.9825
 30
0
 11
3.736
 21
2.975
 31
0
  0
LINE
  8
0
 62
7
 10
3.736
 20
2.975
 30
0
 11
3.73825
 21
2.965
 31
0
  0
LINE
  8
0
 62
7
 10
3.73825
 20
2.965
 30
0
 11
3.73825
 21
2.95
 31
0
  0
LINE
  8
0
 62
7
 10
3.73825
 20
2.915
 30
0
 11
3.736
 21
2.905
 31
0
  0
LINE
  8
0
 62
7
 10
3.736
 20
2.905
 30
0
 11
3.7315
 21
2.8975
 31
0
  0
LINE
  8
0
 62
7
 10
3.7315
 20
2.8975
 30
0
 11
3.72475
 21
2.8925
 31
0
  0
LINE
  8
0
 62
7
 10
3.72475
 20
2.8925
 30
0
 11
3.718
 21
2.890000000000001
 31
0
  0
LINE
  8
0
 62
7
 10
3.718
 20
2.890000000000001
 30
0
 11
3.7045
 21
2.890000000000001
 31
0
  0
LINE
  8
0
 62
7
 10
3.7045
 20
2.890000000000001
 30
0
 11
3.69775
 21
2.8925
 31
0
  0
LINE
  8
0
 62
7
 10
3.69775
 20
2.8925
 30
0
 11
3.691000000000001
 21
2.8975
 31
0
  0
LINE
  8
0
 62
7
 10
3.691000000000001
 20
2.8975
 30
0
 11
3.686500000000001
 21
2.905
 31
0
  0
LINE
  8
0
 62
7
 10
3.73825
 20
2.95
 30
0
 11
3.73825
 21
2.915
 31
0
  0
LINE
  8
0
 62
7
 10
3.889
 20
2.9425
 30
0
 11
3.88225
 21
2.952500000000001
 31
0
  0
LINE
  8
0
 62
7
 10
3.88225
 20
2.952500000000001
 30
0
 11
3.875500000000001
 21
2.9575
 31
0
  0
LINE
  8
0
 62
7
 10
3.875500000000001
 20
2.9575
 30
0
 11
3.86875
 21
2.96
 31
0
  0
LINE
  8
0
 62
7
 10
3.86875
 20
2.96
 30
0
 11
3.85975
 21
2.96
 31
0
  0
LINE
  8
0
 62
7
 10
3.85975
 20
2.96
 30
0
 11
3.853
 21
2.9575
 31
0
  0
LINE
  8
0
 62
7
 10
3.853
 20
2.9575
 30
0
 11
3.84625
 21
2.952500000000001
 31
0
  0
LINE
  8
0
 62
7
 10
3.84625
 20
2.952500000000001
 30
0
 11
3.839500000000001
 21
2.9425
 31
0
  0
LINE
  8
0
 62
7
 10
3.839500000000001
 20
2.9425
 30
0
 11
3.83725
 21
2.935
 31
0
  0
LINE
  8
0
 62
7
 10
3.83725
 20
2.935
 30
0
 11
3.83725
 21
2.915
 31
0
  0
LINE
  8
0
 62
7
 10
3.83725
 20
2.915
 30
0
 11
3.839500000000001
 21
2.9075
 31
0
  0
LINE
  8
0
 62
7
 10
3.839500000000001
 20
2.9075
 30
0
 11
3.84625
 21
2.8975
 31
0
  0
LINE
  8
0
 62
7
 10
3.84625
 20
2.8975
 30
0
 11
3.853
 21
2.8925
 31
0
  0
LINE
  8
0
 62
7
 10
3.853
 20
2.8925
 30
0
 11
3.85975
 21
2.890000000000001
 31
0
  0
LINE
  8
0
 62
7
 10
3.85975
 20
2.890000000000001
 30
0
 11
3.86875
 21
2.890000000000001
 31
0
  0
LINE
  8
0
 62
7
 10
3.86875
 20
2.890000000000001
 30
0
 11
3.875500000000001
 21
2.8925
 31
0
  0
LINE
  8
0
 62
7
 10
3.875500000000001
 20
2.8925
 30
0
 11
3.88225
 21
2.8975
 31
0
  0
LINE
  8
0
 62
7
 10
3.88225
 20
2.8975
 30
0
 11
3.889
 21
2.9075
 31
0
  0
LINE
  8
0
 62
7
 10
3.9475
 20
2.935
 30
0
 11
3.9475
 21
2.890000000000001
 31
0
  0
LINE
  8
0
 62
7
 10
3.907
 20
2.96
 30
0
 11
3.907
 21
2.935
 31
0
  0
LINE
  8
0
 62
7
 10
3.907
 20
2.890000000000001
 30
0
 11
3.907
 21
2.935
 31
0
  0
LINE
  8
0
 62
7
 10
3.907
 20
2.935
 30
0
 11
3.90925
 21
2.9475
 31
0
  0
LINE
  8
0
 62
7
 10
3.90925
 20
2.9475
 30
0
 11
3.9115
 21
2.952500000000001
 31
0
  0
LINE
  8
0
 62
7
 10
3.9115
 20
2.952500000000001
 30
0
 11
3.916
 21
2.9575
 31
0
  0
LINE
  8
0
 62
7
 10
3.916
 20
2.9575
 30
0
 11
3.92275
 21
2.96
 31
0
  0
LINE
  8
0
 62
7
 10
3.92275
 20
2.96
 30
0
 11
3.931750000000001
 21
2.96
 31
0
  0
LINE
  8
0
 62
7
 10
3.931750000000001
 20
2.96
 30
0
 11
3.9385
 21
2.9575
 31
0
  0
LINE
  8
0
 62
7
 10
3.9385
 20
2.9575
 30
0
 11
3.943
 21
2.952500000000001
 31
0
  0
LINE
  8
0
 62
7
 10
3.943
 20
2.952500000000001
 30
0
 11
3.94525
 21
2.9475
 31
0
  0
LINE
  8
0
 62
7
 10
3.94525
 20
2.9475
 30
0
 11
3.9475
 21
2.935
 31
0
  0
LINE
  8
0
 62
7
 10
3.9475
 20
2.935
 30
0
 11
3.94975
 21
2.9475
 31
0
  0
LINE
  8
0
 62
7
 10
3.94975
 20
2.9475
 30
0
 11
3.952
 21
2.952500000000001
 31
0
  0
LINE
  8
0
 62
7
 10
3.952
 20
2.952500000000001
 30
0
 11
3.9565
 21
2.9575
 31
0
  0
LINE
  8
0
 62
7
 10
3.9565
 20
2.9575
 30
0
 11
3.96325
 21
2.96
 31
0
  0
LINE
  8
0
 62
7
 10
3.96325
 20
2.96
 30
0
 11
3.972250000000001
 21
2.96
 31
0
  0
LINE
  8
0
 62
7
 10
3.972250000000001
 20
2.96
 30
0
 11
3.979
 21
2.9575
 31
0
  0
LINE
  8
0
 62
7
 10
3.9835
 20
2.952500000000001
 30
0
 11
3.979
 21
2.9575
 31
0
  0
LINE
  8
0
 62
7
 10
3.979
 20
2.9575
 30
0
 11
3.9835
 21
2.952500000000001
 31
0
  0
LINE
  8
0
 62
7
 10
3.9835
 20
2.952500000000001
 30
0
 11
3.98575
 21
2.9475
 31
0
  0
LINE
  8
0
 62
7
 10
3.98575
 20
2.9475
 30
0
 11
3.988
 21
2.935
 31
0
  0
LINE
  8
0
 62
7
 10
3.988
 20
2.935
 30
0
 11
3.988
 21
2.890000000000001
 31
0
  0
ARC
  8
0
 62
7
 10
2.405959564123528
 20
4.34595956412355
 30
0
 40
0.4740000000000116
 50
359.8839813547903
 51
90.11601864621865
  0
ARC
  8
0
 62
7
 10
2.27904043587645
 20
4.34595956412355
 30
0
 40
0.4740000000000005
 50
89.88398135415223
 51
180.1160186462652
  0
CIRCLE
  8
0
 62
7
 10
2.879958592364672
 20
3.25
 30
0
 40
0.06000000000000005
  0
DIMENSION
  8
0
  6
CONTINUOUS
 62
7
  2
*D0
  3
DMST_1
 10
0.707710489411232
 20
3.350000000000001
 30
0
 11
0.707710489411232
 21
4.3352092772384
 31
0
 12
0
 22
0
 32
0
 70
0
 13
1.1
 23
5.350000000000001
 33
0
 14
1.1
 24
3.35
 34
0
 50
90
 53
0
  0
DIMENSION
  8
0
  6
CONTINUOUS
 62
7
  2
*D1
  3
DMST_1
 10
3.410000000000005
 20
6.272830579685451
 30
0
 11
2.36852874865156
 21
6.272830579685451
 31
0
 12
0
 22
0
 32
0
 70
0
 13
1.275
 23
5.869999999999997
 33
0
 14
3.410000000000005
 24
5.869999999999997
 34
0
 53
0
  0
DIMENSION
  8
0
  6
CONTINUOUS
 62
7
  2
*D2
  3
DMST_1
 10
3.91610939930732
 20
3.25
 30
0
 11
3.91610939930732
 21
4.27229949469142
 31
0
 12
0
 22
0
 32
0
 70
0
 13
3.585000000000004
 23
5.350000000000001
 33
0
 14
3.585000000000004
 24
3.25
 34
0
 50
90
 53
0
  0
DIMENSION
  8
0
  6
CONTINUOUS
 62
7
  2
*D3
  3
DMST_2
 10
3.410000000000003
 20
11.4188507920286
 30
0
 11
2.38111070516096
 21
11.4188507920286
 31
0
 12
0
 22
0
 32
0
 70
0
 13
1.274999999999999
 23
11.2
 33
0
 14
3.410000000000003
 24
11.2
 34
0
 53
0
  0
INSERT
  8
0
  2
*D4
 10
0
 20
0
 30
0
  0
ENDSEC
  0
EOF
