  0
SECTION
  2
HEADER
  9
$ACADVER
  1
AC1009
  9
$INSBASE
 10
0
 20
0
  9
$EXTMIN
 10
0.45
 20
2.890000000000001
  9
$EXTMAX
 10
8.238
 20
11.5368151359791
  9
$LIMMIN
 10
0.45
 20
2.890000000000001
  9
$LIMMAX
 10
8.238
 20
11.5368151359791
  9
$VIEWCTR
 10
10
 20
10
  9
$VIEWSIZE
 40
10
  9
$SNAPMODE
 70
0
  9
$SNAPUNIT
 10
1
 20
1
  9
$SNAPBASE
 10
0
 20
0
  9
$SNAPANG
 50
0
  9
$SNAPSTYLE
 70
0
  9
$SNAPISOPAIR
 70
0
  9
$GRIDMODE
 70
0
  9
$GRIDUNIT
 10
0
 20
0
  9
$ORTHOMODE
 70
0
  9
$REGENMODE
 70
1
  9
$FILLMODE
 70
1
  9
$QTEXTMODE
 70
0
  9
$DRAGMODE
 70
2
  9
$LTSCALE
 40
1
  9
$OSMODE
 70
0
  9
$ATTMODE
 70
1
  9
$TEXTSIZE
 40
3.5
  9
$TRACEWID
 40
0.5
  9
$TEXTSTYLE
  7
STANDARD
  9
$CLAYER
  8
0
  9
$CELTYPE
  6
BYLAYER
  9
$CECOLOR
 62
256
  9
$DIMSCALE
 40
1
  9
$DIMASZ
 40
0.18
  9
$DIMEXO
 40
0.0625
  9
$DIMDLI
 40
0.38
  9
$DIMRND
 40
0
  9
$DIMDLE
 40
0
  9
$DIMEXE
 40
0.18
  9
$DIMTP
 40
0
  9
$DIMTM
 40
0
  9
$DIMTXT
 40
0.18
  9
$DIMCEN
 40
0.09
  9
$DIMTSZ
 40
0
  9
$DIMTOL
 70
0
  9
$DIMLIM
 70
0
  9
$DIMTIH
 70
1
  9
$DIMTOH
 70
1
  9
$DIMSE1
 70
0
  9
$DIMSE2
 70
0
  9
$DIMTAD
 70
0
  9
$DIMZIN
 70
0
  9
$DIMBLK
  1

  9
$DIMASO
 70
1
  9
$DIMSHO
 70
1
  9
$DIMPOST
  1

  9
$DIMAPOST
  1

  9
$DIMALT
 70
0
  9
$DIMALTD
 70
2
  9
$DIMALTF
 40
25.4
  9
$DIMLFAC
 40
1
  9
$DIMTOFL
 70
0
  9
$DIMTVP
 40
0
  9
$DIMTIX
 70
0
  9
$DIMSOXD
 70
0
  9
$DIMSAH
 70
0
  9
$DIMBLK1
  1

  9
$DIMBLK2
  1

  9
$DIMSTYLE
  2
*UNNAMED
  9
$DIMCLRD
 70
0
  9
$DIMCLRE
 70
0
  9
$DIMCLRT
 70
0
  9
$DIMTFAC
 40
1
  9
$DIMGAP
 40
0.09
  9
$LUNITS
 70
2
  9
$LUPREC
 70
4
  9
$AXISMODE
 70
0
  9
$AXISUNIT
 10
0
 20
0
  9
$SKETCHINC
 40
0.1
  9
$FILLETRAD
 40
2
  9
$AUNITS
 70
0
  9
$AUPREC
 70
0
  9
$MENU
  1
ACAD
  9
$ELEVATION
 40
0
  9
$THICKNESS
 40
0
  9
$VIEWDIR
 10
0
 20
0
 30
1
  9
$LIMCHECK
 70
0
  9
$BLIPMODE
 70
1
  9
$CHAMFERA
 40
0
  9
$CHAMFERB
 40
0
  9
$FASTZOOM
 70
1
  9
$SKPOLY
 70
0
  9
$ANGBASE
 50
0
  9
$ANGDIR
 70
0
  9
$PDMODE
 70
0
  9
$PDSIZE
 40
0
  9
$PLINEWID
 40
0
  9
$COORDS
 70
2
  0
ENDSEC
  0
SECTION
  2
TABLES
  0
TABLE
  2
DIMSTYLE
 70
2
  0
DIMSTYLE
  2
DMST_1
 70
0
  3

  4

  5

  6

  7

 40
1
 41
0.1
 42
0
 43
0.7
 44
0.2
 45
0
 46
0
 47
0
 48
0
140
0.1
141
0
142
0.1
143
25.4
144
1
145
0
146
1
147
0.25
 71
0
 72
0
 73
0
 74
0
 75
0
 76
0
 77
0
 78
9
170
0
171
2
172
0
173
0
174
0
175
0
176
7
177
7
178
7
  0
DIMSTYLE
  2
DMST_2
 70
0
  3

  4

  5

  6

  7

 40
1
 41
0.1
 42
0
 43
0.7
 44
0.2
 45
0
 46
0
 47
0
 48
0
140
0.1
141
0
142
0.1
143
25.4
144
1
145
0
146
1
147
0.2
 71
0
 72
0
 73
0
 74
0
 75
0
 76
0
 77
0
 78
9
170
0
171
2
172
0
173
0
174
0
175
0
176
7
177
7
178
7
  0
ENDTAB
  0
TABLE
  2
LTYPE
 70
9
  0
LTYPE
  2
CONTINUOUS
 70
64
  3
Solid line
 72
65
 73
0
 40
0
  0
LTYPE
  2
BORDER
 70
64
  3
__ __ . __ __ .
 72
65
 73
6
 40
0.3982085917885111
 49
0.113773883368146
 49
-0.05688694168407302
 49
0.113773883368146
 49
-0.05688694168407302
 49
0
 49
-0.05688694168407302
  0
LTYPE
  2
CENTER
 70
64
  3
____ _ ____ _
 72
65
 73
4
 40
0.4550955334725842
 49
0.2844347084203651
 49
-0.05688694168407302
 49
0.05688694168407302
 49
-0.05688694168407302
  0
LTYPE
  2
DASHDOT
 70
64
  3
__ . __ . __ .
 72
65
 73
4
 40
0.2275477667362921
 49
0.113773883368146
 49
-0.05688694168407302
 49
0
 49
-0.05688694168407302
  0
LTYPE
  2
DASHED
 70
64
  3
__ __ __ __ __
 72
65
 73
2
 40
0.1706608250522191
 49
0.113773883368146
 49
-0.05688694168407302
  0
LTYPE
  2
DIVIDE
 70
64
  3
__ . . __ . . 
 72
65
 73
6
 40
0.2844347084203651
 49
0.113773883368146
 49
-0.05688694168407302
 49
0
 49
-0.05688694168407302
 49
0
 49
-0.05688694168407302
  0
LTYPE
  2
DOT
 70
64
  3
..............
 72
65
 73
4
 40
0.113773883368146
 49
0
 49
-0.05688694168407302
 49
0
 49
-0.05688694168407302
  0
LTYPE
  2
HIDDEN
 70
64
  3
_ _ _ _ _ _ _
 72
65
 73
2
 40
0.08533041252610954
 49
0.05688694168407302
 49
-0.02844347084203651
  0
LTYPE
  2
PHANTOM
 70
64
  3
_____ _ _ _____ _ _ 
 72
65
 73
6
 40
0.5688694168407302
 49
0.2844347084203651
 49
-0.05688694168407302
 49
0.05688694168407302
 49
-0.05688694168407302
 49
0.05688694168407302
 49
-0.05688694168407302
  0
ENDTAB
  0
TABLE
  2
LAYER
 70
2
  0
LAYER
  2
0
 70
0
 62
7
  6
CONTINUOUS
  0
ENDTAB
  0
TABLE
  2
STYLE
 70
4
  0
STYLE
  2
STANDARD
 70
0
 40
0
 41
1
 50
0
 71
0
 42
3.5
  3
txt
  4

  0
STYLE
  2
SIMPLEX
 70
0
 40
0
 41
1
 50
0
 71
0
 42
3.5
  3
simplex
  4

  0
STYLE
  2
COMPLEX
 70
0
 40
0
 41
1
 50
0
 71
0
 42
3.5
  3
complex
  4

  0
STYLE
  2
ITALIC
 70
0
 40
0
 41
1
 50
0
 71
0
 42
3.5
  3
italic
  4

  0
ENDTAB
  0
TABLE
  2
VIEW
 70
0
  0
ENDTAB
  0
ENDSEC
  0
SECTION
  2
BLOCKS
  0
BLOCK
  8
0
  2
*X0
 70
1
 10
0
 20
0
 30
0
  0
LINE
  8
0
 62
7
  6
DASHED
 10
0.5
 20
8.242819253992694
 30
0
 11
0.5571807460073046
 21
8.299999999999999
 31
0
  0
LINE
  8
0
 62
7
  6
DASHED
 10
0.5693127803632705
 20
8.100000000000001
 30
0
 11
0.7399999999999998
 21
8.270687219636729
 31
0
  0
LINE
  8
0
 62
7
 10
0.5
 20
8.136753236814712
 30
0
 11
0.6632467631852874
 21
8.299999999999999
 31
0
  0
LINE
  8
0
 62
7
 10
0.6753787975412515
 20
8.099999999999998
 30
0
 11
0.7400000000000007
 21
8.164621202458747
 31
0
  0
ENDBLK
  8
0
  0
BLOCK
  8
0
  2
*X1
 70
1
 10
0
 20
0
 30
0
  0
LINE
  8
0
 62
7
  6
DASHED
 10
0.4999999999999991
 20
11.00053570062023
 30
0
 11
0.5494642993797729
 21
11.05
 31
0
  0
LINE
  8
0
 62
7
  6
DASHED
 10
0.5615963337357357
 20
10.85
 30
0
 11
0.7399999999999993
 21
11.02840366626426
 31
0
  0
LINE
  8
0
 62
7
 10
0.5000000000000009
 20
10.89446968344225
 30
0
 11
0.655530316557754
 21
11.05
 31
0
  0
LINE
  8
0
 62
7
 10
0.6676623509137176
 20
10.85
 30
0
 11
0.7400000000000002
 21
10.92233764908628
 31
0
  0
ENDBLK
  8
0
  0
BLOCK
  8
0
  2
*X2
 70
1
 10
0
 20
0
 30
0
  0
LINE
  8
0
 62
7
  6
DASHED
 10
2.740000000000001
 20
10.90708332270462
 30
0
 11
2.88291667729538
 21
11.05
 31
0
  0
LINE
  8
0
 62
7
  6
DASHED
 10
2.895048711651341
 20
10.85
 30
0
 11
3.040000000000003
 21
10.99495128834866
 31
0
  0
LINE
  8
0
 62
7
 10
2.740000000000001
 20
11.01314933988261
 30
0
 11
2.776850660117396
 21
11.05
 31
0
  0
LINE
  8
0
 62
7
 10
2.78898269447336
 20
10.85
 30
0
 11
2.988982694473361
 21
11.05
 31
0
  0
LINE
  8
0
 62
7
 10
3.001114728829324
 20
10.85
 30
0
 11
3.040000000000002
 21
10.88888527117068
 31
0
  0
ENDBLK
  8
0
  0
BLOCK
  8
0
  2
*X3
 70
1
 10
0
 20
0
 30
0
  0
LINE
  8
0
 62
7
  6
DASHED
 10
2.740000000000002
 20
8.149366876077089
 30
0
 11
2.890633123922912
 21
8.299999999999999
 31
0
  0
LINE
  8
0
 62
7
  6
DASHED
 10
2.902765158278878
 20
8.1
 30
0
 11
3.040000000000004
 21
8.237234841721126
 31
0
  0
LINE
  8
0
 62
7
 10
2.740000000000002
 20
8.255432893255072
 30
0
 11
2.784567106744929
 21
8.299999999999999
 31
0
  0
LINE
  8
0
 62
7
 10
2.796699141100893
 20
8.099999999999998
 30
0
 11
2.996699141100894
 21
8.299999999999999
 31
0
  0
LINE
  8
0
 62
7
 10
3.008831175456858
 20
8.099999999999998
 30
0
 11
3.040000000000004
 21
8.131168824543145
 31
0
  0
ENDBLK
  8
0
  0
BLOCK
  8
0
  2
*X4
 70
1
 10
0
 20
0
 30
0
  0
LINE
  8
0
 62
7
 10
0.549464299379772
 20
11.05
 30
0
 11
0.6994642993797706
 21
11.2
 31
0
  0
LINE
  8
0
 62
7
 10
0.5
 20
11.10660171779821
 30
0
 11
0.5933982822017896
 21
11.2
 31
0
  0
LINE
  8
0
 62
7
 10
0.655530316557754
 20
11.05
 30
0
 11
0.7400000000000002
 21
11.13446968344225
 31
0
  0
ENDBLK
  8
0
  0
BLOCK
  8
0
  2
*X5
 70
1
 10
0
 20
0
 30
0
  0
LINE
  8
0
 62
7
 10
0.5000000000000004
 20
10.78840366626426
 30
0
 11
0.5615963337357339
 21
10.85
 31
0
  0
LINE
  8
0
 62
7
 10
0.5000000000000004
 20
10.5762716319083
 30
0
 11
0.7400000000000002
 21
10.8162716319083
 31
0
  0
LINE
  8
0
 62
7
 10
0.5000000000000004
 20
10.36413959755233
 30
0
 11
0.7400000000000002
 21
10.60413959755233
 31
0
  0
LINE
  8
0
 62
7
 10
0.5000000000000004
 20
10.15200756319637
 30
0
 11
0.7400000000000002
 21
10.39200756319637
 31
0
  0
LINE
  8
0
 62
7
 10
0.5000000000000004
 20
9.939875528840407
 30
0
 11
0.7400000000000002
 21
10.17987552884041
 31
0
  0
LINE
  8
0
 62
7
 10
0.5000000000000004
 20
9.727743494484443
 30
0
 11
0.7400000000000002
 21
9.967743494484441
 31
0
  0
LINE
  8
0
 62
7
 10
0.5000000000000004
 20
9.515611460128479
 30
0
 11
0.7400000000000002
 21
9.755611460128478
 31
0
  0
LINE
  8
0
 62
7
 10
0.5000000000000004
 20
9.303479425772515
 30
0
 11
0.7400000000000002
 21
9.543479425772514
 31
0
  0
LINE
  8
0
 62
7
 10
0.5000000000000004
 20
9.091347391416551
 30
0
 11
0.7400000000000002
 21
9.33134739141655
 31
0
  0
LINE
  8
0
 62
7
 10
0.5000000000000004
 20
8.879215357060588
 30
0
 11
0.7400000000000002
 21
9.119215357060586
 31
0
  0
LINE
  8
0
 62
7
 10
0.5000000000000004
 20
8.667083322704624
 30
0
 11
0.7400000000000002
 21
8.907083322704622
 31
0
  0
LINE
  8
0
 62
7
 10
0.5000000000000004
 20
8.45495128834866
 30
0
 11
0.7400000000000002
 21
8.694951288348658
 31
0
  0
LINE
  8
0
 62
7
 10
0.5571807460073046
 20
8.299999999999999
 30
0
 11
0.7400000000000002
 21
8.482819253992695
 31
0
  0
LINE
  8
0
 62
7
 10
0.5
 20
10.68233764908628
 30
0
 11
0.6676623509137176
 21
10.85
 31
0
  0
LINE
  8
0
 62
7
 10
0.5
 20
10.47020561473031
 30
0
 11
0.7399999999999998
 21
10.71020561473031
 31
0
  0
LINE
  8
0
 62
7
 10
0.5
 20
10.25807358037435
 30
0
 11
0.7399999999999998
 21
10.49807358037435
 31
0
  0
LINE
  8
0
 62
7
 10
0.5
 20
10.04594154601839
 30
0
 11
0.7399999999999998
 21
10.28594154601839
 31
0
  0
LINE
  8
0
 62
7
 10
0.5
 20
9.833809511662423
 30
0
 11
0.7399999999999998
 21
10.07380951166242
 31
0
  0
LINE
  8
0
 62
7
 10
0.5
 20
9.621677477306459
 30
0
 11
0.7399999999999998
 21
9.861677477306458
 31
0
  0
LINE
  8
0
 62
7
 10
0.5
 20
9.409545442950495
 30
0
 11
0.7399999999999998
 21
9.649545442950494
 31
0
  0
LINE
  8
0
 62
7
 10
0.5
 20
9.197413408594532
 30
0
 11
0.7399999999999998
 21
9.43741340859453
 31
0
  0
LINE
  8
0
 62
7
 10
0.5
 20
8.985281374238568
 30
0
 11
0.7399999999999998
 21
9.225281374238566
 31
0
  0
LINE
  8
0
 62
7
 10
0.5
 20
8.773149339882604
 30
0
 11
0.7399999999999998
 21
9.013149339882602
 31
0
  0
LINE
  8
0
 62
7
 10
0.5
 20
8.56101730552664
 30
0
 11
0.7399999999999998
 21
8.801017305526639
 31
0
  0
LINE
  8
0
 62
7
 10
0.5
 20
8.348885271170676
 30
0
 11
0.7399999999999998
 21
8.588885271170675
 31
0
  0
LINE
  8
0
 62
7
 10
0.6632467631852879
 20
8.299999999999999
 30
0
 11
0.7399999999999998
 21
8.376753236814711
 31
0
  0
ENDBLK
  8
0
  0
BLOCK
  8
0
  2
*X6
 70
1
 10
0
 20
0
 30
0
  0
LINE
  8
0
 62
7
 10
0.5
 20
8.03068721963673
 30
0
 11
0.5693127803632692
 21
8.1
 31
0
  0
LINE
  8
0
 62
7
 10
0.6314448147192331
 20
7.949999999999999
 30
0
 11
0.7399999999999998
 21
8.058555185280765
 31
0
  0
LINE
  8
0
 62
7
 10
0.5253787975412521
 20
7.949999999999999
 30
0
 11
0.6753787975412515
 21
8.099999999999998
 31
0
  0
LINE
  8
0
 62
7
 10
0.7375108318972163
 20
7.949999999999999
 30
0
 11
0.7399999999999993
 21
7.952489168102783
 31
0
  0
ENDBLK
  8
0
  0
BLOCK
  8
0
  2
*X7
 70
1
 10
0
 20
0
 30
0
  0
LINE
  8
0
 62
7
  6
DASHED
 10
4.965000000000003
 20
11.01076297914498
 30
0
 11
5.004237020855027
 21
11.05
 31
0
  0
LINE
  8
0
 62
7
  6
DASHED
 10
5.016369055210989
 20
10.85
 30
0
 11
5.216369055210991
 21
11.05
 31
0
  0
LINE
  8
0
 62
7
  6
DASHED
 10
5.228501089566953
 20
10.85
 30
0
 11
5.428501089566955
 21
11.05
 31
0
  0
LINE
  8
0
 62
7
  6
DASHED
 10
5.440633123922916
 20
10.85
 30
0
 11
5.640633123922918
 21
11.05
 31
0
  0
LINE
  8
0
 62
7
  6
DASHED
 10
5.65276515827888
 20
10.85
 30
0
 11
5.852765158278882
 21
11.05
 31
0
  0
LINE
  8
0
 62
7
  6
DASHED
 10
5.864897192634844
 20
10.85
 30
0
 11
6.064897192634846
 21
11.05
 31
0
  0
LINE
  8
0
 62
7
  6
DASHED
 10
6.077029226990808
 20
10.85
 30
0
 11
6.27702922699081
 21
11.05
 31
0
  0
LINE
  8
0
 62
7
  6
DASHED
 10
6.289161261346772
 20
10.85
 30
0
 11
6.489161261346774
 21
11.05
 31
0
  0
LINE
  8
0
 62
7
  6
DASHED
 10
6.501293295702736
 20
10.85
 30
0
 11
6.701293295702738
 21
11.05
 31
0
  0
LINE
  8
0
 62
7
  6
DASHED
 10
6.713425330058699
 20
10.85
 30
0
 11
6.913425330058701
 21
11.05
 31
0
  0
LINE
  8
0
 62
7
  6
DASHED
 10
6.925557364414663
 20
10.85
 30
0
 11
7.125557364414665
 21
11.05
 31
0
  0
LINE
  8
0
 62
7
  6
DASHED
 10
7.137689398770627
 20
10.85
 30
0
 11
7.337689398770629
 21
11.05
 31
0
  0
LINE
  8
0
 62
7
  6
DASHED
 10
7.349821433126591
 20
10.85
 30
0
 11
7.549821433126593
 21
11.05
 31
0
  0
LINE
  8
0
 62
7
  6
DASHED
 10
7.561953467482555
 20
10.85
 30
0
 11
7.75
 21
11.03804653251744
 31
0
  0
LINE
  8
0
 62
7
 10
4.965000000000003
 20
10.904696961967
 30
0
 11
5.110303038033008
 21
11.05
 31
0
  0
LINE
  8
0
 62
7
 10
5.122435072388972
 20
10.85
 30
0
 11
5.322435072388972
 21
11.05
 31
0
  0
LINE
  8
0
 62
7
 10
5.334567106744935
 20
10.85
 30
0
 11
5.534567106744936
 21
11.05
 31
0
  0
LINE
  8
0
 62
7
 10
5.546699141100899
 20
10.85
 30
0
 11
5.746699141100899
 21
11.05
 31
0
  0
LINE
  8
0
 62
7
 10
5.758831175456863
 20
10.85
 30
0
 11
5.958831175456863
 21
11.05
 31
0
  0
LINE
  8
0
 62
7
 10
5.970963209812827
 20
10.85
 30
0
 11
6.170963209812827
 21
11.05
 31
0
  0
LINE
  8
0
 62
7
 10
6.183095244168791
 20
10.85
 30
0
 11
6.383095244168791
 21
11.05
 31
0
  0
LINE
  8
0
 62
7
 10
6.395227278524755
 20
10.85
 30
0
 11
6.595227278524755
 21
11.05
 31
0
  0
LINE
  8
0
 62
7
 10
6.607359312880718
 20
10.85
 30
0
 11
6.807359312880719
 21
11.05
 31
0
  0
LINE
  8
0
 62
7
 10
6.819491347236682
 20
10.85
 30
0
 11
7.019491347236682
 21
11.05
 31
0
  0
LINE
  8
0
 62
7
 10
7.031623381592646
 20
10.85
 30
0
 11
7.231623381592646
 21
11.05
 31
0
  0
LINE
  8
0
 62
7
 10
7.24375541594861
 20
10.85
 30
0
 11
7.44375541594861
 21
11.05
 31
0
  0
LINE
  8
0
 62
7
 10
7.455887450304574
 20
10.85
 30
0
 11
7.655887450304574
 21
11.05
 31
0
  0
LINE
  8
0
 62
7
 10
7.668019484660538
 20
10.85
 30
0
 11
7.750000000000001
 21
10.93198051533946
 31
0
  0
ENDBLK
  8
0
  0
BLOCK
  8
0
  2
*X8
 70
1
 10
0
 20
0
 30
0
  0
LINE
  8
0
 62
7
  6
DASHED
 10
4.965000000000003
 20
8.253046532517448
 30
0
 11
5.011953467482559
 21
8.299999999999999
 31
0
  0
LINE
  8
0
 62
7
  6
DASHED
 10
5.024085501838522
 20
8.099999999999998
 30
0
 11
5.224085501838523
 21
8.299999999999999
 31
0
  0
LINE
  8
0
 62
7
  6
DASHED
 10
5.236217536194486
 20
8.099999999999998
 30
0
 11
5.436217536194487
 21
8.299999999999999
 31
0
  0
LINE
  8
0
 62
7
  6
DASHED
 10
5.44834957055045
 20
8.099999999999998
 30
0
 11
5.648349570550451
 21
8.299999999999999
 31
0
  0
LINE
  8
0
 62
7
  6
DASHED
 10
5.660481604906414
 20
8.099999999999998
 30
0
 11
5.860481604906415
 21
8.299999999999999
 31
0
  0
LINE
  8
0
 62
7
  6
DASHED
 10
5.872613639262378
 20
8.099999999999998
 30
0
 11
6.072613639262379
 21
8.299999999999999
 31
0
  0
LINE
  8
0
 62
7
  6
DASHED
 10
6.084745673618341
 20
8.099999999999998
 30
0
 11
6.284745673618342
 21
8.299999999999999
 31
0
  0
LINE
  8
0
 62
7
  6
DASHED
 10
6.296877707974305
 20
8.099999999999998
 30
0
 11
6.496877707974306
 21
8.299999999999999
 31
0
  0
LINE
  8
0
 62
7
  6
DASHED
 10
6.509009742330269
 20
8.099999999999998
 30
0
 11
6.70900974233027
 21
8.299999999999999
 31
0
  0
LINE
  8
0
 62
7
  6
DASHED
 10
6.721141776686233
 20
8.099999999999998
 30
0
 11
6.921141776686234
 21
8.299999999999999
 31
0
  0
LINE
  8
0
 62
7
  6
DASHED
 10
6.933273811042197
 20
8.099999999999998
 30
0
 11
7.133273811042198
 21
8.299999999999999
 31
0
  0
LINE
  8
0
 62
7
  6
DASHED
 10
7.145405845398161
 20
8.099999999999998
 30
0
 11
7.345405845398162
 21
8.299999999999999
 31
0
  0
LINE
  8
0
 62
7
  6
DASHED
 10
7.357537879754124
 20
8.099999999999998
 30
0
 11
7.557537879754125
 21
8.299999999999999
 31
0
  0
LINE
  8
0
 62
7
  6
DASHED
 10
7.569669914110088
 20
8.099999999999998
 30
0
 11
7.750000000000002
 21
8.280330085889913
 31
0
  0
LINE
  8
0
 62
7
 10
4.965000000000005
 20
8.146980515339468
 30
0
 11
5.11801948466054
 21
8.299999999999999
 31
0
  0
LINE
  8
0
 62
7
 10
5.130151519016508
 20
8.1
 30
0
 11
5.330151519016504
 21
8.299999999999999
 31
0
  0
LINE
  8
0
 62
7
 10
5.342283553372472
 20
8.1
 30
0
 11
5.542283553372468
 21
8.299999999999999
 31
0
  0
LINE
  8
0
 62
7
 10
5.554415587728435
 20
8.1
 30
0
 11
5.754415587728432
 21
8.299999999999999
 31
0
  0
LINE
  8
0
 62
7
 10
5.766547622084399
 20
8.1
 30
0
 11
5.966547622084396
 21
8.299999999999999
 31
0
  0
LINE
  8
0
 62
7
 10
5.978679656440363
 20
8.1
 30
0
 11
6.17867965644036
 21
8.299999999999999
 31
0
  0
LINE
  8
0
 62
7
 10
6.190811690796327
 20
8.1
 30
0
 11
6.390811690796323
 21
8.299999999999999
 31
0
  0
LINE
  8
0
 62
7
 10
6.402943725152291
 20
8.1
 30
0
 11
6.602943725152287
 21
8.299999999999999
 31
0
  0
LINE
  8
0
 62
7
 10
6.615075759508255
 20
8.1
 30
0
 11
6.815075759508251
 21
8.299999999999999
 31
0
  0
LINE
  8
0
 62
7
 10
6.827207793864218
 20
8.1
 30
0
 11
7.027207793864215
 21
8.299999999999999
 31
0
  0
LINE
  8
0
 62
7
 10
7.039339828220182
 20
8.1
 30
0
 11
7.239339828220179
 21
8.299999999999999
 31
0
  0
LINE
  8
0
 62
7
 10
7.251471862576146
 20
8.1
 30
0
 11
7.451471862576143
 21
8.299999999999999
 31
0
  0
LINE
  8
0
 62
7
 10
7.46360389693211
 20
8.1
 30
0
 11
7.663603896932107
 21
8.299999999999999
 31
0
  0
LINE
  8
0
 62
7
 10
7.675735931288074
 20
8.1
 30
0
 11
7.750000000000003
 21
8.174264068711929
 31
0
  0
ENDBLK
  8
0
  0
BLOCK
  8
0
  2
*X9
 70
1
 10
0
 20
0
 30
0
  0
LINE
  8
0
 62
7
 10
5.115000000000002
 20
11.16076297914498
 30
0
 11
5.154237020855019
 21
11.2
 31
0
  0
LINE
  8
0
 62
7
 10
5.216369055210985
 20
11.05
 30
0
 11
5.290000000000002
 21
11.12363094478902
 31
0
  0
LINE
  8
0
 62
7
 10
5.115000000000004
 20
11.054696961967
 30
0
 11
5.260303038033003
 21
11.2
 31
0
  0
ENDBLK
  8
0
  0
BLOCK
  8
0
  2
*X10
 70
1
 10
0
 20
0
 30
0
  0
LINE
  8
0
 62
7
 10
5.115
 20
10.73649891043305
 30
0
 11
5.228501089566948
 21
10.85
 31
0
  0
LINE
  8
0
 62
7
 10
5.115
 20
10.52436687607708
 30
0
 11
5.290000000000003
 21
10.69936687607709
 31
0
  0
LINE
  8
0
 62
7
 10
5.115
 20
10.31223484172112
 30
0
 11
5.290000000000003
 21
10.48723484172112
 31
0
  0
LINE
  8
0
 62
7
 10
5.115
 20
10.10010280736516
 30
0
 11
5.290000000000003
 21
10.27510280736516
 31
0
  0
LINE
  8
0
 62
7
 10
5.115
 20
9.887970773009192
 30
0
 11
5.290000000000003
 21
10.06297077300919
 31
0
  0
LINE
  8
0
 62
7
 10
5.115
 20
9.675838738653228
 30
0
 11
5.290000000000003
 21
9.850838738653231
 31
0
  0
LINE
  8
0
 62
7
 10
5.115
 20
9.463706704297264
 30
0
 11
5.290000000000003
 21
9.638706704297267
 31
0
  0
LINE
  8
0
 62
7
 10
5.115
 20
9.2515746699413
 30
0
 11
5.290000000000003
 21
9.426574669941303
 31
0
  0
LINE
  8
0
 62
7
 10
5.115
 20
9.039442635585337
 30
0
 11
5.290000000000003
 21
9.214442635585339
 31
0
  0
LINE
  8
0
 62
7
 10
5.115
 20
8.827310601229373
 30
0
 11
5.290000000000003
 21
9.002310601229375
 31
0
  0
LINE
  8
0
 62
7
 10
5.115
 20
8.615178566873409
 30
0
 11
5.290000000000003
 21
8.790178566873411
 31
0
  0
LINE
  8
0
 62
7
 10
5.115
 20
8.403046532517445
 30
0
 11
5.290000000000003
 21
8.578046532517448
 31
0
  0
LINE
  8
0
 62
7
 10
5.224085501838519
 20
8.299999999999999
 30
0
 11
5.290000000000003
 21
8.365914498161484
 31
0
  0
LINE
  8
0
 62
7
 10
5.115000000000002
 20
10.84256492761103
 30
0
 11
5.122435072388966
 21
10.85
 31
0
  0
LINE
  8
0
 62
7
 10
5.115000000000002
 20
10.63043289325507
 30
0
 11
5.290000000000002
 21
10.80543289325507
 31
0
  0
LINE
  8
0
 62
7
 10
5.115000000000002
 20
10.4183008588991
 30
0
 11
5.290000000000002
 21
10.5933008588991
 31
0
  0
LINE
  8
0
 62
7
 10
5.115000000000002
 20
10.20616882454314
 30
0
 11
5.290000000000002
 21
10.38116882454314
 31
0
  0
LINE
  8
0
 62
7
 10
5.115000000000002
 20
9.994036790187176
 30
0
 11
5.290000000000002
 21
10.16903679018717
 31
0
  0
LINE
  8
0
 62
7
 10
5.115000000000002
 20
9.781904755831212
 30
0
 11
5.290000000000002
 21
9.956904755831211
 31
0
  0
LINE
  8
0
 62
7
 10
5.115000000000002
 20
9.569772721475248
 30
0
 11
5.290000000000002
 21
9.744772721475247
 31
0
  0
LINE
  8
0
 62
7
 10
5.115000000000002
 20
9.357640687119284
 30
0
 11
5.290000000000002
 21
9.532640687119283
 31
0
  0
LINE
  8
0
 62
7
 10
5.115000000000002
 20
9.14550865276332
 30
0
 11
5.290000000000002
 21
9.320508652763319
 31
0
  0
LINE
  8
0
 62
7
 10
5.115000000000002
 20
8.933376618407356
 30
0
 11
5.290000000000002
 21
9.108376618407355
 31
0
  0
LINE
  8
0
 62
7
 10
5.115000000000002
 20
8.721244584051393
 30
0
 11
5.290000000000002
 21
8.896244584051392
 31
0
  0
LINE
  8
0
 62
7
 10
5.115000000000002
 20
8.509112549695429
 30
0
 11
5.290000000000002
 21
8.684112549695428
 31
0
  0
LINE
  8
0
 62
7
 10
5.118019484660536
 20
8.299999999999999
 30
0
 11
5.290000000000002
 21
8.471980515339464
 31
0
  0
ENDBLK
  8
0
  0
BLOCK
  8
0
  2
*X11
 70
1
 10
0
 20
0
 30
0
  0
LINE
  8
0
 62
7
 10
5.115000000000002
 20
7.978782463805518
 30
0
 11
5.236217536194483
 21
8.1
 31
0
  0
LINE
  8
0
 62
7
 10
5.115000000000002
 20
8.084848480983501
 30
0
 11
5.130151519016501
 21
8.1
 31
0
  0
LINE
  8
0
 62
7
 10
5.192283553372465
 20
7.949999999999999
 30
0
 11
5.290000000000003
 21
8.047716446627536
 31
0
  0
ENDBLK
  8
0
  0
BLOCK
  8
0
  2
*X12
 70
1
 10
0
 20
0
 30
0
  0
LINE
  8
0
 62
7
 10
7.425000000000002
 20
11.13731060122938
 30
0
 11
7.487689398770626
 21
11.2
 31
0
  0
LINE
  8
0
 62
7
 10
7.549821433126593
 20
11.05
 30
0
 11
7.600000000000002
 21
11.10017856687341
 31
0
  0
LINE
  8
0
 62
7
 10
7.44375541594861
 20
11.05
 30
0
 11
7.593755415948609
 21
11.2
 31
0
  0
ENDBLK
  8
0
  0
BLOCK
  8
0
  2
*X13
 70
1
 10
0
 20
0
 30
0
  0
LINE
  8
0
 62
7
 10
7.425000000000002
 20
10.71304653251744
 30
0
 11
7.561953467482555
 21
10.85
 31
0
  0
LINE
  8
0
 62
7
 10
7.425000000000002
 20
10.50091449816148
 30
0
 11
7.600000000000002
 21
10.67591449816148
 31
0
  0
LINE
  8
0
 62
7
 10
7.425000000000002
 20
10.28878246380551
 30
0
 11
7.600000000000002
 21
10.46378246380551
 31
0
  0
LINE
  8
0
 62
7
 10
7.425000000000002
 20
10.07665042944955
 30
0
 11
7.600000000000002
 21
10.25165042944955
 31
0
  0
LINE
  8
0
 62
7
 10
7.425000000000002
 20
9.864518395093587
 30
0
 11
7.600000000000002
 21
10.03951839509359
 31
0
  0
LINE
  8
0
 62
7
 10
7.425000000000002
 20
9.652386360737623
 30
0
 11
7.600000000000002
 21
9.827386360737622
 31
0
  0
LINE
  8
0
 62
7
 10
7.425000000000002
 20
9.440254326381659
 30
0
 11
7.600000000000002
 21
9.615254326381658
 31
0
  0
LINE
  8
0
 62
7
 10
7.425000000000002
 20
9.228122292025695
 30
0
 11
7.600000000000002
 21
9.403122292025694
 31
0
  0
LINE
  8
0
 62
7
 10
7.425000000000002
 20
9.015990257669731
 30
0
 11
7.600000000000002
 21
9.19099025766973
 31
0
  0
LINE
  8
0
 62
7
 10
7.425000000000002
 20
8.803858223313767
 30
0
 11
7.600000000000002
 21
8.978858223313766
 31
0
  0
LINE
  8
0
 62
7
 10
7.425000000000002
 20
8.591726188957804
 30
0
 11
7.600000000000002
 21
8.766726188957803
 31
0
  0
LINE
  8
0
 62
7
 10
7.425000000000002
 20
8.37959415460184
 30
0
 11
7.600000000000002
 21
8.554594154601839
 31
0
  0
LINE
  8
0
 62
7
 10
7.557537879754124
 20
8.299999999999997
 30
0
 11
7.600000000000002
 21
8.342462120245875
 31
0
  0
LINE
  8
0
 62
7
 10
7.425000000000001
 20
10.81911254969542
 30
0
 11
7.455887450304571
 21
10.85
 31
0
  0
LINE
  8
0
 62
7
 10
7.425000000000001
 20
10.60698051533946
 30
0
 11
7.600000000000001
 21
10.78198051533946
 31
0
  0
LINE
  8
0
 62
7
 10
7.425000000000001
 20
10.3948484809835
 30
0
 11
7.600000000000001
 21
10.56984848098349
 31
0
  0
LINE
  8
0
 62
7
 10
7.425000000000001
 20
10.18271644662753
 30
0
 11
7.600000000000001
 21
10.35771644662753
 31
0
  0
LINE
  8
0
 62
7
 10
7.425000000000001
 20
9.970584412271569
 30
0
 11
7.600000000000001
 21
10.14558441227157
 31
0
  0
LINE
  8
0
 62
7
 10
7.425000000000001
 20
9.758452377915605
 30
0
 11
7.600000000000001
 21
9.933452377915602
 31
0
  0
LINE
  8
0
 62
7
 10
7.425000000000001
 20
9.546320343559641
 30
0
 11
7.600000000000001
 21
9.721320343559638
 31
0
  0
LINE
  8
0
 62
7
 10
7.425000000000001
 20
9.334188309203677
 30
0
 11
7.600000000000001
 21
9.509188309203674
 31
0
  0
LINE
  8
0
 62
7
 10
7.425000000000001
 20
9.122056274847713
 30
0
 11
7.600000000000001
 21
9.29705627484771
 31
0
  0
LINE
  8
0
 62
7
 10
7.425000000000001
 20
8.909924240491749
 30
0
 11
7.600000000000001
 21
9.084924240491747
 31
0
  0
LINE
  8
0
 62
7
 10
7.425000000000001
 20
8.697792206135786
 30
0
 11
7.600000000000001
 21
8.872792206135783
 31
0
  0
LINE
  8
0
 62
7
 10
7.425000000000001
 20
8.485660171779822
 30
0
 11
7.600000000000001
 21
8.660660171779819
 31
0
  0
LINE
  8
0
 62
7
 10
7.451471862576143
 20
8.299999999999997
 30
0
 11
7.600000000000001
 21
8.448528137423855
 31
0
  0
ENDBLK
  8
0
  0
BLOCK
  8
0
  2
*X14
 70
1
 10
0
 20
0
 30
0
  0
LINE
  8
0
 62
7
 10
7.425000000000001
 20
7.955330085889911
 30
0
 11
7.569669914110088
 21
8.099999999999998
 31
0
  0
LINE
  8
0
 62
7
 10
7.425
 20
8.061396103067892
 30
0
 11
7.463603896932107
 21
8.099999999999998
 31
0
  0
LINE
  8
0
 62
7
 10
7.525735931288072
 20
7.949999999999999
 30
0
 11
7.600000000000001
 21
8.024264068711927
 31
0
  0
ENDBLK
  8
0
  0
BLOCK
  8
0
  2
*X15
 70
1
 10
0
 20
0
 30
0
  0
LINE
  8
0
 62
7
 10
4.965000000000003
 20
5.707462120245877
 30
0
 11
5.277537879754123
 21
6.019999999999997
 31
0
  0
LINE
  8
0
 62
7
 10
5.099669914110096
 20
5.630000000000001
 30
0
 11
5.339669914110091
 21
5.869999999999997
 31
0
  0
LINE
  8
0
 62
7
 10
5.311801948466059
 20
5.630000000000001
 30
0
 11
5.551801948466054
 21
5.869999999999997
 31
0
  0
LINE
  8
0
 62
7
 10
5.523933982822023
 20
5.630000000000001
 30
0
 11
5.763933982822018
 21
5.869999999999997
 31
0
  0
LINE
  8
0
 62
7
 10
5.736066017177987
 20
5.630000000000001
 30
0
 11
5.976066017177982
 21
5.869999999999997
 31
0
  0
LINE
  8
0
 62
7
 10
5.948198051533951
 20
5.630000000000001
 30
0
 11
6.188198051533946
 21
5.869999999999997
 31
0
  0
LINE
  8
0
 62
7
 10
6.160330085889915
 20
5.630000000000001
 30
0
 11
6.40033008588991
 21
5.869999999999997
 31
0
  0
LINE
  8
0
 62
7
 10
6.372462120245879
 20
5.630000000000001
 30
0
 11
6.612462120245874
 21
5.869999999999997
 31
0
  0
LINE
  8
0
 62
7
 10
6.584594154601842
 20
5.630000000000001
 30
0
 11
6.824594154601837
 21
5.869999999999997
 31
0
  0
LINE
  8
0
 62
7
 10
6.796726188957806
 20
5.630000000000001
 30
0
 11
7.036726188957801
 21
5.869999999999997
 31
0
  0
LINE
  8
0
 62
7
 10
7.00885822331377
 20
5.630000000000001
 30
0
 11
7.248858223313765
 21
5.869999999999997
 31
0
  0
LINE
  8
0
 62
7
 10
7.220990257669734
 20
5.630000000000001
 30
0
 11
7.600000000000002
 21
6.009009742330269
 31
0
  0
LINE
  8
0
 62
7
 10
7.433122292025698
 20
5.630000000000001
 30
0
 11
7.673122292025695
 21
5.869999999999997
 31
0
  0
LINE
  8
0
 62
7
 10
7.645254326381662
 20
5.630000000000001
 30
0
 11
7.765000000000002
 21
5.749745673618341
 31
0
  0
LINE
  8
0
 62
7
 10
5.115000000000002
 20
5.963528137423858
 30
0
 11
5.171471862576141
 21
6.019999999999997
 31
0
  0
LINE
  8
0
 62
7
 10
4.965000000000003
 20
5.81352813742386
 30
0
 11
5.021471862576141
 21
5.869999999999997
 31
0
  0
LINE
  8
0
 62
7
 10
4.993603896932114
 20
5.630000000000001
 30
0
 11
5.290000000000004
 21
5.926396103067896
 31
0
  0
LINE
  8
0
 62
7
 10
5.205735931288078
 20
5.630000000000001
 30
0
 11
5.445735931288074
 21
5.869999999999997
 31
0
  0
LINE
  8
0
 62
7
 10
5.417867965644041
 20
5.630000000000001
 30
0
 11
5.657867965644038
 21
5.869999999999997
 31
0
  0
LINE
  8
0
 62
7
 10
5.630000000000005
 20
5.630000000000001
 30
0
 11
5.870000000000002
 21
5.869999999999997
 31
0
  0
LINE
  8
0
 62
7
 10
5.842132034355969
 20
5.630000000000001
 30
0
 11
6.082132034355966
 21
5.869999999999997
 31
0
  0
LINE
  8
0
 62
7
 10
6.054264068711933
 20
5.630000000000001
 30
0
 11
6.29426406871193
 21
5.869999999999997
 31
0
  0
LINE
  8
0
 62
7
 10
6.266396103067897
 20
5.630000000000001
 30
0
 11
6.506396103067893
 21
5.869999999999997
 31
0
  0
LINE
  8
0
 62
7
 10
6.478528137423861
 20
5.630000000000001
 30
0
 11
6.718528137423857
 21
5.869999999999997
 31
0
  0
LINE
  8
0
 62
7
 10
6.690660171779824
 20
5.630000000000001
 30
0
 11
6.930660171779821
 21
5.869999999999997
 31
0
  0
LINE
  8
0
 62
7
 10
6.902792206135788
 20
5.630000000000001
 30
0
 11
7.142792206135785
 21
5.869999999999997
 31
0
  0
LINE
  8
0
 62
7
 10
7.425000000000002
 20
5.94007575950825
 30
0
 11
7.504924240491747
 21
6.019999999999996
 31
0
  0
LINE
  8
0
 62
7
 10
7.114924240491752
 20
5.630000000000001
 30
0
 11
7.354924240491749
 21
5.869999999999997
 31
0
  0
LINE
  8
0
 62
7
 10
7.327056274847716
 20
5.630000000000001
 30
0
 11
7.600000000000002
 21
5.902943725152287
 31
0
  0
LINE
  8
0
 62
7
 10
7.53918830920368
 20
5.630000000000001
 30
0
 11
7.765000000000002
 21
5.855811690796323
 31
0
  0
LINE
  8
0
 62
7
 10
7.751320343559644
 20
5.630000000000001
 30
0
 11
7.765000000000002
 21
5.64367965644036
 31
0
  0
ENDBLK
  8
0
  0
BLOCK
  8
0
  2
*X16
 70
1
 10
0
 20
0
 30
0
  0
LINE
  8
0
 62
7
 10
4.965000000000003
 20
5.495330085889913
 30
0
 11
5.059669914110096
 21
5.590000000000001
 31
0
  0
LINE
  8
0
 62
7
 10
5.031801948466056
 20
5.350000000000001
 30
0
 11
5.271801948466059
 21
5.590000000000001
 31
0
  0
LINE
  8
0
 62
7
 10
5.115000000000004
 20
5.221066017177983
 30
0
 11
5.483933982822023
 21
5.590000000000001
 31
0
  0
LINE
  8
0
 62
7
 10
5.456066017177989
 20
5.350000000000002
 30
0
 11
5.696066017177987
 21
5.590000000000001
 31
0
  0
LINE
  8
0
 62
7
 10
5.115000000000004
 20
5.008933982822019
 30
0
 11
5.290000000000003
 21
5.183933982822018
 31
0
  0
LINE
  8
0
 62
7
 10
5.668198051533953
 20
5.350000000000002
 30
0
 11
5.908198051533951
 21
5.590000000000001
 31
0
  0
LINE
  8
0
 62
7
 10
5.115000000000004
 20
4.796801948466055
 30
0
 11
5.290000000000003
 21
4.971801948466054
 31
0
  0
LINE
  8
0
 62
7
 10
5.880330085889916
 20
5.350000000000002
 30
0
 11
6.120330085889915
 21
5.590000000000001
 31
0
  0
LINE
  8
0
 62
7
 10
5.115000000000004
 20
4.584669914110092
 30
0
 11
5.290000000000003
 21
4.75966991411009
 31
0
  0
LINE
  8
0
 62
7
 10
6.09246212024588
 20
5.350000000000002
 30
0
 11
6.332462120245879
 21
5.590000000000001
 31
0
  0
LINE
  8
0
 62
7
 10
5.115000000000004
 20
4.372537879754128
 30
0
 11
5.290000000000003
 21
4.547537879754127
 31
0
  0
LINE
  8
0
 62
7
 10
6.304594154601844
 20
5.350000000000002
 30
0
 11
6.544594154601842
 21
5.590000000000001
 31
0
  0
LINE
  8
0
 62
7
 10
5.115000000000004
 20
4.160405845398164
 30
0
 11
5.290000000000003
 21
4.335405845398163
 31
0
  0
LINE
  8
0
 62
7
 10
6.516726188957808
 20
5.350000000000002
 30
0
 11
6.756726188957806
 21
5.590000000000001
 31
0
  0
LINE
  8
0
 62
7
 10
5.115000000000004
 20
3.9482738110422
 30
0
 11
5.290000000000003
 21
4.123273811042199
 31
0
  0
LINE
  8
0
 62
7
 10
6.728858223313772
 20
5.350000000000002
 30
0
 11
6.96885822331377
 21
5.590000000000001
 31
0
  0
LINE
  8
0
 62
7
 10
5.115000000000004
 20
3.736141776686235
 30
0
 11
5.290000000000003
 21
3.911141776686235
 31
0
  0
LINE
  8
0
 62
7
 10
6.940990257669736
 20
5.350000000000002
 30
0
 11
7.180990257669734
 21
5.590000000000001
 31
0
  0
LINE
  8
0
 62
7
 10
5.115000000000004
 20
3.524009742330271
 30
0
 11
5.290000000000003
 21
3.699009742330271
 31
0
  0
LINE
  8
0
 62
7
 10
7.153122292025699
 20
5.350000000000002
 30
0
 11
7.393122292025698
 21
5.590000000000001
 31
0
  0
LINE
  8
0
 62
7
 10
5.115000000000004
 20
3.311877707974307
 30
0
 11
5.290000000000003
 21
3.486877707974307
 31
0
  0
LINE
  8
0
 62
7
 10
7.365254326381663
 20
5.350000000000002
 30
0
 11
7.605254326381662
 21
5.590000000000001
 31
0
  0
LINE
  8
0
 62
7
 10
5.265254326381661
 20
3.25
 30
0
 11
5.290000000000003
 21
3.274745673618342
 31
0
  0
LINE
  8
0
 62
7
 10
7.425000000000002
 20
5.197613639262375
 30
0
 11
7.765000000000001
 21
5.537613639262377
 31
0
  0
LINE
  8
0
 62
7
 10
7.425000000000002
 20
4.985481604906411
 30
0
 11
7.600000000000001
 21
5.16048160490641
 31
0
  0
LINE
  8
0
 62
7
 10
7.425000000000002
 20
4.773349570550447
 30
0
 11
7.600000000000001
 21
4.948349570550446
 31
0
  0
LINE
  8
0
 62
7
 10
7.425000000000002
 20
4.561217536194484
 30
0
 11
7.600000000000001
 21
4.736217536194482
 31
0
  0
LINE
  8
0
 62
7
 10
7.425000000000002
 20
4.34908550183852
 30
0
 11
7.600000000000001
 21
4.524085501838519
 31
0
  0
LINE
  8
0
 62
7
 10
7.425000000000002
 20
4.136953467482556
 30
0
 11
7.600000000000001
 21
4.311953467482555
 31
0
  0
LINE
  8
0
 62
7
 10
7.425000000000002
 20
3.924821433126592
 30
0
 11
7.600000000000001
 21
4.099821433126591
 31
0
  0
LINE
  8
0
 62
7
 10
7.425000000000002
 20
3.712689398770628
 30
0
 11
7.600000000000001
 21
3.887689398770627
 31
0
  0
LINE
  8
0
 62
7
 10
7.425000000000002
 20
3.500557364414663
 30
0
 11
7.600000000000001
 21
3.675557364414662
 31
0
  0
LINE
  8
0
 62
7
 10
7.486574669941303
 20
3.35
 30
0
 11
7.600000000000001
 21
3.463425330058698
 31
0
  0
LINE
  8
0
 62
7
 10
4.965000000000003
 20
5.389264068711931
 30
0
 11
5.165735931288078
 21
5.59
 31
0
  0
LINE
  8
0
 62
7
 10
5.115000000000002
 20
5.327132034355963
 30
0
 11
5.377867965644041
 21
5.59
 31
0
  0
LINE
  8
0
 62
7
 10
5.350000000000006
 20
5.350000000000001
 30
0
 11
5.590000000000005
 21
5.59
 31
0
  0
LINE
  8
0
 62
7
 10
5.115000000000002
 20
5.114999999999999
 30
0
 11
5.290000000000003
 21
5.289999999999999
 31
0
  0
LINE
  8
0
 62
7
 10
5.56213203435597
 20
5.350000000000001
 30
0
 11
5.802132034355969
 21
5.59
 31
0
  0
LINE
  8
0
 62
7
 10
5.115000000000002
 20
4.902867965644035
 30
0
 11
5.290000000000003
 21
5.077867965644035
 31
0
  0
LINE
  8
0
 62
7
 10
5.774264068711934
 20
5.350000000000001
 30
0
 11
6.014264068711933
 21
5.59
 31
0
  0
LINE
  8
0
 62
7
 10
5.115000000000002
 20
4.690735931288072
 30
0
 11
5.290000000000003
 21
4.865735931288071
 31
0
  0
LINE
  8
0
 62
7
 10
5.986396103067897
 20
5.350000000000001
 30
0
 11
6.226396103067897
 21
5.59
 31
0
  0
LINE
  8
0
 62
7
 10
5.115000000000002
 20
4.478603896932108
 30
0
 11
5.290000000000003
 21
4.653603896932108
 31
0
  0
LINE
  8
0
 62
7
 10
6.198528137423861
 20
5.350000000000001
 30
0
 11
6.438528137423861
 21
5.59
 31
0
  0
LINE
  8
0
 62
7
 10
5.115000000000002
 20
4.266471862576144
 30
0
 11
5.290000000000003
 21
4.441471862576144
 31
0
  0
LINE
  8
0
 62
7
 10
6.410660171779825
 20
5.350000000000001
 30
0
 11
6.650660171779824
 21
5.59
 31
0
  0
LINE
  8
0
 62
7
 10
5.115000000000002
 20
4.05433982822018
 30
0
 11
5.290000000000003
 21
4.22933982822018
 31
0
  0
LINE
  8
0
 62
7
 10
6.622792206135789
 20
5.350000000000001
 30
0
 11
6.862792206135788
 21
5.59
 31
0
  0
LINE
  8
0
 62
7
 10
5.115000000000002
 20
3.842207793864216
 30
0
 11
5.290000000000003
 21
4.017207793864216
 31
0
  0
LINE
  8
0
 62
7
 10
6.834924240491753
 20
5.350000000000001
 30
0
 11
7.074924240491752
 21
5.59
 31
0
  0
LINE
  8
0
 62
7
 10
5.115000000000002
 20
3.630075759508252
 30
0
 11
5.290000000000003
 21
3.805075759508252
 31
0
  0
LINE
  8
0
 62
7
 10
7.047056274847717
 20
5.350000000000001
 30
0
 11
7.287056274847716
 21
5.59
 31
0
  0
LINE
  8
0
 62
7
 10
5.115000000000002
 20
3.417943725152287
 30
0
 11
5.290000000000003
 21
3.592943725152288
 31
0
  0
LINE
  8
0
 62
7
 10
7.25918830920368
 20
5.350000000000001
 30
0
 11
7.49918830920368
 21
5.59
 31
0
  0
LINE
  8
0
 62
7
 10
5.159188309203679
 20
3.25
 30
0
 11
5.290000000000003
 21
3.380811690796324
 31
0
  0
LINE
  8
0
 62
7
 10
7.425000000000002
 20
5.303679656440357
 30
0
 11
7.711320343559644
 21
5.59
 31
0
  0
LINE
  8
0
 62
7
 10
7.683452377915609
 20
5.350000000000001
 30
0
 11
7.765000000000002
 21
5.431547622084395
 31
0
  0
LINE
  8
0
 62
7
 10
7.425000000000002
 20
5.091547622084393
 30
0
 11
7.600000000000001
 21
5.266547622084392
 31
0
  0
LINE
  8
0
 62
7
 10
7.425000000000002
 20
4.879415587728429
 30
0
 11
7.600000000000001
 21
5.054415587728428
 31
0
  0
LINE
  8
0
 62
7
 10
7.425000000000002
 20
4.667283553372465
 30
0
 11
7.600000000000001
 21
4.842283553372464
 31
0
  0
LINE
  8
0
 62
7
 10
7.425000000000002
 20
4.455151519016502
 30
0
 11
7.600000000000001
 21
4.630151519016501
 31
0
  0
LINE
  8
0
 62
7
 10
7.425000000000002
 20
4.243019484660538
 30
0
 11
7.600000000000001
 21
4.418019484660537
 31
0
  0
LINE
  8
0
 62
7
 10
7.425000000000002
 20
4.030887450304574
 30
0
 11
7.600000000000001
 21
4.205887450304573
 31
0
  0
LINE
  8
0
 62
7
 10
7.425000000000002
 20
3.81875541594861
 30
0
 11
7.600000000000001
 21
3.993755415948609
 31
0
  0
LINE
  8
0
 62
7
 10
7.425000000000002
 20
3.606623381592645
 30
0
 11
7.600000000000001
 21
3.781623381592645
 31
0
  0
LINE
  8
0
 62
7
 10
7.425000000000001
 20
3.394491347236679
 30
0
 11
7.600000000000001
 21
3.56949134723668
 31
0
  0
LINE
  8
0
 62
7
 10
7.592640687119285
 20
3.35
 30
0
 11
7.600000000000001
 21
3.357359312880716
 31
0
  0
ENDBLK
  8
0
  0
BLOCK
  8
0
  2
*D0
 70
1
 10
0
 20
0
 30
0
  0
LINE
  8
0
 62
7
 10
7.929963241923571
 20
4.602563332197799
 30
0
 11
7.929963241923571
 21
5.350000000000001
 31
0
  0
LINE
  8
0
 62
7
 10
7.929963241923571
 20
3.35
 30
0
 11
7.929963241923571
 21
4.0425633321978
 31
0
  0
LINE
  8
0
 62
7
 10
7.600000000000001
 20
5.350000000000001
 30
0
 11
7.979963241923571
 21
5.350000000000001
 31
0
  0
LINE
  8
0
 62
7
 10
7.600000000000001
 20
3.35
 30
0
 11
7.979963241923571
 21
3.35
 31
0
  0
LINE
  8
0
 62
7
 10
7.965318580982898
 20
5.314644660940673
 30
0
 11
7.894607902864244
 21
5.385355339059328
 31
0
  0
LINE
  8
0
 62
7
 10
7.894607902864244
 20
3.385355339059327
 30
0
 11
7.965318580982898
 21
3.314644660940673
 31
0
  0
TEXT
  8
0
 62
7
 10
7.979963241923571
 20
4.292563332197799
 30
0
 40
0.1
  1
2
 50
90
 41
0.9
  0
ENDBLK
  8
0
  0
BLOCK
  8
0
  2
*D1
 70
1
 10
0
 20
0
 30
0
  0
LINE
  8
0
 62
7
 10
6.801149092147839
 20
6.18240026400953
 30
0
 11
7.425000000000002
 21
6.18240026400953
 31
0
  0
LINE
  8
0
 62
7
 10
5.290000000000003
 20
6.18240026400953
 30
0
 11
6.056149092147839
 21
6.18240026400953
 31
0
  0
LINE
  8
0
 62
7
 10
7.425000000000002
 20
5.869999999999997
 30
0
 11
7.425000000000002
 21
6.23240026400953
 31
0
  0
LINE
  8
0
 62
7
 10
5.290000000000003
 20
5.869999999999997
 30
0
 11
5.290000000000003
 21
6.23240026400953
 31
0
  0
LINE
  8
0
 62
7
 10
5.32535533905933
 20
6.217755603068857
 30
0
 11
5.254644660940675
 21
6.147044924950203
 31
0
  0
LINE
  8
0
 62
7
 10
7.389644660940675
 20
6.147044924950203
 30
0
 11
7.46035533905933
 21
6.217755603068857
 31
0
  0
TEXT
  8
0
 62
7
 10
6.30614909214784
 20
6.13740026400953
 30
0
 40
0.1
  1
2,14
 41
0.9
  0
ENDBLK
  8
0
  0
BLOCK
  8
0
  2
*D2
 70
1
 10
0
 20
0
 30
0
  0
LINE
  8
0
 62
7
 10
4.80409273604724
 20
4.582840310566061
 30
0
 11
4.80409273604724
 21
5.350000000000001
 31
0
  0
LINE
  8
0
 62
7
 10
4.80409273604724
 20
3.25
 30
0
 11
4.80409273604724
 21
3.927840310566062
 31
0
  0
LINE
  8
0
 62
7
 10
5.115000000000002
 20
5.350000000000001
 30
0
 11
4.75409273604724
 21
5.350000000000001
 31
0
  0
LINE
  8
0
 62
7
 10
5.115000000000002
 20
3.25
 30
0
 11
4.75409273604724
 21
3.25
 31
0
  0
LINE
  8
0
 62
7
 10
4.768737396987913
 20
3.285355339059327
 30
0
 11
4.839448075106567
 21
3.214644660940673
 31
0
  0
LINE
  8
0
 62
7
 10
4.839448075106567
 20
5.314644660940673
 30
0
 11
4.768737396987913
 21
5.385355339059328
 31
0
  0
TEXT
  8
0
 62
7
 10
4.84909273604724
 20
4.177840310566062
 30
0
 40
0.1
  1
2,1
 50
90
 41
0.9
  0
ENDBLK
  8
0
  0
BLOCK
  8
0
  2
*D3
 70
1
 10
0
 20
0
 30
0
  0
LINE
  8
0
 62
7
 10
6.69512990745472
 20
11.4818151359791
 30
0
 11
7.425000000000001
 21
11.4818151359791
 31
0
  0
LINE
  8
0
 62
7
 10
5.290000000000002
 20
11.4818151359791
 30
0
 11
6.05012990745472
 21
11.4818151359791
 31
0
  0
LINE
  8
0
 62
7
 10
7.425000000000001
 20
11.2
 30
0
 11
7.425000000000001
 21
11.5318151359791
 31
0
  0
LINE
  8
0
 62
7
 10
5.290000000000002
 20
11.2
 30
0
 11
5.290000000000002
 21
11.5318151359791
 31
0
  0
LINE
  8
0
 62
7
 10
7.389644660940673
 20
11.44645979691977
 30
0
 11
7.460355339059328
 21
11.51717047503843
 31
0
  0
LINE
  8
0
 62
7
 10
5.325355339059329
 20
11.51717047503843
 30
0
 11
5.254644660940675
 21
11.44645979691977
 31
0
  0
TEXT
  8
0
 62
7
 10
6.250129907454721
 20
11.4368151359791
 30
0
 40
0.1
  1
2,14
 41
0.9
  0
ENDBLK
  8
0
  0
BLOCK
  8
0
  2
*D4
 70
1
 10
0
 20
0
 30
0
  0
LINE
  8
0
 62
7
 10
8.098020796002951
 20
10.19558971498324
 30
0
 11
8.098020796002951
 21
11.05
 31
0
  0
LINE
  8
0
 62
7
 10
8.098020796002951
 20
8.299999999999999
 30
0
 11
8.098020796002951
 21
9.115589714983239
 31
0
  0
LINE
  8
0
 62
7
 10
7.750000000000002
 20
11.05
 30
0
 11
8.148020796002951
 21
11.05
 31
0
  0
LINE
  8
0
 62
7
 10
7.750000000000002
 20
8.299999999999999
 30
0
 11
8.148020796002951
 21
8.299999999999999
 31
0
  0
LINE
  8
0
 62
7
 10
8.062665456943623
 20
8.335355339059326
 30
0
 11
8.133376135062278
 21
8.264644660940672
 31
0
  0
LINE
  8
0
 62
7
 10
8.133376135062278
 20
11.01464466094067
 30
0
 11
8.062665456943623
 21
11.08535533905933
 31
0
  0
TEXT
  8
0
 62
7
 10
8.068020796002951
 20
9.51808971498324
 30
0
 40
0.1
  1
2,75
 50
90
 41
0.9
  0
TEXT
  8
0
 62
7
 10
8.228020796002951
 20
9.31558971498324
 30
0
 40
0.1
  1
(260-280)
 50
90
 41
0.9
  0
ENDBLK
  8
0
  0
ENDSEC
  0
SECTION
  2
ENTITIES
  0
INSERT
  8
0
  2
*X0
 10
0
 20
0
 30
0
  0
INSERT
  8
0
  2
*X1
 10
0
 20
0
 30
0
  0
INSERT
  8
0
  2
*X2
 10
0
 20
0
 30
0
  0
INSERT
  8
0
  2
*X3
 10
0
 20
0
 30
0
  0
INSERT
  8
0
  2
*X4
 10
0
 20
0
 30
0
  0
INSERT
  8
0
  2
*X5
 10
0
 20
0
 30
0
  0
INSERT
  8
0
  2
*X6
 10
0
 20
0
 30
0
  0
INSERT
  8
0
  2
*X7
 10
0
 20
0
 30
0
  0
INSERT
  8
0
  2
*X8
 10
0
 20
0
 30
0
  0
INSERT
  8
0
  2
*X9
 10
0
 20
0
 30
0
  0
INSERT
  8
0
  2
*X10
 10
0
 20
0
 30
0
  0
INSERT
  8
0
  2
*X11
 10
0
 20
0
 30
0
  0
INSERT
  8
0
  2
*X12
 10
0
 20
0
 30
0
  0
INSERT
  8
0
  2
*X13
 10
0
 20
0
 30
0
  0
INSERT
  8
0
  2
*X14
 10
0
 20
0
 30
0
  0
INSERT
  8
0
  2
*X15
 10
0
 20
0
 30
0
  0
INSERT
  8
0
  2
*X16
 10
0
 20
0
 30
0
  0
LINE
  8
0
 62
7
 10
5.345000000000002
 20
3.25
 30
0
 11
6.295000000000002
 21
3.25
 31
0
  0
LINE
  8
0
 62
7
 10
6.295000000000002
 20
3.25
 30
0
 11
6.295000000000002
 21
3.6
 31
0
  0
LINE
  8
0
 62
7
 10
5.345000000000002
 20
3.6
 30
0
 11
5.345000000000002
 21
3.25
 31
0
  0
LINE
  8
0
 62
7
 10
5.345000000000002
 20
3.51
 30
0
 11
6.295000000000002
 21
3.51
 31
0
  0
LINE
  8
0
 62
7
 10
6.295000000000002
 20
3.51
 30
0
 11
6.295000000000002
 21
3.836874186908769
 31
0
  0
LINE
  8
0
 62
7
 10
5.345000000000002
 20
3.8833450917575
 30
0
 11
5.345000000000002
 21
3.51
 31
0
  0
LINE
  8
0
 62
7
 10
5.345000000000002
 20
3.79323747795097
 30
0
 11
6.295000000000002
 21
3.74676657310225
 31
0
  0
LINE
  8
0
 62
7
 10
6.295000000000002
 20
3.74676657310225
 30
0
 11
6.295000000000002
 21
4.058247544450069
 31
0
  0
LINE
  8
0
 62
7
 10
5.345000000000002
 20
4.183316549764282
 30
0
 11
5.345000000000002
 21
3.79323747795097
 31
0
  0
LINE
  8
0
 62
7
 10
5.345000000000002
 20
4.09253995403791
 30
0
 11
6.295000000000002
 21
3.9674709487237
 31
0
  0
LINE
  8
0
 62
7
 10
6.295000000000002
 20
3.9674709487237
 30
0
 11
6.295000000000002
 21
4.179384101421118
 31
0
  0
LINE
  8
0
 62
7
 10
5.345000000000002
 20
4.597299477003252
 30
0
 11
5.345000000000002
 21
4.09253995403791
 31
0
  0
LINE
  8
0
 62
7
 10
6.295000000000002
 20
4.081060527879961
 30
0
 11
6.295000000000002
 21
4.276104795845089
 31
0
  0
LINE
  8
0
 62
7
 10
5.345000000000002
 20
4.49897590346209
 30
0
 11
6.295000000000002
 21
4.081060527879961
 31
0
  0
LINE
  8
0
 62
7
 10
5.345000000000002
 20
5.103312520565689
 30
0
 11
5.345000000000002
 21
4.49897590346209
 31
0
  0
LINE
  8
0
 62
7
 10
6.254588498114991
 20
4.21627478006728
 30
0
 11
6.341534479999372
 21
4.345000000000001
 31
0
  0
LINE
  8
0
 62
7
 10
5.345000000000002
 20
4.985447390236562
 30
0
 11
6.254588498114991
 21
4.21627478006728
 31
0
  0
LINE
  8
0
 62
7
 10
5.779659858895741
 20
5.295000000000001
 30
0
 11
5.345000000000002
 21
5.295000000000001
 31
0
  0
LINE
  8
0
 62
7
 10
5.345000000000002
 20
5.295000000000001
 30
0
 11
5.345000000000002
 21
4.985447390236562
 31
0
  0
LINE
  8
0
 62
7
 10
6.295849604573992
 20
4.345000000000001
 30
0
 11
6.38266628172546
 21
4.345000000000001
 31
0
  0
LINE
  8
0
 62
7
 10
5.671988502645691
 20
5.295000000000001
 30
0
 11
6.295849604573992
 21
4.345000000000001
 31
0
  0
LINE
  8
0
 62
7
 10
6.27516660520828
 20
5.295000000000001
 30
0
 11
5.671988502645691
 21
5.295000000000001
 31
0
  0
LINE
  8
0
 62
7
 10
6.385199901913183
 20
4.332932845132029
 30
0
 11
6.431555076359591
 21
4.254967067963793
 31
0
  0
LINE
  8
0
 62
7
 10
6.18320425404174
 20
5.295000000000001
 30
0
 11
6.385199901913183
 21
4.332932845132029
 31
0
  0
LINE
  8
0
 62
7
 10
6.733499164710462
 20
5.295000000000001
 30
0
 11
6.18320425404174
 21
5.295000000000001
 31
0
  0
LINE
  8
0
 62
7
 10
6.641680675529932
 20
5.295000000000001
 30
0
 11
6.420000000000002
 21
4.197774322322039
 31
0
  0
LINE
  8
0
 62
7
 10
6.420000000000002
 20
4.197774322322039
 30
0
 11
6.420000000000002
 21
3.971737268732281
 31
0
  0
LINE
  8
0
 62
7
 10
7.277384747937832
 20
5.295000000000001
 30
0
 11
6.641680675529932
 21
5.295000000000001
 31
0
  0
LINE
  8
0
 62
7
 10
7.170144305903623
 20
5.295000000000001
 30
0
 11
6.420000000000002
 21
4.137249053925411
 31
0
  0
LINE
  8
0
 62
7
 10
6.420000000000002
 20
4.137249053925411
 30
0
 11
6.420000000000002
 21
3.89790147038203
 31
0
  0
LINE
  8
0
 62
7
 10
7.370000000000002
 20
4.757060298675381
 30
0
 11
7.370000000000002
 21
5.295000000000001
 31
0
  0
LINE
  8
0
 62
7
 10
7.370000000000002
 20
5.295000000000001
 30
0
 11
7.170144305903623
 21
5.295000000000001
 31
0
  0
LINE
  8
0
 62
7
 10
7.370000000000002
 20
4.878406836745051
 30
0
 11
6.420000000000002
 21
4.0192480084517
 31
0
  0
LINE
  8
0
 62
7
 10
6.420000000000002
 20
4.0192480084517
 30
0
 11
6.420000000000002
 21
3.788012171394601
 31
0
  0
LINE
  8
0
 62
7
 10
7.370000000000002
 20
4.36248645787107
 30
0
 11
7.370000000000002
 21
4.878406836745051
 31
0
  0
LINE
  8
0
 62
7
 10
7.370000000000002
 20
4.46766230438242
 30
0
 11
6.420000000000002
 21
3.89318801790595
 31
0
  0
LINE
  8
0
 62
7
 10
6.420000000000002
 20
3.89318801790595
 30
0
 11
6.420000000000002
 21
3.674495799444919
 31
0
  0
LINE
  8
0
 62
7
 10
7.370000000000002
 20
3.977402455143821
 30
0
 11
7.370000000000002
 21
4.46766230438242
 31
0
  0
LINE
  8
0
 62
7
 10
7.370000000000002
 20
4.071866652179502
 30
0
 11
6.420000000000002
 21
3.7689599964806
 31
0
  0
LINE
  8
0
 62
7
 10
6.420000000000002
 20
3.7689599964806
 30
0
 11
6.420000000000002
 21
3.55833888859147
 31
0
  0
LINE
  8
0
 62
7
 10
7.370000000000002
 20
3.58240570105744
 30
0
 11
7.370000000000002
 21
4.071866652179502
 31
0
  0
LINE
  8
0
 62
7
 10
7.370000000000002
 20
3.672434576775091
 30
0
 11
6.420000000000002
 21
3.648367764309131
 31
0
  0
LINE
  8
0
 62
7
 10
6.420000000000002
 20
3.648367764309131
 30
0
 11
6.420000000000002
 21
3.39
 31
0
  0
LINE
  8
0
 62
7
 10
7.370000000000002
 20
3.39
 30
0
 11
7.370000000000002
 21
3.672434576775091
 31
0
  0
LINE
  8
0
 62
7
 10
5.82004140763533
 20
3.25
 30
0
 11
5.82004140763533
 21
4.344999758694319
 31
0
  0
LINE
  8
0
 62
7
 10
6.295000241314051
 20
4.819958592364673
 30
0
 11
6.419999758689042
 21
4.819958592364673
 31
0
  0
LINE
  8
0
 62
7
 10
6.894958592364673
 20
3.4
 30
0
 11
6.78930349310297
 21
3.461
 31
0
  0
LINE
  8
0
 62
7
 10
6.78930349310297
 20
3.461
 30
0
 11
7.000613691626373
 21
3.461
 31
0
  0
LINE
  8
0
 62
7
 10
7.000613691626373
 20
3.461
 30
0
 11
6.894958592364673
 21
3.4
 31
0
  0
LINE
  8
0
 62
7
 10
6.894958592364673
 20
4.344999758685588
 30
0
 11
6.894958592364673
 21
3.4
 31
0
  0
LINE
  8
0
 62
7
 10
2.49000015
 20
8.583333226666662
 30
0
 11
2.840000180000003
 21
8.583333226666662
 31
0
  0
LINE
  8
0
 62
7
 10
2.840000180000003
 20
8.583333226666662
 30
0
 11
2.840000180000003
 21
8.518333226666662
 31
0
  0
LINE
  8
0
 62
7
 10
2.49000015
 20
8.518333226666662
 30
0
 11
2.49000015
 21
8.583333226666662
 31
0
  0
LINE
  8
0
 62
7
 10
2.840000180000003
 20
8.518333226666662
 30
0
 11
2.49000015
 21
8.518333226666662
 31
0
  0
LINE
  8
0
 62
7
 10
2.206655120000001
 20
8.766666566666663
 30
0
 11
2.580000190000002
 21
8.766666566666663
 31
0
  0
LINE
  8
0
 62
7
 10
2.580000190000002
 20
8.701666566666661
 30
0
 11
2.206655120000001
 21
8.701666566666661
 31
0
  0
LINE
  8
0
 62
7
 10
2.580000190000002
 20
8.766666566666663
 30
0
 11
2.580000190000002
 21
8.701666566666661
 31
0
  0
LINE
  8
0
 62
7
 10
2.206655120000001
 20
8.701666566666661
 30
0
 11
2.206655120000001
 21
8.766666566666663
 31
0
  0
LINE
  8
0
 62
7
 10
2.343233790000002
 20
8.884999906666662
 30
0
 11
1.90668388
 21
8.884999906666662
 31
0
  0
LINE
  8
0
 62
7
 10
1.90668388
 20
8.94999990666666
 30
0
 11
2.343233790000002
 21
8.94999990666666
 31
0
  0
LINE
  8
0
 62
7
 10
2.343233790000002
 20
8.94999990666666
 30
0
 11
2.343233790000002
 21
8.884999906666662
 31
0
  0
LINE
  8
0
 62
7
 10
1.90668388
 20
8.884999906666662
 30
0
 11
1.90668388
 21
8.94999990666666
 31
0
  0
LINE
  8
0
 62
7
 10
2.12252945
 20
9.068333226666663
 30
0
 11
1.492700499999999
 21
9.068333226666663
 31
0
  0
LINE
  8
0
 62
7
 10
1.492700499999999
 20
9.133333226666663
 30
0
 11
2.12252945
 21
9.133333226666663
 31
0
  0
LINE
  8
0
 62
7
 10
2.12252945
 20
9.133333226666663
 30
0
 11
2.12252945
 21
9.068333226666663
 31
0
  0
LINE
  8
0
 62
7
 10
1.492700499999999
 20
9.068333226666663
 30
0
 11
1.492700499999999
 21
9.133333226666663
 31
0
  0
LINE
  8
0
 62
7
 10
2.00893959
 20
9.251666586666659
 30
0
 11
0.9866874700000008
 21
9.251666586666659
 31
0
  0
LINE
  8
0
 62
7
 10
0.9866874700000008
 20
9.31666658666666
 30
0
 11
2.00893959
 21
9.31666658666666
 31
0
  0
LINE
  8
0
 62
7
 10
2.00893959
 20
9.31666658666666
 30
0
 11
2.00893959
 21
9.251666586666659
 31
0
  0
LINE
  8
0
 62
7
 10
0.9866874700000008
 20
9.251666586666659
 30
0
 11
0.9866874700000008
 21
9.31666658666666
 31
0
  0
LINE
  8
0
 62
7
 10
1.873725430000001
 20
9.434999946666661
 30
0
 11
0.7950004599999995
 21
9.434999946666661
 31
0
  0
LINE
  8
0
 62
7
 10
0.7950004599999995
 20
9.49999994666666
 30
0
 11
1.873725430000001
 21
9.49999994666666
 31
0
  0
LINE
  8
0
 62
7
 10
1.873725430000001
 20
9.49999994666666
 30
0
 11
1.873725430000001
 21
9.434999946666661
 31
0
  0
LINE
  8
0
 62
7
 10
0.7950004599999995
 20
9.434999946666661
 30
0
 11
0.7950004599999995
 21
9.49999994666666
 31
0
  0
LINE
  8
0
 62
7
 10
0.7950004599999995
 20
9.683333226666662
 30
0
 11
1.745000230000002
 21
9.683333226666662
 31
0
  0
LINE
  8
0
 62
7
 10
1.745000230000002
 20
9.683333226666662
 30
0
 11
1.745000230000002
 21
9.618333226666664
 31
0
  0
LINE
  8
0
 62
7
 10
0.7950004599999995
 20
9.618333226666664
 30
0
 11
0.7950004599999995
 21
9.683333226666662
 31
0
  0
LINE
  8
0
 62
7
 10
1.745000230000002
 20
9.618333226666664
 30
0
 11
0.7950004599999995
 21
9.618333226666664
 31
0
  0
LINE
  8
0
 62
7
 10
0.7950002999999999
 20
9.866666666666664
 30
0
 11
1.835032880000001
 21
9.866666666666664
 31
0
  0
LINE
  8
0
 62
7
 10
1.835032880000001
 20
9.801666666666661
 30
0
 11
0.7950002999999999
 21
9.801666666666661
 31
0
  0
LINE
  8
0
 62
7
 10
1.835032880000001
 20
9.866666666666664
 30
0
 11
1.835032880000001
 21
9.801666666666661
 31
0
  0
LINE
  8
0
 62
7
 10
0.7950002999999999
 20
9.801666666666661
 30
0
 11
0.7950002999999999
 21
9.866666666666664
 31
0
  0
LINE
  8
0
 62
7
 10
0.7950002999999999
 20
10.04999994666666
 30
0
 11
2.118263170000002
 21
10.04999994666666
 31
0
  0
LINE
  8
0
 62
7
 10
2.118263170000002
 20
9.984999946666663
 30
0
 11
0.7950002999999999
 21
9.984999946666663
 31
0
  0
LINE
  8
0
 62
7
 10
2.118263170000002
 20
10.04999994666666
 30
0
 11
2.118263170000002
 21
9.984999946666663
 31
0
  0
LINE
  8
0
 62
7
 10
0.7950002999999999
 20
9.984999946666663
 30
0
 11
0.7950002999999999
 21
10.04999994666666
 31
0
  0
LINE
  8
0
 62
7
 10
2.192098920000001
 20
10.16833322666666
 30
0
 11
0.795
 21
10.16833322666666
 31
0
  0
LINE
  8
0
 62
7
 10
0.795
 20
10.23333322666666
 30
0
 11
2.192098920000001
 21
10.23333322666666
 31
0
  0
LINE
  8
0
 62
7
 10
2.192098920000001
 20
10.23333322666666
 30
0
 11
2.192098920000001
 21
10.16833322666666
 31
0
  0
LINE
  8
0
 62
7
 10
0.795
 20
10.16833322666666
 30
0
 11
0.795
 21
10.23333322666666
 31
0
  0
LINE
  8
0
 62
7
 10
2.301988140000002
 20
10.35166666666666
 30
0
 11
1.211593629999999
 21
10.35166666666666
 31
0
  0
LINE
  8
0
 62
7
 10
1.211593629999999
 20
10.41666666666666
 30
0
 11
2.301988140000002
 21
10.41666666666666
 31
0
  0
LINE
  8
0
 62
7
 10
2.301988140000002
 20
10.41666666666666
 30
0
 11
2.301988140000002
 21
10.35166666666666
 31
0
  0
LINE
  8
0
 62
7
 10
1.211593629999999
 20
10.35166666666666
 30
0
 11
1.211593629999999
 21
10.41666666666666
 31
0
  0
LINE
  8
0
 62
7
 10
2.415504230000003
 20
10.53499994666666
 30
0
 11
1.622338100000001
 21
10.53499994666666
 31
0
  0
LINE
  8
0
 62
7
 10
1.622338100000001
 20
10.59999994666666
 30
0
 11
2.415504230000003
 21
10.59999994666666
 31
0
  0
LINE
  8
0
 62
7
 10
2.415504230000003
 20
10.59999994666666
 30
0
 11
2.415504230000003
 21
10.53499994666666
 31
0
  0
LINE
  8
0
 62
7
 10
1.622338100000001
 20
10.53499994666666
 30
0
 11
1.622338100000001
 21
10.59999994666666
 31
0
  0
LINE
  8
0
 62
7
 10
2.531661300000001
 20
10.71833322666666
 30
0
 11
2.01813385
 21
10.71833322666666
 31
0
  0
LINE
  8
0
 62
7
 10
2.01813385
 20
10.78333322666666
 30
0
 11
2.531661300000001
 21
10.78333322666666
 31
0
  0
LINE
  8
0
 62
7
 10
2.531661300000001
 20
10.78333322666666
 30
0
 11
2.531661300000001
 21
10.71833322666666
 31
0
  0
LINE
  8
0
 62
7
 10
2.01813385
 20
10.71833322666666
 30
0
 11
2.01813385
 21
10.78333322666666
 31
0
  0
LINE
  8
0
 62
7
 10
2.417566070000001
 20
10.96666666666666
 30
0
 11
2.700000820000001
 21
10.96666666666666
 31
0
  0
LINE
  8
0
 62
7
 10
2.700000820000001
 20
10.90166666666666
 30
0
 11
2.417566070000001
 21
10.90166666666666
 31
0
  0
LINE
  8
0
 62
7
 10
2.700000820000001
 20
10.96666666666666
 30
0
 11
2.700000820000001
 21
10.90166666666666
 31
0
  0
LINE
  8
0
 62
7
 10
2.417566070000001
 20
10.90166666666666
 30
0
 11
2.417566070000001
 21
10.96666666666666
 31
0
  0
LINE
  8
0
 62
7
 10
5.344999470000002
 20
8.583333226666662
 30
0
 11
6.294999850000004
 21
8.583333226666662
 31
0
  0
LINE
  8
0
 62
7
 10
5.344999470000002
 20
8.518333226666662
 30
0
 11
5.344999470000002
 21
8.583333226666662
 31
0
  0
LINE
  8
0
 62
7
 10
6.294999850000004
 20
8.583333226666662
 30
0
 11
6.294999850000004
 21
8.518333226666662
 31
0
  0
LINE
  8
0
 62
7
 10
6.294999850000004
 20
8.518333226666662
 30
0
 11
5.344999470000002
 21
8.518333226666662
 31
0
  0
LINE
  8
0
 62
7
 10
5.344999640000002
 20
8.766666566666663
 30
0
 11
6.294999700000001
 21
8.766666566666663
 31
0
  0
LINE
  8
0
 62
7
 10
5.344999640000002
 20
8.701666566666661
 30
0
 11
5.344999640000002
 21
8.766666566666663
 31
0
  0
LINE
  8
0
 62
7
 10
6.294999700000001
 20
8.766666566666663
 30
0
 11
6.294999700000001
 21
8.701666566666661
 31
0
  0
LINE
  8
0
 62
7
 10
6.294999700000001
 20
8.701666566666661
 30
0
 11
5.344999640000002
 21
8.701666566666661
 31
0
  0
LINE
  8
0
 62
7
 10
5.344998990000003
 20
8.94999990666666
 30
0
 11
6.294999700000001
 21
8.94999990666666
 31
0
  0
LINE
  8
0
 62
7
 10
5.344998990000003
 20
8.884999906666662
 30
0
 11
5.344998990000003
 21
8.94999990666666
 31
0
  0
LINE
  8
0
 62
7
 10
6.294999700000001
 20
8.94999990666666
 30
0
 11
6.294999700000001
 21
8.884999906666662
 31
0
  0
LINE
  8
0
 62
7
 10
6.294999700000001
 20
8.884999906666662
 30
0
 11
5.344998990000003
 21
8.884999906666662
 31
0
  0
LINE
  8
0
 62
7
 10
5.344999530000002
 20
9.133333226666663
 30
0
 11
6.294999850000004
 21
9.133333226666663
 31
0
  0
LINE
  8
0
 62
7
 10
5.344999530000002
 20
9.068333226666663
 30
0
 11
5.344999530000002
 21
9.133333226666663
 31
0
  0
LINE
  8
0
 62
7
 10
6.294999850000004
 20
9.133333226666663
 30
0
 11
6.294999850000004
 21
9.068333226666663
 31
0
  0
LINE
  8
0
 62
7
 10
6.294999850000004
 20
9.068333226666663
 30
0
 11
5.344999530000002
 21
9.068333226666663
 31
0
  0
LINE
  8
0
 62
7
 10
5.34499949
 20
9.316666586666662
 30
0
 11
6.294999780000001
 21
9.316666586666662
 31
0
  0
LINE
  8
0
 62
7
 10
5.34499949
 20
9.251666586666662
 30
0
 11
5.34499949
 21
9.316666586666662
 31
0
  0
LINE
  8
0
 62
7
 10
6.294999780000001
 20
9.316666586666662
 30
0
 11
6.294999780000001
 21
9.251666586666662
 31
0
  0
LINE
  8
0
 62
7
 10
6.294999780000001
 20
9.251666586666662
 30
0
 11
5.34499949
 21
9.251666586666662
 31
0
  0
LINE
  8
0
 62
7
 10
6.341534280000001
 20
9.434999946666663
 30
0
 11
5.344999600000001
 21
9.434999946666663
 31
0
  0
LINE
  8
0
 62
7
 10
5.344999600000001
 20
9.499999946666664
 30
0
 11
6.341534280000001
 21
9.499999946666664
 31
0
  0
LINE
  8
0
 62
7
 10
5.344999600000001
 20
9.434999946666663
 30
0
 11
5.344999600000001
 21
9.499999946666664
 31
0
  0
LINE
  8
0
 62
7
 10
6.341534280000001
 20
9.499999946666664
 30
0
 11
6.341534280000001
 21
9.434999946666663
 31
0
  0
LINE
  8
0
 62
7
 10
6.382666100000002
 20
9.618333226666664
 30
0
 11
5.671988150000002
 21
9.618333226666664
 31
0
  0
LINE
  8
0
 62
7
 10
5.671988150000002
 20
9.683333226666662
 30
0
 11
6.382666100000002
 21
9.683333226666662
 31
0
  0
LINE
  8
0
 62
7
 10
5.671988150000002
 20
9.618333226666664
 30
0
 11
5.671988150000002
 21
9.683333226666662
 31
0
  0
LINE
  8
0
 62
7
 10
6.382666100000002
 20
9.683333226666662
 30
0
 11
6.382666100000002
 21
9.618333226666664
 31
0
  0
LINE
  8
0
 62
7
 10
6.733498840000002
 20
9.801666666666662
 30
0
 11
6.183203970000004
 21
9.801666666666662
 31
0
  0
LINE
  8
0
 62
7
 10
6.183203970000004
 20
9.866666666666662
 30
0
 11
6.733498840000002
 21
9.866666666666662
 31
0
  0
LINE
  8
0
 62
7
 10
6.183203970000004
 20
9.801666666666662
 30
0
 11
6.183203970000004
 21
9.866666666666662
 31
0
  0
LINE
  8
0
 62
7
 10
6.733498840000002
 20
9.866666666666662
 30
0
 11
6.733498840000002
 21
9.801666666666662
 31
0
  0
LINE
  8
0
 62
7
 10
6.41999962
 20
10.04999994666666
 30
0
 11
7.277384190000003
 21
10.04999994666666
 31
0
  0
LINE
  8
0
 62
7
 10
7.277384190000003
 20
9.984999946666663
 30
0
 11
6.41999962
 21
9.984999946666663
 31
0
  0
LINE
  8
0
 62
7
 10
6.41999962
 20
9.984999946666663
 30
0
 11
6.41999962
 21
10.04999994666666
 31
0
  0
LINE
  8
0
 62
7
 10
7.277384190000003
 20
10.04999994666666
 30
0
 11
7.277384190000003
 21
9.984999946666663
 31
0
  0
LINE
  8
0
 62
7
 10
6.419999470000002
 20
10.23333322666666
 30
0
 11
7.369999700000001
 21
10.23333322666666
 31
0
  0
LINE
  8
0
 62
7
 10
7.369999700000001
 20
10.16833322666666
 30
0
 11
6.419999470000002
 21
10.16833322666666
 31
0
  0
LINE
  8
0
 62
7
 10
6.419999470000002
 20
10.16833322666666
 30
0
 11
6.419999470000002
 21
10.23333322666666
 31
0
  0
LINE
  8
0
 62
7
 10
7.369999700000001
 20
10.23333322666666
 30
0
 11
7.369999700000001
 21
10.16833322666666
 31
0
  0
LINE
  8
0
 62
7
 10
6.419999780000001
 20
10.41666666666666
 30
0
 11
7.369999700000001
 21
10.41666666666666
 31
0
  0
LINE
  8
0
 62
7
 10
6.419999780000001
 20
10.35166666666666
 30
0
 11
6.419999780000001
 21
10.41666666666666
 31
0
  0
LINE
  8
0
 62
7
 10
7.369999700000001
 20
10.41666666666666
 30
0
 11
7.369999700000001
 21
10.35166666666666
 31
0
  0
LINE
  8
0
 62
7
 10
7.369999700000001
 20
10.35166666666666
 30
0
 11
6.419999780000001
 21
10.35166666666666
 31
0
  0
LINE
  8
0
 62
7
 10
6.41999962
 20
10.59999994666666
 30
0
 11
7.369999850000004
 21
10.59999994666666
 31
0
  0
LINE
  8
0
 62
7
 10
6.41999962
 20
10.53499994666666
 30
0
 11
6.41999962
 21
10.59999994666666
 31
0
  0
LINE
  8
0
 62
7
 10
7.369999850000004
 20
10.59999994666666
 30
0
 11
7.369999850000004
 21
10.53499994666666
 31
0
  0
LINE
  8
0
 62
7
 10
7.369999850000004
 20
10.53499994666666
 30
0
 11
6.41999962
 21
10.53499994666666
 31
0
  0
LINE
  8
0
 62
7
 10
6.419999390000003
 20
10.78333322666666
 30
0
 11
7.369999850000004
 21
10.78333322666666
 31
0
  0
LINE
  8
0
 62
7
 10
6.419999390000003
 20
10.71833322666666
 30
0
 11
6.419999390000003
 21
10.78333322666666
 31
0
  0
LINE
  8
0
 62
7
 10
7.369999850000004
 20
10.78333322666666
 30
0
 11
7.369999850000004
 21
10.71833322666666
 31
0
  0
LINE
  8
0
 62
7
 10
7.369999850000004
 20
10.71833322666666
 30
0
 11
6.419999390000003
 21
10.71833322666666
 31
0
  0
LINE
  8
0
 62
7
  6
DASHED
 10
6.419999550000004
 20
10.96666666666666
 30
0
 11
7.370000000000002
 21
10.96666666666666
 31
0
  0
LINE
  8
0
 62
7
  6
DASHED
 10
6.419999550000004
 20
10.90166666666666
 30
0
 11
6.419999550000004
 21
10.96666666666666
 31
0
  0
LINE
  8
0
 62
7
  6
DASHED
 10
7.370000000000002
 20
10.96666666666666
 30
0
 11
7.370000000000002
 21
10.90166666666666
 31
0
  0
LINE
  8
0
 62
7
  6
DASHED
 10
7.370000000000002
 20
10.90166666666666
 30
0
 11
6.419999550000004
 21
10.90166666666666
 31
0
  0
LINE
  8
0
 62
7
  6
DASHDOT
 10
7.425000000000002
 20
6.019999999999997
 30
0
 11
7.600000000000001
 21
6.019999999999997
 31
0
  0
LINE
  8
0
 62
7
  6
DASHDOT
 10
7.600000000000001
 20
6.019999999999997
 30
0
 11
7.650000000000002
 21
6.019999999999997
 31
0
  0
LINE
  8
0
 62
7
  6
DASHDOT
 10
4.965000000000003
 20
5.59
 30
0
 11
4.965000000000003
 21
5.350000000000001
 31
0
  0
LINE
  8
0
 62
7
  6
DASHDOT
 10
7.765000000000002
 20
5.59
 30
0
 11
7.765000000000002
 21
5.350000000000001
 31
0
  0
LINE
  8
0
 62
7
  6
DASHDOT
 10
4.965000000000003
 20
5.630000000000001
 30
0
 11
4.965000000000003
 21
5.59
 31
0
  0
LINE
  8
0
 62
7
  6
DASHDOT
 10
7.765000000000002
 20
5.630000000000001
 30
0
 11
7.765000000000002
 21
5.59
 31
0
  0
LINE
  8
0
 62
7
  6
DASHDOT
 10
4.965000000000003
 20
5.350000000000001
 30
0
 11
4.965000000000003
 21
5.300000000000001
 31
0
  0
LINE
  8
0
 62
7
  6
DASHDOT
 10
4.965000000000003
 20
5.869999999999997
 30
0
 11
4.965000000000003
 21
5.630000000000001
 31
0
  0
LINE
  8
0
 62
7
  6
DASHDOT
 10
5.290000000000003
 20
6.019999999999997
 30
0
 11
5.340000000000003
 21
6.019999999999997
 31
0
  0
LINE
  8
0
 62
7
  6
DASHDOT
 10
5.115000000000002
 20
6.019999999999997
 30
0
 11
5.290000000000003
 21
6.019999999999997
 31
0
  0
LINE
  8
0
 62
7
  6
DASHDOT
 10
7.765000000000002
 20
5.350000000000001
 30
0
 11
7.765000000000002
 21
5.300000000000001
 31
0
  0
LINE
  8
0
 62
7
  6
DASHDOT
 10
7.765000000000002
 20
5.869999999999997
 30
0
 11
7.765000000000002
 21
5.630000000000001
 31
0
  0
LINE
  8
0
 62
7
  6
DASHDOT
 10
7.765000000000002
 20
5.919999999999997
 30
0
 11
7.765000000000002
 21
5.869999999999997
 31
0
  0
LINE
  8
0
 62
7
  6
DASHDOT
 10
4.965000000000003
 20
5.919999999999997
 30
0
 11
4.965000000000003
 21
5.869999999999997
 31
0
  0
LINE
  8
0
 62
7
  6
DASHDOT
 10
7.375000000000002
 20
6.019999999999997
 30
0
 11
7.425000000000002
 21
6.019999999999997
 31
0
  0
LINE
  8
0
 62
7
  6
DASHDOT
 10
5.065000000000002
 20
6.019999999999997
 30
0
 11
5.115000000000002
 21
6.019999999999997
 31
0
  0
LINE
  8
0
 62
7
 10
5.290000000000003
 20
3.35
 30
0
 11
5.290000000000003
 21
3.4
 31
0
  0
LINE
  8
0
 62
7
  6
DASHDOT
 10
7.425000000000002
 20
3.35
 30
0
 11
5.290000000000003
 21
3.35
 31
0
  0
LINE
  8
0
 62
7
 10
7.425000000000002
 20
3.4
 30
0
 11
7.425000000000002
 21
3.35
 31
0
  0
LINE
  8
0
 62
7
 10
5.290000000000003
 20
3.4
 30
0
 11
5.290000000000003
 21
5.350000000000001
 31
0
  0
LINE
  8
0
 62
7
 10
7.425000000000002
 20
3.4
 30
0
 11
5.290000000000003
 21
3.4
 31
0
  0
LINE
  8
0
 62
7
 10
7.425000000000002
 20
3.35
 30
0
 11
7.600000000000001
 21
3.35
 31
0
  0
LINE
  8
0
 62
7
 10
7.600000000000001
 20
5.350000000000001
 30
0
 11
7.765000000000002
 21
5.350000000000001
 31
0
  0
LINE
  8
0
 62
7
 10
7.600000000000001
 20
3.35
 30
0
 11
7.600000000000001
 21
5.350000000000001
 31
0
  0
LINE
  8
0
 62
7
 10
7.425000000000002
 20
5.350000000000001
 30
0
 11
7.425000000000002
 21
3.4
 31
0
  0
LINE
  8
0
 62
7
 10
5.290000000000003
 20
5.350000000000001
 30
0
 11
7.425000000000002
 21
5.350000000000001
 31
0
  0
LINE
  8
0
 62
7
 10
5.115000000000002
 20
5.350000000000001
 30
0
 11
5.115000000000002
 21
3.25
 31
0
  0
LINE
  8
0
 62
7
 10
5.115000000000002
 20
3.25
 30
0
 11
5.290000000000003
 21
3.25
 31
0
  0
LINE
  8
0
 62
7
 10
5.290000000000003
 20
3.25
 30
0
 11
5.290000000000003
 21
3.35
 31
0
  0
LINE
  8
0
 62
7
 10
4.965000000000003
 20
5.350000000000001
 30
0
 11
5.115000000000002
 21
5.350000000000001
 31
0
  0
LINE
  8
0
 62
7
 10
4.965000000000003
 20
5.59
 30
0
 11
7.765000000000002
 21
5.59
 31
0
  0
LINE
  8
0
 62
7
 10
4.965000000000003
 20
5.630000000000001
 30
0
 11
7.765000000000002
 21
5.630000000000001
 31
0
  0
LINE
  8
0
 62
7
 10
7.600000000000001
 20
5.869999999999997
 30
0
 11
7.765000000000002
 21
5.869999999999997
 31
0
  0
LINE
  8
0
 62
7
 10
7.600000000000001
 20
6.019999999999997
 30
0
 11
7.600000000000001
 21
5.869999999999997
 31
0
  0
LINE
  8
0
 62
7
 10
7.425000000000002
 20
5.869999999999997
 30
0
 11
7.425000000000002
 21
6.019999999999997
 31
0
  0
LINE
  8
0
 62
7
 10
5.290000000000003
 20
5.869999999999997
 30
0
 11
7.425000000000002
 21
5.869999999999997
 31
0
  0
LINE
  8
0
 62
7
 10
5.290000000000003
 20
6.019999999999997
 30
0
 11
5.290000000000003
 21
5.869999999999997
 31
0
  0
LINE
  8
0
 62
7
 10
5.115000000000002
 20
5.869999999999997
 30
0
 11
5.115000000000002
 21
6.019999999999997
 31
0
  0
LINE
  8
0
 62
7
 10
4.965000000000003
 20
5.869999999999997
 30
0
 11
5.115000000000002
 21
5.869999999999997
 31
0
  0
LINE
  8
0
 62
7
  6
DASHED
 10
0.7400000000000001
 20
8.1
 30
0
 11
2.740000000000002
 21
8.1
 31
0
  0
LINE
  8
0
 62
7
  6
DASHED
 10
0.7400000000000001
 20
8.299999999999999
 30
0
 11
2.740000000000002
 21
8.299999999999999
 31
0
  0
LINE
  8
0
 62
7
  6
DASHED
 10
0.7400000000000001
 20
10.85
 30
0
 11
2.740000000000002
 21
10.85
 31
0
  0
LINE
  8
0
 62
7
  6
DASHED
 10
0.7400000000000001
 20
11.05
 30
0
 11
2.740000000000002
 21
11.05
 31
0
  0
LINE
  8
0
 62
7
  6
DASHDOT
 10
3.040000000000003
 20
11.05
 30
0
 11
3.040000000000003
 21
10.85
 31
0
  0
LINE
  8
0
 62
7
  6
DASHDOT
 10
3.040000000000003
 20
10.85
 30
0
 11
3.040000000000003
 21
10.8
 31
0
  0
LINE
  8
0
 62
7
  6
DASHDOT
 10
0.5
 20
11.2
 30
0
 11
0.7400000000000001
 21
11.2
 31
0
  0
LINE
  8
0
 62
7
  6
DASHDOT
 10
0.7400000000000001
 20
11.2
 30
0
 11
0.79
 21
11.2
 31
0
  0
LINE
  8
0
 62
7
  6
DASHDOT
 10
0.7400000000000001
 20
7.949999999999999
 30
0
 11
0.79
 21
7.949999999999999
 31
0
  0
LINE
  8
0
 62
7
  6
DASHDOT
 10
0.5
 20
7.949999999999999
 30
0
 11
0.7400000000000001
 21
7.949999999999999
 31
0
  0
LINE
  8
0
 62
7
  6
DASHDOT
 10
3.040000000000003
 20
8.1
 30
0
 11
3.040000000000003
 21
8.299999999999999
 31
0
  0
LINE
  8
0
 62
7
  6
DASHDOT
 10
3.040000000000003
 20
8.299999999999999
 30
0
 11
3.040000000000003
 21
8.399999999999999
 31
0
  0
LINE
  8
0
 62
7
  6
DASHDOT
 10
3.040000000000003
 20
11.15
 30
0
 11
3.040000000000003
 21
11.05
 31
0
  0
LINE
  8
0
 62
7
 10
2.740000000000002
 20
11.15
 30
0
 11
3.040000000000003
 21
11.15
 31
0
  0
LINE
  8
0
 62
7
  6
DASHDOT
 10
3.040000000000003
 20
8.399999999999999
 30
0
 11
3.040000000000003
 21
8.449999999999999
 31
0
  0
LINE
  8
0
 62
7
 10
2.740000000000002
 20
8.399999999999999
 30
0
 11
3.040000000000003
 21
8.399999999999999
 31
0
  0
LINE
  8
0
 62
7
  6
DASHDOT
 10
0.45
 20
7.949999999999999
 30
0
 11
0.5
 21
7.949999999999999
 31
0
  0
LINE
  8
0
 62
7
  6
DASHDOT
 10
3.040000000000003
 20
8.049999999999999
 30
0
 11
3.040000000000003
 21
8.1
 31
0
  0
LINE
  8
0
 62
7
  6
DASHDOT
 10
3.040000000000003
 20
11.2
 30
0
 11
3.040000000000003
 21
11.15
 31
0
  0
LINE
  8
0
 62
7
  6
DASHDOT
 10
0.45
 20
11.2
 30
0
 11
0.5
 21
11.2
 31
0
  0
LINE
  8
0
 62
7
 10
2.740000000000002
 20
8.1
 30
0
 11
3.040000000000003
 21
8.1
 31
0
  0
LINE
  8
0
 62
7
 10
2.740000000000002
 20
8.299999999999999
 30
0
 11
2.740000000000002
 21
8.1
 31
0
  0
LINE
  8
0
 62
7
 10
2.740000000000002
 20
8.299999999999999
 30
0
 11
3.040000000000003
 21
8.299999999999999
 31
0
  0
LINE
  8
0
 62
7
 10
2.740000000000002
 20
11.05
 30
0
 11
3.040000000000003
 21
11.05
 31
0
  0
LINE
  8
0
 62
7
 10
2.740000000000002
 20
10.85
 30
0
 11
3.040000000000003
 21
10.85
 31
0
  0
LINE
  8
0
 62
7
 10
2.740000000000002
 20
11.05
 30
0
 11
2.740000000000002
 21
10.85
 31
0
  0
LINE
  8
0
 62
7
 10
0.7400000000000001
 20
8.1
 30
0
 11
0.7400000000000001
 21
7.949999999999999
 31
0
  0
LINE
  8
0
 62
7
 10
0.5
 20
8.1
 30
0
 11
0.5
 21
8.299999999999999
 31
0
  0
LINE
  8
0
 62
7
 10
0.5
 20
8.1
 30
0
 11
0.7400000000000001
 21
8.1
 31
0
  0
LINE
  8
0
 62
7
 10
0.7400000000000001
 20
8.299999999999999
 30
0
 11
0.7400000000000001
 21
8.1
 31
0
  0
LINE
  8
0
 62
7
 10
0.5
 20
8.299999999999999
 30
0
 11
0.5
 21
10.85
 31
0
  0
LINE
  8
0
 62
7
 10
0.5
 20
8.299999999999999
 30
0
 11
0.7400000000000001
 21
8.299999999999999
 31
0
  0
LINE
  8
0
 62
7
 10
0.7400000000000001
 20
10.85
 30
0
 11
0.7400000000000001
 21
8.299999999999999
 31
0
  0
LINE
  8
0
 62
7
 10
0.5
 20
10.85
 30
0
 11
0.5
 21
11.05
 31
0
  0
LINE
  8
0
 62
7
 10
0.5
 20
10.85
 30
0
 11
0.7400000000000001
 21
10.85
 31
0
  0
LINE
  8
0
 62
7
 10
0.7400000000000001
 20
11.05
 30
0
 11
0.7400000000000001
 21
10.85
 31
0
  0
LINE
  8
0
 62
7
 10
0.5
 20
11.05
 30
0
 11
0.5
 21
11.2
 31
0
  0
LINE
  8
0
 62
7
 10
0.5
 20
11.05
 30
0
 11
0.7400000000000001
 21
11.05
 31
0
  0
LINE
  8
0
 62
7
 10
0.7400000000000001
 20
11.2
 30
0
 11
0.7400000000000001
 21
11.05
 31
0
  0
LINE
  8
0
 62
7
 10
0.5
 20
7.949999999999999
 30
0
 11
0.5
 21
8.1
 31
0
  0
LINE
  8
0
 62
7
  6
DASHDOT
 10
5.065000000000002
 20
11.2
 30
0
 11
5.115000000000002
 21
11.2
 31
0
  0
LINE
  8
0
 62
7
  6
DASHDOT
 10
5.115000000000002
 20
11.2
 30
0
 11
5.290000000000003
 21
11.2
 31
0
  0
LINE
  8
0
 62
7
  6
DASHDOT
 10
4.965000000000003
 20
11.15
 30
0
 11
4.965000000000003
 21
11.05
 31
0
  0
LINE
  8
0
 62
7
  6
DASHDOT
 10
4.965000000000003
 20
11.05
 30
0
 11
4.965000000000003
 21
10.85
 31
0
  0
LINE
  8
0
 62
7
  6
DASHDOT
 10
7.375000000000002
 20
11.2
 30
0
 11
7.425000000000002
 21
11.2
 31
0
  0
LINE
  8
0
 62
7
  6
DASHDOT
 10
7.425000000000002
 20
11.2
 30
0
 11
7.600000000000001
 21
11.2
 31
0
  0
LINE
  8
0
 62
7
  6
DASHDOT
 10
7.750000000000002
 20
11.15
 30
0
 11
7.750000000000002
 21
11.05
 31
0
  0
LINE
  8
0
 62
7
  6
DASHDOT
 10
7.750000000000002
 20
11.05
 30
0
 11
7.750000000000002
 21
10.85
 31
0
  0
LINE
  8
0
 62
7
  6
DASHDOT
 10
7.375000000000002
 20
7.949999999999999
 30
0
 11
7.425000000000002
 21
7.949999999999999
 31
0
  0
LINE
  8
0
 62
7
  6
DASHDOT
 10
7.425000000000002
 20
7.949999999999999
 30
0
 11
7.600000000000001
 21
7.949999999999999
 31
0
  0
LINE
  8
0
 62
7
  6
DASHDOT
 10
7.750000000000002
 20
8.399999999999999
 30
0
 11
7.750000000000002
 21
8.299999999999999
 31
0
  0
LINE
  8
0
 62
7
  6
DASHDOT
 10
7.750000000000002
 20
8.299999999999999
 30
0
 11
7.750000000000002
 21
8.1
 31
0
  0
LINE
  8
0
 62
7
  6
DASHDOT
 10
5.065000000000002
 20
7.949999999999999
 30
0
 11
5.115000000000002
 21
7.949999999999999
 31
0
  0
LINE
  8
0
 62
7
  6
DASHDOT
 10
5.115000000000002
 20
7.949999999999999
 30
0
 11
5.290000000000003
 21
7.949999999999999
 31
0
  0
LINE
  8
0
 62
7
  6
DASHDOT
 10
4.965000000000003
 20
8.399999999999999
 30
0
 11
4.965000000000003
 21
8.299999999999999
 31
0
  0
LINE
  8
0
 62
7
  6
DASHDOT
 10
4.965000000000003
 20
8.299999999999999
 30
0
 11
4.965000000000003
 21
8.1
 31
0
  0
LINE
  8
0
 62
7
  6
DASHDOT
 10
4.965000000000003
 20
11.2
 30
0
 11
4.965000000000003
 21
11.15
 31
0
  0
LINE
  8
0
 62
7
 10
5.115000000000002
 20
11.2
 30
0
 11
5.115000000000002
 21
11.15
 31
0
  0
LINE
  8
0
 62
7
 10
4.965000000000003
 20
11.15
 30
0
 11
5.115000000000002
 21
11.15
 31
0
  0
LINE
  8
0
 62
7
 10
5.290000000000003
 20
11.2
 30
0
 11
5.290000000000003
 21
11.15
 31
0
  0
LINE
  8
0
 62
7
 10
7.425000000000002
 20
11.2
 30
0
 11
7.425000000000002
 21
11.15
 31
0
  0
LINE
  8
0
 62
7
 10
5.290000000000003
 20
11.15
 30
0
 11
7.425000000000002
 21
11.15
 31
0
  0
LINE
  8
0
 62
7
  6
DASHDOT
 10
7.750000000000002
 20
11.2
 30
0
 11
7.750000000000002
 21
11.15
 31
0
  0
LINE
  8
0
 62
7
 10
7.600000000000001
 20
11.2
 30
0
 11
7.600000000000001
 21
11.15
 31
0
  0
LINE
  8
0
 62
7
 10
7.600000000000001
 20
11.15
 30
0
 11
7.750000000000002
 21
11.15
 31
0
  0
LINE
  8
0
 62
7
  6
DASHDOT
 10
4.965000000000003
 20
8.449999999999999
 30
0
 11
4.965000000000003
 21
8.399999999999999
 31
0
  0
LINE
  8
0
 62
7
 10
5.115000000000002
 20
10.85
 30
0
 11
5.115000000000002
 21
8.399999999999999
 31
0
  0
LINE
  8
0
 62
7
 10
4.965000000000003
 20
8.399999999999999
 30
0
 11
5.115000000000002
 21
8.399999999999999
 31
0
  0
LINE
  8
0
 62
7
 10
5.290000000000003
 20
10.85
 30
0
 11
5.290000000000003
 21
8.399999999999999
 31
0
  0
LINE
  8
0
 62
7
 10
7.425000000000002
 20
10.85
 30
0
 11
7.425000000000002
 21
8.399999999999999
 31
0
  0
LINE
  8
0
 62
7
 10
5.290000000000003
 20
8.399999999999999
 30
0
 11
7.425000000000002
 21
8.399999999999999
 31
0
  0
LINE
  8
0
 62
7
  6
DASHDOT
 10
7.750000000000002
 20
8.449999999999999
 30
0
 11
7.750000000000002
 21
8.399999999999999
 31
0
  0
LINE
  8
0
 62
7
 10
7.600000000000001
 20
10.85
 30
0
 11
7.600000000000001
 21
8.399999999999999
 31
0
  0
LINE
  8
0
 62
7
 10
7.600000000000001
 20
8.399999999999999
 30
0
 11
7.750000000000002
 21
8.399999999999999
 31
0
  0
LINE
  8
0
 62
7
  6
DASHDOT
 10
5.290000000000003
 20
7.949999999999999
 30
0
 11
5.340000000000003
 21
7.949999999999999
 31
0
  0
LINE
  8
0
 62
7
  6
DASHDOT
 10
5.290000000000003
 20
11.2
 30
0
 11
5.340000000000003
 21
11.2
 31
0
  0
LINE
  8
0
 62
7
  6
DASHDOT
 10
7.600000000000001
 20
7.949999999999999
 30
0
 11
7.650000000000002
 21
7.949999999999999
 31
0
  0
LINE
  8
0
 62
7
  6
DASHDOT
 10
7.600000000000001
 20
11.2
 30
0
 11
7.650000000000002
 21
11.2
 31
0
  0
LINE
  8
0
 62
7
  6
DASHDOT
 10
4.965000000000003
 20
10.85
 30
0
 11
4.965000000000003
 21
10.8
 31
0
  0
LINE
  8
0
 62
7
  6
DASHDOT
 10
4.965000000000003
 20
8.1
 30
0
 11
4.965000000000003
 21
8.049999999999999
 31
0
  0
LINE
  8
0
 62
7
  6
DASHDOT
 10
7.750000000000002
 20
10.85
 30
0
 11
7.750000000000002
 21
10.8
 31
0
  0
LINE
  8
0
 62
7
  6
DASHDOT
 10
7.750000000000002
 20
8.1
 30
0
 11
7.750000000000002
 21
8.049999999999999
 31
0
  0
LINE
  8
0
 62
7
 10
4.965000000000003
 20
11.05
 30
0
 11
5.115000000000002
 21
11.05
 31
0
  0
LINE
  8
0
 62
7
 10
5.115000000000002
 20
11.15
 30
0
 11
5.115000000000002
 21
11.05
 31
0
  0
LINE
  8
0
 62
7
 10
4.965000000000003
 20
10.85
 30
0
 11
5.115000000000002
 21
10.85
 31
0
  0
LINE
  8
0
 62
7
 10
4.965000000000003
 20
8.299999999999999
 30
0
 11
5.115000000000002
 21
8.299999999999999
 31
0
  0
LINE
  8
0
 62
7
 10
5.115000000000002
 20
8.399999999999999
 30
0
 11
5.115000000000002
 21
8.299999999999999
 31
0
  0
LINE
  8
0
 62
7
 10
4.965000000000003
 20
8.1
 30
0
 11
5.115000000000002
 21
8.1
 31
0
  0
LINE
  8
0
 62
7
 10
5.115000000000002
 20
8.1
 30
0
 11
5.115000000000002
 21
7.949999999999999
 31
0
  0
LINE
  8
0
 62
7
 10
5.115000000000002
 20
11.05
 30
0
 11
5.290000000000003
 21
11.05
 31
0
  0
LINE
  8
0
 62
7
 10
5.290000000000003
 20
11.15
 30
0
 11
5.290000000000003
 21
11.05
 31
0
  0
LINE
  8
0
 62
7
 10
5.115000000000002
 20
10.85
 30
0
 11
5.290000000000003
 21
10.85
 31
0
  0
LINE
  8
0
 62
7
 10
5.115000000000002
 20
8.299999999999999
 30
0
 11
5.290000000000003
 21
8.299999999999999
 31
0
  0
LINE
  8
0
 62
7
 10
5.290000000000003
 20
8.399999999999999
 30
0
 11
5.290000000000003
 21
8.299999999999999
 31
0
  0
LINE
  8
0
 62
7
 10
5.115000000000002
 20
8.1
 30
0
 11
5.290000000000003
 21
8.1
 31
0
  0
LINE
  8
0
 62
7
 10
5.290000000000003
 20
8.1
 30
0
 11
5.290000000000003
 21
7.949999999999999
 31
0
  0
LINE
  8
0
 62
7
 10
5.290000000000003
 20
11.05
 30
0
 11
7.425000000000002
 21
11.05
 31
0
  0
LINE
  8
0
 62
7
 10
7.425000000000002
 20
11.15
 30
0
 11
7.425000000000002
 21
11.05
 31
0
  0
LINE
  8
0
 62
7
 10
5.290000000000003
 20
10.85
 30
0
 11
7.425000000000002
 21
10.85
 31
0
  0
LINE
  8
0
 62
7
 10
5.290000000000003
 20
8.299999999999999
 30
0
 11
7.425000000000002
 21
8.299999999999999
 31
0
  0
LINE
  8
0
 62
7
 10
7.425000000000002
 20
8.399999999999999
 30
0
 11
7.425000000000002
 21
8.299999999999999
 31
0
  0
LINE
  8
0
 62
7
 10
5.290000000000003
 20
8.1
 30
0
 11
7.425000000000002
 21
8.1
 31
0
  0
LINE
  8
0
 62
7
 10
7.425000000000002
 20
8.1
 30
0
 11
7.425000000000002
 21
7.949999999999999
 31
0
  0
LINE
  8
0
 62
7
 10
7.425000000000002
 20
11.05
 30
0
 11
7.600000000000001
 21
11.05
 31
0
  0
LINE
  8
0
 62
7
 10
7.600000000000001
 20
11.15
 30
0
 11
7.600000000000001
 21
11.05
 31
0
  0
LINE
  8
0
 62
7
 10
7.425000000000002
 20
10.85
 30
0
 11
7.600000000000001
 21
10.85
 31
0
  0
LINE
  8
0
 62
7
 10
7.425000000000002
 20
8.299999999999999
 30
0
 11
7.600000000000001
 21
8.299999999999999
 31
0
  0
LINE
  8
0
 62
7
 10
7.600000000000001
 20
8.399999999999999
 30
0
 11
7.600000000000001
 21
8.299999999999999
 31
0
  0
LINE
  8
0
 62
7
 10
7.425000000000002
 20
8.1
 30
0
 11
7.600000000000001
 21
8.1
 31
0
  0
LINE
  8
0
 62
7
 10
7.600000000000001
 20
8.1
 30
0
 11
7.600000000000001
 21
7.949999999999999
 31
0
  0
LINE
  8
0
 62
7
 10
7.600000000000001
 20
11.05
 30
0
 11
7.750000000000002
 21
11.05
 31
0
  0
LINE
  8
0
 62
7
 10
7.600000000000001
 20
10.85
 30
0
 11
7.750000000000002
 21
10.85
 31
0
  0
LINE
  8
0
 62
7
 10
7.600000000000001
 20
8.299999999999999
 30
0
 11
7.750000000000002
 21
8.299999999999999
 31
0
  0
LINE
  8
0
 62
7
 10
7.600000000000001
 20
8.1
 30
0
 11
7.750000000000002
 21
8.1
 31
0
  0
LINE
  8
0
 62
7
 10
5.551332079288031
 20
4.98956729234089
 30
0
 11
5.551332079288031
 21
5.109567292340891
 31
0
  0
LINE
  8
0
 62
7
 10
5.62693207928803
 20
5.109567292340891
 30
0
 11
5.57293207928803
 21
5.049567292340891
 31
0
  0
LINE
  8
0
 62
7
 10
5.57293207928803
 20
5.049567292340891
 30
0
 11
5.62693207928803
 21
4.98956729234089
 31
0
  0
LINE
  8
0
 62
7
 10
5.57293207928803
 20
5.049567292340891
 30
0
 11
5.551332079288031
 21
5.025567292340892
 31
0
  0
LINE
  8
0
 62
7
 10
5.73493207928803
 20
5.109567292340891
 30
0
 11
5.65933207928803
 21
5.109567292340891
 31
0
  0
LINE
  8
0
 62
7
 10
5.65933207928803
 20
5.109567292340891
 30
0
 11
5.65933207928803
 21
5.049567292340891
 31
0
  0
LINE
  8
0
 62
7
 10
5.65933207928803
 20
4.98956729234089
 30
0
 11
5.73493207928803
 21
4.98956729234089
 31
0
  0
LINE
  8
0
 62
7
 10
5.724132079288029
 20
5.049567292340891
 30
0
 11
5.65933207928803
 21
5.049567292340891
 31
0
  0
LINE
  8
0
 62
7
 10
5.65933207928803
 20
5.049567292340891
 30
0
 11
5.65933207928803
 21
4.98956729234089
 31
0
  0
LINE
  8
0
 62
7
 10
5.76733207928803
 20
4.98956729234089
 30
0
 11
5.76733207928803
 21
5.109567292340891
 31
0
  0
LINE
  8
0
 62
7
 10
5.76733207928803
 20
5.109567292340891
 30
0
 11
5.84293207928803
 21
4.98956729234089
 31
0
  0
LINE
  8
0
 62
7
 10
5.84293207928803
 20
4.98956729234089
 30
0
 11
5.84293207928803
 21
5.109567292340891
 31
0
  0
LINE
  8
0
 62
7
 10
5.87533207928803
 20
4.98956729234089
 30
0
 11
5.87533207928803
 21
5.109567292340891
 31
0
  0
LINE
  8
0
 62
7
 10
5.87533207928803
 20
5.109567292340891
 30
0
 11
5.950932079288031
 21
4.98956729234089
 31
0
  0
LINE
  8
0
 62
7
 10
5.950932079288031
 20
4.98956729234089
 30
0
 11
5.950932079288031
 21
5.109567292340891
 31
0
  0
LINE
  8
0
 62
7
 10
6.058932079288031
 20
5.073567292340891
 30
0
 11
6.05623207928803
 21
5.085567292340891
 31
0
  0
LINE
  8
0
 62
7
 10
6.05623207928803
 20
5.085567292340891
 30
0
 11
6.05083207928803
 21
5.094567292340891
 31
0
  0
LINE
  8
0
 62
7
 10
6.05083207928803
 20
5.094567292340891
 30
0
 11
6.04543207928803
 21
5.100567292340891
 31
0
  0
LINE
  8
0
 62
7
 10
6.04543207928803
 20
5.100567292340891
 30
0
 11
6.03733207928803
 21
5.106567292340891
 31
0
  0
LINE
  8
0
 62
7
 10
6.03733207928803
 20
5.106567292340891
 30
0
 11
6.029232079288031
 21
5.109567292340891
 31
0
  0
LINE
  8
0
 62
7
 10
6.029232079288031
 20
5.109567292340891
 30
0
 11
6.013032079288031
 21
5.109567292340891
 31
0
  0
LINE
  8
0
 62
7
 10
6.013032079288031
 20
5.109567292340891
 30
0
 11
6.004932079288031
 21
5.106567292340891
 31
0
  0
LINE
  8
0
 62
7
 10
6.004932079288031
 20
5.106567292340891
 30
0
 11
5.99683207928803
 21
5.100567292340891
 31
0
  0
LINE
  8
0
 62
7
 10
5.99683207928803
 20
5.100567292340891
 30
0
 11
5.99143207928803
 21
5.094567292340891
 31
0
  0
LINE
  8
0
 62
7
 10
5.99143207928803
 20
5.094567292340891
 30
0
 11
5.98603207928803
 21
5.085567292340891
 31
0
  0
LINE
  8
0
 62
7
 10
5.98603207928803
 20
5.085567292340891
 30
0
 11
5.983332079288029
 21
5.073567292340891
 31
0
  0
LINE
  8
0
 62
7
 10
5.983332079288029
 20
5.073567292340891
 30
0
 11
5.983332079288029
 21
5.025567292340892
 31
0
  0
LINE
  8
0
 62
7
 10
5.983332079288029
 20
5.025567292340892
 30
0
 11
5.98603207928803
 21
5.013567292340891
 31
0
  0
LINE
  8
0
 62
7
 10
5.98603207928803
 20
5.013567292340891
 30
0
 11
5.99143207928803
 21
5.004567292340891
 31
0
  0
LINE
  8
0
 62
7
 10
5.99143207928803
 20
5.004567292340891
 30
0
 11
5.99683207928803
 21
4.998567292340891
 31
0
  0
LINE
  8
0
 62
7
 10
5.99683207928803
 20
4.998567292340891
 30
0
 11
6.004932079288031
 21
4.992567292340891
 31
0
  0
LINE
  8
0
 62
7
 10
6.004932079288031
 20
4.992567292340891
 30
0
 11
6.013032079288031
 21
4.98956729234089
 31
0
  0
LINE
  8
0
 62
7
 10
6.013032079288031
 20
4.98956729234089
 30
0
 11
6.029232079288031
 21
4.98956729234089
 31
0
  0
LINE
  8
0
 62
7
 10
6.029232079288031
 20
4.98956729234089
 30
0
 11
6.03733207928803
 21
4.992567292340891
 31
0
  0
LINE
  8
0
 62
7
 10
6.03733207928803
 20
4.992567292340891
 30
0
 11
6.04543207928803
 21
4.998567292340891
 31
0
  0
LINE
  8
0
 62
7
 10
6.04543207928803
 20
4.998567292340891
 30
0
 11
6.05083207928803
 21
5.004567292340891
 31
0
  0
LINE
  8
0
 62
7
 10
6.05083207928803
 20
5.004567292340891
 30
0
 11
6.05623207928803
 21
5.013567292340891
 31
0
  0
LINE
  8
0
 62
7
 10
6.05623207928803
 20
5.013567292340891
 30
0
 11
6.058932079288031
 21
5.025567292340892
 31
0
  0
LINE
  8
0
 62
7
 10
6.058932079288031
 20
5.025567292340892
 30
0
 11
6.058932079288031
 21
5.049567292340891
 31
0
  0
LINE
  8
0
 62
7
 10
6.058932079288031
 20
5.049567292340891
 30
0
 11
6.026532079288031
 21
5.049567292340891
 31
0
  0
LINE
  8
0
 62
7
 10
6.137232079288029
 20
5.109567292340891
 30
0
 11
6.12103207928803
 21
5.109567292340891
 31
0
  0
LINE
  8
0
 62
7
 10
6.12103207928803
 20
5.109567292340891
 30
0
 11
6.11293207928803
 21
5.106567292340891
 31
0
  0
LINE
  8
0
 62
7
 10
6.11293207928803
 20
5.106567292340891
 30
0
 11
6.10483207928803
 21
5.100567292340891
 31
0
  0
LINE
  8
0
 62
7
 10
6.10483207928803
 20
5.100567292340891
 30
0
 11
6.099432079288031
 21
5.094567292340891
 31
0
  0
LINE
  8
0
 62
7
 10
6.099432079288031
 20
5.094567292340891
 30
0
 11
6.094032079288031
 21
5.085567292340891
 31
0
  0
LINE
  8
0
 62
7
 10
6.094032079288031
 20
5.085567292340891
 30
0
 11
6.091332079288031
 21
5.073567292340891
 31
0
  0
LINE
  8
0
 62
7
 10
6.091332079288031
 20
5.073567292340891
 30
0
 11
6.091332079288031
 21
5.025567292340892
 31
0
  0
LINE
  8
0
 62
7
 10
6.091332079288031
 20
5.025567292340892
 30
0
 11
6.094032079288031
 21
5.013567292340891
 31
0
  0
LINE
  8
0
 62
7
 10
6.094032079288031
 20
5.013567292340891
 30
0
 11
6.099432079288031
 21
5.004567292340891
 31
0
  0
LINE
  8
0
 62
7
 10
6.099432079288031
 20
5.004567292340891
 30
0
 11
6.10483207928803
 21
4.998567292340891
 31
0
  0
LINE
  8
0
 62
7
 10
6.10483207928803
 20
4.998567292340891
 30
0
 11
6.11293207928803
 21
4.992567292340891
 31
0
  0
LINE
  8
0
 62
7
 10
6.11293207928803
 20
4.992567292340891
 30
0
 11
6.12103207928803
 21
4.98956729234089
 31
0
  0
LINE
  8
0
 62
7
 10
6.12103207928803
 20
4.98956729234089
 30
0
 11
6.137232079288029
 21
4.98956729234089
 31
0
  0
LINE
  8
0
 62
7
 10
6.137232079288029
 20
4.98956729234089
 30
0
 11
6.14533207928803
 21
4.992567292340891
 31
0
  0
LINE
  8
0
 62
7
 10
6.14533207928803
 20
4.992567292340891
 30
0
 11
6.153432079288031
 21
4.998567292340891
 31
0
  0
LINE
  8
0
 62
7
 10
6.153432079288031
 20
4.998567292340891
 30
0
 11
6.158832079288031
 21
5.004567292340891
 31
0
  0
LINE
  8
0
 62
7
 10
6.158832079288031
 20
5.004567292340891
 30
0
 11
6.164232079288031
 21
5.013567292340891
 31
0
  0
LINE
  8
0
 62
7
 10
6.164232079288031
 20
5.013567292340891
 30
0
 11
6.166932079288031
 21
5.025567292340892
 31
0
  0
LINE
  8
0
 62
7
 10
6.166932079288031
 20
5.025567292340892
 30
0
 11
6.166932079288031
 21
5.073567292340891
 31
0
  0
LINE
  8
0
 62
7
 10
6.166932079288031
 20
5.073567292340891
 30
0
 11
6.164232079288031
 21
5.085567292340891
 31
0
  0
LINE
  8
0
 62
7
 10
6.164232079288031
 20
5.085567292340891
 30
0
 11
6.158832079288031
 21
5.094567292340891
 31
0
  0
LINE
  8
0
 62
7
 10
6.158832079288031
 20
5.094567292340891
 30
0
 11
6.153432079288031
 21
5.100567292340891
 31
0
  0
LINE
  8
0
 62
7
 10
6.153432079288031
 20
5.100567292340891
 30
0
 11
6.14533207928803
 21
5.106567292340891
 31
0
  0
LINE
  8
0
 62
7
 10
6.14533207928803
 20
5.106567292340891
 30
0
 11
6.137232079288029
 21
5.109567292340891
 31
0
  0
LINE
  8
0
 62
7
 10
6.188532079288031
 20
5.109567292340891
 30
0
 11
6.226332079288031
 21
5.109567292340891
 31
0
  0
LINE
  8
0
 62
7
 10
6.226332079288031
 20
5.109567292340891
 30
0
 11
6.226332079288031
 21
4.98956729234089
 31
0
  0
LINE
  8
0
 62
7
 10
6.226332079288031
 20
5.109567292340891
 30
0
 11
6.264132079288031
 21
5.109567292340891
 31
0
  0
LINE
  8
0
 62
7
 10
6.296532079288031
 20
5.109567292340891
 30
0
 11
6.334332079288032
 21
5.109567292340891
 31
0
  0
LINE
  8
0
 62
7
 10
6.334332079288032
 20
5.109567292340891
 30
0
 11
6.334332079288032
 21
4.98956729234089
 31
0
  0
LINE
  8
0
 62
7
 10
6.334332079288032
 20
5.109567292340891
 30
0
 11
6.372132079288031
 21
5.109567292340891
 31
0
  0
LINE
  8
0
 62
7
 10
6.490932079288031
 20
5.031567292340891
 30
0
 11
6.544932079288031
 21
5.031567292340891
 31
0
  0
LINE
  8
0
 62
7
 10
6.65293207928803
 20
5.109567292340891
 30
0
 11
6.690732079288032
 21
5.109567292340891
 31
0
  0
LINE
  8
0
 62
7
 10
6.690732079288032
 20
5.109567292340891
 30
0
 11
6.690732079288032
 21
4.98956729234089
 31
0
  0
LINE
  8
0
 62
7
 10
6.690732079288032
 20
5.109567292340891
 30
0
 11
6.72853207928803
 21
5.109567292340891
 31
0
  0
LINE
  8
0
 62
7
 10
6.760932079288032
 20
4.98956729234089
 30
0
 11
6.760932079288032
 21
5.109567292340891
 31
0
  0
LINE
  8
0
 62
7
 10
6.760932079288032
 20
5.109567292340891
 30
0
 11
6.812232079288032
 21
5.109567292340891
 31
0
  0
LINE
  8
0
 62
7
 10
6.812232079288032
 20
5.109567292340891
 30
0
 11
6.823032079288031
 21
5.106567292340891
 31
0
  0
LINE
  8
0
 62
7
 10
6.823032079288031
 20
5.106567292340891
 30
0
 11
6.831132079288031
 21
5.100567292340891
 31
0
  0
LINE
  8
0
 62
7
 10
6.831132079288031
 20
5.100567292340891
 30
0
 11
6.833832079288031
 21
5.094567292340891
 31
0
  0
LINE
  8
0
 62
7
 10
6.833832079288031
 20
5.094567292340891
 30
0
 11
6.836532079288031
 21
5.085567292340891
 31
0
  0
LINE
  8
0
 62
7
 10
6.836532079288031
 20
5.085567292340891
 30
0
 11
6.836532079288031
 21
5.073567292340891
 31
0
  0
LINE
  8
0
 62
7
 10
6.836532079288031
 20
5.073567292340891
 30
0
 11
6.833832079288031
 21
5.06456729234089
 31
0
  0
LINE
  8
0
 62
7
 10
6.833832079288031
 20
5.06456729234089
 30
0
 11
6.831132079288031
 21
5.05856729234089
 31
0
  0
LINE
  8
0
 62
7
 10
6.831132079288031
 20
5.05856729234089
 30
0
 11
6.823032079288031
 21
5.052567292340892
 31
0
  0
LINE
  8
0
 62
7
 10
6.823032079288031
 20
5.052567292340892
 30
0
 11
6.812232079288032
 21
5.049567292340891
 31
0
  0
LINE
  8
0
 62
7
 10
6.812232079288032
 20
5.049567292340891
 30
0
 11
6.80413207928803
 21
5.049567292340891
 31
0
  0
LINE
  8
0
 62
7
 10
6.80413207928803
 20
5.049567292340891
 30
0
 11
6.836532079288031
 21
4.98956729234089
 31
0
  0
LINE
  8
0
 62
7
 10
6.80413207928803
 20
5.049567292340891
 30
0
 11
6.760932079288032
 21
5.049567292340891
 31
0
  0
LINE
  8
0
 62
7
 10
6.933732079288031
 20
5.109567292340891
 30
0
 11
6.858132079288031
 21
5.109567292340891
 31
0
  0
LINE
  8
0
 62
7
 10
6.858132079288031
 20
5.109567292340891
 30
0
 11
6.858132079288031
 21
5.049567292340891
 31
0
  0
LINE
  8
0
 62
7
 10
6.858132079288031
 20
4.98956729234089
 30
0
 11
6.933732079288031
 21
4.98956729234089
 31
0
  0
LINE
  8
0
 62
7
 10
6.922932079288032
 20
5.049567292340891
 30
0
 11
6.858132079288031
 21
5.049567292340891
 31
0
  0
LINE
  8
0
 62
7
 10
6.858132079288031
 20
5.049567292340891
 30
0
 11
6.858132079288031
 21
4.98956729234089
 31
0
  0
LINE
  8
0
 62
7
 10
6.966132079288032
 20
4.98956729234089
 30
0
 11
6.966132079288032
 21
5.049567292340891
 31
0
  0
LINE
  8
0
 62
7
 10
6.966132079288032
 20
5.109567292340891
 30
0
 11
7.017432079288032
 21
5.109567292340891
 31
0
  0
LINE
  8
0
 62
7
 10
7.017432079288032
 20
5.109567292340891
 30
0
 11
7.028232079288033
 21
5.106567292340891
 31
0
  0
LINE
  8
0
 62
7
 10
7.028232079288033
 20
5.106567292340891
 30
0
 11
7.036332079288032
 21
5.100567292340891
 31
0
  0
LINE
  8
0
 62
7
 10
7.036332079288032
 20
5.100567292340891
 30
0
 11
7.039032079288032
 21
5.094567292340891
 31
0
  0
LINE
  8
0
 62
7
 10
7.039032079288032
 20
5.094567292340891
 30
0
 11
7.041732079288032
 21
5.085567292340891
 31
0
  0
LINE
  8
0
 62
7
 10
7.041732079288032
 20
5.085567292340891
 30
0
 11
7.041732079288032
 21
5.073567292340891
 31
0
  0
LINE
  8
0
 62
7
 10
7.041732079288032
 20
5.073567292340891
 30
0
 11
7.039032079288032
 21
5.06456729234089
 31
0
  0
LINE
  8
0
 62
7
 10
7.039032079288032
 20
5.06456729234089
 30
0
 11
7.036332079288032
 21
5.05856729234089
 31
0
  0
LINE
  8
0
 62
7
 10
7.036332079288032
 20
5.05856729234089
 30
0
 11
7.028232079288033
 21
5.052567292340892
 31
0
  0
LINE
  8
0
 62
7
 10
7.028232079288033
 20
5.052567292340892
 30
0
 11
7.017432079288032
 21
5.049567292340891
 31
0
  0
LINE
  8
0
 62
7
 10
7.017432079288032
 20
5.049567292340891
 30
0
 11
6.966132079288032
 21
5.049567292340891
 31
0
  0
LINE
  8
0
 62
7
 10
6.966132079288032
 20
5.049567292340891
 30
0
 11
6.966132079288032
 21
5.109567292340891
 31
0
  0
LINE
  8
0
 62
7
 10
7.063332079288031
 20
4.98956729234089
 30
0
 11
7.063332079288031
 21
5.049567292340891
 31
0
  0
LINE
  8
0
 62
7
 10
7.063332079288031
 20
5.109567292340891
 30
0
 11
7.114632079288031
 21
5.109567292340891
 31
0
  0
LINE
  8
0
 62
7
 10
7.114632079288031
 20
5.109567292340891
 30
0
 11
7.125432079288031
 21
5.106567292340891
 31
0
  0
LINE
  8
0
 62
7
 10
7.125432079288031
 20
5.106567292340891
 30
0
 11
7.133532079288031
 21
5.100567292340891
 31
0
  0
LINE
  8
0
 62
7
 10
7.133532079288031
 20
5.100567292340891
 30
0
 11
7.13623207928803
 21
5.094567292340891
 31
0
  0
LINE
  8
0
 62
7
 10
7.13623207928803
 20
5.094567292340891
 30
0
 11
7.138932079288032
 21
5.085567292340891
 31
0
  0
LINE
  8
0
 62
7
 10
7.138932079288032
 20
5.085567292340891
 30
0
 11
7.138932079288032
 21
5.073567292340891
 31
0
  0
LINE
  8
0
 62
7
 10
7.138932079288032
 20
5.073567292340891
 30
0
 11
7.13623207928803
 21
5.06456729234089
 31
0
  0
LINE
  8
0
 62
7
 10
7.13623207928803
 20
5.06456729234089
 30
0
 11
7.133532079288031
 21
5.05856729234089
 31
0
  0
LINE
  8
0
 62
7
 10
7.133532079288031
 20
5.05856729234089
 30
0
 11
7.125432079288031
 21
5.052567292340892
 31
0
  0
LINE
  8
0
 62
7
 10
7.125432079288031
 20
5.052567292340892
 30
0
 11
7.114632079288031
 21
5.049567292340891
 31
0
  0
LINE
  8
0
 62
7
 10
7.114632079288031
 20
5.049567292340891
 30
0
 11
7.063332079288031
 21
5.049567292340891
 31
0
  0
LINE
  8
0
 62
7
 10
7.063332079288031
 20
5.049567292340891
 30
0
 11
7.063332079288031
 21
5.109567292340891
 31
0
  0
LINE
  8
0
 62
7
 10
7.236132079288033
 20
5.109567292340891
 30
0
 11
7.160532079288031
 21
5.109567292340891
 31
0
  0
LINE
  8
0
 62
7
 10
7.160532079288031
 20
5.109567292340891
 30
0
 11
7.160532079288031
 21
5.049567292340891
 31
0
  0
LINE
  8
0
 62
7
 10
7.160532079288031
 20
4.98956729234089
 30
0
 11
7.236132079288033
 21
4.98956729234089
 31
0
  0
LINE
  8
0
 62
7
 10
7.225332079288032
 20
5.049567292340891
 30
0
 11
7.160532079288031
 21
5.049567292340891
 31
0
  0
LINE
  8
0
 62
7
 10
7.160532079288031
 20
5.049567292340891
 30
0
 11
7.160532079288031
 21
4.98956729234089
 31
0
  0
LINE
  8
0
 62
7
 10
4.775000000000001
 20
3.01
 30
0
 11
4.850600000000003
 21
3.01
 31
0
  0
LINE
  8
0
 62
7
 10
4.850600000000003
 20
3.01
 30
0
 11
4.775000000000001
 21
2.890000000000001
 31
0
  0
LINE
  8
0
 62
7
 10
4.775000000000001
 20
2.890000000000001
 30
0
 11
4.850600000000003
 21
2.890000000000001
 31
0
  0
LINE
  8
0
 62
7
 10
4.883000000000002
 20
3.01
 30
0
 11
4.883000000000002
 21
2.95
 31
0
  0
LINE
  8
0
 62
7
 10
4.883000000000002
 20
2.95
 30
0
 11
4.958600000000001
 21
2.95
 31
0
  0
LINE
  8
0
 62
7
 10
4.958600000000001
 20
3.01
 30
0
 11
4.958600000000001
 21
2.95
 31
0
  0
LINE
  8
0
 62
7
 10
4.958600000000001
 20
2.95
 30
0
 11
4.958600000000001
 21
2.890000000000001
 31
0
  0
LINE
  8
0
 62
7
 10
4.883000000000002
 20
2.95
 30
0
 11
4.883000000000002
 21
2.890000000000001
 31
0
  0
LINE
  8
0
 62
7
 10
4.991000000000001
 20
3.01
 30
0
 11
5.020700000000001
 21
2.890000000000001
 31
0
  0
LINE
  8
0
 62
7
 10
5.020700000000001
 20
2.890000000000001
 30
0
 11
5.045000000000002
 21
3.01
 31
0
  0
LINE
  8
0
 62
7
 10
5.045000000000002
 20
3.01
 30
0
 11
5.069300000000002
 21
2.890000000000001
 31
0
  0
LINE
  8
0
 62
7
 10
5.069300000000002
 20
2.890000000000001
 30
0
 11
5.099000000000001
 21
3.01
 31
0
  0
LINE
  8
0
 62
7
 10
5.120600000000003
 20
2.992
 30
0
 11
5.126000000000002
 21
3.001
 31
0
  0
LINE
  8
0
 62
7
 10
5.126000000000002
 20
3.001
 30
0
 11
5.134100000000003
 21
3.007
 31
0
  0
LINE
  8
0
 62
7
 10
5.134100000000003
 20
3.007
 30
0
 11
5.144900000000002
 21
3.01
 31
0
  0
LINE
  8
0
 62
7
 10
5.144900000000002
 20
3.01
 30
0
 11
5.161100000000001
 21
3.01
 31
0
  0
LINE
  8
0
 62
7
 10
5.161100000000001
 20
3.01
 30
0
 11
5.171900000000002
 21
3.007
 31
0
  0
LINE
  8
0
 62
7
 10
5.171900000000002
 20
3.007
 30
0
 11
5.180000000000001
 21
3.001
 31
0
  0
LINE
  8
0
 62
7
 10
5.180000000000001
 20
3.001
 30
0
 11
5.185400000000001
 21
2.992
 31
0
  0
LINE
  8
0
 62
7
 10
5.185400000000001
 20
2.992
 30
0
 11
5.185400000000001
 21
2.98
 31
0
  0
LINE
  8
0
 62
7
 10
5.185400000000001
 20
2.98
 30
0
 11
5.180000000000001
 21
2.968
 31
0
  0
LINE
  8
0
 62
7
 10
5.180000000000001
 20
2.968
 30
0
 11
5.120600000000003
 21
2.890000000000001
 31
0
  0
LINE
  8
0
 62
7
 10
5.120600000000003
 20
2.890000000000001
 30
0
 11
5.185400000000001
 21
2.890000000000001
 31
0
  0
LINE
  8
0
 62
7
 10
5.217800000000001
 20
2.974
 30
0
 11
5.250200000000001
 21
3.01
 31
0
  0
LINE
  8
0
 62
7
 10
5.250200000000001
 20
3.01
 30
0
 11
5.250200000000001
 21
2.890000000000001
 31
0
  0
LINE
  8
0
 62
7
 10
5.282600000000002
 20
2.992
 30
0
 11
5.288000000000001
 21
3.001
 31
0
  0
LINE
  8
0
 62
7
 10
5.288000000000001
 20
3.001
 30
0
 11
5.296100000000002
 21
3.007
 31
0
  0
LINE
  8
0
 62
7
 10
5.296100000000002
 20
3.007
 30
0
 11
5.306900000000002
 21
3.01
 31
0
  0
LINE
  8
0
 62
7
 10
5.306900000000002
 20
3.01
 30
0
 11
5.323100000000003
 21
3.01
 31
0
  0
LINE
  8
0
 62
7
 10
5.323100000000003
 20
3.01
 30
0
 11
5.331200000000003
 21
3.007
 31
0
  0
LINE
  8
0
 62
7
 10
5.331200000000003
 20
3.007
 30
0
 11
5.339300000000002
 21
3.001
 31
0
  0
LINE
  8
0
 62
7
 10
5.339300000000002
 20
3.001
 30
0
 11
5.344700000000002
 21
2.992
 31
0
  0
LINE
  8
0
 62
7
 10
5.344700000000002
 20
2.992
 30
0
 11
5.347400000000002
 21
2.98
 31
0
  0
LINE
  8
0
 62
7
 10
5.347400000000002
 20
2.98
 30
0
 11
5.347400000000002
 21
2.971
 31
0
  0
LINE
  8
0
 62
7
 10
5.347400000000002
 20
2.971
 30
0
 11
5.344700000000002
 21
2.962
 31
0
  0
LINE
  8
0
 62
7
 10
5.344700000000002
 20
2.962
 30
0
 11
5.339300000000002
 21
2.956
 31
0
  0
LINE
  8
0
 62
7
 10
5.339300000000002
 20
2.956
 30
0
 11
5.325800000000001
 21
2.95
 31
0
  0
LINE
  8
0
 62
7
 10
5.306900000000002
 20
2.95
 30
0
 11
5.325800000000001
 21
2.95
 31
0
  0
LINE
  8
0
 62
7
 10
5.325800000000001
 20
2.95
 30
0
 11
5.339300000000002
 21
2.944
 31
0
  0
LINE
  8
0
 62
7
 10
5.339300000000002
 20
2.944
 30
0
 11
5.344700000000002
 21
2.938
 31
0
  0
LINE
  8
0
 62
7
 10
5.344700000000002
 20
2.938
 30
0
 11
5.347400000000002
 21
2.929
 31
0
  0
LINE
  8
0
 62
7
 10
5.347400000000002
 20
2.929
 30
0
 11
5.347400000000002
 21
2.92
 31
0
  0
LINE
  8
0
 62
7
 10
5.347400000000002
 20
2.92
 30
0
 11
5.344700000000002
 21
2.908
 31
0
  0
LINE
  8
0
 62
7
 10
5.344700000000002
 20
2.908
 30
0
 11
5.339300000000002
 21
2.899
 31
0
  0
LINE
  8
0
 62
7
 10
5.339300000000002
 20
2.899
 30
0
 11
5.331200000000003
 21
2.893
 31
0
  0
LINE
  8
0
 62
7
 10
5.331200000000003
 20
2.893
 30
0
 11
5.323100000000003
 21
2.890000000000001
 31
0
  0
LINE
  8
0
 62
7
 10
5.323100000000003
 20
2.890000000000001
 30
0
 11
5.306900000000002
 21
2.890000000000001
 31
0
  0
LINE
  8
0
 62
7
 10
5.306900000000002
 20
2.890000000000001
 30
0
 11
5.296100000000002
 21
2.893
 31
0
  0
LINE
  8
0
 62
7
 10
5.296100000000002
 20
2.893
 30
0
 11
5.288000000000001
 21
2.899
 31
0
  0
LINE
  8
0
 62
7
 10
5.288000000000001
 20
2.899
 30
0
 11
5.282600000000002
 21
2.908
 31
0
  0
LINE
  8
0
 62
7
 10
5.379800000000001
 20
2.890000000000001
 30
0
 11
5.379800000000001
 21
3.01
 31
0
  0
LINE
  8
0
 62
7
 10
5.379800000000001
 20
3.01
 30
0
 11
5.431100000000002
 21
3.01
 31
0
  0
LINE
  8
0
 62
7
 10
5.431100000000002
 20
3.01
 30
0
 11
5.441900000000002
 21
3.007
 31
0
  0
LINE
  8
0
 62
7
 10
5.441900000000002
 20
3.007
 30
0
 11
5.450000000000001
 21
3.001
 31
0
  0
LINE
  8
0
 62
7
 10
5.450000000000001
 20
3.001
 30
0
 11
5.452700000000001
 21
2.995
 31
0
  0
LINE
  8
0
 62
7
 10
5.452700000000001
 20
2.995
 30
0
 11
5.455400000000002
 21
2.986
 31
0
  0
LINE
  8
0
 62
7
 10
5.455400000000002
 20
2.986
 30
0
 11
5.455400000000002
 21
2.974
 31
0
  0
LINE
  8
0
 62
7
 10
5.455400000000002
 20
2.974
 30
0
 11
5.452700000000001
 21
2.965
 31
0
  0
LINE
  8
0
 62
7
 10
5.452700000000001
 20
2.965
 30
0
 11
5.450000000000001
 21
2.959
 31
0
  0
LINE
  8
0
 62
7
 10
5.450000000000001
 20
2.959
 30
0
 11
5.441900000000002
 21
2.953
 31
0
  0
LINE
  8
0
 62
7
 10
5.441900000000002
 20
2.953
 30
0
 11
5.431100000000002
 21
2.95
 31
0
  0
LINE
  8
0
 62
7
 10
5.431100000000002
 20
2.95
 30
0
 11
5.423000000000002
 21
2.95
 31
0
  0
LINE
  8
0
 62
7
 10
5.423000000000002
 20
2.95
 30
0
 11
5.455400000000002
 21
2.890000000000001
 31
0
  0
LINE
  8
0
 62
7
 10
5.423000000000002
 20
2.95
 30
0
 11
5.379800000000001
 21
2.95
 31
0
  0
LINE
  8
0
 62
7
 10
5.477000000000002
 20
2.938
 30
0
 11
5.479700000000002
 21
2.95
 31
0
  0
LINE
  8
0
 62
7
 10
5.479700000000002
 20
2.95
 30
0
 11
5.485100000000002
 21
2.959
 31
0
  0
LINE
  8
0
 62
7
 10
5.485100000000002
 20
2.959
 30
0
 11
5.493200000000002
 21
2.965
 31
0
  0
LINE
  8
0
 62
7
 10
5.493200000000002
 20
2.965
 30
0
 11
5.501300000000001
 21
2.968
 31
0
  0
LINE
  8
0
 62
7
 10
5.501300000000001
 20
2.968
 30
0
 11
5.517500000000002
 21
2.968
 31
0
  0
LINE
  8
0
 62
7
 10
5.517500000000002
 20
2.968
 30
0
 11
5.525600000000003
 21
2.965
 31
0
  0
LINE
  8
0
 62
7
 10
5.525600000000003
 20
2.965
 30
0
 11
5.533700000000001
 21
2.959
 31
0
  0
LINE
  8
0
 62
7
 10
5.533700000000001
 20
2.959
 30
0
 11
5.539100000000002
 21
2.95
 31
0
  0
LINE
  8
0
 62
7
 10
5.539100000000002
 20
2.95
 30
0
 11
5.541800000000002
 21
2.938
 31
0
  0
LINE
  8
0
 62
7
 10
5.541800000000002
 20
2.938
 30
0
 11
5.541800000000002
 21
2.92
 31
0
  0
LINE
  8
0
 62
7
 10
5.541800000000002
 20
2.92
 30
0
 11
5.539100000000002
 21
2.908
 31
0
  0
LINE
  8
0
 62
7
 10
5.539100000000002
 20
2.908
 30
0
 11
5.533700000000001
 21
2.899
 31
0
  0
LINE
  8
0
 62
7
 10
5.533700000000001
 20
2.899
 30
0
 11
5.525600000000003
 21
2.893
 31
0
  0
LINE
  8
0
 62
7
 10
5.525600000000003
 20
2.893
 30
0
 11
5.517500000000002
 21
2.890000000000001
 31
0
  0
LINE
  8
0
 62
7
 10
5.517500000000002
 20
2.890000000000001
 30
0
 11
5.501300000000001
 21
2.890000000000001
 31
0
  0
LINE
  8
0
 62
7
 10
5.501300000000001
 20
2.890000000000001
 30
0
 11
5.493200000000002
 21
2.893
 31
0
  0
LINE
  8
0
 62
7
 10
5.493200000000002
 20
2.893
 30
0
 11
5.485100000000002
 21
2.899
 31
0
  0
LINE
  8
0
 62
7
 10
5.485100000000002
 20
2.899
 30
0
 11
5.479700000000002
 21
2.908
 31
0
  0
LINE
  8
0
 62
7
 10
5.479700000000002
 20
2.908
 30
0
 11
5.477000000000002
 21
2.92
 31
0
  0
LINE
  8
0
 62
7
 10
5.477000000000002
 20
2.92
 30
0
 11
5.477000000000002
 21
2.938
 31
0
  0
LINE
  8
0
 62
7
 10
5.477000000000002
 20
2.98
 30
0
 11
5.479700000000002
 21
2.992
 31
0
  0
LINE
  8
0
 62
7
 10
5.479700000000002
 20
2.992
 30
0
 11
5.485100000000002
 21
3.001
 31
0
  0
LINE
  8
0
 62
7
 10
5.485100000000002
 20
3.001
 30
0
 11
5.493200000000002
 21
3.007
 31
0
  0
LINE
  8
0
 62
7
 10
5.493200000000002
 20
3.007
 30
0
 11
5.501300000000001
 21
3.01
 31
0
  0
LINE
  8
0
 62
7
 10
5.501300000000001
 20
3.01
 30
0
 11
5.517500000000002
 21
3.01
 31
0
  0
LINE
  8
0
 62
7
 10
5.517500000000002
 20
3.01
 30
0
 11
5.525600000000003
 21
3.007
 31
0
  0
LINE
  8
0
 62
7
 10
5.525600000000003
 20
3.007
 30
0
 11
5.533700000000001
 21
3.001
 31
0
  0
LINE
  8
0
 62
7
 10
5.533700000000001
 20
3.001
 30
0
 11
5.539100000000002
 21
2.992
 31
0
  0
LINE
  8
0
 62
7
 10
5.477000000000002
 20
2.938
 30
0
 11
5.477000000000002
 21
2.98
 31
0
  0
LINE
  8
0
 62
7
 10
7.275000000000002
 20
2.890000000000001
 30
0
 11
7.275000000000002
 21
2.99
 31
0
  0
LINE
  8
0
 62
7
 10
7.275000000000002
 20
2.99
 30
0
 11
7.338000000000003
 21
2.890000000000001
 31
0
  0
LINE
  8
0
 62
7
 10
7.338000000000003
 20
2.890000000000001
 30
0
 11
7.338000000000003
 21
2.99
 31
0
  0
LINE
  8
0
 62
7
 10
7.419000000000001
 20
2.890000000000001
 30
0
 11
7.365000000000001
 21
2.890000000000001
 31
0
  0
LINE
  8
0
 62
7
 10
7.365000000000001
 20
2.890000000000001
 30
0
 11
7.365000000000001
 21
2.99
 31
0
  0
LINE
  8
0
 62
7
 10
7.446000000000002
 20
2.94
 30
0
 11
7.482000000000003
 21
2.94
 31
0
  0
LINE
  8
0
 62
7
 10
7.482000000000003
 20
2.94
 30
0
 11
7.486500000000001
 21
2.94
 31
0
  0
LINE
  8
0
 62
7
 10
7.486500000000001
 20
2.94
 30
0
 11
7.495500000000003
 21
2.935
 31
0
  0
LINE
  8
0
 62
7
 10
7.495500000000003
 20
2.935
 30
0
 11
7.500000000000002
 21
2.93
 31
0
  0
LINE
  8
0
 62
7
 10
7.500000000000002
 20
2.93
 30
0
 11
7.504500000000002
 21
2.92
 31
0
  0
LINE
  8
0
 62
7
 10
7.504500000000002
 20
2.92
 30
0
 11
7.504500000000002
 21
2.91
 31
0
  0
LINE
  8
0
 62
7
 10
7.504500000000002
 20
2.91
 30
0
 11
7.500000000000002
 21
2.9
 31
0
  0
LINE
  8
0
 62
7
 10
7.500000000000002
 20
2.9
 30
0
 11
7.495500000000003
 21
2.895
 31
0
  0
LINE
  8
0
 62
7
 10
7.495500000000003
 20
2.895
 30
0
 11
7.486500000000001
 21
2.890000000000001
 31
0
  0
LINE
  8
0
 62
7
 10
7.486500000000001
 20
2.890000000000001
 30
0
 11
7.446000000000002
 21
2.890000000000001
 31
0
  0
LINE
  8
0
 62
7
 10
7.446000000000002
 20
2.890000000000001
 30
0
 11
7.446000000000002
 21
2.94
 31
0
  0
LINE
  8
0
 62
7
 10
7.446000000000002
 20
2.99
 30
0
 11
7.479750000000002
 21
2.99
 31
0
  0
LINE
  8
0
 62
7
 10
7.479750000000002
 20
2.99
 30
0
 11
7.491000000000003
 21
2.9875
 31
0
  0
LINE
  8
0
 62
7
 10
7.491000000000003
 20
2.9875
 30
0
 11
7.497750000000001
 21
2.98
 31
0
  0
LINE
  8
0
 62
7
 10
7.497750000000001
 20
2.98
 30
0
 11
7.500000000000002
 21
2.97
 31
0
  0
LINE
  8
0
 62
7
 10
7.500000000000002
 20
2.97
 30
0
 11
7.500000000000002
 21
2.96
 31
0
  0
LINE
  8
0
 62
7
 10
7.500000000000002
 20
2.96
 30
0
 11
7.495500000000003
 21
2.95
 31
0
  0
LINE
  8
0
 62
7
 10
7.495500000000003
 20
2.95
 30
0
 11
7.488750000000002
 21
2.9425
 31
0
  0
LINE
  8
0
 62
7
 10
7.488750000000002
 20
2.9425
 30
0
 11
7.482000000000003
 21
2.94
 31
0
  0
LINE
  8
0
 62
7
 10
7.446000000000002
 20
2.94
 30
0
 11
7.446000000000002
 21
2.99
 31
0
  0
LINE
  8
0
 62
7
 10
7.646250000000001
 20
2.9425
 30
0
 11
7.639500000000003
 21
2.952500000000001
 31
0
  0
LINE
  8
0
 62
7
 10
7.639500000000003
 20
2.952500000000001
 30
0
 11
7.632750000000001
 21
2.9575
 31
0
  0
LINE
  8
0
 62
7
 10
7.632750000000001
 20
2.9575
 30
0
 11
7.626000000000002
 21
2.96
 31
0
  0
LINE
  8
0
 62
7
 10
7.626000000000002
 20
2.96
 30
0
 11
7.617000000000002
 21
2.96
 31
0
  0
LINE
  8
0
 62
7
 10
7.617000000000002
 20
2.96
 30
0
 11
7.610250000000001
 21
2.9575
 31
0
  0
LINE
  8
0
 62
7
 10
7.610250000000001
 20
2.9575
 30
0
 11
7.603500000000003
 21
2.952500000000001
 31
0
  0
LINE
  8
0
 62
7
 10
7.603500000000003
 20
2.952500000000001
 30
0
 11
7.596750000000002
 21
2.9425
 31
0
  0
LINE
  8
0
 62
7
 10
7.596750000000002
 20
2.9425
 30
0
 11
7.594500000000003
 21
2.935
 31
0
  0
LINE
  8
0
 62
7
 10
7.594500000000003
 20
2.935
 30
0
 11
7.594500000000003
 21
2.915
 31
0
  0
LINE
  8
0
 62
7
 10
7.594500000000003
 20
2.915
 30
0
 11
7.596750000000002
 21
2.9075
 31
0
  0
LINE
  8
0
 62
7
 10
7.596750000000002
 20
2.9075
 30
0
 11
7.603500000000003
 21
2.8975
 31
0
  0
LINE
  8
0
 62
7
 10
7.603500000000003
 20
2.8975
 30
0
 11
7.610250000000001
 21
2.8925
 31
0
  0
LINE
  8
0
 62
7
 10
7.610250000000001
 20
2.8925
 30
0
 11
7.617000000000002
 21
2.890000000000001
 31
0
  0
LINE
  8
0
 62
7
 10
7.617000000000002
 20
2.890000000000001
 30
0
 11
7.626000000000002
 21
2.890000000000001
 31
0
  0
LINE
  8
0
 62
7
 10
7.626000000000002
 20
2.890000000000001
 30
0
 11
7.632750000000001
 21
2.8925
 31
0
  0
LINE
  8
0
 62
7
 10
7.632750000000001
 20
2.8925
 30
0
 11
7.639500000000003
 21
2.8975
 31
0
  0
LINE
  8
0
 62
7
 10
7.639500000000003
 20
2.8975
 30
0
 11
7.646250000000001
 21
2.9075
 31
0
  0
LINE
  8
0
 62
7
 10
7.718250000000002
 20
2.935
 30
0
 11
7.716000000000003
 21
2.9425
 31
0
  0
LINE
  8
0
 62
7
 10
7.716000000000003
 20
2.9425
 30
0
 11
7.709250000000002
 21
2.952500000000001
 31
0
  0
LINE
  8
0
 62
7
 10
7.709250000000002
 20
2.952500000000001
 30
0
 11
7.702500000000001
 21
2.9575
 31
0
  0
LINE
  8
0
 62
7
 10
7.702500000000001
 20
2.9575
 30
0
 11
7.695750000000003
 21
2.96
 31
0
  0
LINE
  8
0
 62
7
 10
7.695750000000003
 20
2.96
 30
0
 11
7.686750000000003
 21
2.96
 31
0
  0
LINE
  8
0
 62
7
 10
7.686750000000003
 20
2.96
 30
0
 11
7.680000000000001
 21
2.9575
 31
0
  0
LINE
  8
0
 62
7
 10
7.680000000000001
 20
2.9575
 30
0
 11
7.673250000000002
 21
2.952500000000001
 31
0
  0
LINE
  8
0
 62
7
 10
7.673250000000002
 20
2.952500000000001
 30
0
 11
7.666500000000001
 21
2.9425
 31
0
  0
LINE
  8
0
 62
7
 10
7.666500000000001
 20
2.9425
 30
0
 11
7.664250000000003
 21
2.935
 31
0
  0
LINE
  8
0
 62
7
 10
7.664250000000003
 20
2.935
 30
0
 11
7.664250000000003
 21
2.915
 31
0
  0
LINE
  8
0
 62
7
 10
7.664250000000003
 20
2.915
 30
0
 11
7.666500000000001
 21
2.9075
 31
0
  0
LINE
  8
0
 62
7
 10
7.666500000000001
 20
2.9075
 30
0
 11
7.673250000000002
 21
2.8975
 31
0
  0
LINE
  8
0
 62
7
 10
7.673250000000002
 20
2.8975
 30
0
 11
7.680000000000001
 21
2.8925
 31
0
  0
LINE
  8
0
 62
7
 10
7.680000000000001
 20
2.8925
 30
0
 11
7.686750000000003
 21
2.890000000000001
 31
0
  0
LINE
  8
0
 62
7
 10
7.686750000000003
 20
2.890000000000001
 30
0
 11
7.695750000000003
 21
2.890000000000001
 31
0
  0
LINE
  8
0
 62
7
 10
7.695750000000003
 20
2.890000000000001
 30
0
 11
7.702500000000001
 21
2.8925
 31
0
  0
LINE
  8
0
 62
7
 10
7.702500000000001
 20
2.8925
 30
0
 11
7.709250000000002
 21
2.8975
 31
0
  0
LINE
  8
0
 62
7
 10
7.709250000000002
 20
2.8975
 30
0
 11
7.716000000000003
 21
2.9075
 31
0
  0
LINE
  8
0
 62
7
 10
7.716000000000003
 20
2.9075
 30
0
 11
7.718250000000002
 21
2.915
 31
0
  0
LINE
  8
0
 62
7
 10
7.718250000000002
 20
2.96
 30
0
 11
7.718250000000002
 21
2.935
 31
0
  0
LINE
  8
0
 62
7
 10
7.718250000000002
 20
2.8925
 30
0
 11
7.720500000000003
 21
2.890000000000001
 31
0
  0
LINE
  8
0
 62
7
 10
7.720500000000003
 20
2.890000000000001
 30
0
 11
7.722750000000001
 21
2.890000000000001
 31
0
  0
LINE
  8
0
 62
7
 10
7.718250000000002
 20
2.915
 30
0
 11
7.718250000000002
 21
2.8925
 31
0
  0
LINE
  8
0
 62
7
 10
7.718250000000002
 20
2.935
 30
0
 11
7.718250000000002
 21
2.915
 31
0
  0
LINE
  8
0
 62
7
 10
7.740750000000002
 20
2.890000000000001
 30
0
 11
7.740750000000002
 21
2.8925
 31
0
  0
LINE
  8
0
 62
7
 10
7.740750000000002
 20
2.8925
 30
0
 11
7.743000000000002
 21
2.8925
 31
0
  0
LINE
  8
0
 62
7
 10
7.743000000000002
 20
2.8925
 30
0
 11
7.743000000000002
 21
2.890000000000001
 31
0
  0
LINE
  8
0
 62
7
 10
7.743000000000002
 20
2.890000000000001
 30
0
 11
7.740750000000002
 21
2.890000000000001
 31
0
  0
LINE
  8
0
 62
7
 10
7.866750000000002
 20
2.99
 30
0
 11
7.875750000000003
 21
2.99
 31
0
  0
LINE
  8
0
 62
7
 10
7.875750000000003
 20
2.99
 30
0
 11
7.882500000000002
 21
2.9875
 31
0
  0
LINE
  8
0
 62
7
 10
7.882500000000002
 20
2.9875
 30
0
 11
7.887000000000002
 21
2.9825
 31
0
  0
LINE
  8
0
 62
7
 10
7.887000000000002
 20
2.9825
 30
0
 11
7.891500000000001
 21
2.975
 31
0
  0
LINE
  8
0
 62
7
 10
7.891500000000001
 20
2.975
 30
0
 11
7.891500000000001
 21
2.965
 31
0
  0
LINE
  8
0
 62
7
 10
7.891500000000001
 20
2.965
 30
0
 11
7.889250000000003
 21
2.96
 31
0
  0
LINE
  8
0
 62
7
 10
7.889250000000003
 20
2.96
 30
0
 11
7.882500000000002
 21
2.952500000000001
 31
0
  0
LINE
  8
0
 62
7
 10
7.882500000000002
 20
2.952500000000001
 30
0
 11
7.875750000000003
 21
2.95
 31
0
  0
LINE
  8
0
 62
7
 10
7.875750000000003
 20
2.95
 30
0
 11
7.866750000000002
 21
2.95
 31
0
  0
LINE
  8
0
 62
7
 10
7.866750000000002
 20
2.95
 30
0
 11
7.860000000000001
 21
2.952500000000001
 31
0
  0
LINE
  8
0
 62
7
 10
7.860000000000001
 20
2.952500000000001
 30
0
 11
7.853250000000002
 21
2.96
 31
0
  0
LINE
  8
0
 62
7
 10
7.853250000000002
 20
2.96
 30
0
 11
7.851000000000003
 21
2.965
 31
0
  0
LINE
  8
0
 62
7
 10
7.851000000000003
 20
2.965
 30
0
 11
7.851000000000003
 21
2.975
 31
0
  0
LINE
  8
0
 62
7
 10
7.851000000000003
 20
2.975
 30
0
 11
7.855500000000003
 21
2.9825
 31
0
  0
LINE
  8
0
 62
7
 10
7.855500000000003
 20
2.9825
 30
0
 11
7.860000000000001
 21
2.9875
 31
0
  0
LINE
  8
0
 62
7
 10
7.860000000000001
 20
2.9875
 30
0
 11
7.866750000000002
 21
2.99
 31
0
  0
LINE
  8
0
 62
7
 10
7.866750000000002
 20
2.95
 30
0
 11
7.855500000000003
 21
2.945
 31
0
  0
LINE
  8
0
 62
7
 10
7.855500000000003
 20
2.945
 30
0
 11
7.848750000000002
 21
2.9375
 31
0
  0
LINE
  8
0
 62
7
 10
7.848750000000002
 20
2.9375
 30
0
 11
7.844250000000002
 21
2.9275
 31
0
  0
LINE
  8
0
 62
7
 10
7.844250000000002
 20
2.9275
 30
0
 11
7.844250000000002
 21
2.9125
 31
0
  0
LINE
  8
0
 62
7
 10
7.844250000000002
 20
2.9125
 30
0
 11
7.848750000000002
 21
2.9025
 31
0
  0
LINE
  8
0
 62
7
 10
7.848750000000002
 20
2.9025
 30
0
 11
7.855500000000003
 21
2.895
 31
0
  0
LINE
  8
0
 62
7
 10
7.855500000000003
 20
2.895
 30
0
 11
7.864500000000003
 21
2.890000000000001
 31
0
  0
LINE
  8
0
 62
7
 10
7.864500000000003
 20
2.890000000000001
 30
0
 11
7.878000000000002
 21
2.890000000000001
 31
0
  0
LINE
  8
0
 62
7
 10
7.878000000000002
 20
2.890000000000001
 30
0
 11
7.887000000000002
 21
2.895
 31
0
  0
LINE
  8
0
 62
7
 10
7.887000000000002
 20
2.895
 30
0
 11
7.893750000000002
 21
2.9025
 31
0
  0
LINE
  8
0
 62
7
 10
7.893750000000002
 20
2.9025
 30
0
 11
7.898250000000002
 21
2.9125
 31
0
  0
LINE
  8
0
 62
7
 10
7.898250000000002
 20
2.9125
 30
0
 11
7.898250000000002
 21
2.9275
 31
0
  0
LINE
  8
0
 62
7
 10
7.898250000000002
 20
2.9275
 30
0
 11
7.893750000000002
 21
2.9375
 31
0
  0
LINE
  8
0
 62
7
 10
7.893750000000002
 20
2.9375
 30
0
 11
7.887000000000002
 21
2.945
 31
0
  0
LINE
  8
0
 62
7
 10
7.887000000000002
 20
2.945
 30
0
 11
7.875750000000003
 21
2.95
 31
0
  0
LINE
  8
0
 62
7
 10
7.988250000000003
 20
2.95
 30
0
 11
7.986000000000002
 21
2.94
 31
0
  0
LINE
  8
0
 62
7
 10
7.986000000000002
 20
2.94
 30
0
 11
7.981500000000001
 21
2.9325
 31
0
  0
LINE
  8
0
 62
7
 10
7.981500000000001
 20
2.9325
 30
0
 11
7.974750000000002
 21
2.9275
 31
0
  0
LINE
  8
0
 62
7
 10
7.974750000000002
 20
2.9275
 30
0
 11
7.968000000000003
 21
2.925
 31
0
  0
LINE
  8
0
 62
7
 10
7.968000000000003
 20
2.925
 30
0
 11
7.954500000000002
 21
2.925
 31
0
  0
LINE
  8
0
 62
7
 10
7.954500000000002
 20
2.925
 30
0
 11
7.947750000000001
 21
2.9275
 31
0
  0
LINE
  8
0
 62
7
 10
7.947750000000001
 20
2.9275
 30
0
 11
7.941000000000003
 21
2.9325
 31
0
  0
LINE
  8
0
 62
7
 10
7.941000000000003
 20
2.9325
 30
0
 11
7.936500000000001
 21
2.94
 31
0
  0
LINE
  8
0
 62
7
 10
7.936500000000001
 20
2.94
 30
0
 11
7.934250000000002
 21
2.95
 31
0
  0
LINE
  8
0
 62
7
 10
7.934250000000002
 20
2.95
 30
0
 11
7.934250000000002
 21
2.965
 31
0
  0
LINE
  8
0
 62
7
 10
7.934250000000002
 20
2.965
 30
0
 11
7.936500000000001
 21
2.975
 31
0
  0
LINE
  8
0
 62
7
 10
7.936500000000001
 20
2.975
 30
0
 11
7.941000000000003
 21
2.9825
 31
0
  0
LINE
  8
0
 62
7
 10
7.941000000000003
 20
2.9825
 30
0
 11
7.947750000000001
 21
2.9875
 31
0
  0
LINE
  8
0
 62
7
 10
7.947750000000001
 20
2.9875
 30
0
 11
7.954500000000002
 21
2.99
 31
0
  0
LINE
  8
0
 62
7
 10
7.954500000000002
 20
2.99
 30
0
 11
7.968000000000003
 21
2.99
 31
0
  0
LINE
  8
0
 62
7
 10
7.968000000000003
 20
2.99
 30
0
 11
7.974750000000002
 21
2.9875
 31
0
  0
LINE
  8
0
 62
7
 10
7.974750000000002
 20
2.9875
 30
0
 11
7.981500000000001
 21
2.9825
 31
0
  0
LINE
  8
0
 62
7
 10
7.981500000000001
 20
2.9825
 30
0
 11
7.986000000000002
 21
2.975
 31
0
  0
LINE
  8
0
 62
7
 10
7.986000000000002
 20
2.975
 30
0
 11
7.988250000000003
 21
2.965
 31
0
  0
LINE
  8
0
 62
7
 10
7.988250000000003
 20
2.965
 30
0
 11
7.988250000000003
 21
2.95
 31
0
  0
LINE
  8
0
 62
7
 10
7.988250000000003
 20
2.915
 30
0
 11
7.986000000000002
 21
2.905
 31
0
  0
LINE
  8
0
 62
7
 10
7.986000000000002
 20
2.905
 30
0
 11
7.981500000000001
 21
2.8975
 31
0
  0
LINE
  8
0
 62
7
 10
7.981500000000001
 20
2.8975
 30
0
 11
7.974750000000002
 21
2.8925
 31
0
  0
LINE
  8
0
 62
7
 10
7.974750000000002
 20
2.8925
 30
0
 11
7.968000000000003
 21
2.890000000000001
 31
0
  0
LINE
  8
0
 62
7
 10
7.968000000000003
 20
2.890000000000001
 30
0
 11
7.954500000000002
 21
2.890000000000001
 31
0
  0
LINE
  8
0
 62
7
 10
7.954500000000002
 20
2.890000000000001
 30
0
 11
7.947750000000001
 21
2.8925
 31
0
  0
LINE
  8
0
 62
7
 10
7.947750000000001
 20
2.8925
 30
0
 11
7.941000000000003
 21
2.8975
 31
0
  0
LINE
  8
0
 62
7
 10
7.941000000000003
 20
2.8975
 30
0
 11
7.936500000000001
 21
2.905
 31
0
  0
LINE
  8
0
 62
7
 10
7.988250000000003
 20
2.95
 30
0
 11
7.988250000000003
 21
2.915
 31
0
  0
LINE
  8
0
 62
7
 10
8.139000000000001
 20
2.9425
 30
0
 11
8.132250000000003
 21
2.952500000000001
 31
0
  0
LINE
  8
0
 62
7
 10
8.132250000000003
 20
2.952500000000001
 30
0
 11
8.125500000000002
 21
2.9575
 31
0
  0
LINE
  8
0
 62
7
 10
8.125500000000002
 20
2.9575
 30
0
 11
8.118750000000002
 21
2.96
 31
0
  0
LINE
  8
0
 62
7
 10
8.118750000000002
 20
2.96
 30
0
 11
8.109750000000004
 21
2.96
 31
0
  0
LINE
  8
0
 62
7
 10
8.109750000000004
 20
2.96
 30
0
 11
8.103000000000002
 21
2.9575
 31
0
  0
LINE
  8
0
 62
7
 10
8.103000000000002
 20
2.9575
 30
0
 11
8.096250000000001
 21
2.952500000000001
 31
0
  0
LINE
  8
0
 62
7
 10
8.096250000000001
 20
2.952500000000001
 30
0
 11
8.089500000000003
 21
2.9425
 31
0
  0
LINE
  8
0
 62
7
 10
8.089500000000003
 20
2.9425
 30
0
 11
8.087250000000003
 21
2.935
 31
0
  0
LINE
  8
0
 62
7
 10
8.087250000000003
 20
2.935
 30
0
 11
8.087250000000003
 21
2.915
 31
0
  0
LINE
  8
0
 62
7
 10
8.087250000000003
 20
2.915
 30
0
 11
8.089500000000003
 21
2.9075
 31
0
  0
LINE
  8
0
 62
7
 10
8.089500000000003
 20
2.9075
 30
0
 11
8.096250000000001
 21
2.8975
 31
0
  0
LINE
  8
0
 62
7
 10
8.096250000000001
 20
2.8975
 30
0
 11
8.103000000000002
 21
2.8925
 31
0
  0
LINE
  8
0
 62
7
 10
8.103000000000002
 20
2.8925
 30
0
 11
8.109750000000004
 21
2.890000000000001
 31
0
  0
LINE
  8
0
 62
7
 10
8.109750000000004
 20
2.890000000000001
 30
0
 11
8.118750000000002
 21
2.890000000000001
 31
0
  0
LINE
  8
0
 62
7
 10
8.118750000000002
 20
2.890000000000001
 30
0
 11
8.125500000000002
 21
2.8925
 31
0
  0
LINE
  8
0
 62
7
 10
8.125500000000002
 20
2.8925
 30
0
 11
8.132250000000003
 21
2.8975
 31
0
  0
LINE
  8
0
 62
7
 10
8.132250000000003
 20
2.8975
 30
0
 11
8.139000000000001
 21
2.9075
 31
0
  0
LINE
  8
0
 62
7
 10
8.197500000000002
 20
2.935
 30
0
 11
8.197500000000002
 21
2.890000000000001
 31
0
  0
LINE
  8
0
 62
7
 10
8.157000000000002
 20
2.96
 30
0
 11
8.157000000000002
 21
2.935
 31
0
  0
LINE
  8
0
 62
7
 10
8.157000000000002
 20
2.890000000000001
 30
0
 11
8.157000000000002
 21
2.935
 31
0
  0
LINE
  8
0
 62
7
 10
8.157000000000002
 20
2.935
 30
0
 11
8.159250000000002
 21
2.9475
 31
0
  0
LINE
  8
0
 62
7
 10
8.159250000000002
 20
2.9475
 30
0
 11
8.161500000000002
 21
2.952500000000001
 31
0
  0
LINE
  8
0
 62
7
 10
8.161500000000002
 20
2.952500000000001
 30
0
 11
8.166000000000002
 21
2.9575
 31
0
  0
LINE
  8
0
 62
7
 10
8.166000000000002
 20
2.9575
 30
0
 11
8.172750000000001
 21
2.96
 31
0
  0
LINE
  8
0
 62
7
 10
8.172750000000001
 20
2.96
 30
0
 11
8.181750000000003
 21
2.96
 31
0
  0
LINE
  8
0
 62
7
 10
8.181750000000003
 20
2.96
 30
0
 11
8.188500000000003
 21
2.9575
 31
0
  0
LINE
  8
0
 62
7
 10
8.188500000000003
 20
2.9575
 30
0
 11
8.193000000000001
 21
2.952500000000001
 31
0
  0
LINE
  8
0
 62
7
 10
8.193000000000001
 20
2.952500000000001
 30
0
 11
8.19525
 21
2.9475
 31
0
  0
LINE
  8
0
 62
7
 10
8.19525
 20
2.9475
 30
0
 11
8.197500000000002
 21
2.935
 31
0
  0
LINE
  8
0
 62
7
 10
8.197500000000002
 20
2.935
 30
0
 11
8.19975
 21
2.9475
 31
0
  0
LINE
  8
0
 62
7
 10
8.19975
 20
2.9475
 30
0
 11
8.202
 21
2.952500000000001
 31
0
  0
LINE
  8
0
 62
7
 10
8.202
 20
2.952500000000001
 30
0
 11
8.206500000000004
 21
2.9575
 31
0
  0
LINE
  8
0
 62
7
 10
8.206500000000004
 20
2.9575
 30
0
 11
8.21325
 21
2.96
 31
0
  0
LINE
  8
0
 62
7
 10
8.21325
 20
2.96
 30
0
 11
8.222250000000001
 21
2.96
 31
0
  0
LINE
  8
0
 62
7
 10
8.222250000000001
 20
2.96
 30
0
 11
8.229000000000001
 21
2.9575
 31
0
  0
LINE
  8
0
 62
7
 10
8.233500000000001
 20
2.952500000000001
 30
0
 11
8.229000000000001
 21
2.9575
 31
0
  0
LINE
  8
0
 62
7
 10
8.229000000000001
 20
2.9575
 30
0
 11
8.233500000000001
 21
2.952500000000001
 31
0
  0
LINE
  8
0
 62
7
 10
8.233500000000001
 20
2.952500000000001
 30
0
 11
8.235750000000001
 21
2.9475
 31
0
  0
LINE
  8
0
 62
7
 10
8.235750000000001
 20
2.9475
 30
0
 11
8.238
 21
2.935
 31
0
  0
LINE
  8
0
 62
7
 10
8.238
 20
2.935
 30
0
 11
8.238
 21
2.890000000000001
 31
0
  0
ARC
  8
0
 62
7
 10
6.294040435876471
 20
4.34595956412355
 30
0
 40
0.4740000000000067
 50
89.88398135378102
 51
180.1160186452097
  0
ARC
  8
0
 62
7
 10
6.42095956412355
 20
4.34595956412355
 30
0
 40
0.4740000000000075
 50
359.8839813537348
 51
90.11601864584762
  0
CIRCLE
  8
0
 62
7
 10
5.82004140763533
 20
3.25
 30
0
 40
0.0600000000000005
  0
DIMENSION
  8
0
  6
CONTINUOUS
 62
7
  2
*D0
  3
DMST_1
 10
7.929963241923571
 20
3.35
 30
0
 11
7.929963241923571
 21
4.3225633321978
 31
0
 12
0
 22
0
 32
0
 70
0
 13
7.600000000000001
 23
5.350000000000001
 33
0
 14
7.600000000000001
 24
3.35
 34
0
 50
90
 53
0
  0
DIMENSION
  8
0
  6
CONTINUOUS
 62
7
  2
*D1
  3
DMST_1
 10
7.425000000000002
 20
6.18240026400953
 30
0
 11
6.42864909214784
 21
6.18240026400953
 31
0
 12
0
 22
0
 32
0
 70
0
 13
5.290000000000003
 23
5.869999999999997
 33
0
 14
7.425000000000002
 24
5.869999999999997
 34
0
 53
0
  0
DIMENSION
  8
0
  6
CONTINUOUS
 62
7
  2
*D2
  3
DMST_1
 10
4.80409273604724
 20
3.25
 30
0
 11
4.80409273604724
 21
4.255340310566061
 31
0
 12
0
 22
0
 32
0
 70
0
 13
5.115000000000002
 23
5.350000000000001
 33
0
 14
5.115000000000002
 24
3.25
 34
0
 50
90
 53
0
  0
DIMENSION
  8
0
  6
CONTINUOUS
 62
7
  2
*D3
  3
DMST_2
 10
7.425000000000001
 20
11.4818151359791
 30
0
 11
6.37262990745472
 21
11.4818151359791
 31
0
 12
0
 22
0
 32
0
 70
0
 13
5.290000000000003
 23
11.2
 33
0
 14
7.425000000000002
 24
11.2
 34
0
 53
0
  0
INSERT
  8
0
  2
*D4
 10
0
 20
0
 30
0
  0
ENDSEC
  0
EOF
