  0
SECTION
  2
HEADER
  9
$ACADVER
  1
AC1009
  9
$INSBASE
 10
0
 20
0
  9
$EXTMIN
 10
0.479142086101163
 20
2.889999999999999
  9
$EXTMAX
 10
8.25
 20
11.5678367462954
  9
$LIMMIN
 10
0.479142086101163
 20
2.889999999999999
  9
$LIMMAX
 10
8.25
 20
11.5678367462954
  9
$VIEWCTR
 10
10
 20
10
  9
$VIEWSIZE
 40
10
  9
$SNAPMODE
 70
0
  9
$SNAPUNIT
 10
1
 20
1
  9
$SNAPBASE
 10
0
 20
0
  9
$SNAPANG
 50
0
  9
$SNAPSTYLE
 70
0
  9
$SNAPISOPAIR
 70
0
  9
$GRIDMODE
 70
0
  9
$GRIDUNIT
 10
0
 20
0
  9
$ORTHOMODE
 70
0
  9
$REGENMODE
 70
1
  9
$FILLMODE
 70
1
  9
$QTEXTMODE
 70
0
  9
$DRAGMODE
 70
2
  9
$LTSCALE
 40
1
  9
$OSMODE
 70
0
  9
$ATTMODE
 70
1
  9
$TEXTSIZE
 40
3.5
  9
$TRACEWID
 40
0.5
  9
$TEXTSTYLE
  7
STANDARD
  9
$CLAYER
  8
0
  9
$CELTYPE
  6
BYLAYER
  9
$CECOLOR
 62
256
  9
$DIMSCALE
 40
1
  9
$DIMASZ
 40
0.18
  9
$DIMEXO
 40
0.0625
  9
$DIMDLI
 40
0.38
  9
$DIMRND
 40
0
  9
$DIMDLE
 40
0
  9
$DIMEXE
 40
0.18
  9
$DIMTP
 40
0
  9
$DIMTM
 40
0
  9
$DIMTXT
 40
0.18
  9
$DIMCEN
 40
0.09
  9
$DIMTSZ
 40
0
  9
$DIMTOL
 70
0
  9
$DIMLIM
 70
0
  9
$DIMTIH
 70
1
  9
$DIMTOH
 70
1
  9
$DIMSE1
 70
0
  9
$DIMSE2
 70
0
  9
$DIMTAD
 70
0
  9
$DIMZIN
 70
0
  9
$DIMBLK
  1

  9
$DIMASO
 70
1
  9
$DIMSHO
 70
1
  9
$DIMPOST
  1

  9
$DIMAPOST
  1

  9
$DIMALT
 70
0
  9
$DIMALTD
 70
2
  9
$DIMALTF
 40
25.4
  9
$DIMLFAC
 40
1
  9
$DIMTOFL
 70
0
  9
$DIMTVP
 40
0
  9
$DIMTIX
 70
0
  9
$DIMSOXD
 70
0
  9
$DIMSAH
 70
0
  9
$DIMBLK1
  1

  9
$DIMBLK2
  1

  9
$DIMSTYLE
  2
*UNNAMED
  9
$DIMCLRD
 70
0
  9
$DIMCLRE
 70
0
  9
$DIMCLRT
 70
0
  9
$DIMTFAC
 40
1
  9
$DIMGAP
 40
0.09
  9
$LUNITS
 70
2
  9
$LUPREC
 70
4
  9
$AXISMODE
 70
0
  9
$AXISUNIT
 10
0
 20
0
  9
$SKETCHINC
 40
0.1
  9
$FILLETRAD
 40
2
  9
$AUNITS
 70
0
  9
$AUPREC
 70
0
  9
$MENU
  1
ACAD
  9
$ELEVATION
 40
0
  9
$THICKNESS
 40
0
  9
$VIEWDIR
 10
0
 20
0
 30
1
  9
$LIMCHECK
 70
0
  9
$BLIPMODE
 70
1
  9
$CHAMFERA
 40
0
  9
$CHAMFERB
 40
0
  9
$FASTZOOM
 70
1
  9
$SKPOLY
 70
0
  9
$ANGBASE
 50
0
  9
$ANGDIR
 70
0
  9
$PDMODE
 70
0
  9
$PDSIZE
 40
0
  9
$PLINEWID
 40
0
  9
$COORDS
 70
2
  0
ENDSEC
  0
SECTION
  2
TABLES
  0
TABLE
  2
DIMSTYLE
 70
2
  0
DIMSTYLE
  2
DMST_1
 70
0
  3

  4

  5

  6

  7

 40
1
 41
0.1
 42
0
 43
0.7
 44
0.2
 45
0
 46
0
 47
0
 48
0
140
0.1
141
0
142
0.1
143
25.4
144
1
145
0
146
1
147
0.2
 71
0
 72
0
 73
0
 74
0
 75
0
 76
0
 77
0
 78
9
170
0
171
2
172
0
173
0
174
0
175
0
176
7
177
7
178
7
  0
DIMSTYLE
  2
DMST_2
 70
0
  3

  4

  5

  6

  7

 40
1
 41
0.1
 42
0
 43
0.7
 44
0.2
 45
0
 46
0
 47
0
 48
0
140
0.1
141
0
142
0.1
143
25.4
144
1
145
0
146
1
147
0.25
 71
0
 72
0
 73
0
 74
0
 75
0
 76
0
 77
0
 78
9
170
0
171
2
172
0
173
0
174
0
175
0
176
7
177
7
178
7
  0
ENDTAB
  0
TABLE
  2
LTYPE
 70
9
  0
LTYPE
  2
CONTINUOUS
 70
64
  3
Solid line
 72
65
 73
0
 40
0
  0
LTYPE
  2
BORDER
 70
64
  3
__ __ . __ __ .
 72
65
 73
6
 40
0.3996372185793935
 49
0.1141820624512553
 49
-0.05709103122562764
 49
0.1141820624512553
 49
-0.05709103122562764
 49
0
 49
-0.05709103122562764
  0
LTYPE
  2
CENTER
 70
64
  3
____ _ ____ _
 72
65
 73
4
 40
0.4567282498050211
 49
0.2854551561281382
 49
-0.05709103122562764
 49
0.05709103122562764
 49
-0.05709103122562764
  0
LTYPE
  2
DASHDOT
 70
64
  3
__ . __ . __ .
 72
65
 73
4
 40
0.2283641249025106
 49
0.1141820624512553
 49
-0.05709103122562764
 49
0
 49
-0.05709103122562764
  0
LTYPE
  2
DASHED
 70
64
  3
__ __ __ __ __
 72
65
 73
2
 40
0.1712730936768829
 49
0.1141820624512553
 49
-0.05709103122562764
  0
LTYPE
  2
DIVIDE
 70
64
  3
__ . . __ . . 
 72
65
 73
6
 40
0.2854551561281382
 49
0.1141820624512553
 49
-0.05709103122562764
 49
0
 49
-0.05709103122562764
 49
0
 49
-0.05709103122562764
  0
LTYPE
  2
DOT
 70
64
  3
..............
 72
65
 73
4
 40
0.1141820624512553
 49
0
 49
-0.05709103122562764
 49
0
 49
-0.05709103122562764
  0
LTYPE
  2
HIDDEN
 70
64
  3
_ _ _ _ _ _ _
 72
65
 73
2
 40
0.08563654683844146
 49
0.05709103122562764
 49
-0.02854551561281382
  0
LTYPE
  2
PHANTOM
 70
64
  3
_____ _ _ _____ _ _ 
 72
65
 73
6
 40
0.5709103122562764
 49
0.2854551561281382
 49
-0.05709103122562764
 49
0.05709103122562764
 49
-0.05709103122562764
 49
0.05709103122562764
 49
-0.05709103122562764
  0
ENDTAB
  0
TABLE
  2
LAYER
 70
2
  0
LAYER
  2
0
 70
0
 62
7
  6
CONTINUOUS
  0
ENDTAB
  0
TABLE
  2
STYLE
 70
4
  0
STYLE
  2
STANDARD
 70
0
 40
0
 41
1
 50
0
 71
0
 42
3.5
  3
txt
  4

  0
STYLE
  2
SIMPLEX
 70
0
 40
0
 41
1
 50
0
 71
0
 42
3.5
  3
simplex
  4

  0
STYLE
  2
COMPLEX
 70
0
 40
0
 41
1
 50
0
 71
0
 42
3.5
  3
complex
  4

  0
STYLE
  2
ITALIC
 70
0
 40
0
 41
1
 50
0
 71
0
 42
3.5
  3
italic
  4

  0
ENDTAB
  0
TABLE
  2
VIEW
 70
0
  0
ENDTAB
  0
ENDSEC
  0
SECTION
  2
BLOCKS
  0
BLOCK
  8
0
  2
*X0
 70
1
 10
0
 20
0
 30
0
  0
LINE
  8
0
 62
7
 10
1.099999999999999
 20
7.994291116568838
 30
0
 11
1.205708883431158
 21
8.099999999999996
 31
0
  0
LINE
  8
0
 62
7
 10
1.267840917787122
 20
7.949999999999996
 30
0
 11
1.275
 21
7.957159082212874
 31
0
  0
LINE
  8
0
 62
7
 10
1.16177490060914
 20
7.949999999999996
 30
0
 11
1.274999999999999
 21
8.063225099390854
 31
0
  0
ENDBLK
  8
0
  0
BLOCK
  8
0
  2
*X1
 70
1
 10
0
 20
0
 30
0
  0
LINE
  8
0
 62
7
 10
1.1
 20
10.75200756319637
 30
0
 11
1.197992436803626
 21
10.85
 31
0
  0
LINE
  8
0
 62
7
 10
1.1
 20
10.5398755288404
 30
0
 11
1.275
 21
10.7148755288404
 31
0
  0
LINE
  8
0
 62
7
 10
1.1
 20
10.32774349448444
 30
0
 11
1.275
 21
10.50274349448444
 31
0
  0
LINE
  8
0
 62
7
 10
1.1
 20
10.11561146012848
 30
0
 11
1.275
 21
10.29061146012848
 31
0
  0
LINE
  8
0
 62
7
 10
1.1
 20
9.903479425772513
 30
0
 11
1.275
 21
10.07847942577251
 31
0
  0
LINE
  8
0
 62
7
 10
1.1
 20
9.691347391416549
 30
0
 11
1.275
 21
9.866347391416548
 31
0
  0
LINE
  8
0
 62
7
 10
1.1
 20
9.479215357060585
 30
0
 11
1.275
 21
9.654215357060584
 31
0
  0
LINE
  8
0
 62
7
 10
1.1
 20
9.267083322704622
 30
0
 11
1.275
 21
9.442083322704621
 31
0
  0
LINE
  8
0
 62
7
 10
1.1
 20
9.054951288348658
 30
0
 11
1.275
 21
9.229951288348657
 31
0
  0
LINE
  8
0
 62
7
 10
1.1
 20
8.842819253992694
 30
0
 11
1.275
 21
9.017819253992693
 31
0
  0
LINE
  8
0
 62
7
 10
1.1
 20
8.63068721963673
 30
0
 11
1.275
 21
8.805687219636729
 31
0
  0
LINE
  8
0
 62
7
 10
1.1
 20
8.418555185280766
 30
0
 11
1.275
 21
8.593555185280765
 31
0
  0
LINE
  8
0
 62
7
 10
1.193576849075197
 20
8.299999999999997
 30
0
 11
1.275
 21
8.381423150924801
 31
0
  0
LINE
  8
0
 62
7
 10
1.100000000000001
 20
10.64594154601839
 30
0
 11
1.274999999999999
 21
10.82094154601838
 31
0
  0
LINE
  8
0
 62
7
 10
1.100000000000001
 20
10.43380951166242
 30
0
 11
1.274999999999999
 21
10.60880951166242
 31
0
  0
LINE
  8
0
 62
7
 10
1.100000000000001
 20
10.22167747730646
 30
0
 11
1.274999999999999
 21
10.39667747730646
 31
0
  0
LINE
  8
0
 62
7
 10
1.100000000000001
 20
10.0095454429505
 30
0
 11
1.274999999999999
 21
10.18454544295049
 31
0
  0
LINE
  8
0
 62
7
 10
1.100000000000001
 20
9.797413408594531
 30
0
 11
1.274999999999999
 21
9.972413408594528
 31
0
  0
LINE
  8
0
 62
7
 10
1.100000000000001
 20
9.585281374238567
 30
0
 11
1.274999999999999
 21
9.760281374238565
 31
0
  0
LINE
  8
0
 62
7
 10
1.100000000000001
 20
9.373149339882604
 30
0
 11
1.274999999999999
 21
9.548149339882601
 31
0
  0
LINE
  8
0
 62
7
 10
1.100000000000001
 20
9.16101730552664
 30
0
 11
1.274999999999999
 21
9.336017305526637
 31
0
  0
LINE
  8
0
 62
7
 10
1.100000000000001
 20
8.948885271170676
 30
0
 11
1.274999999999999
 21
9.123885271170673
 31
0
  0
LINE
  8
0
 62
7
 10
1.100000000000001
 20
8.736753236814712
 30
0
 11
1.274999999999999
 21
8.911753236814709
 31
0
  0
LINE
  8
0
 62
7
 10
1.100000000000001
 20
8.524621202458748
 30
0
 11
1.274999999999999
 21
8.699621202458745
 31
0
  0
LINE
  8
0
 62
7
 10
1.100000000000001
 20
8.312489168102784
 30
0
 11
1.274999999999999
 21
8.487489168102782
 31
0
  0
ENDBLK
  8
0
  0
BLOCK
  8
0
  2
*X2
 70
1
 10
0
 20
0
 30
0
  0
LINE
  8
0
 62
7
 10
1.100000000000001
 20
11.1762716319083
 30
0
 11
1.123728368091698
 21
11.2
 31
0
  0
LINE
  8
0
 62
7
 10
1.185860402447664
 20
11.05
 30
0
 11
1.274999999999999
 21
11.13913959755234
 31
0
  0
LINE
  8
0
 62
7
 10
1.1
 20
11.07020561473032
 30
0
 11
1.229794385269681
 21
11.2
 31
0
  0
ENDBLK
  8
0
  0
BLOCK
  8
0
  2
*X3
 70
1
 10
0
 20
0
 30
0
  0
LINE
  8
0
 62
7
 10
3.534999999999999
 20
8.09583873865323
 30
0
 11
3.539161261346766
 21
8.099999999999996
 31
0
  0
LINE
  8
0
 62
7
 10
3.601293295702729
 20
7.949999999999996
 30
0
 11
3.709999999999999
 21
8.058706704297265
 31
0
  0
LINE
  8
0
 62
7
 10
3.534999999999999
 20
7.989772721475247
 30
0
 11
3.645227278524748
 21
8.099999999999996
 31
0
  0
LINE
  8
0
 62
7
 10
3.707359312880713
 20
7.949999999999996
 30
0
 11
3.71
 21
7.952640687119283
 31
0
  0
ENDBLK
  8
0
  0
BLOCK
  8
0
  2
*X4
 70
1
 10
0
 20
0
 30
0
  0
LINE
  8
0
 62
7
 10
3.535000000000001
 20
10.6414231509248
 30
0
 11
3.710000000000001
 21
10.8164231509248
 31
0
  0
LINE
  8
0
 62
7
 10
3.535000000000001
 20
10.42929111656883
 30
0
 11
3.710000000000001
 21
10.60429111656883
 31
0
  0
LINE
  8
0
 62
7
 10
3.535000000000001
 20
10.21715908221287
 30
0
 11
3.710000000000001
 21
10.39215908221287
 31
0
  0
LINE
  8
0
 62
7
 10
3.535000000000001
 20
10.00502704785691
 30
0
 11
3.710000000000001
 21
10.18002704785691
 31
0
  0
LINE
  8
0
 62
7
 10
3.535000000000001
 20
9.792895013500942
 30
0
 11
3.710000000000001
 21
9.967895013500943
 31
0
  0
LINE
  8
0
 62
7
 10
3.535000000000001
 20
9.580762979144978
 30
0
 11
3.710000000000001
 21
9.755762979144979
 31
0
  0
LINE
  8
0
 62
7
 10
3.535000000000001
 20
9.368630944789015
 30
0
 11
3.710000000000001
 21
9.543630944789015
 31
0
  0
LINE
  8
0
 62
7
 10
3.535000000000001
 20
9.156498910433051
 30
0
 11
3.710000000000001
 21
9.331498910433051
 31
0
  0
LINE
  8
0
 62
7
 10
3.535000000000001
 20
8.944366876077087
 30
0
 11
3.710000000000001
 21
9.119366876077088
 31
0
  0
LINE
  8
0
 62
7
 10
3.535000000000001
 20
8.732234841721123
 30
0
 11
3.710000000000001
 21
8.907234841721124
 31
0
  0
LINE
  8
0
 62
7
 10
3.535000000000001
 20
8.520102807365159
 30
0
 11
3.710000000000001
 21
8.69510280736516
 31
0
  0
LINE
  8
0
 62
7
 10
3.535000000000001
 20
8.307970773009195
 30
0
 11
3.710000000000001
 21
8.482970773009196
 31
0
  0
LINE
  8
0
 62
7
 10
3.535000000000001
 20
10.74748916810278
 30
0
 11
3.637510831897216
 21
10.85
 31
0
  0
LINE
  8
0
 62
7
 10
3.535000000000001
 20
10.53535713374682
 30
0
 11
3.710000000000001
 21
10.71035713374681
 31
0
  0
LINE
  8
0
 62
7
 10
3.535000000000001
 20
10.32322509939085
 30
0
 11
3.710000000000001
 21
10.49822509939085
 31
0
  0
LINE
  8
0
 62
7
 10
3.535000000000001
 20
10.11109306503489
 30
0
 11
3.710000000000001
 21
10.28609306503489
 31
0
  0
LINE
  8
0
 62
7
 10
3.535000000000001
 20
9.898961030678924
 30
0
 11
3.710000000000001
 21
10.07396103067892
 31
0
  0
LINE
  8
0
 62
7
 10
3.535000000000001
 20
9.68682899632296
 30
0
 11
3.710000000000001
 21
9.861828996322959
 31
0
  0
LINE
  8
0
 62
7
 10
3.535000000000001
 20
9.474696961966997
 30
0
 11
3.710000000000001
 21
9.649696961966995
 31
0
  0
LINE
  8
0
 62
7
 10
3.535000000000001
 20
9.262564927611033
 30
0
 11
3.710000000000001
 21
9.437564927611032
 31
0
  0
LINE
  8
0
 62
7
 10
3.535000000000001
 20
9.050432893255069
 30
0
 11
3.710000000000001
 21
9.225432893255068
 31
0
  0
LINE
  8
0
 62
7
 10
3.535000000000001
 20
8.838300858899105
 30
0
 11
3.710000000000001
 21
9.013300858899104
 31
0
  0
LINE
  8
0
 62
7
 10
3.535000000000001
 20
8.626168824543141
 30
0
 11
3.710000000000001
 21
8.80116882454314
 31
0
  0
LINE
  8
0
 62
7
 10
3.535000000000001
 20
8.414036790187177
 30
0
 11
3.710000000000001
 21
8.589036790187176
 31
0
  0
LINE
  8
0
 62
7
 10
3.633095244168785
 20
8.299999999999997
 30
0
 11
3.710000000000001
 21
8.376904755831212
 31
0
  0
ENDBLK
  8
0
  0
BLOCK
  8
0
  2
*X5
 70
1
 10
0
 20
0
 30
0
  0
LINE
  8
0
 62
7
 10
3.534999999999999
 20
11.06568721963673
 30
0
 11
3.66931278036327
 21
11.2
 31
0
  0
LINE
  8
0
 62
7
 10
3.535
 20
11.17175323681471
 30
0
 11
3.563246763185287
 21
11.2
 31
0
  0
LINE
  8
0
 62
7
 10
3.625378797541254
 20
11.05
 30
0
 11
3.71
 21
11.13462120245875
 31
0
  0
ENDBLK
  8
0
  0
BLOCK
  8
0
  2
*X6
 70
1
 10
0
 20
0
 30
0
  0
LINE
  8
0
 62
7
  6
DASHED
 10
0.9499999999999993
 20
8.268555185280766
 30
0
 11
0.981444814719231
 21
8.299999999999997
 31
0
  0
LINE
  8
0
 62
7
  6
DASHED
 10
0.9935768490751933
 20
8.099999999999994
 30
0
 11
1.193576849075195
 21
8.299999999999997
 31
0
  0
LINE
  8
0
 62
7
  6
DASHED
 10
1.205708883431158
 20
8.099999999999994
 30
0
 11
1.40570888343116
 21
8.299999999999997
 31
0
  0
LINE
  8
0
 62
7
  6
DASHED
 10
1.417840917787122
 20
8.099999999999994
 30
0
 11
1.617840917787124
 21
8.299999999999997
 31
0
  0
LINE
  8
0
 62
7
  6
DASHED
 10
1.629972952143086
 20
8.099999999999994
 30
0
 11
1.829972952143088
 21
8.299999999999997
 31
0
  0
LINE
  8
0
 62
7
  6
DASHED
 10
1.84210498649905
 20
8.099999999999994
 30
0
 11
2.042104986499052
 21
8.299999999999997
 31
0
  0
LINE
  8
0
 62
7
  6
DASHED
 10
2.054237020855015
 20
8.099999999999994
 30
0
 11
2.254237020855017
 21
8.299999999999997
 31
0
  0
LINE
  8
0
 62
7
  6
DASHED
 10
2.266369055210979
 20
8.099999999999994
 30
0
 11
2.466369055210981
 21
8.299999999999997
 31
0
  0
LINE
  8
0
 62
7
  6
DASHED
 10
2.478501089566943
 20
8.099999999999994
 30
0
 11
2.678501089566945
 21
8.299999999999997
 31
0
  0
LINE
  8
0
 62
7
  6
DASHED
 10
2.690633123922908
 20
8.099999999999994
 30
0
 11
2.890633123922909
 21
8.299999999999997
 31
0
  0
LINE
  8
0
 62
7
  6
DASHED
 10
2.902765158278872
 20
8.099999999999994
 30
0
 11
3.102765158278874
 21
8.299999999999997
 31
0
  0
LINE
  8
0
 62
7
  6
DASHED
 10
3.114897192634836
 20
8.099999999999994
 30
0
 11
3.314897192634838
 21
8.299999999999997
 31
0
  0
LINE
  8
0
 62
7
  6
DASHED
 10
3.3270292269908
 20
8.099999999999994
 30
0
 11
3.527029226990802
 21
8.299999999999997
 31
0
  0
LINE
  8
0
 62
7
  6
DASHED
 10
3.539161261346765
 20
8.099999999999994
 30
0
 11
3.739161261346767
 21
8.299999999999997
 31
0
  0
LINE
  8
0
 62
7
  6
DASHED
 10
3.751293295702729
 20
8.099999999999994
 30
0
 11
3.86
 21
8.208706704297265
 31
0
  0
LINE
  8
0
 62
7
 10
0.9499999999999988
 20
8.162489168102784
 30
0
 11
1.087510831897213
 21
8.299999999999997
 31
0
  0
LINE
  8
0
 62
7
 10
1.099642866253177
 20
8.099999999999996
 30
0
 11
1.299642866253178
 21
8.299999999999997
 31
0
  0
LINE
  8
0
 62
7
 10
1.311774900609141
 20
8.099999999999996
 30
0
 11
1.511774900609142
 21
8.299999999999997
 31
0
  0
LINE
  8
0
 62
7
 10
1.523906934965105
 20
8.099999999999996
 30
0
 11
1.723906934965106
 21
8.299999999999997
 31
0
  0
LINE
  8
0
 62
7
 10
1.736038969321069
 20
8.099999999999996
 30
0
 11
1.93603896932107
 21
8.299999999999997
 31
0
  0
LINE
  8
0
 62
7
 10
1.948171003677034
 20
8.099999999999996
 30
0
 11
2.148171003677035
 21
8.299999999999997
 31
0
  0
LINE
  8
0
 62
7
 10
2.160303038032998
 20
8.099999999999996
 30
0
 11
2.360303038032999
 21
8.299999999999997
 31
0
  0
LINE
  8
0
 62
7
 10
2.372435072388962
 20
8.099999999999996
 30
0
 11
2.572435072388963
 21
8.299999999999997
 31
0
  0
LINE
  8
0
 62
7
 10
2.584567106744927
 20
8.099999999999996
 30
0
 11
2.784567106744928
 21
8.299999999999997
 31
0
  0
LINE
  8
0
 62
7
 10
2.796699141100891
 20
8.099999999999996
 30
0
 11
2.996699141100892
 21
8.299999999999997
 31
0
  0
LINE
  8
0
 62
7
 10
3.008831175456855
 20
8.099999999999996
 30
0
 11
3.208831175456856
 21
8.299999999999997
 31
0
  0
LINE
  8
0
 62
7
 10
3.220963209812819
 20
8.099999999999996
 30
0
 11
3.42096320981282
 21
8.299999999999997
 31
0
  0
LINE
  8
0
 62
7
 10
3.433095244168784
 20
8.099999999999996
 30
0
 11
3.633095244168785
 21
8.299999999999997
 31
0
  0
LINE
  8
0
 62
7
 10
3.645227278524748
 20
8.099999999999996
 30
0
 11
3.845227278524749
 21
8.299999999999997
 31
0
  0
LINE
  8
0
 62
7
 10
3.857359312880712
 20
8.099999999999996
 30
0
 11
3.859999999999999
 21
8.102640687119282
 31
0
  0
ENDBLK
  8
0
  0
BLOCK
  8
0
  2
*X7
 70
1
 10
0
 20
0
 30
0
  0
LINE
  8
0
 62
7
  6
DASHED
 10
0.9500000000000002
 20
11.0262716319083
 30
0
 11
0.9737283680916988
 21
11.05
 31
0
  0
LINE
  8
0
 62
7
  6
DASHED
 10
0.9858604024476638
 20
10.85
 30
0
 11
1.185860402447663
 21
11.05
 31
0
  0
LINE
  8
0
 62
7
  6
DASHED
 10
1.197992436803628
 20
10.85
 30
0
 11
1.397992436803627
 21
11.05
 31
0
  0
LINE
  8
0
 62
7
  6
DASHED
 10
1.410124471159592
 20
10.85
 30
0
 11
1.610124471159592
 21
11.05
 31
0
  0
LINE
  8
0
 62
7
  6
DASHED
 10
1.622256505515557
 20
10.85
 30
0
 11
1.822256505515556
 21
11.05
 31
0
  0
LINE
  8
0
 62
7
  6
DASHED
 10
1.834388539871521
 20
10.85
 30
0
 11
2.03438853987152
 21
11.05
 31
0
  0
LINE
  8
0
 62
7
  6
DASHED
 10
2.046520574227485
 20
10.85
 30
0
 11
2.246520574227485
 21
11.05
 31
0
  0
LINE
  8
0
 62
7
  6
DASHED
 10
2.25865260858345
 20
10.85
 30
0
 11
2.458652608583449
 21
11.05
 31
0
  0
LINE
  8
0
 62
7
  6
DASHED
 10
2.470784642939414
 20
10.85
 30
0
 11
2.670784642939413
 21
11.05
 31
0
  0
LINE
  8
0
 62
7
  6
DASHED
 10
2.682916677295378
 20
10.85
 30
0
 11
2.882916677295377
 21
11.05
 31
0
  0
LINE
  8
0
 62
7
  6
DASHED
 10
2.895048711651342
 20
10.85
 30
0
 11
3.095048711651342
 21
11.05
 31
0
  0
LINE
  8
0
 62
7
  6
DASHED
 10
3.107180746007307
 20
10.85
 30
0
 11
3.307180746007306
 21
11.05
 31
0
  0
LINE
  8
0
 62
7
  6
DASHED
 10
3.319312780363271
 20
10.85
 30
0
 11
3.51931278036327
 21
11.05
 31
0
  0
LINE
  8
0
 62
7
  6
DASHED
 10
3.531444814719235
 20
10.85
 30
0
 11
3.731444814719235
 21
11.05
 31
0
  0
LINE
  8
0
 62
7
  6
DASHED
 10
3.743576849075199
 20
10.85
 30
0
 11
3.859999999999999
 21
10.9664231509248
 31
0
  0
LINE
  8
0
 62
7
 10
0.9500000000000002
 20
10.92020561473032
 30
0
 11
1.079794385269682
 21
11.05
 31
0
  0
LINE
  8
0
 62
7
 10
1.091926419625646
 20
10.85
 30
0
 11
1.291926419625646
 21
11.05
 31
0
  0
LINE
  8
0
 62
7
 10
1.30405845398161
 20
10.85
 30
0
 11
1.50405845398161
 21
11.05
 31
0
  0
LINE
  8
0
 62
7
 10
1.516190488337574
 20
10.85
 30
0
 11
1.716190488337574
 21
11.05
 31
0
  0
LINE
  8
0
 62
7
 10
1.728322522693539
 20
10.85
 30
0
 11
1.928322522693539
 21
11.05
 31
0
  0
LINE
  8
0
 62
7
 10
1.940454557049503
 20
10.85
 30
0
 11
2.140454557049503
 21
11.05
 31
0
  0
LINE
  8
0
 62
7
 10
2.152586591405467
 20
10.85
 30
0
 11
2.352586591405467
 21
11.05
 31
0
  0
LINE
  8
0
 62
7
 10
2.364718625761431
 20
10.85
 30
0
 11
2.564718625761432
 21
11.05
 31
0
  0
LINE
  8
0
 62
7
 10
2.576850660117396
 20
10.85
 30
0
 11
2.776850660117396
 21
11.05
 31
0
  0
LINE
  8
0
 62
7
 10
2.78898269447336
 20
10.85
 30
0
 11
2.98898269447336
 21
11.05
 31
0
  0
LINE
  8
0
 62
7
 10
3.001114728829324
 20
10.85
 30
0
 11
3.201114728829324
 21
11.05
 31
0
  0
LINE
  8
0
 62
7
 10
3.213246763185289
 20
10.85
 30
0
 11
3.413246763185289
 21
11.05
 31
0
  0
LINE
  8
0
 62
7
 10
3.425378797541253
 20
10.85
 30
0
 11
3.625378797541253
 21
11.05
 31
0
  0
LINE
  8
0
 62
7
 10
3.637510831897217
 20
10.85
 30
0
 11
3.837510831897217
 21
11.05
 31
0
  0
LINE
  8
0
 62
7
 10
3.849642866253181
 20
10.85
 30
0
 11
3.859999999999999
 21
10.86035713374682
 31
0
  0
ENDBLK
  8
0
  0
BLOCK
  8
0
  2
*X8
 70
1
 10
0
 20
0
 30
0
  0
LINE
  8
0
 62
7
 10
7.960000000000002
 20
8.066066017177983
 30
0
 11
7.993933982822015
 21
8.099999999999996
 31
0
  0
LINE
  8
0
 62
7
 10
8.056066017177979
 20
7.949999999999997
 30
0
 11
8.200000000000001
 21
8.093933982822016
 31
0
  0
LINE
  8
0
 62
7
 10
7.960000000000001
 20
7.96
 30
0
 11
8.099999999999998
 21
8.099999999999996
 31
0
  0
LINE
  8
0
 62
7
 10
8.162132034355961
 20
7.949999999999996
 30
0
 11
8.200000000000001
 21
7.987867965644035
 31
0
  0
ENDBLK
  8
0
  0
BLOCK
  8
0
  2
*X9
 70
1
 10
0
 20
0
 30
0
  0
LINE
  8
0
 62
7
 10
7.960000000000001
 20
10.82378246380551
 30
0
 11
7.986217536194484
 21
10.85
 31
0
  0
LINE
  8
0
 62
7
 10
7.960000000000001
 20
10.61165042944955
 30
0
 11
8.198349570550448
 21
10.85
 31
0
  0
LINE
  8
0
 62
7
 10
7.960000000000001
 20
10.39951839509358
 30
0
 11
8.200000000000001
 21
10.63951839509359
 31
0
  0
LINE
  8
0
 62
7
 10
7.960000000000001
 20
10.18738636073762
 30
0
 11
8.200000000000001
 21
10.42738636073762
 31
0
  0
LINE
  8
0
 62
7
 10
7.960000000000001
 20
9.975254326381657
 30
0
 11
8.200000000000001
 21
10.21525432638166
 31
0
  0
LINE
  8
0
 62
7
 10
7.960000000000001
 20
9.763122292025693
 30
0
 11
8.200000000000001
 21
10.0031222920257
 31
0
  0
LINE
  8
0
 62
7
 10
7.960000000000001
 20
9.55099025766973
 30
0
 11
8.200000000000001
 21
9.790990257669732
 31
0
  0
LINE
  8
0
 62
7
 10
7.960000000000001
 20
9.338858223313766
 30
0
 11
8.200000000000001
 21
9.578858223313768
 31
0
  0
LINE
  8
0
 62
7
 10
7.960000000000001
 20
9.126726188957802
 30
0
 11
8.200000000000001
 21
9.366726188957804
 31
0
  0
LINE
  8
0
 62
7
 10
7.960000000000001
 20
8.914594154601838
 30
0
 11
8.200000000000001
 21
9.15459415460184
 31
0
  0
LINE
  8
0
 62
7
 10
7.960000000000001
 20
8.702462120245874
 30
0
 11
8.200000000000001
 21
8.942462120245876
 31
0
  0
LINE
  8
0
 62
7
 10
7.960000000000001
 20
8.49033008588991
 30
0
 11
8.200000000000001
 21
8.730330085889912
 31
0
  0
LINE
  8
0
 62
7
 10
7.98180194846605
 20
8.299999999999997
 30
0
 11
8.200000000000001
 21
8.518198051533949
 31
0
  0
LINE
  8
0
 62
7
 10
8.193933982822013
 20
8.299999999999997
 30
0
 11
8.200000000000001
 21
8.306066017177985
 31
0
  0
LINE
  8
0
 62
7
 10
7.960000000000003
 20
10.71771644662753
 30
0
 11
8.092283553372464
 21
10.85
 31
0
  0
LINE
  8
0
 62
7
 10
7.960000000000003
 20
10.50558441227157
 30
0
 11
8.200000000000001
 21
10.74558441227157
 31
0
  0
LINE
  8
0
 62
7
 10
7.960000000000003
 20
10.2934523779156
 30
0
 11
8.200000000000001
 21
10.5334523779156
 31
0
  0
LINE
  8
0
 62
7
 10
7.960000000000003
 20
10.08132034355964
 30
0
 11
8.200000000000001
 21
10.32132034355964
 31
0
  0
LINE
  8
0
 62
7
 10
7.960000000000003
 20
9.869188309203675
 30
0
 11
8.200000000000001
 21
10.10918830920367
 31
0
  0
LINE
  8
0
 62
7
 10
7.960000000000003
 20
9.657056274847712
 30
0
 11
8.200000000000001
 21
9.89705627484771
 31
0
  0
LINE
  8
0
 62
7
 10
7.960000000000003
 20
9.444924240491748
 30
0
 11
8.200000000000001
 21
9.684924240491746
 31
0
  0
LINE
  8
0
 62
7
 10
7.960000000000003
 20
9.232792206135784
 30
0
 11
8.200000000000001
 21
9.472792206135782
 31
0
  0
LINE
  8
0
 62
7
 10
7.960000000000003
 20
9.02066017177982
 30
0
 11
8.200000000000001
 21
9.260660171779818
 31
0
  0
LINE
  8
0
 62
7
 10
7.960000000000003
 20
8.808528137423856
 30
0
 11
8.200000000000001
 21
9.048528137423855
 31
0
  0
LINE
  8
0
 62
7
 10
7.960000000000003
 20
8.596396103067892
 30
0
 11
8.200000000000001
 21
8.836396103067891
 31
0
  0
LINE
  8
0
 62
7
 10
7.960000000000003
 20
8.384264068711929
 30
0
 11
8.200000000000001
 21
8.624264068711927
 31
0
  0
LINE
  8
0
 62
7
 10
8.087867965644033
 20
8.299999999999995
 30
0
 11
8.200000000000001
 21
8.412132034355963
 31
0
  0
ENDBLK
  8
0
  0
BLOCK
  8
0
  2
*X10
 70
1
 10
0
 20
0
 30
0
  0
LINE
  8
0
 62
7
 10
7.97408550183852
 20
11.05
 30
0
 11
8.12408550183852
 21
11.2
 31
0
  0
LINE
  8
0
 62
7
 10
8.186217536194484
 20
11.05
 30
0
 11
8.200000000000001
 21
11.06378246380552
 31
0
  0
LINE
  8
0
 62
7
 10
7.960000000000002
 20
11.14198051533946
 30
0
 11
8.018019484660535
 21
11.2
 31
0
  0
LINE
  8
0
 62
7
 10
8.0801515190165
 20
11.05
 30
0
 11
8.199999999999999
 21
11.1698484809835
 31
0
  0
ENDBLK
  8
0
  0
BLOCK
  8
0
  2
*X11
 70
1
 10
0
 20
0
 30
0
  0
LINE
  8
0
 62
7
  6
DASHED
 10
5.760000000000001
 20
8.199518395093589
 30
0
 11
5.86048160490641
 21
8.299999999999999
 31
0
  0
LINE
  8
0
 62
7
  6
DASHED
 10
5.872613639262372
 20
8.099999999999996
 30
0
 11
6.059999999999999
 21
8.287386360737623
 31
0
  0
LINE
  8
0
 62
7
 10
5.766547622084392
 20
8.099999999999998
 30
0
 11
5.966547622084391
 21
8.299999999999997
 31
0
  0
LINE
  8
0
 62
7
 10
5.978679656440356
 20
8.099999999999998
 30
0
 11
6.06
 21
8.181320343559641
 31
0
  0
ENDBLK
  8
0
  0
BLOCK
  8
0
  2
*X12
 70
1
 10
0
 20
0
 30
0
  0
LINE
  8
0
 62
7
  6
DASHED
 10
5.760000000000002
 20
10.95723484172112
 30
0
 11
5.852765158278878
 21
11.05
 31
0
  0
LINE
  8
0
 62
7
  6
DASHED
 10
5.864897192634842
 20
10.85
 30
0
 11
6.059999999999999
 21
11.04510280736516
 31
0
  0
LINE
  8
0
 62
7
 10
5.759999999999998
 20
10.85116882454314
 30
0
 11
5.95883117545686
 21
11.05
 31
0
  0
LINE
  8
0
 62
7
 10
5.970963209812825
 20
10.85
 30
0
 11
6.06
 21
10.93903679018717
 31
0
  0
ENDBLK
  8
0
  0
BLOCK
  8
0
  2
*X13
 70
1
 10
0
 20
0
 30
0
  0
LINE
  8
0
 62
7
  6
DASHED
 10
7.959999999999999
 20
11.03591449816148
 30
0
 11
7.97408550183852
 21
11.05
 31
0
  0
LINE
  8
0
 62
7
  6
DASHED
 10
7.986217536194484
 20
10.85
 30
0
 11
8.186217536194484
 21
11.05
 31
0
  0
LINE
  8
0
 62
7
  6
DASHED
 10
8.198349570550448
 20
10.85
 30
0
 11
8.200000000000001
 21
10.85165042944955
 31
0
  0
LINE
  8
0
 62
7
 10
7.960000000000002
 20
10.9298484809835
 30
0
 11
8.0801515190165
 21
11.05
 31
0
  0
LINE
  8
0
 62
7
 10
8.092283553372464
 20
10.85
 30
0
 11
8.199999999999999
 21
10.95771644662753
 31
0
  0
ENDBLK
  8
0
  0
BLOCK
  8
0
  2
*X14
 70
1
 10
0
 20
0
 30
0
  0
LINE
  8
0
 62
7
  6
DASHED
 10
7.960000000000002
 20
8.278198051533947
 30
0
 11
7.98180194846605
 21
8.299999999999997
 31
0
  0
LINE
  8
0
 62
7
  6
DASHED
 10
7.993933982822015
 20
8.099999999999996
 30
0
 11
8.193933982822013
 21
8.299999999999997
 31
0
  0
LINE
  8
0
 62
7
 10
7.960000000000001
 20
8.172132034355963
 30
0
 11
8.087867965644033
 21
8.299999999999995
 31
0
  0
LINE
  8
0
 62
7
 10
8.099999999999998
 20
8.099999999999996
 30
0
 11
8.200000000000001
 21
8.199999999999999
 31
0
  0
ENDBLK
  8
0
  0
BLOCK
  8
0
  2
*X15
 70
1
 10
0
 20
0
 30
0
  0
LINE
  8
0
 62
7
 10
1.1
 20
5.872970773009195
 30
0
 11
1.147029226990799
 21
5.919999999999995
 31
0
  0
LINE
  8
0
 62
7
 10
0.9350000000000005
 20
5.707970773009196
 30
0
 11
0.9970292269907999
 21
5.769999999999994
 31
0
  0
LINE
  8
0
 62
7
 10
0.9691612613467719
 20
5.530000000000003
 30
0
 11
1.275
 21
5.835838738653231
 31
0
  0
LINE
  8
0
 62
7
 10
1.181293295702736
 20
5.530000000000003
 30
0
 11
1.421293295702728
 21
5.769999999999995
 31
0
  0
LINE
  8
0
 62
7
 10
1.393425330058701
 20
5.530000000000003
 30
0
 11
1.633425330058693
 21
5.769999999999995
 31
0
  0
LINE
  8
0
 62
7
 10
1.605557364414665
 20
5.530000000000003
 30
0
 11
1.845557364414657
 21
5.769999999999995
 31
0
  0
LINE
  8
0
 62
7
 10
1.817689398770629
 20
5.530000000000003
 30
0
 11
2.057689398770621
 21
5.769999999999995
 31
0
  0
LINE
  8
0
 62
7
 10
2.029821433126593
 20
5.530000000000003
 30
0
 11
2.269821433126586
 21
5.769999999999995
 31
0
  0
LINE
  8
0
 62
7
 10
2.241953467482558
 20
5.530000000000003
 30
0
 11
2.48195346748255
 21
5.769999999999995
 31
0
  0
LINE
  8
0
 62
7
 10
2.454085501838522
 20
5.530000000000003
 30
0
 11
2.694085501838514
 21
5.769999999999995
 31
0
  0
LINE
  8
0
 62
7
 10
2.666217536194486
 20
5.530000000000003
 30
0
 11
2.906217536194478
 21
5.769999999999995
 31
0
  0
LINE
  8
0
 62
7
 10
2.87834957055045
 20
5.530000000000003
 30
0
 11
3.118349570550443
 21
5.769999999999995
 31
0
  0
LINE
  8
0
 62
7
 10
3.090481604906415
 20
5.530000000000003
 30
0
 11
3.330481604906407
 21
5.769999999999995
 31
0
  0
LINE
  8
0
 62
7
 10
3.302613639262379
 20
5.530000000000003
 30
0
 11
3.692613639262371
 21
5.919999999999995
 31
0
  0
LINE
  8
0
 62
7
 10
3.514745673618343
 20
5.530000000000003
 30
0
 11
3.754745673618336
 21
5.769999999999995
 31
0
  0
LINE
  8
0
 62
7
 10
3.726877707974308
 20
5.530000000000003
 30
0
 11
3.859999999999999
 21
5.663122292025695
 31
0
  0
LINE
  8
0
 62
7
 10
0.9350000000000001
 20
5.601904755831214
 30
0
 11
1.253095244168781
 21
5.919999999999995
 31
0
  0
LINE
  8
0
 62
7
 10
1.075227278524753
 20
5.530000000000002
 30
0
 11
1.315227278524746
 21
5.769999999999994
 31
0
  0
LINE
  8
0
 62
7
 10
1.287359312880717
 20
5.530000000000002
 30
0
 11
1.52735931288071
 21
5.769999999999994
 31
0
  0
LINE
  8
0
 62
7
 10
1.499491347236682
 20
5.530000000000002
 30
0
 11
1.739491347236675
 21
5.769999999999994
 31
0
  0
LINE
  8
0
 62
7
 10
1.711623381592646
 20
5.530000000000002
 30
0
 11
1.951623381592639
 21
5.769999999999994
 31
0
  0
LINE
  8
0
 62
7
 10
1.92375541594861
 20
5.530000000000002
 30
0
 11
2.163755415948603
 21
5.769999999999994
 31
0
  0
LINE
  8
0
 62
7
 10
2.135887450304574
 20
5.530000000000002
 30
0
 11
2.375887450304567
 21
5.769999999999994
 31
0
  0
LINE
  8
0
 62
7
 10
2.348019484660539
 20
5.530000000000002
 30
0
 11
2.588019484660532
 21
5.769999999999994
 31
0
  0
LINE
  8
0
 62
7
 10
2.560151519016503
 20
5.530000000000002
 30
0
 11
2.800151519016496
 21
5.769999999999994
 31
0
  0
LINE
  8
0
 62
7
 10
2.772283553372467
 20
5.530000000000002
 30
0
 11
3.01228355337246
 21
5.769999999999994
 31
0
  0
LINE
  8
0
 62
7
 10
2.984415587728432
 20
5.530000000000002
 30
0
 11
3.224415587728425
 21
5.769999999999994
 31
0
  0
LINE
  8
0
 62
7
 10
3.535000000000001
 20
5.868452377915606
 30
0
 11
3.586547622084389
 21
5.919999999999995
 31
0
  0
LINE
  8
0
 62
7
 10
3.196547622084396
 20
5.530000000000002
 30
0
 11
3.436547622084389
 21
5.769999999999994
 31
0
  0
LINE
  8
0
 62
7
 10
3.40867965644036
 20
5.530000000000002
 30
0
 11
3.710000000000001
 21
5.831320343559642
 31
0
  0
LINE
  8
0
 62
7
 10
3.620811690796324
 20
5.530000000000002
 30
0
 11
3.86
 21
5.769188309203678
 31
0
  0
LINE
  8
0
 62
7
 10
3.832943725152289
 20
5.530000000000002
 30
0
 11
3.86
 21
5.557056274847714
 31
0
  0
ENDBLK
  8
0
  0
BLOCK
  8
0
  2
*X16
 70
1
 10
0
 20
0
 30
0
  0
LINE
  8
0
 62
7
 10
0.9350000000000001
 20
5.283706704297266
 30
0
 11
1.141293295702735
 21
5.490000000000003
 31
0
  0
LINE
  8
0
 62
7
 10
1.1
 20
5.236574669941301
 30
0
 11
1.3534253300587
 21
5.490000000000003
 31
0
  0
LINE
  8
0
 62
7
 10
1.325557364414661
 20
5.25
 30
0
 11
1.565557364414664
 21
5.490000000000003
 31
0
  0
LINE
  8
0
 62
7
 10
1.1
 20
5.024442635585337
 30
0
 11
1.275
 21
5.199442635585337
 31
0
  0
LINE
  8
0
 62
7
 10
1.537689398770625
 20
5.25
 30
0
 11
1.777689398770628
 21
5.490000000000003
 31
0
  0
LINE
  8
0
 62
7
 10
1.1
 20
4.812310601229373
 30
0
 11
1.275
 21
4.987310601229373
 31
0
  0
LINE
  8
0
 62
7
 10
1.74982143312659
 20
5.25
 30
0
 11
1.989821433126592
 21
5.490000000000003
 31
0
  0
LINE
  8
0
 62
7
 10
1.1
 20
4.600178566873409
 30
0
 11
1.275
 21
4.775178566873409
 31
0
  0
LINE
  8
0
 62
7
 10
1.961953467482554
 20
5.25
 30
0
 11
2.201953467482557
 21
5.490000000000003
 31
0
  0
LINE
  8
0
 62
7
 10
1.1
 20
4.388046532517445
 30
0
 11
1.275
 21
4.563046532517445
 31
0
  0
LINE
  8
0
 62
7
 10
2.174085501838518
 20
5.25
 30
0
 11
2.414085501838521
 21
5.490000000000003
 31
0
  0
LINE
  8
0
 62
7
 10
1.1
 20
4.175914498161482
 30
0
 11
1.275
 21
4.350914498161481
 31
0
  0
LINE
  8
0
 62
7
 10
2.386217536194482
 20
5.25
 30
0
 11
2.626217536194485
 21
5.490000000000003
 31
0
  0
LINE
  8
0
 62
7
 10
1.1
 20
3.963782463805517
 30
0
 11
1.275
 21
4.138782463805518
 31
0
  0
LINE
  8
0
 62
7
 10
2.598349570550447
 20
5.25
 30
0
 11
2.83834957055045
 21
5.490000000000003
 31
0
  0
LINE
  8
0
 62
7
 10
1.1
 20
3.751650429449553
 30
0
 11
1.275
 21
3.926650429449554
 31
0
  0
LINE
  8
0
 62
7
 10
2.810481604906411
 20
5.25
 30
0
 11
3.050481604906414
 21
5.490000000000003
 31
0
  0
LINE
  8
0
 62
7
 10
1.1
 20
3.539518395093589
 30
0
 11
1.275
 21
3.714518395093589
 31
0
  0
LINE
  8
0
 62
7
 10
3.022613639262375
 20
5.25
 30
0
 11
3.262613639262378
 21
5.490000000000003
 31
0
  0
LINE
  8
0
 62
7
 10
1.122613639262376
 20
3.350000000000001
 30
0
 11
1.275
 21
3.502386360737625
 31
0
  0
LINE
  8
0
 62
7
 10
3.23474567361834
 20
5.25
 30
0
 11
3.474745673618342
 21
5.490000000000003
 31
0
  0
LINE
  8
0
 62
7
 10
3.446877707974304
 20
5.25
 30
0
 11
3.686877707974307
 21
5.490000000000003
 31
0
  0
LINE
  8
0
 62
7
 10
3.535
 20
5.12599025766973
 30
0
 11
3.859999999999999
 21
5.450990257669731
 31
0
  0
LINE
  8
0
 62
7
 10
3.535
 20
4.913858223313766
 30
0
 11
3.71
 21
5.088858223313765
 31
0
  0
LINE
  8
0
 62
7
 10
3.535
 20
4.701726188957802
 30
0
 11
3.71
 21
4.876726188957801
 31
0
  0
LINE
  8
0
 62
7
 10
3.535
 20
4.489594154601838
 30
0
 11
3.71
 21
4.664594154601837
 31
0
  0
LINE
  8
0
 62
7
 10
3.535
 20
4.277462120245874
 30
0
 11
3.71
 21
4.452462120245873
 31
0
  0
LINE
  8
0
 62
7
 10
3.535
 20
4.065330085889911
 30
0
 11
3.71
 21
4.24033008588991
 31
0
  0
LINE
  8
0
 62
7
 10
3.535
 20
3.853198051533946
 30
0
 11
3.71
 21
4.028198051533946
 31
0
  0
LINE
  8
0
 62
7
 10
3.535
 20
3.641066017177982
 30
0
 11
3.71
 21
3.816066017177981
 31
0
  0
LINE
  8
0
 62
7
 10
3.535
 20
3.428933982822018
 30
0
 11
3.71
 21
3.603933982822017
 31
0
  0
LINE
  8
0
 62
7
 10
3.568198051533947
 20
3.25
 30
0
 11
3.71
 21
3.391801948466053
 31
0
  0
LINE
  8
0
 62
7
 10
0.9350000000000001
 20
5.389772721475248
 30
0
 11
1.035227278524754
 21
5.490000000000003
 31
0
  0
LINE
  8
0
 62
7
 10
1.007359312880716
 20
5.25
 30
0
 11
1.247359312880718
 21
5.490000000000003
 31
0
  0
LINE
  8
0
 62
7
 10
1.1
 20
5.130508652763318
 30
0
 11
1.459491347236682
 21
5.490000000000003
 31
0
  0
LINE
  8
0
 62
7
 10
1.431623381592644
 20
5.25
 30
0
 11
1.671623381592647
 21
5.490000000000003
 31
0
  0
LINE
  8
0
 62
7
 10
1.1
 20
4.918376618407354
 30
0
 11
1.275
 21
5.093376618407354
 31
0
  0
LINE
  8
0
 62
7
 10
1.643755415948609
 20
5.25
 30
0
 11
1.883755415948611
 21
5.490000000000003
 31
0
  0
LINE
  8
0
 62
7
 10
1.1
 20
4.70624458405139
 30
0
 11
1.275
 21
4.88124458405139
 31
0
  0
LINE
  8
0
 62
7
 10
1.855887450304573
 20
5.25
 30
0
 11
2.095887450304575
 21
5.490000000000003
 31
0
  0
LINE
  8
0
 62
7
 10
1.1
 20
4.494112549695426
 30
0
 11
1.275
 21
4.669112549695426
 31
0
  0
LINE
  8
0
 62
7
 10
2.068019484660537
 20
5.25
 30
0
 11
2.30801948466054
 21
5.490000000000003
 31
0
  0
LINE
  8
0
 62
7
 10
1.1
 20
4.281980515339463
 30
0
 11
1.275
 21
4.456980515339462
 31
0
  0
LINE
  8
0
 62
7
 10
2.280151519016501
 20
5.25
 30
0
 11
2.520151519016504
 21
5.490000000000003
 31
0
  0
LINE
  8
0
 62
7
 10
1.1
 20
4.069848480983499
 30
0
 11
1.275
 21
4.244848480983499
 31
0
  0
LINE
  8
0
 62
7
 10
2.492283553372466
 20
5.25
 30
0
 11
2.732283553372468
 21
5.490000000000003
 31
0
  0
LINE
  8
0
 62
7
 10
1.1
 20
3.857716446627535
 30
0
 11
1.275
 21
4.032716446627535
 31
0
  0
LINE
  8
0
 62
7
 10
2.70441558772843
 20
5.25
 30
0
 11
2.944415587728432
 21
5.490000000000003
 31
0
  0
LINE
  8
0
 62
7
 10
1.1
 20
3.645584412271571
 30
0
 11
1.275
 21
3.82058441227157
 31
0
  0
LINE
  8
0
 62
7
 10
2.916547622084394
 20
5.25
 30
0
 11
3.156547622084397
 21
5.490000000000003
 31
0
  0
LINE
  8
0
 62
7
 10
1.1
 20
3.433452377915606
 30
0
 11
1.275
 21
3.608452377915606
 31
0
  0
LINE
  8
0
 62
7
 10
3.128679656440359
 20
5.25
 30
0
 11
3.368679656440361
 21
5.490000000000003
 31
0
  0
LINE
  8
0
 62
7
 10
1.228679656440357
 20
3.35
 30
0
 11
1.275
 21
3.396320343559642
 31
0
  0
LINE
  8
0
 62
7
 10
3.340811690796323
 20
5.25
 30
0
 11
3.580811690796325
 21
5.490000000000003
 31
0
  0
LINE
  8
0
 62
7
 10
3.535000000000001
 20
5.232056274847712
 30
0
 11
3.79294372515229
 21
5.490000000000003
 31
0
  0
LINE
  8
0
 62
7
 10
3.76507575950825
 20
5.25
 30
0
 11
3.86
 21
5.344924240491749
 31
0
  0
LINE
  8
0
 62
7
 10
3.535000000000001
 20
5.019924240491748
 30
0
 11
3.71
 21
5.194924240491747
 31
0
  0
LINE
  8
0
 62
7
 10
3.535000000000001
 20
4.807792206135784
 30
0
 11
3.71
 21
4.982792206135783
 31
0
  0
LINE
  8
0
 62
7
 10
3.535000000000001
 20
4.59566017177982
 30
0
 11
3.71
 21
4.770660171779819
 31
0
  0
LINE
  8
0
 62
7
 10
3.535000000000001
 20
4.383528137423856
 30
0
 11
3.71
 21
4.558528137423855
 31
0
  0
LINE
  8
0
 62
7
 10
3.535000000000001
 20
4.171396103067893
 30
0
 11
3.71
 21
4.346396103067891
 31
0
  0
LINE
  8
0
 62
7
 10
3.535000000000001
 20
3.959264068711929
 30
0
 11
3.71
 21
4.134264068711928
 31
0
  0
LINE
  8
0
 62
7
 10
3.535000000000001
 20
3.747132034355964
 30
0
 11
3.71
 21
3.922132034355963
 31
0
  0
LINE
  8
0
 62
7
 10
3.535000000000001
 20
3.535
 30
0
 11
3.71
 21
3.709999999999999
 31
0
  0
LINE
  8
0
 62
7
 10
3.535
 20
3.322867965644036
 30
0
 11
3.71
 21
3.497867965644035
 31
0
  0
LINE
  8
0
 62
7
 10
3.674264068711929
 20
3.25
 30
0
 11
3.71
 21
3.285735931288071
 31
0
  0
ENDBLK
  8
0
  0
BLOCK
  8
0
  2
*D0
 70
1
 10
0
 20
0
 30
0
  0
LINE
  8
0
 62
7
 10
0.609142086101163
 20
10.17850959248854
 30
0
 11
0.609142086101163
 21
11.05
 31
0
  0
LINE
  8
0
 62
7
 10
0.609142086101163
 20
8.299999999999997
 30
0
 11
0.609142086101163
 21
9.098509592488538
 31
0
  0
LINE
  8
0
 62
7
 10
0.9500000000000001
 20
11.05
 30
0
 11
0.559142086101163
 21
11.05
 31
0
  0
LINE
  8
0
 62
7
 10
0.9500000000000001
 20
8.299999999999997
 30
0
 11
0.559142086101163
 21
8.299999999999997
 31
0
  0
LINE
  8
0
 62
7
 10
0.5737867470418356
 20
8.335355339059324
 30
0
 11
0.6444974251604905
 21
8.26464466094067
 31
0
  0
LINE
  8
0
 62
7
 10
0.6444974251604905
 20
11.01464466094067
 30
0
 11
0.5737867470418356
 21
11.08535533905933
 31
0
  0
TEXT
  8
0
 62
7
 10
0.579142086101163
 20
9.50100959248854
 30
0
 40
0.1
  1
2,75
 50
90
 41
0.9
  0
TEXT
  8
0
 62
7
 10
0.7391420861011631
 20
9.298509592488539
 30
0
 40
0.1
  1
(260-280)
 50
90
 41
0.9
  0
ENDBLK
  8
0
  0
BLOCK
  8
0
  2
*D1
 70
1
 10
0
 20
0
 30
0
  0
LINE
  8
0
 62
7
 10
2.74775333546244
 20
11.5128367462954
 30
0
 11
3.535
 21
11.5128367462954
 31
0
  0
LINE
  8
0
 62
7
 10
1.275
 20
11.5128367462954
 30
0
 11
2.07275333546244
 21
11.5128367462954
 31
0
  0
LINE
  8
0
 62
7
 10
3.535
 20
11.2
 30
0
 11
3.535
 21
11.5628367462954
 31
0
  0
LINE
  8
0
 62
7
 10
1.275
 20
11.2
 30
0
 11
1.275
 21
11.5628367462954
 31
0
  0
LINE
  8
0
 62
7
 10
1.310355339059327
 20
11.54819208535473
 30
0
 11
1.239644660940673
 21
11.47748140723607
 31
0
  0
LINE
  8
0
 62
7
 10
3.499644660940673
 20
11.47748140723607
 30
0
 11
3.570355339059327
 21
11.54819208535473
 31
0
  0
TEXT
  8
0
 62
7
 10
2.27275333546244
 20
11.4678367462954
 30
0
 40
0.1
  1
2,26
 41
0.9
  0
ENDBLK
  8
0
  0
BLOCK
  8
0
  2
*D2
 70
1
 10
0
 20
0
 30
0
  0
LINE
  8
0
 62
7
 10
4.1088623185999
 20
4.500532663515591
 30
0
 11
4.1088623185999
 21
5.249999999999999
 31
0
  0
LINE
  8
0
 62
7
 10
4.1088623185999
 20
3.25
 30
0
 11
4.1088623185999
 21
3.94053266351559
 31
0
  0
LINE
  8
0
 62
7
 10
3.71
 20
5.249999999999999
 30
0
 11
4.158862318599899
 21
5.249999999999999
 31
0
  0
LINE
  8
0
 62
7
 10
3.71
 20
3.25
 30
0
 11
4.158862318599899
 21
3.25
 31
0
  0
LINE
  8
0
 62
7
 10
4.073506979540572
 20
3.285355339059327
 30
0
 11
4.144217657659227
 21
3.214644660940673
 31
0
  0
LINE
  8
0
 62
7
 10
4.144217657659227
 20
5.214644660940672
 30
0
 11
4.073506979540572
 21
5.285355339059326
 31
0
  0
TEXT
  8
0
 62
7
 10
4.158862318599899
 20
4.19053266351559
 30
0
 40
0.1
  1
2
 50
90
 41
0.9
  0
ENDBLK
  8
0
  0
BLOCK
  8
0
  2
*D3
 70
1
 10
0
 20
0
 30
0
  0
LINE
  8
0
 62
7
 10
2.78311015457332
 20
6.19736208354626
 30
0
 11
3.535
 21
6.19736208354626
 31
0
  0
LINE
  8
0
 62
7
 10
1.275
 20
6.19736208354626
 30
0
 11
2.00811015457332
 21
6.19736208354626
 31
0
  0
LINE
  8
0
 62
7
 10
3.535
 20
5.769999999999994
 30
0
 11
3.535
 21
6.24736208354626
 31
0
  0
LINE
  8
0
 62
7
 10
1.275
 20
5.769999999999994
 30
0
 11
1.275
 21
6.24736208354626
 31
0
  0
LINE
  8
0
 62
7
 10
3.499644660940673
 20
6.162006744486932
 30
0
 11
3.570355339059327
 21
6.232717422605587
 31
0
  0
LINE
  8
0
 62
7
 10
1.310355339059327
 20
6.232717422605587
 30
0
 11
1.239644660940673
 21
6.162006744486932
 31
0
  0
TEXT
  8
0
 62
7
 10
2.25811015457332
 20
6.15236208354626
 30
0
 40
0.1
  1
2,26
 41
0.9
  0
ENDBLK
  8
0
  0
BLOCK
  8
0
  2
*D4
 70
1
 10
0
 20
0
 30
0
  0
LINE
  8
0
 62
7
 10
0.711644352324976
 20
4.57731902529382
 30
0
 11
0.711644352324976
 21
5.25
 31
0
  0
LINE
  8
0
 62
7
 10
0.711644352324976
 20
3.35
 30
0
 11
0.711644352324976
 21
3.92231902529382
 31
0
  0
LINE
  8
0
 62
7
 10
1.1
 20
5.25
 30
0
 11
0.661644352324976
 21
5.25
 31
0
  0
LINE
  8
0
 62
7
 10
1.1
 20
3.35
 30
0
 11
0.661644352324976
 21
3.35
 31
0
  0
LINE
  8
0
 62
7
 10
0.7469996913843034
 20
5.214644660940673
 30
0
 11
0.6762890132656486
 21
5.285355339059327
 31
0
  0
LINE
  8
0
 62
7
 10
0.6762890132656486
 20
3.385355339059327
 30
0
 11
0.7469996913843034
 21
3.314644660940672
 31
0
  0
TEXT
  8
0
 62
7
 10
0.7566443523249761
 20
4.17231902529382
 30
0
 40
0.1
  1
1,9
 50
90
 41
0.9
  0
ENDBLK
  8
0
  0
ENDSEC
  0
SECTION
  2
ENTITIES
  0
INSERT
  8
0
  2
*X0
 10
0
 20
0
 30
0
  0
INSERT
  8
0
  2
*X1
 10
0
 20
0
 30
0
  0
INSERT
  8
0
  2
*X2
 10
0
 20
0
 30
0
  0
INSERT
  8
0
  2
*X3
 10
0
 20
0
 30
0
  0
INSERT
  8
0
  2
*X4
 10
0
 20
0
 30
0
  0
INSERT
  8
0
  2
*X5
 10
0
 20
0
 30
0
  0
INSERT
  8
0
  2
*X6
 10
0
 20
0
 30
0
  0
INSERT
  8
0
  2
*X7
 10
0
 20
0
 30
0
  0
INSERT
  8
0
  2
*X8
 10
0
 20
0
 30
0
  0
INSERT
  8
0
  2
*X9
 10
0
 20
0
 30
0
  0
INSERT
  8
0
  2
*X10
 10
0
 20
0
 30
0
  0
INSERT
  8
0
  2
*X11
 10
0
 20
0
 30
0
  0
INSERT
  8
0
  2
*X12
 10
0
 20
0
 30
0
  0
INSERT
  8
0
  2
*X13
 10
0
 20
0
 30
0
  0
INSERT
  8
0
  2
*X14
 10
0
 20
0
 30
0
  0
INSERT
  8
0
  2
*X15
 10
0
 20
0
 30
0
  0
INSERT
  8
0
  2
*X16
 10
0
 20
0
 30
0
  0
LINE
  8
0
 62
7
 10
0.9500000000000001
 20
8.099999999999996
 30
0
 11
1.1
 21
8.099999999999996
 31
0
  0
LINE
  8
0
 62
7
 10
0.9500000000000001
 20
8.299999999999997
 30
0
 11
1.1
 21
8.299999999999997
 31
0
  0
LINE
  8
0
 62
7
 10
0.9500000000000001
 20
10.85
 30
0
 11
1.1
 21
10.85
 31
0
  0
LINE
  8
0
 62
7
 10
0.9500000000000001
 20
11.05
 30
0
 11
1.1
 21
11.05
 31
0
  0
LINE
  8
0
 62
7
 10
1.1
 20
7.949999999999996
 30
0
 11
1.1
 21
8.099999999999996
 31
0
  0
LINE
  8
0
 62
7
 10
1.1
 20
8.099999999999996
 30
0
 11
1.275
 21
8.099999999999996
 31
0
  0
LINE
  8
0
 62
7
 10
1.1
 20
8.299999999999997
 30
0
 11
1.1
 21
8.399999999999997
 31
0
  0
LINE
  8
0
 62
7
 10
1.1
 20
8.299999999999997
 30
0
 11
1.275
 21
8.299999999999997
 31
0
  0
LINE
  8
0
 62
7
 10
1.1
 20
10.85
 30
0
 11
1.275
 21
10.85
 31
0
  0
LINE
  8
0
 62
7
 10
1.1
 20
11.05
 30
0
 11
1.1
 21
11.15
 31
0
  0
LINE
  8
0
 62
7
 10
1.1
 20
11.05
 30
0
 11
1.275
 21
11.05
 31
0
  0
LINE
  8
0
 62
7
 10
1.275
 20
7.949999999999996
 30
0
 11
1.275
 21
8.099999999999996
 31
0
  0
LINE
  8
0
 62
7
 10
1.275
 20
8.099999999999996
 30
0
 11
3.535
 21
8.099999999999996
 31
0
  0
LINE
  8
0
 62
7
 10
1.275
 20
8.299999999999997
 30
0
 11
1.275
 21
8.399999999999997
 31
0
  0
LINE
  8
0
 62
7
 10
1.275
 20
8.299999999999997
 30
0
 11
3.535
 21
8.299999999999997
 31
0
  0
LINE
  8
0
 62
7
 10
1.275
 20
10.85
 30
0
 11
3.535
 21
10.85
 31
0
  0
LINE
  8
0
 62
7
 10
1.275
 20
11.05
 30
0
 11
1.275
 21
11.15
 31
0
  0
LINE
  8
0
 62
7
 10
1.275
 20
11.05
 30
0
 11
3.535
 21
11.05
 31
0
  0
LINE
  8
0
 62
7
 10
3.535
 20
7.949999999999996
 30
0
 11
3.535
 21
8.099999999999996
 31
0
  0
LINE
  8
0
 62
7
 10
3.535
 20
8.099999999999996
 30
0
 11
3.71
 21
8.099999999999996
 31
0
  0
LINE
  8
0
 62
7
 10
3.535
 20
8.299999999999997
 30
0
 11
3.535
 21
8.399999999999997
 31
0
  0
LINE
  8
0
 62
7
 10
3.535
 20
8.299999999999997
 30
0
 11
3.71
 21
8.299999999999997
 31
0
  0
LINE
  8
0
 62
7
 10
3.535
 20
10.85
 30
0
 11
3.71
 21
10.85
 31
0
  0
LINE
  8
0
 62
7
 10
3.535
 20
11.05
 30
0
 11
3.535
 21
11.15
 31
0
  0
LINE
  8
0
 62
7
 10
3.535
 20
11.05
 30
0
 11
3.71
 21
11.05
 31
0
  0
LINE
  8
0
 62
7
 10
3.71
 20
7.949999999999996
 30
0
 11
3.71
 21
8.099999999999996
 31
0
  0
LINE
  8
0
 62
7
 10
3.71
 20
8.099999999999996
 30
0
 11
3.86
 21
8.099999999999996
 31
0
  0
LINE
  8
0
 62
7
 10
3.71
 20
8.299999999999997
 30
0
 11
3.71
 21
8.399999999999997
 31
0
  0
LINE
  8
0
 62
7
 10
3.71
 20
8.299999999999997
 30
0
 11
3.86
 21
8.299999999999997
 31
0
  0
LINE
  8
0
 62
7
 10
3.71
 20
10.85
 30
0
 11
3.86
 21
10.85
 31
0
  0
LINE
  8
0
 62
7
 10
3.71
 20
11.05
 30
0
 11
3.71
 21
11.15
 31
0
  0
LINE
  8
0
 62
7
 10
3.71
 20
11.05
 30
0
 11
3.86
 21
11.05
 31
0
  0
LINE
  8
0
 62
7
  6
DASHDOT
 10
0.9500000000000001
 20
8.049999999999995
 30
0
 11
0.9500000000000001
 21
8.099999999999996
 31
0
  0
LINE
  8
0
 62
7
  6
DASHDOT
 10
0.9500000000000001
 20
10.8
 30
0
 11
0.9500000000000001
 21
10.85
 31
0
  0
LINE
  8
0
 62
7
  6
DASHDOT
 10
3.86
 20
8.049999999999995
 30
0
 11
3.86
 21
8.099999999999996
 31
0
  0
LINE
  8
0
 62
7
  6
DASHDOT
 10
3.86
 20
10.8
 30
0
 11
3.86
 21
10.85
 31
0
  0
LINE
  8
0
 62
7
  6
DASHDOT
 10
1.05
 20
11.2
 30
0
 11
1.1
 21
11.2
 31
0
  0
LINE
  8
0
 62
7
  6
DASHDOT
 10
1.05
 20
7.949999999999996
 30
0
 11
1.1
 21
7.949999999999996
 31
0
  0
LINE
  8
0
 62
7
  6
DASHDOT
 10
3.485
 20
11.2
 30
0
 11
3.535
 21
11.2
 31
0
  0
LINE
  8
0
 62
7
  6
DASHDOT
 10
3.485
 20
7.949999999999996
 30
0
 11
3.535
 21
7.949999999999996
 31
0
  0
LINE
  8
0
 62
7
 10
0.9500000000000001
 20
8.399999999999997
 30
0
 11
1.1
 21
8.399999999999997
 31
0
  0
LINE
  8
0
 62
7
 10
1.1
 20
8.399999999999997
 30
0
 11
1.1
 21
10.85
 31
0
  0
LINE
  8
0
 62
7
  6
DASHDOT
 10
0.9500000000000001
 20
8.399999999999997
 30
0
 11
0.9500000000000001
 21
8.449999999999998
 31
0
  0
LINE
  8
0
 62
7
 10
1.275
 20
8.399999999999997
 30
0
 11
3.535
 21
8.399999999999997
 31
0
  0
LINE
  8
0
 62
7
 10
1.275
 20
8.399999999999997
 30
0
 11
1.275
 21
10.85
 31
0
  0
LINE
  8
0
 62
7
 10
3.535
 20
8.399999999999997
 30
0
 11
3.535
 21
10.85
 31
0
  0
LINE
  8
0
 62
7
 10
3.71
 20
8.399999999999997
 30
0
 11
3.86
 21
8.399999999999997
 31
0
  0
LINE
  8
0
 62
7
 10
3.71
 20
8.399999999999997
 30
0
 11
3.71
 21
10.85
 31
0
  0
LINE
  8
0
 62
7
  6
DASHDOT
 10
3.86
 20
8.399999999999997
 30
0
 11
3.86
 21
8.449999999999998
 31
0
  0
LINE
  8
0
 62
7
 10
0.9500000000000001
 20
11.15
 30
0
 11
1.1
 21
11.15
 31
0
  0
LINE
  8
0
 62
7
 10
1.1
 20
11.15
 30
0
 11
1.1
 21
11.2
 31
0
  0
LINE
  8
0
 62
7
  6
DASHDOT
 10
0.9500000000000001
 20
11.15
 30
0
 11
0.9500000000000001
 21
11.2
 31
0
  0
LINE
  8
0
 62
7
 10
1.275
 20
11.15
 30
0
 11
3.535
 21
11.15
 31
0
  0
LINE
  8
0
 62
7
 10
1.275
 20
11.15
 30
0
 11
1.275
 21
11.2
 31
0
  0
LINE
  8
0
 62
7
 10
3.535
 20
11.15
 30
0
 11
3.535
 21
11.2
 31
0
  0
LINE
  8
0
 62
7
 10
3.71
 20
11.15
 30
0
 11
3.86
 21
11.15
 31
0
  0
LINE
  8
0
 62
7
 10
3.71
 20
11.15
 30
0
 11
3.71
 21
11.2
 31
0
  0
LINE
  8
0
 62
7
  6
DASHDOT
 10
3.86
 20
11.15
 30
0
 11
3.86
 21
11.2
 31
0
  0
LINE
  8
0
 62
7
  6
DASHDOT
 10
3.86
 20
8.099999999999996
 30
0
 11
3.86
 21
8.299999999999997
 31
0
  0
LINE
  8
0
 62
7
  6
DASHDOT
 10
3.86
 20
8.299999999999997
 30
0
 11
3.86
 21
8.399999999999997
 31
0
  0
LINE
  8
0
 62
7
  6
DASHDOT
 10
3.535
 20
7.949999999999996
 30
0
 11
3.71
 21
7.949999999999996
 31
0
  0
LINE
  8
0
 62
7
  6
DASHDOT
 10
3.71
 20
7.949999999999996
 30
0
 11
3.76
 21
7.949999999999996
 31
0
  0
LINE
  8
0
 62
7
  6
DASHDOT
 10
0.9500000000000001
 20
8.099999999999996
 30
0
 11
0.9500000000000001
 21
8.299999999999997
 31
0
  0
LINE
  8
0
 62
7
  6
DASHDOT
 10
0.9500000000000001
 20
8.299999999999997
 30
0
 11
0.9500000000000001
 21
8.399999999999997
 31
0
  0
LINE
  8
0
 62
7
  6
DASHDOT
 10
1.1
 20
7.949999999999996
 30
0
 11
1.275
 21
7.949999999999996
 31
0
  0
LINE
  8
0
 62
7
  6
DASHDOT
 10
1.275
 20
7.949999999999996
 30
0
 11
1.325
 21
7.949999999999996
 31
0
  0
LINE
  8
0
 62
7
  6
DASHDOT
 10
0.9500000000000001
 20
10.85
 30
0
 11
0.9500000000000001
 21
11.05
 31
0
  0
LINE
  8
0
 62
7
  6
DASHDOT
 10
0.9500000000000001
 20
11.05
 30
0
 11
0.9500000000000001
 21
11.15
 31
0
  0
LINE
  8
0
 62
7
  6
DASHDOT
 10
1.1
 20
11.2
 30
0
 11
1.275
 21
11.2
 31
0
  0
LINE
  8
0
 62
7
  6
DASHDOT
 10
1.275
 20
11.2
 30
0
 11
1.325
 21
11.2
 31
0
  0
LINE
  8
0
 62
7
  6
DASHDOT
 10
3.86
 20
10.85
 30
0
 11
3.86
 21
11.05
 31
0
  0
LINE
  8
0
 62
7
  6
DASHDOT
 10
3.86
 20
11.05
 30
0
 11
3.86
 21
11.15
 31
0
  0
LINE
  8
0
 62
7
  6
DASHDOT
 10
3.535
 20
11.2
 30
0
 11
3.71
 21
11.2
 31
0
  0
LINE
  8
0
 62
7
  6
DASHDOT
 10
3.71
 20
11.2
 30
0
 11
3.76
 21
11.2
 31
0
  0
LINE
  8
0
 62
7
 10
8.200000000000001
 20
8.099999999999996
 30
0
 11
8.200000000000001
 21
7.949999999999996
 31
0
  0
LINE
  8
0
 62
7
 10
7.960000000000001
 20
11.05
 30
0
 11
7.960000000000001
 21
11.2
 31
0
  0
LINE
  8
0
 62
7
 10
7.960000000000001
 20
11.05
 30
0
 11
8.200000000000001
 21
11.05
 31
0
  0
LINE
  8
0
 62
7
 10
8.200000000000001
 20
11.2
 30
0
 11
8.200000000000001
 21
11.05
 31
0
  0
LINE
  8
0
 62
7
 10
7.960000000000001
 20
10.85
 30
0
 11
7.960000000000001
 21
11.05
 31
0
  0
LINE
  8
0
 62
7
 10
7.960000000000001
 20
10.85
 30
0
 11
8.200000000000001
 21
10.85
 31
0
  0
LINE
  8
0
 62
7
 10
8.200000000000001
 20
11.05
 30
0
 11
8.200000000000001
 21
10.85
 31
0
  0
LINE
  8
0
 62
7
 10
7.960000000000001
 20
8.299999999999997
 30
0
 11
7.960000000000001
 21
10.85
 31
0
  0
LINE
  8
0
 62
7
 10
7.960000000000001
 20
8.299999999999997
 30
0
 11
8.200000000000001
 21
8.299999999999997
 31
0
  0
LINE
  8
0
 62
7
 10
8.200000000000001
 20
10.85
 30
0
 11
8.200000000000001
 21
8.299999999999997
 31
0
  0
LINE
  8
0
 62
7
 10
7.960000000000001
 20
8.099999999999996
 30
0
 11
7.960000000000001
 21
8.299999999999997
 31
0
  0
LINE
  8
0
 62
7
 10
7.960000000000001
 20
8.099999999999996
 30
0
 11
8.200000000000001
 21
8.099999999999996
 31
0
  0
LINE
  8
0
 62
7
 10
8.200000000000001
 20
8.299999999999997
 30
0
 11
8.200000000000001
 21
8.099999999999996
 31
0
  0
LINE
  8
0
 62
7
 10
7.960000000000001
 20
7.949999999999996
 30
0
 11
7.960000000000001
 21
8.099999999999996
 31
0
  0
LINE
  8
0
 62
7
 10
6.06
 20
10.85
 30
0
 11
6.06
 21
11.05
 31
0
  0
LINE
  8
0
 62
7
 10
5.760000000000001
 20
10.85
 30
0
 11
6.06
 21
10.85
 31
0
  0
LINE
  8
0
 62
7
 10
5.760000000000001
 20
11.05
 30
0
 11
6.06
 21
11.05
 31
0
  0
LINE
  8
0
 62
7
 10
5.760000000000001
 20
8.299999999999997
 30
0
 11
6.06
 21
8.299999999999997
 31
0
  0
LINE
  8
0
 62
7
 10
6.06
 20
8.099999999999996
 30
0
 11
6.06
 21
8.299999999999997
 31
0
  0
LINE
  8
0
 62
7
 10
5.760000000000001
 20
8.099999999999996
 30
0
 11
6.06
 21
8.099999999999996
 31
0
  0
LINE
  8
0
 62
7
  6
DASHDOT
 10
8.200000000000001
 20
11.2
 30
0
 11
8.25
 21
11.2
 31
0
  0
LINE
  8
0
 62
7
  6
DASHDOT
 10
5.760000000000001
 20
11.15
 30
0
 11
5.760000000000001
 21
11.2
 31
0
  0
LINE
  8
0
 62
7
  6
DASHDOT
 10
5.760000000000001
 20
8.099999999999996
 30
0
 11
5.760000000000001
 21
8.049999999999995
 31
0
  0
LINE
  8
0
 62
7
  6
DASHDOT
 10
8.200000000000001
 20
7.949999999999996
 30
0
 11
8.25
 21
7.949999999999996
 31
0
  0
LINE
  8
0
 62
7
 10
5.760000000000001
 20
8.399999999999997
 30
0
 11
6.06
 21
8.399999999999997
 31
0
  0
LINE
  8
0
 62
7
  6
DASHDOT
 10
5.760000000000001
 20
8.449999999999998
 30
0
 11
5.760000000000001
 21
8.399999999999997
 31
0
  0
LINE
  8
0
 62
7
 10
5.760000000000001
 20
11.15
 30
0
 11
6.06
 21
11.15
 31
0
  0
LINE
  8
0
 62
7
  6
DASHDOT
 10
5.760000000000001
 20
11.05
 30
0
 11
5.760000000000001
 21
11.15
 31
0
  0
LINE
  8
0
 62
7
  6
DASHDOT
 10
5.760000000000001
 20
8.399999999999997
 30
0
 11
5.760000000000001
 21
8.299999999999997
 31
0
  0
LINE
  8
0
 62
7
  6
DASHDOT
 10
5.760000000000001
 20
8.299999999999997
 30
0
 11
5.760000000000001
 21
8.099999999999996
 31
0
  0
LINE
  8
0
 62
7
  6
DASHDOT
 10
7.960000000000001
 20
7.949999999999996
 30
0
 11
8.200000000000001
 21
7.949999999999996
 31
0
  0
LINE
  8
0
 62
7
  6
DASHDOT
 10
7.910000000000001
 20
7.949999999999996
 30
0
 11
7.960000000000001
 21
7.949999999999996
 31
0
  0
LINE
  8
0
 62
7
  6
DASHDOT
 10
7.910000000000001
 20
11.2
 30
0
 11
7.960000000000001
 21
11.2
 31
0
  0
LINE
  8
0
 62
7
  6
DASHDOT
 10
7.960000000000001
 20
11.2
 30
0
 11
8.200000000000001
 21
11.2
 31
0
  0
LINE
  8
0
 62
7
  6
DASHDOT
 10
5.760000000000001
 20
10.8
 30
0
 11
5.760000000000001
 21
10.85
 31
0
  0
LINE
  8
0
 62
7
  6
DASHDOT
 10
5.760000000000001
 20
10.85
 30
0
 11
5.760000000000001
 21
11.05
 31
0
  0
LINE
  8
0
 62
7
  6
DASHED
 10
6.06
 20
11.05
 30
0
 11
7.960000000000001
 21
11.05
 31
0
  0
LINE
  8
0
 62
7
  6
DASHED
 10
6.06
 20
10.85
 30
0
 11
7.960000000000001
 21
10.85
 31
0
  0
LINE
  8
0
 62
7
  6
DASHED
 10
6.06
 20
8.299999999999997
 30
0
 11
7.960000000000001
 21
8.299999999999997
 31
0
  0
LINE
  8
0
 62
7
  6
DASHED
 10
6.06
 20
8.099999999999996
 30
0
 11
7.960000000000001
 21
8.099999999999996
 31
0
  0
LINE
  8
0
 62
7
 10
3.71
 20
5.769999999999995
 30
0
 11
3.86
 21
5.769999999999995
 31
0
  0
LINE
  8
0
 62
7
 10
3.71
 20
5.919999999999995
 30
0
 11
3.71
 21
5.769999999999995
 31
0
  0
LINE
  8
0
 62
7
 10
3.535
 20
5.769999999999995
 30
0
 11
3.535
 21
5.919999999999995
 31
0
  0
LINE
  8
0
 62
7
 10
1.275
 20
5.769999999999995
 30
0
 11
3.535
 21
5.769999999999995
 31
0
  0
LINE
  8
0
 62
7
 10
1.275
 20
5.919999999999995
 30
0
 11
1.275
 21
5.769999999999995
 31
0
  0
LINE
  8
0
 62
7
 10
1.1
 20
5.769999999999995
 30
0
 11
1.1
 21
5.919999999999995
 31
0
  0
LINE
  8
0
 62
7
 10
0.9350000000000001
 20
5.769999999999995
 30
0
 11
1.1
 21
5.769999999999995
 31
0
  0
LINE
  8
0
 62
7
 10
0.9350000000000001
 20
5.530000000000002
 30
0
 11
3.86
 21
5.530000000000002
 31
0
  0
LINE
  8
0
 62
7
 10
0.9350000000000001
 20
5.490000000000002
 30
0
 11
3.86
 21
5.490000000000002
 31
0
  0
LINE
  8
0
 62
7
 10
3.71
 20
5.25
 30
0
 11
3.86
 21
5.25
 31
0
  0
LINE
  8
0
 62
7
 10
3.535
 20
3.35
 30
0
 11
3.535
 21
3.25
 31
0
  0
LINE
  8
0
 62
7
 10
3.535
 20
3.25
 30
0
 11
3.71
 21
3.25
 31
0
  0
LINE
  8
0
 62
7
 10
3.71
 20
3.25
 30
0
 11
3.71
 21
5.25
 31
0
  0
LINE
  8
0
 62
7
 10
1.275
 20
5.25
 30
0
 11
3.535
 21
5.25
 31
0
  0
LINE
  8
0
 62
7
 10
1.275
 20
3.4
 30
0
 11
1.275
 21
5.25
 31
0
  0
LINE
  8
0
 62
7
 10
1.1
 20
5.25
 30
0
 11
1.1
 21
3.35
 31
0
  0
LINE
  8
0
 62
7
 10
0.9350000000000001
 20
5.25
 30
0
 11
1.1
 21
5.25
 31
0
  0
LINE
  8
0
 62
7
 10
1.1
 20
3.35
 30
0
 11
1.275
 21
3.35
 31
0
  0
LINE
  8
0
 62
7
 10
3.535
 20
3.4
 30
0
 11
1.275
 21
3.4
 31
0
  0
LINE
  8
0
 62
7
 10
3.535
 20
5.25
 30
0
 11
3.535
 21
3.4
 31
0
  0
LINE
  8
0
 62
7
 10
1.275
 20
3.35
 30
0
 11
1.275
 21
3.4
 31
0
  0
LINE
  8
0
 62
7
  6
DASHDOT
 10
3.535
 20
3.35
 30
0
 11
1.275
 21
3.35
 31
0
  0
LINE
  8
0
 62
7
 10
3.535
 20
3.4
 30
0
 11
3.535
 21
3.35
 31
0
  0
LINE
  8
0
 62
7
  6
DASHDOT
 10
3.71
 20
5.919999999999995
 30
0
 11
3.76
 21
5.919999999999995
 31
0
  0
LINE
  8
0
 62
7
  6
DASHDOT
 10
1.275
 20
5.919999999999995
 30
0
 11
1.325
 21
5.919999999999995
 31
0
  0
LINE
  8
0
 62
7
  6
DASHDOT
 10
3.86
 20
5.769999999999995
 30
0
 11
3.86
 21
5.819999999999995
 31
0
  0
LINE
  8
0
 62
7
  6
DASHDOT
 10
0.9350000000000001
 20
5.769999999999995
 30
0
 11
0.9350000000000001
 21
5.819999999999995
 31
0
  0
LINE
  8
0
 62
7
  6
DASHDOT
 10
0.9350000000000001
 20
5.530000000000002
 30
0
 11
0.9350000000000001
 21
5.769999999999995
 31
0
  0
LINE
  8
0
 62
7
  6
DASHDOT
 10
0.9350000000000001
 20
5.2
 30
0
 11
0.9350000000000001
 21
5.25
 31
0
  0
LINE
  8
0
 62
7
  6
DASHDOT
 10
3.535
 20
5.919999999999995
 30
0
 11
3.71
 21
5.919999999999995
 31
0
  0
LINE
  8
0
 62
7
  6
DASHDOT
 10
3.485
 20
5.919999999999995
 30
0
 11
3.535
 21
5.919999999999995
 31
0
  0
LINE
  8
0
 62
7
  6
DASHDOT
 10
3.86
 20
5.530000000000002
 30
0
 11
3.86
 21
5.769999999999995
 31
0
  0
LINE
  8
0
 62
7
  6
DASHDOT
 10
3.86
 20
5.2
 30
0
 11
3.86
 21
5.25
 31
0
  0
LINE
  8
0
 62
7
  6
DASHDOT
 10
0.9350000000000001
 20
5.490000000000002
 30
0
 11
0.9350000000000001
 21
5.530000000000002
 31
0
  0
LINE
  8
0
 62
7
  6
DASHDOT
 10
3.86
 20
5.490000000000002
 30
0
 11
3.86
 21
5.530000000000002
 31
0
  0
LINE
  8
0
 62
7
  6
DASHDOT
 10
0.9350000000000001
 20
5.25
 30
0
 11
0.9350000000000001
 21
5.490000000000002
 31
0
  0
LINE
  8
0
 62
7
  6
DASHDOT
 10
3.86
 20
5.25
 30
0
 11
3.86
 21
5.490000000000002
 31
0
  0
LINE
  8
0
 62
7
  6
DASHDOT
 10
1.05
 20
5.919999999999995
 30
0
 11
1.1
 21
5.919999999999995
 31
0
  0
LINE
  8
0
 62
7
  6
DASHDOT
 10
1.1
 20
5.919999999999995
 30
0
 11
1.275
 21
5.919999999999995
 31
0
  0
LINE
  8
0
 62
7
  6
DASHED
 10
2.28000015
 20
10.90166666666666
 30
0
 11
1.329999999999998
 21
10.90166666666666
 31
0
  0
LINE
  8
0
 62
7
  6
DASHED
 10
1.329999999999998
 20
10.90166666666666
 30
0
 11
1.329999999999998
 21
10.96666666666666
 31
0
  0
LINE
  8
0
 62
7
  6
DASHED
 10
2.28000015
 20
10.96666666666666
 30
0
 11
2.28000015
 21
10.90166666666666
 31
0
  0
LINE
  8
0
 62
7
  6
DASHED
 10
1.329999999999998
 20
10.96666666666666
 30
0
 11
2.28000015
 21
10.96666666666666
 31
0
  0
LINE
  8
0
 62
7
 10
2.28000015
 20
10.71833322666666
 30
0
 11
1.33000015
 21
10.71833322666666
 31
0
  0
LINE
  8
0
 62
7
 10
1.33000015
 20
10.71833322666666
 30
0
 11
1.33000015
 21
10.78333322666666
 31
0
  0
LINE
  8
0
 62
7
 10
2.28000015
 20
10.78333322666666
 30
0
 11
2.28000015
 21
10.71833322666666
 31
0
  0
LINE
  8
0
 62
7
 10
1.33000015
 20
10.78333322666666
 30
0
 11
2.28000015
 21
10.78333322666666
 31
0
  0
LINE
  8
0
 62
7
 10
2.28000015
 20
10.53499994666666
 30
0
 11
1.33000015
 21
10.53499994666666
 31
0
  0
LINE
  8
0
 62
7
 10
1.33000015
 20
10.53499994666666
 30
0
 11
1.33000015
 21
10.59999994666666
 31
0
  0
LINE
  8
0
 62
7
 10
2.28000015
 20
10.59999994666666
 30
0
 11
2.28000015
 21
10.53499994666666
 31
0
  0
LINE
  8
0
 62
7
 10
1.33000015
 20
10.59999994666666
 30
0
 11
2.28000015
 21
10.59999994666666
 31
0
  0
LINE
  8
0
 62
7
 10
2.27999985
 20
10.35166666666666
 30
0
 11
1.33000015
 21
10.35166666666666
 31
0
  0
LINE
  8
0
 62
7
 10
1.33000015
 20
10.35166666666666
 30
0
 11
1.33000015
 21
10.41666666666666
 31
0
  0
LINE
  8
0
 62
7
 10
2.27999985
 20
10.41666666666666
 30
0
 11
2.27999985
 21
10.35166666666666
 31
0
  0
LINE
  8
0
 62
7
 10
1.33000015
 20
10.41666666666666
 30
0
 11
2.27999985
 21
10.41666666666666
 31
0
  0
LINE
  8
0
 62
7
 10
1.33000015
 20
10.16833322666666
 30
0
 11
1.33000015
 21
10.23333322666666
 31
0
  0
LINE
  8
0
 62
7
 10
2.28000015
 20
10.23333322666666
 30
0
 11
2.28000015
 21
10.16833322666666
 31
0
  0
LINE
  8
0
 62
7
 10
2.28000015
 20
10.16833322666666
 30
0
 11
1.33000015
 21
10.16833322666666
 31
0
  0
LINE
  8
0
 62
7
 10
1.33000015
 20
10.23333322666666
 30
0
 11
2.28000015
 21
10.23333322666666
 31
0
  0
LINE
  8
0
 62
7
 10
1.51717972
 20
9.984999946666663
 30
0
 11
1.51717972
 21
10.04999994666666
 31
0
  0
LINE
  8
0
 62
7
 10
2.340329440000002
 20
10.04999994666666
 30
0
 11
2.340329440000002
 21
9.984999946666663
 31
0
  0
LINE
  8
0
 62
7
 10
1.51717972
 20
10.04999994666666
 30
0
 11
2.340329440000002
 21
10.04999994666666
 31
0
  0
LINE
  8
0
 62
7
 10
2.340329440000002
 20
9.984999946666663
 30
0
 11
1.51717972
 21
9.984999946666663
 31
0
  0
LINE
  8
0
 62
7
 10
2.009201809999999
 20
9.801666666666662
 30
0
 11
2.009201809999999
 21
9.866666666666664
 31
0
  0
LINE
  8
0
 62
7
 10
2.507093969999998
 20
9.866666666666664
 30
0
 11
2.507093969999998
 21
9.801666666666662
 31
0
  0
LINE
  8
0
 62
7
 10
2.009201809999999
 20
9.866666666666664
 30
0
 11
2.507093969999998
 21
9.866666666666664
 31
0
  0
LINE
  8
0
 62
7
 10
2.507093969999998
 20
9.801666666666662
 30
0
 11
2.009201809999999
 21
9.801666666666662
 31
0
  0
LINE
  8
0
 62
7
 10
2.359884039999999
 20
9.618333226666664
 30
0
 11
2.359884039999999
 21
9.683333226666665
 31
0
  0
LINE
  8
0
 62
7
 10
2.951522830000002
 20
9.683333226666665
 30
0
 11
2.951522830000002
 21
9.618333226666664
 31
0
  0
LINE
  8
0
 62
7
 10
2.359884039999999
 20
9.683333226666665
 30
0
 11
2.951522830000002
 21
9.683333226666665
 31
0
  0
LINE
  8
0
 62
7
 10
2.951522830000002
 20
9.618333226666664
 30
0
 11
2.359884039999999
 21
9.618333226666664
 31
0
  0
LINE
  8
0
 62
7
 10
2.45707627
 20
9.434999946666663
 30
0
 11
2.45707627
 21
9.499999946666664
 31
0
  0
LINE
  8
0
 62
7
 10
3.480000120000001
 20
9.499999946666664
 30
0
 11
3.480000120000001
 21
9.434999946666663
 31
0
  0
LINE
  8
0
 62
7
 10
2.45707627
 20
9.499999946666664
 30
0
 11
3.480000120000001
 21
9.499999946666664
 31
0
  0
LINE
  8
0
 62
7
 10
3.480000120000001
 20
9.434999946666663
 30
0
 11
2.45707627
 21
9.434999946666663
 31
0
  0
LINE
  8
0
 62
7
 10
2.529999769999999
 20
9.251666586666664
 30
0
 11
2.529999769999999
 21
9.316666586666663
 31
0
  0
LINE
  8
0
 62
7
 10
3.480000120000001
 20
9.316666586666663
 30
0
 11
3.480000120000001
 21
9.251666586666664
 31
0
  0
LINE
  8
0
 62
7
 10
3.480000120000001
 20
9.251666586666664
 30
0
 11
2.529999769999999
 21
9.251666586666664
 31
0
  0
LINE
  8
0
 62
7
 10
2.529999769999999
 20
9.316666586666663
 30
0
 11
3.480000120000001
 21
9.316666586666663
 31
0
  0
LINE
  8
0
 62
7
 10
3.48000015
 20
9.068333226666665
 30
0
 11
2.53
 21
9.068333226666665
 31
0
  0
LINE
  8
0
 62
7
 10
2.53
 20
9.068333226666665
 30
0
 11
2.53
 21
9.133333226666664
 31
0
  0
LINE
  8
0
 62
7
 10
3.48000015
 20
9.133333226666664
 30
0
 11
3.48000015
 21
9.068333226666665
 31
0
  0
LINE
  8
0
 62
7
 10
2.53
 20
9.133333226666664
 30
0
 11
3.48000015
 21
9.133333226666664
 31
0
  0
LINE
  8
0
 62
7
 10
3.480000190000001
 20
8.884999906666662
 30
0
 11
2.53
 21
8.884999906666662
 31
0
  0
LINE
  8
0
 62
7
 10
2.53
 20
8.884999906666662
 30
0
 11
2.53
 21
8.949999906666664
 31
0
  0
LINE
  8
0
 62
7
 10
3.480000190000001
 20
8.949999906666664
 30
0
 11
3.480000190000001
 21
8.884999906666662
 31
0
  0
LINE
  8
0
 62
7
 10
2.53
 20
8.949999906666664
 30
0
 11
3.480000190000001
 21
8.949999906666664
 31
0
  0
LINE
  8
0
 62
7
 10
3.479999890000002
 20
8.701666566666665
 30
0
 11
2.53
 21
8.701666566666665
 31
0
  0
LINE
  8
0
 62
7
 10
2.53
 20
8.701666566666665
 30
0
 11
2.53
 21
8.766666566666663
 31
0
  0
LINE
  8
0
 62
7
 10
3.479999890000002
 20
8.766666566666663
 30
0
 11
3.479999890000002
 21
8.701666566666665
 31
0
  0
LINE
  8
0
 62
7
 10
2.53
 20
8.766666566666663
 30
0
 11
3.479999890000002
 21
8.766666566666663
 31
0
  0
LINE
  8
0
 62
7
 10
3.48000031
 20
8.518333226666664
 30
0
 11
2.530000230000002
 21
8.518333226666664
 31
0
  0
LINE
  8
0
 62
7
 10
2.530000230000002
 20
8.518333226666664
 30
0
 11
2.530000230000002
 21
8.583333226666666
 31
0
  0
LINE
  8
0
 62
7
 10
3.48000031
 20
8.583333226666666
 30
0
 11
3.48000031
 21
8.518333226666664
 31
0
  0
LINE
  8
0
 62
7
 10
2.530000230000002
 20
8.583333226666666
 30
0
 11
3.48000031
 21
8.583333226666666
 31
0
  0
LINE
  8
0
 62
7
 10
6.370260050000002
 20
10.90166666666666
 30
0
 11
6.099998210000003
 21
10.90166666666666
 31
0
  0
LINE
  8
0
 62
7
 10
6.370260050000002
 20
10.96666666666666
 30
0
 11
6.370260050000002
 21
10.90166666666666
 31
0
  0
LINE
  8
0
 62
7
 10
6.099998210000003
 20
10.96666666666666
 30
0
 11
6.370260050000002
 21
10.96666666666666
 31
0
  0
LINE
  8
0
 62
7
 10
6.099998210000003
 20
10.90166666666666
 30
0
 11
6.099998210000003
 21
10.96666666666666
 31
0
  0
LINE
  8
0
 62
7
 10
6.712719650000001
 20
10.78333322666666
 30
0
 11
6.712719650000001
 21
10.71833322666666
 31
0
  0
LINE
  8
0
 62
7
 10
6.280259900000001
 20
10.71833322666666
 30
0
 11
6.280259900000001
 21
10.78333322666666
 31
0
  0
LINE
  8
0
 62
7
 10
6.712719650000001
 20
10.71833322666666
 30
0
 11
6.280259900000001
 21
10.71833322666666
 31
0
  0
LINE
  8
0
 62
7
 10
6.280259900000001
 20
10.78333322666666
 30
0
 11
6.712719650000001
 21
10.78333322666666
 31
0
  0
LINE
  8
0
 62
7
 10
7.101448900000001
 20
10.59999994666666
 30
0
 11
7.101448900000001
 21
10.53499994666666
 31
0
  0
LINE
  8
0
 62
7
 10
6.447637630000002
 20
10.53499994666666
 30
0
 11
6.447637630000002
 21
10.59999994666666
 31
0
  0
LINE
  8
0
 62
7
 10
6.447637630000002
 20
10.59999994666666
 30
0
 11
7.101448900000001
 21
10.59999994666666
 31
0
  0
LINE
  8
0
 62
7
 10
7.101448900000001
 20
10.53499994666666
 30
0
 11
6.447637630000002
 21
10.53499994666666
 31
0
  0
LINE
  8
0
 62
7
 10
7.543285680000001
 20
10.41666666666666
 30
0
 11
7.543285680000001
 21
10.35166666666666
 31
0
  0
LINE
  8
0
 62
7
 10
6.557491840000002
 20
10.35166666666666
 30
0
 11
6.557491840000002
 21
10.41666666666666
 31
0
  0
LINE
  8
0
 62
7
 10
6.557491840000002
 20
10.41666666666666
 30
0
 11
7.543285680000001
 21
10.41666666666666
 31
0
  0
LINE
  8
0
 62
7
 10
7.543285680000001
 20
10.35166666666666
 30
0
 11
6.557491840000002
 21
10.35166666666666
 31
0
  0
LINE
  8
0
 62
7
 10
7.905
 20
10.23333322666666
 30
0
 11
7.905
 21
10.16833322666666
 31
0
  0
LINE
  8
0
 62
7
 10
6.659513400000001
 20
10.16833322666666
 30
0
 11
6.659513400000001
 21
10.23333322666666
 31
0
  0
LINE
  8
0
 62
7
 10
6.659513400000001
 20
10.23333322666666
 30
0
 11
7.905
 21
10.23333322666666
 31
0
  0
LINE
  8
0
 62
7
 10
7.905
 20
10.16833322666666
 30
0
 11
6.659513400000001
 21
10.16833322666666
 31
0
  0
LINE
  8
0
 62
7
 10
7.905000150000001
 20
10.04999994666666
 30
0
 11
7.905000150000001
 21
9.984999946666663
 31
0
  0
LINE
  8
0
 62
7
 10
6.797902450000001
 20
9.984999946666663
 30
0
 11
6.797902450000001
 21
10.04999994666666
 31
0
  0
LINE
  8
0
 62
7
 10
7.905000150000001
 20
9.984999946666663
 30
0
 11
6.797902450000001
 21
9.984999946666663
 31
0
  0
LINE
  8
0
 62
7
 10
6.797902450000001
 20
10.04999994666666
 30
0
 11
7.905000150000001
 21
10.04999994666666
 31
0
  0
LINE
  8
0
 62
7
 10
7.904999690000001
 20
9.801666666666662
 30
0
 11
6.954999690000001
 21
9.801666666666662
 31
0
  0
LINE
  8
0
 62
7
 10
7.904999690000001
 20
9.866666666666664
 30
0
 11
7.904999690000001
 21
9.801666666666662
 31
0
  0
LINE
  8
0
 62
7
 10
6.954999690000001
 20
9.801666666666662
 30
0
 11
6.954999690000001
 21
9.866666666666664
 31
0
  0
LINE
  8
0
 62
7
 10
6.954999690000001
 20
9.866666666666664
 30
0
 11
7.904999690000001
 21
9.866666666666664
 31
0
  0
LINE
  8
0
 62
7
 10
7.905
 20
9.618333226666664
 30
0
 11
6.954999390000002
 21
9.618333226666664
 31
0
  0
LINE
  8
0
 62
7
 10
7.905
 20
9.683333226666665
 30
0
 11
7.905
 21
9.618333226666664
 31
0
  0
LINE
  8
0
 62
7
 10
6.954999390000002
 20
9.618333226666664
 30
0
 11
6.954999390000002
 21
9.683333226666665
 31
0
  0
LINE
  8
0
 62
7
 10
6.954999390000002
 20
9.683333226666665
 30
0
 11
7.905
 21
9.683333226666665
 31
0
  0
LINE
  8
0
 62
7
 10
7.904999850000003
 20
9.499999946666664
 30
0
 11
7.904999850000003
 21
9.434999946666663
 31
0
  0
LINE
  8
0
 62
7
 10
6.83238235
 20
9.434999946666663
 30
0
 11
6.83238235
 21
9.499999946666664
 31
0
  0
LINE
  8
0
 62
7
 10
6.83238235
 20
9.499999946666664
 30
0
 11
7.904999850000003
 21
9.499999946666664
 31
0
  0
LINE
  8
0
 62
7
 10
7.904999850000003
 20
9.434999946666663
 30
0
 11
6.83238235
 21
9.434999946666663
 31
0
  0
LINE
  8
0
 62
7
 10
7.904999850000003
 20
9.316666586666662
 30
0
 11
7.904999850000003
 21
9.251666586666662
 31
0
  0
LINE
  8
0
 62
7
 10
6.691102450000002
 20
9.251666586666662
 30
0
 11
6.691102450000002
 21
9.316666586666662
 31
0
  0
LINE
  8
0
 62
7
 10
6.691102450000002
 20
9.316666586666662
 30
0
 11
7.904999850000003
 21
9.316666586666662
 31
0
  0
LINE
  8
0
 62
7
 10
7.904999850000003
 20
9.251666586666662
 30
0
 11
6.691102450000002
 21
9.251666586666662
 31
0
  0
LINE
  8
0
 62
7
 10
7.387891240000001
 20
9.133333226666664
 30
0
 11
7.387891240000001
 21
9.068333226666665
 31
0
  0
LINE
  8
0
 62
7
 10
6.582241360000001
 20
9.068333226666665
 30
0
 11
6.582241360000001
 21
9.133333226666664
 31
0
  0
LINE
  8
0
 62
7
 10
6.582241360000001
 20
9.133333226666664
 30
0
 11
7.387891240000001
 21
9.133333226666664
 31
0
  0
LINE
  8
0
 62
7
 10
7.387891240000001
 20
9.068333226666665
 30
0
 11
6.582241360000001
 21
9.068333226666665
 31
0
  0
LINE
  8
0
 62
7
 10
6.97714043
 20
8.949999906666664
 30
0
 11
6.97714043
 21
8.884999906666662
 31
0
  0
LINE
  8
0
 62
7
 10
6.410507930000003
 20
8.884999906666662
 30
0
 11
6.410507930000003
 21
8.949999906666664
 31
0
  0
LINE
  8
0
 62
7
 10
6.410507930000003
 20
8.949999906666664
 30
0
 11
6.97714043
 21
8.949999906666664
 31
0
  0
LINE
  8
0
 62
7
 10
6.97714043
 20
8.884999906666662
 30
0
 11
6.410507930000003
 21
8.884999906666662
 31
0
  0
LINE
  8
0
 62
7
 10
6.633747710000001
 20
8.766666566666663
 30
0
 11
6.633747710000001
 21
8.701666566666665
 31
0
  0
LINE
  8
0
 62
7
 10
6.219999430000001
 20
8.701666566666665
 30
0
 11
6.219999430000001
 21
8.766666566666663
 31
0
  0
LINE
  8
0
 62
7
 10
6.633747710000001
 20
8.701666566666665
 30
0
 11
6.219999430000001
 21
8.701666566666665
 31
0
  0
LINE
  8
0
 62
7
 10
6.219999430000001
 20
8.766666566666663
 30
0
 11
6.633747710000001
 21
8.766666566666663
 31
0
  0
LINE
  8
0
 62
7
 10
6.309999500000004
 20
8.518333226666664
 30
0
 11
5.959999540000002
 21
8.518333226666664
 31
0
  0
LINE
  8
0
 62
7
 10
6.309999500000004
 20
8.583333226666666
 30
0
 11
6.309999500000004
 21
8.518333226666664
 31
0
  0
LINE
  8
0
 62
7
 10
5.959999540000002
 20
8.583333226666666
 30
0
 11
6.309999500000004
 21
8.583333226666666
 31
0
  0
LINE
  8
0
 62
7
 10
5.959999540000002
 20
8.518333226666664
 30
0
 11
5.959999540000002
 21
8.583333226666666
 31
0
  0
LINE
  8
0
 62
7
 10
2.321974721226541
 20
4.244999999999999
 30
0
 11
2.279978256458531
 21
4.174365231539764
 31
0
  0
LINE
  8
0
 62
7
 10
2.321974721226541
 20
4.244999999999999
 30
0
 11
2.340329214879212
 21
4.27587082249716
 31
0
  0
LINE
  8
0
 62
7
 10
2.450046054936462
 20
4.244999999999999
 30
0
 11
2.485826436691832
 21
4.244999999999999
 31
0
  0
LINE
  8
0
 62
7
 10
2.450046054936462
 20
4.244999999999999
 30
0
 11
2.321974721226541
 21
4.244999999999999
 31
0
  0
LINE
  8
0
 62
7
 10
2.485826436691832
 20
4.244999999999999
 30
0
 11
2.538825598110794
 21
4.244999999999999
 31
0
  0
LINE
  8
0
 62
7
 10
2.530000000000002
 20
4.187079396593194
 30
0
 11
2.485826436691832
 21
4.244999999999999
 31
0
  0
LINE
  8
0
 62
7
 10
2.530000000000002
 20
4.187079396593194
 30
0
 11
2.579341417742942
 21
4.122382675871779
 31
0
  0
LINE
  8
0
 62
7
 10
2.530000000000002
 20
3.981102849737231
 30
0
 11
2.530000000000002
 21
3.872241563600879
 31
0
  0
LINE
  8
0
 62
7
 10
2.530000000000002
 20
3.981102849737231
 30
0
 11
2.530000000000002
 21
4.187079396593194
 31
0
  0
LINE
  8
0
 62
7
 10
1.781269391525191
 20
3.399999999999999
 30
0
 11
1.781269391525191
 21
4.244999867582229
 31
0
  0
LINE
  8
0
 62
7
 10
1.781269391525191
 20
3.399999999999999
 30
0
 11
1.67561429226349
 21
3.460999999999999
 31
0
  0
LINE
  8
0
 62
7
 10
1.67561429226349
 20
3.460999999999999
 30
0
 11
1.886924490786894
 21
3.460999999999999
 31
0
  0
LINE
  8
0
 62
7
 10
1.886924490786894
 20
3.460999999999999
 30
0
 11
1.781269391525191
 21
3.399999999999999
 31
0
  0
LINE
  8
0
 62
7
 10
2.280000132398942
 20
4.743730608474809
 30
0
 11
2.529999867581824
 21
4.743730608474809
 31
0
  0
LINE
  8
0
 62
7
 10
3.028730608474814
 20
4.244999867635199
 30
0
 11
3.028730608474814
 21
3.25
 31
0
  0
LINE
  8
0
 62
7
 10
1.330000000000004
 20
3.66026059128124
 30
0
 11
1.330000000000004
 21
3.389999999999999
 31
0
  0
LINE
  8
0
 62
7
 10
2.280000000000002
 20
3.389999999999999
 30
0
 11
2.280000000000002
 21
3.660260493552809
 31
0
  0
LINE
  8
0
 62
7
 10
2.280000000000002
 20
3.660260493552809
 30
0
 11
1.330000000000004
 21
3.66026059128124
 31
0
  0
LINE
  8
0
 62
7
 10
1.330000000000004
 20
4.002720256143239
 30
0
 11
1.330000000000004
 21
3.57026059128124
 31
0
  0
LINE
  8
0
 62
7
 10
2.280000000000002
 20
3.570260493552809
 30
0
 11
2.280000000000002
 21
3.829128323714631
 31
0
  0
LINE
  8
0
 62
7
 10
2.280000000000002
 20
3.829128323714631
 30
0
 11
1.330000000000004
 21
4.002720256143239
 31
0
  0
LINE
  8
0
 62
7
 10
1.330000000000004
 20
4.39144947893084
 30
0
 11
1.330000000000004
 21
3.911230059051329
 31
0
  0
LINE
  8
0
 62
7
 10
2.280000000000002
 20
3.737638126622709
 30
0
 11
2.280000000000002
 21
3.946860301963
 31
0
  0
LINE
  8
0
 62
7
 10
2.280000000000002
 20
3.946860301963
 30
0
 11
1.330000000000004
 21
4.39144947893084
 31
0
  0
LINE
  8
0
 62
7
 10
1.330000000000004
 20
4.83328655637294
 30
0
 11
1.330000000000004
 21
4.29208143564519
 31
0
  0
LINE
  8
0
 62
7
 10
2.280000000000002
 20
3.847492258677349
 30
0
 11
2.280000000000002
 21
4.065247204886618
 31
0
  0
LINE
  8
0
 62
7
 10
2.280000000000002
 20
4.065247204886618
 30
0
 11
1.330000000000004
 21
4.83328655637294
 31
0
  0
LINE
  8
0
 62
7
 10
1.624158646717613
 20
5.194999999999999
 30
0
 11
1.330000000000004
 21
5.194999999999999
 31
0
  0
LINE
  8
0
 62
7
 10
1.330000000000004
 20
5.194999999999999
 30
0
 11
1.330000000000004
 21
4.717553010032769
 31
0
  0
LINE
  8
0
 62
7
 10
2.280000000000002
 20
3.94951365854645
 30
0
 11
2.280000000000002
 21
4.174352303743819
 31
0
  0
LINE
  8
0
 62
7
 10
2.280000000000002
 20
4.174352303743819
 30
0
 11
1.624158646717613
 21
5.194999999999999
 31
0
  0
LINE
  8
0
 62
7
 10
2.102174060823583
 20
5.194999999999999
 30
0
 11
1.517179687852684
 21
5.194999999999999
 31
0
  0
LINE
  8
0
 62
7
 10
2.340329214879212
 20
4.27587082249716
 30
0
 11
2.102174060823583
 21
5.194999999999999
 31
0
  0
LINE
  8
0
 62
7
 10
2.507093954170783
 20
5.194999999999999
 30
0
 11
2.009201936631982
 21
5.194999999999999
 31
0
  0
LINE
  8
0
 62
7
 10
2.450046054936462
 20
4.244999999999999
 30
0
 11
2.507093954170783
 21
5.194999999999999
 31
0
  0
LINE
  8
0
 62
7
 10
2.951522679851894
 20
5.194999999999999
 30
0
 11
2.416931827814584
 21
5.194999999999999
 31
0
  0
LINE
  8
0
 62
7
 10
2.359883928580263
 20
4.244999999999999
 30
0
 11
2.450046054936462
 21
4.244999999999999
 31
0
  0
LINE
  8
0
 62
7
 10
2.538825598110794
 20
4.244999999999999
 30
0
 11
2.951522679851894
 21
5.194999999999999
 31
0
  0
LINE
  8
0
 62
7
 10
3.48
 20
5.159379921977441
 30
0
 11
3.48
 21
5.194999999999999
 31
0
  0
LINE
  8
0
 62
7
 10
3.48
 20
5.194999999999999
 30
0
 11
2.85339712887559
 21
5.194999999999999
 31
0
  0
LINE
  8
0
 62
7
 10
2.579341417742942
 20
4.122382675871779
 30
0
 11
3.48
 21
5.159379921977441
 31
0
  0
LINE
  8
0
 62
7
 10
3.48
 20
4.57190686851912
 30
0
 11
3.48
 21
5.194999999999999
 31
0
  0
LINE
  8
0
 62
7
 10
3.48
 20
5.194999999999999
 30
0
 11
3.391730712294101
 21
5.194999999999999
 31
0
  0
LINE
  8
0
 62
7
 10
2.530000000000002
 20
3.981102849737231
 30
0
 11
3.48
 21
4.57190686851912
 31
0
  0
LINE
  8
0
 62
7
 10
3.48
 20
4.172745507077479
 30
0
 11
3.48
 21
4.677891501533339
 31
0
  0
LINE
  8
0
 62
7
 10
2.530000000000002
 20
4.08708748275146
 30
0
 11
2.530000000000002
 21
3.981102849737231
 31
0
  0
LINE
  8
0
 62
7
 10
2.530000000000002
 20
3.872241563600879
 30
0
 11
3.48
 21
4.172745507077479
 31
0
  0
LINE
  8
0
 62
7
 10
3.48
 20
3.832878570466789
 30
0
 11
3.48
 21
4.26714080499294
 31
0
  0
LINE
  8
0
 62
7
 10
2.530000000000002
 20
3.96663686151634
 30
0
 11
2.530000000000002
 21
3.700508320976659
 31
0
  0
LINE
  8
0
 62
7
 10
2.530000000000002
 20
3.700508320976659
 30
0
 11
3.48
 21
3.832878570466789
 31
0
  0
LINE
  8
0
 62
7
 10
3.48
 20
3.51
 30
0
 11
3.48
 21
3.923748037907199
 31
0
  0
LINE
  8
0
 62
7
 10
2.530000000000002
 20
3.791377788417069
 30
0
 11
2.530000000000002
 21
3.51
 31
0
  0
LINE
  8
0
 62
7
 10
2.530000000000002
 20
3.51
 30
0
 11
3.48
 21
3.51
 31
0
  0
LINE
  8
0
 62
7
 10
3.48
 20
3.25
 30
0
 11
3.48
 21
3.6
 31
0
  0
LINE
  8
0
 62
7
 10
2.530000000000002
 20
3.6
 30
0
 11
2.530000000000002
 21
3.25
 31
0
  0
LINE
  8
0
 62
7
 10
2.530000000000002
 20
3.25
 30
0
 11
3.48
 21
3.25
 31
0
  0
LINE
  8
0
 62
7
 10
1.554782440668821
 20
4.922710420711971
 30
0
 11
1.554782440668821
 21
5.042710420711971
 31
0
  0
LINE
  8
0
 62
7
 10
1.630382440668821
 20
5.042710420711971
 30
0
 11
1.576382440668821
 21
4.982710420711971
 31
0
  0
LINE
  8
0
 62
7
 10
1.576382440668821
 20
4.982710420711971
 30
0
 11
1.630382440668821
 21
4.922710420711971
 31
0
  0
LINE
  8
0
 62
7
 10
1.576382440668821
 20
4.982710420711971
 30
0
 11
1.554782440668821
 21
4.958710420711971
 31
0
  0
LINE
  8
0
 62
7
 10
1.738382440668821
 20
5.042710420711971
 30
0
 11
1.662782440668821
 21
5.042710420711971
 31
0
  0
LINE
  8
0
 62
7
 10
1.662782440668821
 20
5.042710420711971
 30
0
 11
1.662782440668821
 21
4.982710420711971
 31
0
  0
LINE
  8
0
 62
7
 10
1.662782440668821
 20
4.922710420711971
 30
0
 11
1.738382440668821
 21
4.922710420711971
 31
0
  0
LINE
  8
0
 62
7
 10
1.727582440668821
 20
4.982710420711971
 30
0
 11
1.662782440668821
 21
4.982710420711971
 31
0
  0
LINE
  8
0
 62
7
 10
1.662782440668821
 20
4.982710420711971
 30
0
 11
1.662782440668821
 21
4.922710420711971
 31
0
  0
LINE
  8
0
 62
7
 10
1.770782440668821
 20
4.922710420711971
 30
0
 11
1.770782440668821
 21
5.042710420711971
 31
0
  0
LINE
  8
0
 62
7
 10
1.770782440668821
 20
5.042710420711971
 30
0
 11
1.846382440668821
 21
4.922710420711971
 31
0
  0
LINE
  8
0
 62
7
 10
1.846382440668821
 20
4.922710420711971
 30
0
 11
1.846382440668821
 21
5.042710420711971
 31
0
  0
LINE
  8
0
 62
7
 10
1.878782440668821
 20
4.922710420711971
 30
0
 11
1.878782440668821
 21
5.042710420711971
 31
0
  0
LINE
  8
0
 62
7
 10
1.878782440668821
 20
5.042710420711971
 30
0
 11
1.954382440668821
 21
4.922710420711971
 31
0
  0
LINE
  8
0
 62
7
 10
1.954382440668821
 20
4.922710420711971
 30
0
 11
1.954382440668821
 21
5.042710420711971
 31
0
  0
LINE
  8
0
 62
7
 10
2.062382440668821
 20
5.006710420711971
 30
0
 11
2.059682440668821
 21
5.018710420711971
 31
0
  0
LINE
  8
0
 62
7
 10
2.059682440668821
 20
5.018710420711971
 30
0
 11
2.054282440668821
 21
5.02771042071197
 31
0
  0
LINE
  8
0
 62
7
 10
2.054282440668821
 20
5.02771042071197
 30
0
 11
2.048882440668821
 21
5.033710420711971
 31
0
  0
LINE
  8
0
 62
7
 10
2.048882440668821
 20
5.033710420711971
 30
0
 11
2.040782440668821
 21
5.039710420711971
 31
0
  0
LINE
  8
0
 62
7
 10
2.040782440668821
 20
5.039710420711971
 30
0
 11
2.032682440668821
 21
5.042710420711971
 31
0
  0
LINE
  8
0
 62
7
 10
2.032682440668821
 20
5.042710420711971
 30
0
 11
2.016482440668821
 21
5.042710420711971
 31
0
  0
LINE
  8
0
 62
7
 10
2.016482440668821
 20
5.042710420711971
 30
0
 11
2.008382440668821
 21
5.039710420711971
 31
0
  0
LINE
  8
0
 62
7
 10
2.008382440668821
 20
5.039710420711971
 30
0
 11
2.000282440668821
 21
5.033710420711971
 31
0
  0
LINE
  8
0
 62
7
 10
2.000282440668821
 20
5.033710420711971
 30
0
 11
1.994882440668821
 21
5.02771042071197
 31
0
  0
LINE
  8
0
 62
7
 10
1.994882440668821
 20
5.02771042071197
 30
0
 11
1.989482440668821
 21
5.018710420711971
 31
0
  0
LINE
  8
0
 62
7
 10
1.989482440668821
 20
5.018710420711971
 30
0
 11
1.986782440668821
 21
5.006710420711971
 31
0
  0
LINE
  8
0
 62
7
 10
1.986782440668821
 20
5.006710420711971
 30
0
 11
1.986782440668821
 21
4.958710420711971
 31
0
  0
LINE
  8
0
 62
7
 10
1.986782440668821
 20
4.958710420711971
 30
0
 11
1.989482440668821
 21
4.946710420711971
 31
0
  0
LINE
  8
0
 62
7
 10
1.989482440668821
 20
4.946710420711971
 30
0
 11
1.994882440668821
 21
4.93771042071197
 31
0
  0
LINE
  8
0
 62
7
 10
1.994882440668821
 20
4.93771042071197
 30
0
 11
2.000282440668821
 21
4.931710420711971
 31
0
  0
LINE
  8
0
 62
7
 10
2.000282440668821
 20
4.931710420711971
 30
0
 11
2.008382440668821
 21
4.925710420711971
 31
0
  0
LINE
  8
0
 62
7
 10
2.008382440668821
 20
4.925710420711971
 30
0
 11
2.016482440668821
 21
4.922710420711971
 31
0
  0
LINE
  8
0
 62
7
 10
2.016482440668821
 20
4.922710420711971
 30
0
 11
2.032682440668821
 21
4.922710420711971
 31
0
  0
LINE
  8
0
 62
7
 10
2.032682440668821
 20
4.922710420711971
 30
0
 11
2.040782440668821
 21
4.925710420711971
 31
0
  0
LINE
  8
0
 62
7
 10
2.040782440668821
 20
4.925710420711971
 30
0
 11
2.048882440668821
 21
4.931710420711971
 31
0
  0
LINE
  8
0
 62
7
 10
2.048882440668821
 20
4.931710420711971
 30
0
 11
2.054282440668821
 21
4.93771042071197
 31
0
  0
LINE
  8
0
 62
7
 10
2.054282440668821
 20
4.93771042071197
 30
0
 11
2.059682440668821
 21
4.946710420711971
 31
0
  0
LINE
  8
0
 62
7
 10
2.059682440668821
 20
4.946710420711971
 30
0
 11
2.062382440668821
 21
4.958710420711971
 31
0
  0
LINE
  8
0
 62
7
 10
2.062382440668821
 20
4.958710420711971
 30
0
 11
2.062382440668821
 21
4.982710420711971
 31
0
  0
LINE
  8
0
 62
7
 10
2.062382440668821
 20
4.982710420711971
 30
0
 11
2.029982440668821
 21
4.982710420711971
 31
0
  0
LINE
  8
0
 62
7
 10
2.140682440668821
 20
5.042710420711971
 30
0
 11
2.124482440668821
 21
5.042710420711971
 31
0
  0
LINE
  8
0
 62
7
 10
2.124482440668821
 20
5.042710420711971
 30
0
 11
2.116382440668821
 21
5.039710420711971
 31
0
  0
LINE
  8
0
 62
7
 10
2.116382440668821
 20
5.039710420711971
 30
0
 11
2.108282440668821
 21
5.033710420711971
 31
0
  0
LINE
  8
0
 62
7
 10
2.108282440668821
 20
5.033710420711971
 30
0
 11
2.102882440668821
 21
5.02771042071197
 31
0
  0
LINE
  8
0
 62
7
 10
2.102882440668821
 20
5.02771042071197
 30
0
 11
2.097482440668821
 21
5.018710420711971
 31
0
  0
LINE
  8
0
 62
7
 10
2.097482440668821
 20
5.018710420711971
 30
0
 11
2.094782440668821
 21
5.006710420711971
 31
0
  0
LINE
  8
0
 62
7
 10
2.094782440668821
 20
5.006710420711971
 30
0
 11
2.094782440668821
 21
4.958710420711971
 31
0
  0
LINE
  8
0
 62
7
 10
2.094782440668821
 20
4.958710420711971
 30
0
 11
2.097482440668821
 21
4.946710420711971
 31
0
  0
LINE
  8
0
 62
7
 10
2.097482440668821
 20
4.946710420711971
 30
0
 11
2.102882440668821
 21
4.93771042071197
 31
0
  0
LINE
  8
0
 62
7
 10
2.102882440668821
 20
4.93771042071197
 30
0
 11
2.108282440668821
 21
4.931710420711971
 31
0
  0
LINE
  8
0
 62
7
 10
2.108282440668821
 20
4.931710420711971
 30
0
 11
2.116382440668821
 21
4.925710420711971
 31
0
  0
LINE
  8
0
 62
7
 10
2.116382440668821
 20
4.925710420711971
 30
0
 11
2.124482440668821
 21
4.922710420711971
 31
0
  0
LINE
  8
0
 62
7
 10
2.124482440668821
 20
4.922710420711971
 30
0
 11
2.140682440668821
 21
4.922710420711971
 31
0
  0
LINE
  8
0
 62
7
 10
2.140682440668821
 20
4.922710420711971
 30
0
 11
2.148782440668821
 21
4.925710420711971
 31
0
  0
LINE
  8
0
 62
7
 10
2.148782440668821
 20
4.925710420711971
 30
0
 11
2.156882440668821
 21
4.931710420711971
 31
0
  0
LINE
  8
0
 62
7
 10
2.156882440668821
 20
4.931710420711971
 30
0
 11
2.162282440668821
 21
4.93771042071197
 31
0
  0
LINE
  8
0
 62
7
 10
2.162282440668821
 20
4.93771042071197
 30
0
 11
2.167682440668821
 21
4.946710420711971
 31
0
  0
LINE
  8
0
 62
7
 10
2.167682440668821
 20
4.946710420711971
 30
0
 11
2.170382440668821
 21
4.958710420711971
 31
0
  0
LINE
  8
0
 62
7
 10
2.170382440668821
 20
4.958710420711971
 30
0
 11
2.170382440668821
 21
5.006710420711971
 31
0
  0
LINE
  8
0
 62
7
 10
2.170382440668821
 20
5.006710420711971
 30
0
 11
2.167682440668821
 21
5.018710420711971
 31
0
  0
LINE
  8
0
 62
7
 10
2.167682440668821
 20
5.018710420711971
 30
0
 11
2.162282440668821
 21
5.02771042071197
 31
0
  0
LINE
  8
0
 62
7
 10
2.162282440668821
 20
5.02771042071197
 30
0
 11
2.156882440668821
 21
5.033710420711971
 31
0
  0
LINE
  8
0
 62
7
 10
2.156882440668821
 20
5.033710420711971
 30
0
 11
2.148782440668821
 21
5.039710420711971
 31
0
  0
LINE
  8
0
 62
7
 10
2.148782440668821
 20
5.039710420711971
 30
0
 11
2.140682440668821
 21
5.042710420711971
 31
0
  0
LINE
  8
0
 62
7
 10
2.191982440668821
 20
5.042710420711971
 30
0
 11
2.229782440668822
 21
5.042710420711971
 31
0
  0
LINE
  8
0
 62
7
 10
2.229782440668822
 20
5.042710420711971
 30
0
 11
2.229782440668822
 21
4.922710420711971
 31
0
  0
LINE
  8
0
 62
7
 10
2.229782440668822
 20
5.042710420711971
 30
0
 11
2.267582440668821
 21
5.042710420711971
 31
0
  0
LINE
  8
0
 62
7
 10
2.299982440668821
 20
5.042710420711971
 30
0
 11
2.337782440668822
 21
5.042710420711971
 31
0
  0
LINE
  8
0
 62
7
 10
2.337782440668822
 20
5.042710420711971
 30
0
 11
2.337782440668822
 21
4.922710420711971
 31
0
  0
LINE
  8
0
 62
7
 10
2.337782440668822
 20
5.042710420711971
 30
0
 11
2.375582440668822
 21
5.042710420711971
 31
0
  0
LINE
  8
0
 62
7
 10
2.494382440668821
 20
4.96471042071197
 30
0
 11
2.548382440668821
 21
4.96471042071197
 31
0
  0
LINE
  8
0
 62
7
 10
2.656382440668821
 20
5.042710420711971
 30
0
 11
2.694182440668822
 21
5.042710420711971
 31
0
  0
LINE
  8
0
 62
7
 10
2.694182440668822
 20
5.042710420711971
 30
0
 11
2.694182440668822
 21
4.922710420711971
 31
0
  0
LINE
  8
0
 62
7
 10
2.694182440668822
 20
5.042710420711971
 30
0
 11
2.731982440668821
 21
5.042710420711971
 31
0
  0
LINE
  8
0
 62
7
 10
2.764382440668821
 20
4.922710420711971
 30
0
 11
2.764382440668821
 21
5.042710420711971
 31
0
  0
LINE
  8
0
 62
7
 10
2.764382440668821
 20
5.042710420711971
 30
0
 11
2.815682440668821
 21
5.042710420711971
 31
0
  0
LINE
  8
0
 62
7
 10
2.815682440668821
 20
5.042710420711971
 30
0
 11
2.826482440668821
 21
5.039710420711971
 31
0
  0
LINE
  8
0
 62
7
 10
2.826482440668821
 20
5.039710420711971
 30
0
 11
2.834582440668822
 21
5.033710420711971
 31
0
  0
LINE
  8
0
 62
7
 10
2.834582440668822
 20
5.033710420711971
 30
0
 11
2.837282440668821
 21
5.02771042071197
 31
0
  0
LINE
  8
0
 62
7
 10
2.837282440668821
 20
5.02771042071197
 30
0
 11
2.839982440668821
 21
5.018710420711971
 31
0
  0
LINE
  8
0
 62
7
 10
2.839982440668821
 20
5.018710420711971
 30
0
 11
2.839982440668821
 21
5.006710420711971
 31
0
  0
LINE
  8
0
 62
7
 10
2.839982440668821
 20
5.006710420711971
 30
0
 11
2.837282440668821
 21
4.997710420711971
 31
0
  0
LINE
  8
0
 62
7
 10
2.837282440668821
 20
4.997710420711971
 30
0
 11
2.834582440668822
 21
4.99171042071197
 31
0
  0
LINE
  8
0
 62
7
 10
2.834582440668822
 20
4.99171042071197
 30
0
 11
2.826482440668821
 21
4.985710420711971
 31
0
  0
LINE
  8
0
 62
7
 10
2.826482440668821
 20
4.985710420711971
 30
0
 11
2.815682440668821
 21
4.982710420711971
 31
0
  0
LINE
  8
0
 62
7
 10
2.815682440668821
 20
4.982710420711971
 30
0
 11
2.807582440668821
 21
4.982710420711971
 31
0
  0
LINE
  8
0
 62
7
 10
2.807582440668821
 20
4.982710420711971
 30
0
 11
2.839982440668821
 21
4.922710420711971
 31
0
  0
LINE
  8
0
 62
7
 10
2.807582440668821
 20
4.982710420711971
 30
0
 11
2.764382440668821
 21
4.982710420711971
 31
0
  0
LINE
  8
0
 62
7
 10
2.937182440668821
 20
5.042710420711971
 30
0
 11
2.861582440668821
 21
5.042710420711971
 31
0
  0
LINE
  8
0
 62
7
 10
2.861582440668821
 20
5.042710420711971
 30
0
 11
2.861582440668821
 21
4.982710420711971
 31
0
  0
LINE
  8
0
 62
7
 10
2.861582440668821
 20
4.922710420711971
 30
0
 11
2.937182440668821
 21
4.922710420711971
 31
0
  0
LINE
  8
0
 62
7
 10
2.926382440668822
 20
4.982710420711971
 30
0
 11
2.861582440668821
 21
4.982710420711971
 31
0
  0
LINE
  8
0
 62
7
 10
2.861582440668821
 20
4.982710420711971
 30
0
 11
2.861582440668821
 21
4.922710420711971
 31
0
  0
LINE
  8
0
 62
7
 10
2.969582440668821
 20
4.922710420711971
 30
0
 11
2.969582440668821
 21
4.982710420711971
 31
0
  0
LINE
  8
0
 62
7
 10
2.969582440668821
 20
5.042710420711971
 30
0
 11
3.020882440668823
 21
5.042710420711971
 31
0
  0
LINE
  8
0
 62
7
 10
3.020882440668823
 20
5.042710420711971
 30
0
 11
3.031682440668821
 21
5.039710420711971
 31
0
  0
LINE
  8
0
 62
7
 10
3.031682440668821
 20
5.039710420711971
 30
0
 11
3.039782440668821
 21
5.033710420711971
 31
0
  0
LINE
  8
0
 62
7
 10
3.039782440668821
 20
5.033710420711971
 30
0
 11
3.042482440668821
 21
5.02771042071197
 31
0
  0
LINE
  8
0
 62
7
 10
3.042482440668821
 20
5.02771042071197
 30
0
 11
3.045182440668821
 21
5.018710420711971
 31
0
  0
LINE
  8
0
 62
7
 10
3.045182440668821
 20
5.018710420711971
 30
0
 11
3.045182440668821
 21
5.006710420711971
 31
0
  0
LINE
  8
0
 62
7
 10
3.045182440668821
 20
5.006710420711971
 30
0
 11
3.042482440668821
 21
4.997710420711971
 31
0
  0
LINE
  8
0
 62
7
 10
3.042482440668821
 20
4.997710420711971
 30
0
 11
3.039782440668821
 21
4.99171042071197
 31
0
  0
LINE
  8
0
 62
7
 10
3.039782440668821
 20
4.99171042071197
 30
0
 11
3.031682440668821
 21
4.985710420711971
 31
0
  0
LINE
  8
0
 62
7
 10
3.031682440668821
 20
4.985710420711971
 30
0
 11
3.020882440668823
 21
4.982710420711971
 31
0
  0
LINE
  8
0
 62
7
 10
3.020882440668823
 20
4.982710420711971
 30
0
 11
2.969582440668821
 21
4.982710420711971
 31
0
  0
LINE
  8
0
 62
7
 10
2.969582440668821
 20
4.982710420711971
 30
0
 11
2.969582440668821
 21
5.042710420711971
 31
0
  0
LINE
  8
0
 62
7
 10
3.066782440668821
 20
4.922710420711971
 30
0
 11
3.066782440668821
 21
4.982710420711971
 31
0
  0
LINE
  8
0
 62
7
 10
3.066782440668821
 20
5.042710420711971
 30
0
 11
3.118082440668822
 21
5.042710420711971
 31
0
  0
LINE
  8
0
 62
7
 10
3.118082440668822
 20
5.042710420711971
 30
0
 11
3.128882440668822
 21
5.039710420711971
 31
0
  0
LINE
  8
0
 62
7
 10
3.128882440668822
 20
5.039710420711971
 30
0
 11
3.136982440668822
 21
5.033710420711971
 31
0
  0
LINE
  8
0
 62
7
 10
3.136982440668822
 20
5.033710420711971
 30
0
 11
3.139682440668822
 21
5.02771042071197
 31
0
  0
LINE
  8
0
 62
7
 10
3.139682440668822
 20
5.02771042071197
 30
0
 11
3.142382440668821
 21
5.018710420711971
 31
0
  0
LINE
  8
0
 62
7
 10
3.142382440668821
 20
5.018710420711971
 30
0
 11
3.142382440668821
 21
5.006710420711971
 31
0
  0
LINE
  8
0
 62
7
 10
3.142382440668821
 20
5.006710420711971
 30
0
 11
3.139682440668822
 21
4.997710420711971
 31
0
  0
LINE
  8
0
 62
7
 10
3.139682440668822
 20
4.997710420711971
 30
0
 11
3.136982440668822
 21
4.99171042071197
 31
0
  0
LINE
  8
0
 62
7
 10
3.136982440668822
 20
4.99171042071197
 30
0
 11
3.128882440668822
 21
4.985710420711971
 31
0
  0
LINE
  8
0
 62
7
 10
3.128882440668822
 20
4.985710420711971
 30
0
 11
3.118082440668822
 21
4.982710420711971
 31
0
  0
LINE
  8
0
 62
7
 10
3.118082440668822
 20
4.982710420711971
 30
0
 11
3.066782440668821
 21
4.982710420711971
 31
0
  0
LINE
  8
0
 62
7
 10
3.066782440668821
 20
4.982710420711971
 30
0
 11
3.066782440668821
 21
5.042710420711971
 31
0
  0
LINE
  8
0
 62
7
 10
3.239582440668821
 20
5.042710420711971
 30
0
 11
3.163982440668823
 21
5.042710420711971
 31
0
  0
LINE
  8
0
 62
7
 10
3.163982440668823
 20
5.042710420711971
 30
0
 11
3.163982440668823
 21
4.982710420711971
 31
0
  0
LINE
  8
0
 62
7
 10
3.163982440668823
 20
4.922710420711971
 30
0
 11
3.239582440668821
 21
4.922710420711971
 31
0
  0
LINE
  8
0
 62
7
 10
3.228782440668822
 20
4.982710420711971
 30
0
 11
3.163982440668823
 21
4.982710420711971
 31
0
  0
LINE
  8
0
 62
7
 10
3.163982440668823
 20
4.982710420711971
 30
0
 11
3.163982440668823
 21
4.922710420711971
 31
0
  0
LINE
  8
0
 62
7
 10
0.525
 20
3.009999999999999
 30
0
 11
0.6006
 21
3.009999999999999
 31
0
  0
LINE
  8
0
 62
7
 10
0.6006
 20
3.009999999999999
 30
0
 11
0.525
 21
2.889999999999999
 31
0
  0
LINE
  8
0
 62
7
 10
0.525
 20
2.889999999999999
 30
0
 11
0.6006
 21
2.889999999999999
 31
0
  0
LINE
  8
0
 62
7
 10
0.633
 20
3.009999999999999
 30
0
 11
0.633
 21
2.949999999999999
 31
0
  0
LINE
  8
0
 62
7
 10
0.633
 20
2.949999999999999
 30
0
 11
0.7086000000000001
 21
2.949999999999999
 31
0
  0
LINE
  8
0
 62
7
 10
0.7086000000000001
 20
3.009999999999999
 30
0
 11
0.7086000000000001
 21
2.949999999999999
 31
0
  0
LINE
  8
0
 62
7
 10
0.7086000000000001
 20
2.949999999999999
 30
0
 11
0.7086000000000001
 21
2.889999999999999
 31
0
  0
LINE
  8
0
 62
7
 10
0.633
 20
2.949999999999999
 30
0
 11
0.633
 21
2.889999999999999
 31
0
  0
LINE
  8
0
 62
7
 10
0.7410000000000001
 20
3.009999999999999
 30
0
 11
0.7707000000000002
 21
2.889999999999999
 31
0
  0
LINE
  8
0
 62
7
 10
0.7707000000000002
 20
2.889999999999999
 30
0
 11
0.795
 21
3.009999999999999
 31
0
  0
LINE
  8
0
 62
7
 10
0.795
 20
3.009999999999999
 30
0
 11
0.8193000000000001
 21
2.889999999999999
 31
0
  0
LINE
  8
0
 62
7
 10
0.8193000000000001
 20
2.889999999999999
 30
0
 11
0.8490000000000001
 21
3.009999999999999
 31
0
  0
LINE
  8
0
 62
7
 10
0.8706000000000002
 20
2.992
 30
0
 11
0.8760000000000002
 21
3.001
 31
0
  0
LINE
  8
0
 62
7
 10
0.8760000000000002
 20
3.001
 30
0
 11
0.8841000000000001
 21
3.007
 31
0
  0
LINE
  8
0
 62
7
 10
0.8841000000000001
 20
3.007
 30
0
 11
0.8949000000000003
 21
3.009999999999999
 31
0
  0
LINE
  8
0
 62
7
 10
0.8949000000000003
 20
3.009999999999999
 30
0
 11
0.9111000000000002
 21
3.009999999999999
 31
0
  0
LINE
  8
0
 62
7
 10
0.9111000000000002
 20
3.009999999999999
 30
0
 11
0.9218999999999999
 21
3.007
 31
0
  0
LINE
  8
0
 62
7
 10
0.9218999999999999
 20
3.007
 30
0
 11
0.9300000000000002
 21
3.001
 31
0
  0
LINE
  8
0
 62
7
 10
0.9300000000000002
 20
3.001
 30
0
 11
0.9354000000000001
 21
2.992
 31
0
  0
LINE
  8
0
 62
7
 10
0.9354000000000001
 20
2.992
 30
0
 11
0.9354000000000001
 21
2.979999999999999
 31
0
  0
LINE
  8
0
 62
7
 10
0.9354000000000001
 20
2.979999999999999
 30
0
 11
0.9300000000000002
 21
2.968
 31
0
  0
LINE
  8
0
 62
7
 10
0.9300000000000002
 20
2.968
 30
0
 11
0.8706000000000002
 21
2.889999999999999
 31
0
  0
LINE
  8
0
 62
7
 10
0.8706000000000002
 20
2.889999999999999
 30
0
 11
0.9354000000000001
 21
2.889999999999999
 31
0
  0
LINE
  8
0
 62
7
 10
0.9678
 20
2.992
 30
0
 11
0.9732
 21
3.001
 31
0
  0
LINE
  8
0
 62
7
 10
0.9732
 20
3.001
 30
0
 11
0.9813000000000001
 21
3.007
 31
0
  0
LINE
  8
0
 62
7
 10
0.9813000000000001
 20
3.007
 30
0
 11
0.9921
 21
3.009999999999999
 31
0
  0
LINE
  8
0
 62
7
 10
0.9921
 20
3.009999999999999
 30
0
 11
1.0083
 21
3.009999999999999
 31
0
  0
LINE
  8
0
 62
7
 10
1.0083
 20
3.009999999999999
 30
0
 11
1.0191
 21
3.007
 31
0
  0
LINE
  8
0
 62
7
 10
1.0191
 20
3.007
 30
0
 11
1.0272
 21
3.001
 31
0
  0
LINE
  8
0
 62
7
 10
1.0272
 20
3.001
 30
0
 11
1.0326
 21
2.992
 31
0
  0
LINE
  8
0
 62
7
 10
1.0326
 20
2.992
 30
0
 11
1.0326
 21
2.979999999999999
 31
0
  0
LINE
  8
0
 62
7
 10
1.0326
 20
2.979999999999999
 30
0
 11
1.0272
 21
2.968
 31
0
  0
LINE
  8
0
 62
7
 10
1.0272
 20
2.968
 30
0
 11
0.9678
 21
2.889999999999999
 31
0
  0
LINE
  8
0
 62
7
 10
0.9678
 20
2.889999999999999
 30
0
 11
1.0326
 21
2.889999999999999
 31
0
  0
LINE
  8
0
 62
7
 10
1.065
 20
2.938
 30
0
 11
1.0677
 21
2.949999999999999
 31
0
  0
LINE
  8
0
 62
7
 10
1.0677
 20
2.949999999999999
 30
0
 11
1.0731
 21
2.959
 31
0
  0
LINE
  8
0
 62
7
 10
1.0731
 20
2.959
 30
0
 11
1.0812
 21
2.964999999999999
 31
0
  0
LINE
  8
0
 62
7
 10
1.0812
 20
2.964999999999999
 30
0
 11
1.0893
 21
2.968
 31
0
  0
LINE
  8
0
 62
7
 10
1.0893
 20
2.968
 30
0
 11
1.1055
 21
2.968
 31
0
  0
LINE
  8
0
 62
7
 10
1.1055
 20
2.968
 30
0
 11
1.1136
 21
2.964999999999999
 31
0
  0
LINE
  8
0
 62
7
 10
1.1136
 20
2.964999999999999
 30
0
 11
1.1217
 21
2.959
 31
0
  0
LINE
  8
0
 62
7
 10
1.1217
 20
2.959
 30
0
 11
1.1271
 21
2.949999999999999
 31
0
  0
LINE
  8
0
 62
7
 10
1.1271
 20
2.949999999999999
 30
0
 11
1.1298
 21
2.938
 31
0
  0
LINE
  8
0
 62
7
 10
1.1298
 20
2.938
 30
0
 11
1.1298
 21
2.919999999999999
 31
0
  0
LINE
  8
0
 62
7
 10
1.1298
 20
2.919999999999999
 30
0
 11
1.1271
 21
2.908
 31
0
  0
LINE
  8
0
 62
7
 10
1.1271
 20
2.908
 30
0
 11
1.1217
 21
2.899
 31
0
  0
LINE
  8
0
 62
7
 10
1.1217
 20
2.899
 30
0
 11
1.1136
 21
2.893
 31
0
  0
LINE
  8
0
 62
7
 10
1.1136
 20
2.893
 30
0
 11
1.1055
 21
2.889999999999999
 31
0
  0
LINE
  8
0
 62
7
 10
1.1055
 20
2.889999999999999
 30
0
 11
1.0893
 21
2.889999999999999
 31
0
  0
LINE
  8
0
 62
7
 10
1.0893
 20
2.889999999999999
 30
0
 11
1.0812
 21
2.893
 31
0
  0
LINE
  8
0
 62
7
 10
1.0812
 20
2.893
 30
0
 11
1.0731
 21
2.899
 31
0
  0
LINE
  8
0
 62
7
 10
1.0731
 20
2.899
 30
0
 11
1.0677
 21
2.908
 31
0
  0
LINE
  8
0
 62
7
 10
1.0677
 20
2.908
 30
0
 11
1.065
 21
2.919999999999999
 31
0
  0
LINE
  8
0
 62
7
 10
1.065
 20
2.919999999999999
 30
0
 11
1.065
 21
2.938
 31
0
  0
LINE
  8
0
 62
7
 10
1.065
 20
2.979999999999999
 30
0
 11
1.0677
 21
2.992
 31
0
  0
LINE
  8
0
 62
7
 10
1.0677
 20
2.992
 30
0
 11
1.0731
 21
3.001
 31
0
  0
LINE
  8
0
 62
7
 10
1.0731
 20
3.001
 30
0
 11
1.0812
 21
3.007
 31
0
  0
LINE
  8
0
 62
7
 10
1.0812
 20
3.007
 30
0
 11
1.0893
 21
3.009999999999999
 31
0
  0
LINE
  8
0
 62
7
 10
1.0893
 20
3.009999999999999
 30
0
 11
1.1055
 21
3.009999999999999
 31
0
  0
LINE
  8
0
 62
7
 10
1.1055
 20
3.009999999999999
 30
0
 11
1.1136
 21
3.007
 31
0
  0
LINE
  8
0
 62
7
 10
1.1136
 20
3.007
 30
0
 11
1.1217
 21
3.001
 31
0
  0
LINE
  8
0
 62
7
 10
1.1217
 20
3.001
 30
0
 11
1.1271
 21
2.992
 31
0
  0
LINE
  8
0
 62
7
 10
1.065
 20
2.938
 30
0
 11
1.065
 21
2.979999999999999
 31
0
  0
LINE
  8
0
 62
7
 10
1.227
 20
2.889999999999999
 30
0
 11
1.1622
 21
2.889999999999999
 31
0
  0
LINE
  8
0
 62
7
 10
1.1622
 20
2.889999999999999
 30
0
 11
1.1622
 21
3.009999999999999
 31
0
  0
LINE
  8
0
 62
7
 10
1.2594
 20
2.938
 30
0
 11
1.2621
 21
2.949999999999999
 31
0
  0
LINE
  8
0
 62
7
 10
1.2621
 20
2.949999999999999
 30
0
 11
1.2675
 21
2.959
 31
0
  0
LINE
  8
0
 62
7
 10
1.2675
 20
2.959
 30
0
 11
1.2756
 21
2.964999999999999
 31
0
  0
LINE
  8
0
 62
7
 10
1.2756
 20
2.964999999999999
 30
0
 11
1.2837
 21
2.968
 31
0
  0
LINE
  8
0
 62
7
 10
1.2837
 20
2.968
 30
0
 11
1.2999
 21
2.968
 31
0
  0
LINE
  8
0
 62
7
 10
1.2999
 20
2.968
 30
0
 11
1.308
 21
2.964999999999999
 31
0
  0
LINE
  8
0
 62
7
 10
1.308
 20
2.964999999999999
 30
0
 11
1.3161
 21
2.959
 31
0
  0
LINE
  8
0
 62
7
 10
1.3161
 20
2.959
 30
0
 11
1.3215
 21
2.949999999999999
 31
0
  0
LINE
  8
0
 62
7
 10
1.3215
 20
2.949999999999999
 30
0
 11
1.3242
 21
2.938
 31
0
  0
LINE
  8
0
 62
7
 10
1.3242
 20
2.938
 30
0
 11
1.3242
 21
2.919999999999999
 31
0
  0
LINE
  8
0
 62
7
 10
1.3242
 20
2.919999999999999
 30
0
 11
1.3215
 21
2.908
 31
0
  0
LINE
  8
0
 62
7
 10
1.3215
 20
2.908
 30
0
 11
1.3161
 21
2.899
 31
0
  0
LINE
  8
0
 62
7
 10
1.3161
 20
2.899
 30
0
 11
1.308
 21
2.893
 31
0
  0
LINE
  8
0
 62
7
 10
1.308
 20
2.893
 30
0
 11
1.2999
 21
2.889999999999999
 31
0
  0
LINE
  8
0
 62
7
 10
1.2999
 20
2.889999999999999
 30
0
 11
1.2837
 21
2.889999999999999
 31
0
  0
LINE
  8
0
 62
7
 10
1.2837
 20
2.889999999999999
 30
0
 11
1.2756
 21
2.893
 31
0
  0
LINE
  8
0
 62
7
 10
1.2756
 20
2.893
 30
0
 11
1.2675
 21
2.899
 31
0
  0
LINE
  8
0
 62
7
 10
1.2675
 20
2.899
 30
0
 11
1.2621
 21
2.908
 31
0
  0
LINE
  8
0
 62
7
 10
1.2621
 20
2.908
 30
0
 11
1.2594
 21
2.919999999999999
 31
0
  0
LINE
  8
0
 62
7
 10
1.2594
 20
2.919999999999999
 30
0
 11
1.2594
 21
2.938
 31
0
  0
LINE
  8
0
 62
7
 10
1.2594
 20
2.979999999999999
 30
0
 11
1.2621
 21
2.992
 31
0
  0
LINE
  8
0
 62
7
 10
1.2621
 20
2.992
 30
0
 11
1.2675
 21
3.001
 31
0
  0
LINE
  8
0
 62
7
 10
1.2675
 20
3.001
 30
0
 11
1.2756
 21
3.007
 31
0
  0
LINE
  8
0
 62
7
 10
1.2756
 20
3.007
 30
0
 11
1.2837
 21
3.009999999999999
 31
0
  0
LINE
  8
0
 62
7
 10
1.2837
 20
3.009999999999999
 30
0
 11
1.2999
 21
3.009999999999999
 31
0
  0
LINE
  8
0
 62
7
 10
1.2999
 20
3.009999999999999
 30
0
 11
1.308
 21
3.007
 31
0
  0
LINE
  8
0
 62
7
 10
1.308
 20
3.007
 30
0
 11
1.3161
 21
3.001
 31
0
  0
LINE
  8
0
 62
7
 10
1.3161
 20
3.001
 30
0
 11
1.3215
 21
2.992
 31
0
  0
LINE
  8
0
 62
7
 10
1.2594
 20
2.938
 30
0
 11
1.2594
 21
2.979999999999999
 31
0
  0
LINE
  8
0
 62
7
 10
3.025
 20
2.889999999999999
 30
0
 11
3.025
 21
2.989999999999999
 31
0
  0
LINE
  8
0
 62
7
 10
3.025
 20
2.989999999999999
 30
0
 11
3.088
 21
2.889999999999999
 31
0
  0
LINE
  8
0
 62
7
 10
3.088
 20
2.889999999999999
 30
0
 11
3.088
 21
2.989999999999999
 31
0
  0
LINE
  8
0
 62
7
 10
3.169
 20
2.889999999999999
 30
0
 11
3.115
 21
2.889999999999999
 31
0
  0
LINE
  8
0
 62
7
 10
3.115
 20
2.889999999999999
 30
0
 11
3.115
 21
2.989999999999999
 31
0
  0
LINE
  8
0
 62
7
 10
3.196
 20
2.94
 30
0
 11
3.232
 21
2.94
 31
0
  0
LINE
  8
0
 62
7
 10
3.232
 20
2.94
 30
0
 11
3.2365
 21
2.94
 31
0
  0
LINE
  8
0
 62
7
 10
3.2365
 20
2.94
 30
0
 11
3.2455
 21
2.934999999999999
 31
0
  0
LINE
  8
0
 62
7
 10
3.2455
 20
2.934999999999999
 30
0
 11
3.25
 21
2.929999999999999
 31
0
  0
LINE
  8
0
 62
7
 10
3.25
 20
2.929999999999999
 30
0
 11
3.2545
 21
2.919999999999999
 31
0
  0
LINE
  8
0
 62
7
 10
3.2545
 20
2.919999999999999
 30
0
 11
3.2545
 21
2.909999999999999
 31
0
  0
LINE
  8
0
 62
7
 10
3.2545
 20
2.909999999999999
 30
0
 11
3.25
 21
2.899999999999999
 31
0
  0
LINE
  8
0
 62
7
 10
3.25
 20
2.899999999999999
 30
0
 11
3.2455
 21
2.895
 31
0
  0
LINE
  8
0
 62
7
 10
3.2455
 20
2.895
 30
0
 11
3.2365
 21
2.889999999999999
 31
0
  0
LINE
  8
0
 62
7
 10
3.2365
 20
2.889999999999999
 30
0
 11
3.196
 21
2.889999999999999
 31
0
  0
LINE
  8
0
 62
7
 10
3.196
 20
2.889999999999999
 30
0
 11
3.196
 21
2.94
 31
0
  0
LINE
  8
0
 62
7
 10
3.196
 20
2.989999999999999
 30
0
 11
3.22975
 21
2.989999999999999
 31
0
  0
LINE
  8
0
 62
7
 10
3.22975
 20
2.989999999999999
 30
0
 11
3.241000000000001
 21
2.987499999999999
 31
0
  0
LINE
  8
0
 62
7
 10
3.241000000000001
 20
2.987499999999999
 30
0
 11
3.24775
 21
2.979999999999999
 31
0
  0
LINE
  8
0
 62
7
 10
3.24775
 20
2.979999999999999
 30
0
 11
3.25
 21
2.969999999999999
 31
0
  0
LINE
  8
0
 62
7
 10
3.25
 20
2.969999999999999
 30
0
 11
3.25
 21
2.959999999999999
 31
0
  0
LINE
  8
0
 62
7
 10
3.25
 20
2.959999999999999
 30
0
 11
3.2455
 21
2.949999999999999
 31
0
  0
LINE
  8
0
 62
7
 10
3.2455
 20
2.949999999999999
 30
0
 11
3.23875
 21
2.942499999999999
 31
0
  0
LINE
  8
0
 62
7
 10
3.23875
 20
2.942499999999999
 30
0
 11
3.232
 21
2.94
 31
0
  0
LINE
  8
0
 62
7
 10
3.196
 20
2.94
 30
0
 11
3.196
 21
2.989999999999999
 31
0
  0
LINE
  8
0
 62
7
 10
3.39625
 20
2.942499999999999
 30
0
 11
3.3895
 21
2.952499999999999
 31
0
  0
LINE
  8
0
 62
7
 10
3.3895
 20
2.952499999999999
 30
0
 11
3.38275
 21
2.9575
 31
0
  0
LINE
  8
0
 62
7
 10
3.38275
 20
2.9575
 30
0
 11
3.376
 21
2.959999999999999
 31
0
  0
LINE
  8
0
 62
7
 10
3.376
 20
2.959999999999999
 30
0
 11
3.367
 21
2.959999999999999
 31
0
  0
LINE
  8
0
 62
7
 10
3.367
 20
2.959999999999999
 30
0
 11
3.36025
 21
2.9575
 31
0
  0
LINE
  8
0
 62
7
 10
3.36025
 20
2.9575
 30
0
 11
3.3535
 21
2.952499999999999
 31
0
  0
LINE
  8
0
 62
7
 10
3.3535
 20
2.952499999999999
 30
0
 11
3.34675
 21
2.942499999999999
 31
0
  0
LINE
  8
0
 62
7
 10
3.34675
 20
2.942499999999999
 30
0
 11
3.3445
 21
2.934999999999999
 31
0
  0
LINE
  8
0
 62
7
 10
3.3445
 20
2.934999999999999
 30
0
 11
3.3445
 21
2.914999999999999
 31
0
  0
LINE
  8
0
 62
7
 10
3.3445
 20
2.914999999999999
 30
0
 11
3.34675
 21
2.907499999999999
 31
0
  0
LINE
  8
0
 62
7
 10
3.34675
 20
2.907499999999999
 30
0
 11
3.3535
 21
2.897499999999999
 31
0
  0
LINE
  8
0
 62
7
 10
3.3535
 20
2.897499999999999
 30
0
 11
3.36025
 21
2.892499999999999
 31
0
  0
LINE
  8
0
 62
7
 10
3.36025
 20
2.892499999999999
 30
0
 11
3.367
 21
2.889999999999999
 31
0
  0
LINE
  8
0
 62
7
 10
3.367
 20
2.889999999999999
 30
0
 11
3.376
 21
2.889999999999999
 31
0
  0
LINE
  8
0
 62
7
 10
3.376
 20
2.889999999999999
 30
0
 11
3.38275
 21
2.892499999999999
 31
0
  0
LINE
  8
0
 62
7
 10
3.38275
 20
2.892499999999999
 30
0
 11
3.3895
 21
2.897499999999999
 31
0
  0
LINE
  8
0
 62
7
 10
3.3895
 20
2.897499999999999
 30
0
 11
3.39625
 21
2.907499999999999
 31
0
  0
LINE
  8
0
 62
7
 10
3.46825
 20
2.934999999999999
 30
0
 11
3.466000000000001
 21
2.942499999999999
 31
0
  0
LINE
  8
0
 62
7
 10
3.466000000000001
 20
2.942499999999999
 30
0
 11
3.45925
 21
2.952499999999999
 31
0
  0
LINE
  8
0
 62
7
 10
3.45925
 20
2.952499999999999
 30
0
 11
3.4525
 21
2.9575
 31
0
  0
LINE
  8
0
 62
7
 10
3.4525
 20
2.9575
 30
0
 11
3.44575
 21
2.959999999999999
 31
0
  0
LINE
  8
0
 62
7
 10
3.44575
 20
2.959999999999999
 30
0
 11
3.43675
 21
2.959999999999999
 31
0
  0
LINE
  8
0
 62
7
 10
3.43675
 20
2.959999999999999
 30
0
 11
3.430000000000001
 21
2.9575
 31
0
  0
LINE
  8
0
 62
7
 10
3.430000000000001
 20
2.9575
 30
0
 11
3.42325
 21
2.952499999999999
 31
0
  0
LINE
  8
0
 62
7
 10
3.42325
 20
2.952499999999999
 30
0
 11
3.4165
 21
2.942499999999999
 31
0
  0
LINE
  8
0
 62
7
 10
3.4165
 20
2.942499999999999
 30
0
 11
3.41425
 21
2.934999999999999
 31
0
  0
LINE
  8
0
 62
7
 10
3.41425
 20
2.934999999999999
 30
0
 11
3.41425
 21
2.914999999999999
 31
0
  0
LINE
  8
0
 62
7
 10
3.41425
 20
2.914999999999999
 30
0
 11
3.4165
 21
2.907499999999999
 31
0
  0
LINE
  8
0
 62
7
 10
3.4165
 20
2.907499999999999
 30
0
 11
3.42325
 21
2.897499999999999
 31
0
  0
LINE
  8
0
 62
7
 10
3.42325
 20
2.897499999999999
 30
0
 11
3.430000000000001
 21
2.892499999999999
 31
0
  0
LINE
  8
0
 62
7
 10
3.430000000000001
 20
2.892499999999999
 30
0
 11
3.43675
 21
2.889999999999999
 31
0
  0
LINE
  8
0
 62
7
 10
3.43675
 20
2.889999999999999
 30
0
 11
3.44575
 21
2.889999999999999
 31
0
  0
LINE
  8
0
 62
7
 10
3.44575
 20
2.889999999999999
 30
0
 11
3.4525
 21
2.892499999999999
 31
0
  0
LINE
  8
0
 62
7
 10
3.4525
 20
2.892499999999999
 30
0
 11
3.45925
 21
2.897499999999999
 31
0
  0
LINE
  8
0
 62
7
 10
3.45925
 20
2.897499999999999
 30
0
 11
3.466000000000001
 21
2.907499999999999
 31
0
  0
LINE
  8
0
 62
7
 10
3.466000000000001
 20
2.907499999999999
 30
0
 11
3.46825
 21
2.914999999999999
 31
0
  0
LINE
  8
0
 62
7
 10
3.46825
 20
2.959999999999999
 30
0
 11
3.46825
 21
2.934999999999999
 31
0
  0
LINE
  8
0
 62
7
 10
3.46825
 20
2.892499999999999
 30
0
 11
3.4705
 21
2.889999999999999
 31
0
  0
LINE
  8
0
 62
7
 10
3.4705
 20
2.889999999999999
 30
0
 11
3.47275
 21
2.889999999999999
 31
0
  0
LINE
  8
0
 62
7
 10
3.46825
 20
2.914999999999999
 30
0
 11
3.46825
 21
2.892499999999999
 31
0
  0
LINE
  8
0
 62
7
 10
3.46825
 20
2.934999999999999
 30
0
 11
3.46825
 21
2.914999999999999
 31
0
  0
LINE
  8
0
 62
7
 10
3.49075
 20
2.889999999999999
 30
0
 11
3.49075
 21
2.892499999999999
 31
0
  0
LINE
  8
0
 62
7
 10
3.49075
 20
2.892499999999999
 30
0
 11
3.493
 21
2.892499999999999
 31
0
  0
LINE
  8
0
 62
7
 10
3.493
 20
2.892499999999999
 30
0
 11
3.493
 21
2.889999999999999
 31
0
  0
LINE
  8
0
 62
7
 10
3.493
 20
2.889999999999999
 30
0
 11
3.49075
 21
2.889999999999999
 31
0
  0
LINE
  8
0
 62
7
 10
3.616750000000001
 20
2.989999999999999
 30
0
 11
3.62575
 21
2.989999999999999
 31
0
  0
LINE
  8
0
 62
7
 10
3.62575
 20
2.989999999999999
 30
0
 11
3.6325
 21
2.987499999999999
 31
0
  0
LINE
  8
0
 62
7
 10
3.6325
 20
2.987499999999999
 30
0
 11
3.637
 21
2.982499999999999
 31
0
  0
LINE
  8
0
 62
7
 10
3.637
 20
2.982499999999999
 30
0
 11
3.6415
 21
2.975
 31
0
  0
LINE
  8
0
 62
7
 10
3.6415
 20
2.975
 30
0
 11
3.6415
 21
2.964999999999999
 31
0
  0
LINE
  8
0
 62
7
 10
3.6415
 20
2.964999999999999
 30
0
 11
3.63925
 21
2.959999999999999
 31
0
  0
LINE
  8
0
 62
7
 10
3.63925
 20
2.959999999999999
 30
0
 11
3.6325
 21
2.952499999999999
 31
0
  0
LINE
  8
0
 62
7
 10
3.6325
 20
2.952499999999999
 30
0
 11
3.62575
 21
2.949999999999999
 31
0
  0
LINE
  8
0
 62
7
 10
3.62575
 20
2.949999999999999
 30
0
 11
3.616750000000001
 21
2.949999999999999
 31
0
  0
LINE
  8
0
 62
7
 10
3.616750000000001
 20
2.949999999999999
 30
0
 11
3.61
 21
2.952499999999999
 31
0
  0
LINE
  8
0
 62
7
 10
3.61
 20
2.952499999999999
 30
0
 11
3.60325
 21
2.959999999999999
 31
0
  0
LINE
  8
0
 62
7
 10
3.60325
 20
2.959999999999999
 30
0
 11
3.601
 21
2.964999999999999
 31
0
  0
LINE
  8
0
 62
7
 10
3.601
 20
2.964999999999999
 30
0
 11
3.601
 21
2.975
 31
0
  0
LINE
  8
0
 62
7
 10
3.601
 20
2.975
 30
0
 11
3.6055
 21
2.982499999999999
 31
0
  0
LINE
  8
0
 62
7
 10
3.6055
 20
2.982499999999999
 30
0
 11
3.61
 21
2.987499999999999
 31
0
  0
LINE
  8
0
 62
7
 10
3.61
 20
2.987499999999999
 30
0
 11
3.616750000000001
 21
2.989999999999999
 31
0
  0
LINE
  8
0
 62
7
 10
3.616750000000001
 20
2.949999999999999
 30
0
 11
3.6055
 21
2.944999999999999
 31
0
  0
LINE
  8
0
 62
7
 10
3.6055
 20
2.944999999999999
 30
0
 11
3.598750000000001
 21
2.9375
 31
0
  0
LINE
  8
0
 62
7
 10
3.598750000000001
 20
2.9375
 30
0
 11
3.594250000000001
 21
2.927499999999999
 31
0
  0
LINE
  8
0
 62
7
 10
3.594250000000001
 20
2.927499999999999
 30
0
 11
3.594250000000001
 21
2.9125
 31
0
  0
LINE
  8
0
 62
7
 10
3.594250000000001
 20
2.9125
 30
0
 11
3.598750000000001
 21
2.902499999999999
 31
0
  0
LINE
  8
0
 62
7
 10
3.598750000000001
 20
2.902499999999999
 30
0
 11
3.6055
 21
2.895
 31
0
  0
LINE
  8
0
 62
7
 10
3.6055
 20
2.895
 30
0
 11
3.6145
 21
2.889999999999999
 31
0
  0
LINE
  8
0
 62
7
 10
3.6145
 20
2.889999999999999
 30
0
 11
3.628
 21
2.889999999999999
 31
0
  0
LINE
  8
0
 62
7
 10
3.628
 20
2.889999999999999
 30
0
 11
3.637
 21
2.895
 31
0
  0
LINE
  8
0
 62
7
 10
3.637
 20
2.895
 30
0
 11
3.64375
 21
2.902499999999999
 31
0
  0
LINE
  8
0
 62
7
 10
3.64375
 20
2.902499999999999
 30
0
 11
3.64825
 21
2.9125
 31
0
  0
LINE
  8
0
 62
7
 10
3.64825
 20
2.9125
 30
0
 11
3.64825
 21
2.927499999999999
 31
0
  0
LINE
  8
0
 62
7
 10
3.64825
 20
2.927499999999999
 30
0
 11
3.64375
 21
2.9375
 31
0
  0
LINE
  8
0
 62
7
 10
3.64375
 20
2.9375
 30
0
 11
3.637
 21
2.944999999999999
 31
0
  0
LINE
  8
0
 62
7
 10
3.637
 20
2.944999999999999
 30
0
 11
3.62575
 21
2.949999999999999
 31
0
  0
LINE
  8
0
 62
7
 10
3.73825
 20
2.949999999999999
 30
0
 11
3.736
 21
2.94
 31
0
  0
LINE
  8
0
 62
7
 10
3.736
 20
2.94
 30
0
 11
3.7315
 21
2.932499999999999
 31
0
  0
LINE
  8
0
 62
7
 10
3.7315
 20
2.932499999999999
 30
0
 11
3.72475
 21
2.927499999999999
 31
0
  0
LINE
  8
0
 62
7
 10
3.72475
 20
2.927499999999999
 30
0
 11
3.718
 21
2.924999999999999
 31
0
  0
LINE
  8
0
 62
7
 10
3.718
 20
2.924999999999999
 30
0
 11
3.7045
 21
2.924999999999999
 31
0
  0
LINE
  8
0
 62
7
 10
3.7045
 20
2.924999999999999
 30
0
 11
3.69775
 21
2.927499999999999
 31
0
  0
LINE
  8
0
 62
7
 10
3.69775
 20
2.927499999999999
 30
0
 11
3.691000000000001
 21
2.932499999999999
 31
0
  0
LINE
  8
0
 62
7
 10
3.691000000000001
 20
2.932499999999999
 30
0
 11
3.686500000000001
 21
2.94
 31
0
  0
LINE
  8
0
 62
7
 10
3.686500000000001
 20
2.94
 30
0
 11
3.68425
 21
2.949999999999999
 31
0
  0
LINE
  8
0
 62
7
 10
3.68425
 20
2.949999999999999
 30
0
 11
3.68425
 21
2.964999999999999
 31
0
  0
LINE
  8
0
 62
7
 10
3.68425
 20
2.964999999999999
 30
0
 11
3.686500000000001
 21
2.975
 31
0
  0
LINE
  8
0
 62
7
 10
3.686500000000001
 20
2.975
 30
0
 11
3.691000000000001
 21
2.982499999999999
 31
0
  0
LINE
  8
0
 62
7
 10
3.691000000000001
 20
2.982499999999999
 30
0
 11
3.69775
 21
2.987499999999999
 31
0
  0
LINE
  8
0
 62
7
 10
3.69775
 20
2.987499999999999
 30
0
 11
3.7045
 21
2.989999999999999
 31
0
  0
LINE
  8
0
 62
7
 10
3.7045
 20
2.989999999999999
 30
0
 11
3.718
 21
2.989999999999999
 31
0
  0
LINE
  8
0
 62
7
 10
3.718
 20
2.989999999999999
 30
0
 11
3.72475
 21
2.987499999999999
 31
0
  0
LINE
  8
0
 62
7
 10
3.72475
 20
2.987499999999999
 30
0
 11
3.7315
 21
2.982499999999999
 31
0
  0
LINE
  8
0
 62
7
 10
3.7315
 20
2.982499999999999
 30
0
 11
3.736
 21
2.975
 31
0
  0
LINE
  8
0
 62
7
 10
3.736
 20
2.975
 30
0
 11
3.73825
 21
2.964999999999999
 31
0
  0
LINE
  8
0
 62
7
 10
3.73825
 20
2.964999999999999
 30
0
 11
3.73825
 21
2.949999999999999
 31
0
  0
LINE
  8
0
 62
7
 10
3.73825
 20
2.914999999999999
 30
0
 11
3.736
 21
2.904999999999999
 31
0
  0
LINE
  8
0
 62
7
 10
3.736
 20
2.904999999999999
 30
0
 11
3.7315
 21
2.897499999999999
 31
0
  0
LINE
  8
0
 62
7
 10
3.7315
 20
2.897499999999999
 30
0
 11
3.72475
 21
2.892499999999999
 31
0
  0
LINE
  8
0
 62
7
 10
3.72475
 20
2.892499999999999
 30
0
 11
3.718
 21
2.889999999999999
 31
0
  0
LINE
  8
0
 62
7
 10
3.718
 20
2.889999999999999
 30
0
 11
3.7045
 21
2.889999999999999
 31
0
  0
LINE
  8
0
 62
7
 10
3.7045
 20
2.889999999999999
 30
0
 11
3.69775
 21
2.892499999999999
 31
0
  0
LINE
  8
0
 62
7
 10
3.69775
 20
2.892499999999999
 30
0
 11
3.691000000000001
 21
2.897499999999999
 31
0
  0
LINE
  8
0
 62
7
 10
3.691000000000001
 20
2.897499999999999
 30
0
 11
3.686500000000001
 21
2.904999999999999
 31
0
  0
LINE
  8
0
 62
7
 10
3.73825
 20
2.949999999999999
 30
0
 11
3.73825
 21
2.914999999999999
 31
0
  0
LINE
  8
0
 62
7
 10
3.889
 20
2.942499999999999
 30
0
 11
3.88225
 21
2.952499999999999
 31
0
  0
LINE
  8
0
 62
7
 10
3.88225
 20
2.952499999999999
 30
0
 11
3.875500000000001
 21
2.9575
 31
0
  0
LINE
  8
0
 62
7
 10
3.875500000000001
 20
2.9575
 30
0
 11
3.86875
 21
2.959999999999999
 31
0
  0
LINE
  8
0
 62
7
 10
3.86875
 20
2.959999999999999
 30
0
 11
3.85975
 21
2.959999999999999
 31
0
  0
LINE
  8
0
 62
7
 10
3.85975
 20
2.959999999999999
 30
0
 11
3.853
 21
2.9575
 31
0
  0
LINE
  8
0
 62
7
 10
3.853
 20
2.9575
 30
0
 11
3.84625
 21
2.952499999999999
 31
0
  0
LINE
  8
0
 62
7
 10
3.84625
 20
2.952499999999999
 30
0
 11
3.839500000000001
 21
2.942499999999999
 31
0
  0
LINE
  8
0
 62
7
 10
3.839500000000001
 20
2.942499999999999
 30
0
 11
3.83725
 21
2.934999999999999
 31
0
  0
LINE
  8
0
 62
7
 10
3.83725
 20
2.934999999999999
 30
0
 11
3.83725
 21
2.914999999999999
 31
0
  0
LINE
  8
0
 62
7
 10
3.83725
 20
2.914999999999999
 30
0
 11
3.839500000000001
 21
2.907499999999999
 31
0
  0
LINE
  8
0
 62
7
 10
3.839500000000001
 20
2.907499999999999
 30
0
 11
3.84625
 21
2.897499999999999
 31
0
  0
LINE
  8
0
 62
7
 10
3.84625
 20
2.897499999999999
 30
0
 11
3.853
 21
2.892499999999999
 31
0
  0
LINE
  8
0
 62
7
 10
3.853
 20
2.892499999999999
 30
0
 11
3.85975
 21
2.889999999999999
 31
0
  0
LINE
  8
0
 62
7
 10
3.85975
 20
2.889999999999999
 30
0
 11
3.86875
 21
2.889999999999999
 31
0
  0
LINE
  8
0
 62
7
 10
3.86875
 20
2.889999999999999
 30
0
 11
3.875500000000001
 21
2.892499999999999
 31
0
  0
LINE
  8
0
 62
7
 10
3.875500000000001
 20
2.892499999999999
 30
0
 11
3.88225
 21
2.897499999999999
 31
0
  0
LINE
  8
0
 62
7
 10
3.88225
 20
2.897499999999999
 30
0
 11
3.889
 21
2.907499999999999
 31
0
  0
LINE
  8
0
 62
7
 10
3.9475
 20
2.934999999999999
 30
0
 11
3.9475
 21
2.889999999999999
 31
0
  0
LINE
  8
0
 62
7
 10
3.907
 20
2.959999999999999
 30
0
 11
3.907
 21
2.934999999999999
 31
0
  0
LINE
  8
0
 62
7
 10
3.907
 20
2.889999999999999
 30
0
 11
3.907
 21
2.934999999999999
 31
0
  0
LINE
  8
0
 62
7
 10
3.907
 20
2.934999999999999
 30
0
 11
3.90925
 21
2.947499999999999
 31
0
  0
LINE
  8
0
 62
7
 10
3.90925
 20
2.947499999999999
 30
0
 11
3.9115
 21
2.952499999999999
 31
0
  0
LINE
  8
0
 62
7
 10
3.9115
 20
2.952499999999999
 30
0
 11
3.916
 21
2.9575
 31
0
  0
LINE
  8
0
 62
7
 10
3.916
 20
2.9575
 30
0
 11
3.92275
 21
2.959999999999999
 31
0
  0
LINE
  8
0
 62
7
 10
3.92275
 20
2.959999999999999
 30
0
 11
3.931750000000001
 21
2.959999999999999
 31
0
  0
LINE
  8
0
 62
7
 10
3.931750000000001
 20
2.959999999999999
 30
0
 11
3.9385
 21
2.9575
 31
0
  0
LINE
  8
0
 62
7
 10
3.9385
 20
2.9575
 30
0
 11
3.943
 21
2.952499999999999
 31
0
  0
LINE
  8
0
 62
7
 10
3.943
 20
2.952499999999999
 30
0
 11
3.94525
 21
2.947499999999999
 31
0
  0
LINE
  8
0
 62
7
 10
3.94525
 20
2.947499999999999
 30
0
 11
3.9475
 21
2.934999999999999
 31
0
  0
LINE
  8
0
 62
7
 10
3.9475
 20
2.934999999999999
 30
0
 11
3.94975
 21
2.947499999999999
 31
0
  0
LINE
  8
0
 62
7
 10
3.94975
 20
2.947499999999999
 30
0
 11
3.952
 21
2.952499999999999
 31
0
  0
LINE
  8
0
 62
7
 10
3.952
 20
2.952499999999999
 30
0
 11
3.9565
 21
2.9575
 31
0
  0
LINE
  8
0
 62
7
 10
3.9565
 20
2.9575
 30
0
 11
3.96325
 21
2.959999999999999
 31
0
  0
LINE
  8
0
 62
7
 10
3.96325
 20
2.959999999999999
 30
0
 11
3.972250000000001
 21
2.959999999999999
 31
0
  0
LINE
  8
0
 62
7
 10
3.972250000000001
 20
2.959999999999999
 30
0
 11
3.979
 21
2.9575
 31
0
  0
LINE
  8
0
 62
7
 10
3.9835
 20
2.952499999999999
 30
0
 11
3.979
 21
2.9575
 31
0
  0
LINE
  8
0
 62
7
 10
3.979
 20
2.9575
 30
0
 11
3.9835
 21
2.952499999999999
 31
0
  0
LINE
  8
0
 62
7
 10
3.9835
 20
2.952499999999999
 30
0
 11
3.98575
 21
2.947499999999999
 31
0
  0
LINE
  8
0
 62
7
 10
3.98575
 20
2.947499999999999
 30
0
 11
3.988
 21
2.934999999999999
 31
0
  0
LINE
  8
0
 62
7
 10
3.988
 20
2.934999999999999
 30
0
 11
3.988
 21
2.889999999999999
 31
0
  0
ARC
  8
0
 62
7
 10
2.279268854610011
 20
4.24573114538996
 30
0
 40
0.4980000000000032
 50
89.91586516864426
 51
180.0841348335187
  0
ARC
  8
0
 62
7
 10
2.530731145389913
 20
4.245731145389992
 30
0
 40
0.4980000000000046
 50
359.9158651725719
 51
90.08413483355992
  0
CIRCLE
  8
0
 62
7
 10
3.028730608474814
 20
3.25
 30
0
 40
0.06000000000000005
  0
DIMENSION
  8
0
  6
CONTINUOUS
 62
7
  2
*D1
  3
DMST_1
 10
3.535
 20
11.5128367462954
 30
0
 11
2.41025333546244
 21
11.5128367462954
 31
0
 12
0
 22
0
 32
0
 70
0
 13
1.275
 23
11.2
 33
0
 14
3.535
 24
11.2
 34
0
 53
0
  0
DIMENSION
  8
0
  6
CONTINUOUS
 62
7
  2
*D2
  3
DMST_2
 10
4.1088623185999
 20
3.25
 30
0
 11
4.1088623185999
 21
4.22053266351559
 31
0
 12
0
 22
0
 32
0
 70
0
 13
3.71
 23
5.25
 33
0
 14
3.71
 24
3.25
 34
0
 50
90
 53
0
  0
DIMENSION
  8
0
  6
CONTINUOUS
 62
7
  2
*D3
  3
DMST_2
 10
1.275
 20
6.19736208354626
 30
0
 11
2.39561015457332
 21
6.19736208354626
 31
0
 12
0
 22
0
 32
0
 70
0
 13
3.535
 23
5.769999999999995
 33
0
 14
1.275
 24
5.769999999999995
 34
0
 53
0
  0
DIMENSION
  8
0
  6
CONTINUOUS
 62
7
  2
*D4
  3
DMST_2
 10
0.711644352324976
 20
3.35
 30
0
 11
0.711644352324976
 21
4.24981902529382
 31
0
 12
0
 22
0
 32
0
 70
0
 13
1.1
 23
5.25
 33
0
 14
1.1
 24
3.35
 34
0
 50
90
 53
0
  0
INSERT
  8
0
  2
*D0
 10
0
 20
0
 30
0
  0
ENDSEC
  0
EOF
