  0
SECTION
  2
HEADER
  9
$ACADVER
  1
AC1009
  9
$INSBASE
 10
0
 20
0
  9
$EXTMIN
 10
0.45
 20
2.889999999999999
  9
$EXTMAX
 10
8.237999999999998
 20
11.5584480892129
  9
$LIMMIN
 10
0.45
 20
2.889999999999999
  9
$LIMMAX
 10
8.237999999999998
 20
11.5584480892129
  9
$VIEWCTR
 10
10
 20
10
  9
$VIEWSIZE
 40
10
  9
$SNAPMODE
 70
0
  9
$SNAPUNIT
 10
1
 20
1
  9
$SNAPBASE
 10
0
 20
0
  9
$SNAPANG
 50
0
  9
$SNAPSTYLE
 70
0
  9
$SNAPISOPAIR
 70
0
  9
$GRIDMODE
 70
0
  9
$GRIDUNIT
 10
0
 20
0
  9
$ORTHOMODE
 70
0
  9
$REGENMODE
 70
1
  9
$FILLMODE
 70
1
  9
$QTEXTMODE
 70
0
  9
$DRAGMODE
 70
2
  9
$LTSCALE
 40
1
  9
$OSMODE
 70
0
  9
$ATTMODE
 70
1
  9
$TEXTSIZE
 40
3.5
  9
$TRACEWID
 40
0.5
  9
$TEXTSTYLE
  7
STANDARD
  9
$CLAYER
  8
0
  9
$CELTYPE
  6
BYLAYER
  9
$CECOLOR
 62
256
  9
$DIMSCALE
 40
1
  9
$DIMASZ
 40
0.18
  9
$DIMEXO
 40
0.0625
  9
$DIMDLI
 40
0.38
  9
$DIMRND
 40
0
  9
$DIMDLE
 40
0
  9
$DIMEXE
 40
0.18
  9
$DIMTP
 40
0
  9
$DIMTM
 40
0
  9
$DIMTXT
 40
0.18
  9
$DIMCEN
 40
0.09
  9
$DIMTSZ
 40
0
  9
$DIMTOL
 70
0
  9
$DIMLIM
 70
0
  9
$DIMTIH
 70
1
  9
$DIMTOH
 70
1
  9
$DIMSE1
 70
0
  9
$DIMSE2
 70
0
  9
$DIMTAD
 70
0
  9
$DIMZIN
 70
0
  9
$DIMBLK
  1

  9
$DIMASO
 70
1
  9
$DIMSHO
 70
1
  9
$DIMPOST
  1

  9
$DIMAPOST
  1

  9
$DIMALT
 70
0
  9
$DIMALTD
 70
2
  9
$DIMALTF
 40
25.4
  9
$DIMLFAC
 40
1
  9
$DIMTOFL
 70
0
  9
$DIMTVP
 40
0
  9
$DIMTIX
 70
0
  9
$DIMSOXD
 70
0
  9
$DIMSAH
 70
0
  9
$DIMBLK1
  1

  9
$DIMBLK2
  1

  9
$DIMSTYLE
  2
*UNNAMED
  9
$DIMCLRD
 70
0
  9
$DIMCLRE
 70
0
  9
$DIMCLRT
 70
0
  9
$DIMTFAC
 40
1
  9
$DIMGAP
 40
0.09
  9
$LUNITS
 70
2
  9
$LUPREC
 70
4
  9
$AXISMODE
 70
0
  9
$AXISUNIT
 10
0
 20
0
  9
$SKETCHINC
 40
0.1
  9
$FILLETRAD
 40
2
  9
$AUNITS
 70
0
  9
$AUPREC
 70
0
  9
$MENU
  1
ACAD
  9
$ELEVATION
 40
0
  9
$THICKNESS
 40
0
  9
$VIEWDIR
 10
0
 20
0
 30
1
  9
$LIMCHECK
 70
0
  9
$BLIPMODE
 70
1
  9
$CHAMFERA
 40
0
  9
$CHAMFERB
 40
0
  9
$FASTZOOM
 70
1
  9
$SKPOLY
 70
0
  9
$ANGBASE
 50
0
  9
$ANGDIR
 70
0
  9
$PDMODE
 70
0
  9
$PDSIZE
 40
0
  9
$PLINEWID
 40
0
  9
$COORDS
 70
2
  0
ENDSEC
  0
SECTION
  2
TABLES
  0
TABLE
  2
DIMSTYLE
 70
2
  0
DIMSTYLE
  2
DMST_1
 70
0
  3

  4

  5

  6

  7

 40
1
 41
0.1
 42
0
 43
0.7
 44
0.2
 45
0
 46
0
 47
0
 48
0
140
0.1
141
0
142
0.1
143
25.4
144
1
145
0
146
1
147
0.2
 71
0
 72
0
 73
0
 74
0
 75
0
 76
0
 77
0
 78
9
170
0
171
2
172
0
173
0
174
0
175
0
176
7
177
7
178
7
  0
DIMSTYLE
  2
DMST_2
 70
0
  3

  4

  5

  6

  7

 40
1
 41
0.1
 42
0
 43
0.7
 44
0.2
 45
0
 46
0
 47
0
 48
0
140
0.1
141
0
142
0.1
143
25.4
144
1
145
0
146
1
147
0.25
 71
0
 72
0
 73
0
 74
0
 75
0
 76
0
 77
0
 78
9
170
0
171
2
172
0
173
0
174
0
175
0
176
7
177
7
178
7
  0
ENDTAB
  0
TABLE
  2
LTYPE
 70
9
  0
LTYPE
  2
CONTINUOUS
 70
64
  3
Solid line
 72
65
 73
0
 40
0
  0
LTYPE
  2
BORDER
 70
64
  3
__ __ . __ __ .
 72
65
 73
6
 40
0.3992048462137521
 49
0.1140585274896434
 49
-0.05702926374482172
 49
0.1140585274896434
 49
-0.05702926374482172
 49
0
 49
-0.05702926374482172
  0
LTYPE
  2
CENTER
 70
64
  3
____ _ ____ _
 72
65
 73
4
 40
0.4562341099585738
 49
0.2851463187241086
 49
-0.05702926374482172
 49
0.05702926374482172
 49
-0.05702926374482172
  0
LTYPE
  2
DASHDOT
 70
64
  3
__ . __ . __ .
 72
65
 73
4
 40
0.2281170549792869
 49
0.1140585274896434
 49
-0.05702926374482172
 49
0
 49
-0.05702926374482172
  0
LTYPE
  2
DASHED
 70
64
  3
__ __ __ __ __
 72
65
 73
2
 40
0.1710877912344652
 49
0.1140585274896434
 49
-0.05702926374482172
  0
LTYPE
  2
DIVIDE
 70
64
  3
__ . . __ . . 
 72
65
 73
6
 40
0.2851463187241086
 49
0.1140585274896434
 49
-0.05702926374482172
 49
0
 49
-0.05702926374482172
 49
0
 49
-0.05702926374482172
  0
LTYPE
  2
DOT
 70
64
  3
..............
 72
65
 73
4
 40
0.1140585274896434
 49
0
 49
-0.05702926374482172
 49
0
 49
-0.05702926374482172
  0
LTYPE
  2
HIDDEN
 70
64
  3
_ _ _ _ _ _ _
 72
65
 73
2
 40
0.08554389561723258
 49
0.05702926374482172
 49
-0.02851463187241086
  0
LTYPE
  2
PHANTOM
 70
64
  3
_____ _ _ _____ _ _ 
 72
65
 73
6
 40
0.5702926374482172
 49
0.2851463187241086
 49
-0.05702926374482172
 49
0.05702926374482172
 49
-0.05702926374482172
 49
0.05702926374482172
 49
-0.05702926374482172
  0
ENDTAB
  0
TABLE
  2
LAYER
 70
2
  0
LAYER
  2
0
 70
0
 62
7
  6
CONTINUOUS
  0
ENDTAB
  0
TABLE
  2
STYLE
 70
4
  0
STYLE
  2
STANDARD
 70
0
 40
0
 41
1
 50
0
 71
0
 42
3.5
  3
txt
  4

  0
STYLE
  2
SIMPLEX
 70
0
 40
0
 41
1
 50
0
 71
0
 42
3.5
  3
simplex
  4

  0
STYLE
  2
COMPLEX
 70
0
 40
0
 41
1
 50
0
 71
0
 42
3.5
  3
complex
  4

  0
STYLE
  2
ITALIC
 70
0
 40
0
 41
1
 50
0
 71
0
 42
3.5
  3
italic
  4

  0
ENDTAB
  0
TABLE
  2
VIEW
 70
0
  0
ENDTAB
  0
ENDSEC
  0
SECTION
  2
BLOCKS
  0
BLOCK
  8
0
  2
*X0
 70
1
 10
0
 20
0
 30
0
  0
LINE
  8
0
 62
7
 10
7.424999999999997
 20
7.955330085889907
 30
0
 11
7.569669914110086
 21
8.099999999999996
 31
0
  0
LINE
  8
0
 62
7
 10
7.424999999999998
 20
8.061396103067889
 30
0
 11
7.463603896932104
 21
8.099999999999994
 31
0
  0
LINE
  8
0
 62
7
 10
7.525735931288069
 20
7.949999999999995
 30
0
 11
7.599999999999999
 21
8.024264068711926
 31
0
  0
ENDBLK
  8
0
  0
BLOCK
  8
0
  2
*X1
 70
1
 10
0
 20
0
 30
0
  0
LINE
  8
0
 62
7
 10
7.424999999999999
 20
10.71304653251744
 30
0
 11
7.561953467482555
 21
10.85
 31
0
  0
LINE
  8
0
 62
7
 10
7.424999999999999
 20
10.50091449816147
 30
0
 11
7.6
 21
10.67591449816148
 31
0
  0
LINE
  8
0
 62
7
 10
7.424999999999999
 20
10.28878246380551
 30
0
 11
7.6
 21
10.46378246380551
 31
0
  0
LINE
  8
0
 62
7
 10
7.424999999999999
 20
10.07665042944955
 30
0
 11
7.6
 21
10.25165042944955
 31
0
  0
LINE
  8
0
 62
7
 10
7.424999999999999
 20
9.864518395093583
 30
0
 11
7.6
 21
10.03951839509358
 31
0
  0
LINE
  8
0
 62
7
 10
7.424999999999999
 20
9.652386360737619
 30
0
 11
7.6
 21
9.82738636073762
 31
0
  0
LINE
  8
0
 62
7
 10
7.424999999999999
 20
9.440254326381655
 30
0
 11
7.6
 21
9.615254326381656
 31
0
  0
LINE
  8
0
 62
7
 10
7.424999999999999
 20
9.228122292025692
 30
0
 11
7.6
 21
9.403122292025692
 31
0
  0
LINE
  8
0
 62
7
 10
7.424999999999999
 20
9.015990257669728
 30
0
 11
7.6
 21
9.190990257669728
 31
0
  0
LINE
  8
0
 62
7
 10
7.424999999999999
 20
8.803858223313764
 30
0
 11
7.6
 21
8.978858223313765
 31
0
  0
LINE
  8
0
 62
7
 10
7.424999999999999
 20
8.5917261889578
 30
0
 11
7.6
 21
8.766726188957801
 31
0
  0
LINE
  8
0
 62
7
 10
7.424999999999999
 20
8.379594154601836
 30
0
 11
7.6
 21
8.554594154601837
 31
0
  0
LINE
  8
0
 62
7
 10
7.557537879754123
 20
8.299999999999995
 30
0
 11
7.6
 21
8.342462120245873
 31
0
  0
LINE
  8
0
 62
7
 10
7.425
 20
10.81911254969542
 30
0
 11
7.455887450304571
 21
10.85
 31
0
  0
LINE
  8
0
 62
7
 10
7.425
 20
10.60698051533946
 30
0
 11
7.600000000000001
 21
10.78198051533946
 31
0
  0
LINE
  8
0
 62
7
 10
7.425
 20
10.39484848098349
 30
0
 11
7.600000000000001
 21
10.56984848098349
 31
0
  0
LINE
  8
0
 62
7
 10
7.425
 20
10.18271644662753
 30
0
 11
7.600000000000001
 21
10.35771644662753
 31
0
  0
LINE
  8
0
 62
7
 10
7.425
 20
9.970584412271567
 30
0
 11
7.600000000000001
 21
10.14558441227157
 31
0
  0
LINE
  8
0
 62
7
 10
7.425
 20
9.758452377915603
 30
0
 11
7.600000000000001
 21
9.933452377915602
 31
0
  0
LINE
  8
0
 62
7
 10
7.425
 20
9.546320343559639
 30
0
 11
7.600000000000001
 21
9.721320343559638
 31
0
  0
LINE
  8
0
 62
7
 10
7.425
 20
9.334188309203675
 30
0
 11
7.600000000000001
 21
9.509188309203674
 31
0
  0
LINE
  8
0
 62
7
 10
7.425
 20
9.122056274847711
 30
0
 11
7.600000000000001
 21
9.29705627484771
 31
0
  0
LINE
  8
0
 62
7
 10
7.425
 20
8.909924240491748
 30
0
 11
7.600000000000001
 21
9.084924240491747
 31
0
  0
LINE
  8
0
 62
7
 10
7.425
 20
8.697792206135784
 30
0
 11
7.600000000000001
 21
8.872792206135783
 31
0
  0
LINE
  8
0
 62
7
 10
7.425
 20
8.48566017177982
 30
0
 11
7.600000000000001
 21
8.660660171779819
 31
0
  0
LINE
  8
0
 62
7
 10
7.451471862576141
 20
8.299999999999997
 30
0
 11
7.600000000000001
 21
8.448528137423855
 31
0
  0
ENDBLK
  8
0
  0
BLOCK
  8
0
  2
*X2
 70
1
 10
0
 20
0
 30
0
  0
LINE
  8
0
 62
7
 10
7.424999999999998
 20
11.13731060122937
 30
0
 11
7.487689398770626
 21
11.2
 31
0
  0
LINE
  8
0
 62
7
 10
7.549821433126593
 20
11.05
 30
0
 11
7.599999999999997
 21
11.10017856687341
 31
0
  0
LINE
  8
0
 62
7
 10
7.44375541594861
 20
11.05
 30
0
 11
7.593755415948609
 21
11.2
 31
0
  0
ENDBLK
  8
0
  0
BLOCK
  8
0
  2
*X3
 70
1
 10
0
 20
0
 30
0
  0
LINE
  8
0
 62
7
 10
4.989999999999998
 20
8.065914498161478
 30
0
 11
5.024085501838516
 21
8.099999999999996
 31
0
  0
LINE
  8
0
 62
7
 10
5.086217536194479
 20
7.949999999999996
 30
0
 11
5.164999999999997
 21
8.028782463805515
 31
0
  0
LINE
  8
0
 62
7
 10
4.989999999999998
 20
7.959848480983497
 30
0
 11
5.130151519016498
 21
8.099999999999996
 31
0
  0
ENDBLK
  8
0
  0
BLOCK
  8
0
  2
*X4
 70
1
 10
0
 20
0
 30
0
  0
LINE
  8
0
 62
7
 10
4.989999999999999
 20
10.82363094478901
 30
0
 11
5.016369055210983
 21
10.85
 31
0
  0
LINE
  8
0
 62
7
 10
4.989999999999999
 20
10.61149891043305
 30
0
 11
5.164999999999999
 21
10.78649891043305
 31
0
  0
LINE
  8
0
 62
7
 10
4.989999999999999
 20
10.39936687607708
 30
0
 11
5.164999999999999
 21
10.57436687607708
 31
0
  0
LINE
  8
0
 62
7
 10
4.989999999999999
 20
10.18723484172112
 30
0
 11
5.164999999999999
 21
10.36223484172112
 31
0
  0
LINE
  8
0
 62
7
 10
4.989999999999999
 20
9.975102807365156
 30
0
 11
5.164999999999999
 21
10.15010280736515
 31
0
  0
LINE
  8
0
 62
7
 10
4.989999999999999
 20
9.762970773009192
 30
0
 11
5.164999999999999
 21
9.937970773009191
 31
0
  0
LINE
  8
0
 62
7
 10
4.989999999999999
 20
9.550838738653228
 30
0
 11
5.164999999999999
 21
9.725838738653227
 31
0
  0
LINE
  8
0
 62
7
 10
4.989999999999999
 20
9.338706704297264
 30
0
 11
5.164999999999999
 21
9.513706704297263
 31
0
  0
LINE
  8
0
 62
7
 10
4.989999999999999
 20
9.1265746699413
 30
0
 11
5.164999999999999
 21
9.301574669941299
 31
0
  0
LINE
  8
0
 62
7
 10
4.989999999999999
 20
8.914442635585337
 30
0
 11
5.164999999999999
 21
9.089442635585335
 31
0
  0
LINE
  8
0
 62
7
 10
4.989999999999999
 20
8.702310601229373
 30
0
 11
5.164999999999999
 21
8.877310601229372
 31
0
  0
LINE
  8
0
 62
7
 10
4.989999999999999
 20
8.490178566873409
 30
0
 11
5.164999999999999
 21
8.665178566873408
 31
0
  0
LINE
  8
0
 62
7
 10
5.011953467482551
 20
8.299999999999995
 30
0
 11
5.164999999999999
 21
8.453046532517444
 31
0
  0
LINE
  8
0
 62
7
 10
4.989999999999998
 20
10.71756492761103
 30
0
 11
5.122435072388966
 21
10.85
 31
0
  0
LINE
  8
0
 62
7
 10
4.989999999999998
 20
10.50543289325506
 30
0
 11
5.165
 21
10.68043289325506
 31
0
  0
LINE
  8
0
 62
7
 10
4.989999999999998
 20
10.2933008588991
 30
0
 11
5.165
 21
10.4683008588991
 31
0
  0
LINE
  8
0
 62
7
 10
4.989999999999998
 20
10.08116882454314
 30
0
 11
5.165
 21
10.25616882454314
 31
0
  0
LINE
  8
0
 62
7
 10
4.989999999999998
 20
9.869036790187172
 30
0
 11
5.165
 21
10.04403679018717
 31
0
  0
LINE
  8
0
 62
7
 10
4.989999999999998
 20
9.656904755831208
 30
0
 11
5.165
 21
9.831904755831209
 31
0
  0
LINE
  8
0
 62
7
 10
4.989999999999998
 20
9.444772721475244
 30
0
 11
5.165
 21
9.619772721475245
 31
0
  0
LINE
  8
0
 62
7
 10
4.989999999999998
 20
9.232640687119281
 30
0
 11
5.165
 21
9.407640687119281
 31
0
  0
LINE
  8
0
 62
7
 10
4.989999999999998
 20
9.020508652763317
 30
0
 11
5.165
 21
9.195508652763317
 31
0
  0
LINE
  8
0
 62
7
 10
4.989999999999998
 20
8.808376618407353
 30
0
 11
5.165
 21
8.983376618407354
 31
0
  0
LINE
  8
0
 62
7
 10
4.989999999999998
 20
8.596244584051389
 30
0
 11
5.165
 21
8.77124458405139
 31
0
  0
LINE
  8
0
 62
7
 10
4.989999999999998
 20
8.384112549695425
 30
0
 11
5.165
 21
8.559112549695426
 31
0
  0
LINE
  8
0
 62
7
 10
5.118019484660534
 20
8.299999999999997
 30
0
 11
5.165
 21
8.346980515339462
 31
0
  0
ENDBLK
  8
0
  0
BLOCK
  8
0
  2
*X5
 70
1
 10
0
 20
0
 30
0
  0
LINE
  8
0
 62
7
 10
5.004237020855022
 20
11.05
 30
0
 11
5.15423702085502
 21
11.2
 31
0
  0
LINE
  8
0
 62
7
 10
4.989999999999998
 20
11.14182899632296
 30
0
 11
5.048171003677039
 21
11.2
 31
0
  0
LINE
  8
0
 62
7
 10
5.110303038033003
 20
11.05
 30
0
 11
5.164999999999997
 21
11.10469696196699
 31
0
  0
ENDBLK
  8
0
  0
BLOCK
  8
0
  2
*X6
 70
1
 10
0
 20
0
 30
0
  0
LINE
  8
0
 62
7
  6
DASHED
 10
4.84
 20
8.128046532517445
 30
0
 11
5.011953467482558
 21
8.299999999999997
 31
0
  0
LINE
  8
0
 62
7
  6
DASHED
 10
5.02408550183852
 20
8.099999999999996
 30
0
 11
5.224085501838521
 21
8.299999999999997
 31
0
  0
LINE
  8
0
 62
7
  6
DASHED
 10
5.236217536194484
 20
8.099999999999996
 30
0
 11
5.436217536194485
 21
8.299999999999997
 31
0
  0
LINE
  8
0
 62
7
  6
DASHED
 10
5.448349570550448
 20
8.099999999999996
 30
0
 11
5.648349570550449
 21
8.299999999999997
 31
0
  0
LINE
  8
0
 62
7
  6
DASHED
 10
5.660481604906412
 20
8.099999999999996
 30
0
 11
5.860481604906413
 21
8.299999999999997
 31
0
  0
LINE
  8
0
 62
7
  6
DASHED
 10
5.872613639262376
 20
8.099999999999996
 30
0
 11
6.072613639262377
 21
8.299999999999997
 31
0
  0
LINE
  8
0
 62
7
  6
DASHED
 10
6.08474567361834
 20
8.099999999999996
 30
0
 11
6.284745673618341
 21
8.299999999999997
 31
0
  0
LINE
  8
0
 62
7
  6
DASHED
 10
6.296877707974303
 20
8.099999999999996
 30
0
 11
6.496877707974305
 21
8.299999999999997
 31
0
  0
LINE
  8
0
 62
7
  6
DASHED
 10
6.509009742330267
 20
8.099999999999996
 30
0
 11
6.709009742330268
 21
8.299999999999997
 31
0
  0
LINE
  8
0
 62
7
  6
DASHED
 10
6.721141776686231
 20
8.099999999999996
 30
0
 11
6.921141776686232
 21
8.299999999999997
 31
0
  0
LINE
  8
0
 62
7
  6
DASHED
 10
6.933273811042195
 20
8.099999999999996
 30
0
 11
7.133273811042196
 21
8.299999999999997
 31
0
  0
LINE
  8
0
 62
7
  6
DASHED
 10
7.145405845398159
 20
8.099999999999996
 30
0
 11
7.34540584539816
 21
8.299999999999997
 31
0
  0
LINE
  8
0
 62
7
  6
DASHED
 10
7.357537879754123
 20
8.099999999999996
 30
0
 11
7.557537879754124
 21
8.299999999999997
 31
0
  0
LINE
  8
0
 62
7
  6
DASHED
 10
7.569669914110086
 20
8.099999999999996
 30
0
 11
7.749999999999998
 21
8.280330085889908
 31
0
  0
LINE
  8
0
 62
7
 10
4.839999999999999
 20
8.234112549695427
 30
0
 11
4.905887450304577
 21
8.299999999999999
 31
0
  0
LINE
  8
0
 62
7
 10
4.91801948466054
 20
8.099999999999996
 30
0
 11
5.11801948466054
 21
8.299999999999999
 31
0
  0
LINE
  8
0
 62
7
 10
5.130151519016504
 20
8.099999999999996
 30
0
 11
5.330151519016504
 21
8.299999999999999
 31
0
  0
LINE
  8
0
 62
7
 10
5.342283553372468
 20
8.099999999999996
 30
0
 11
5.542283553372468
 21
8.299999999999999
 31
0
  0
LINE
  8
0
 62
7
 10
5.554415587728432
 20
8.099999999999996
 30
0
 11
5.754415587728432
 21
8.299999999999999
 31
0
  0
LINE
  8
0
 62
7
 10
5.766547622084396
 20
8.099999999999996
 30
0
 11
5.966547622084396
 21
8.299999999999999
 31
0
  0
LINE
  8
0
 62
7
 10
5.978679656440359
 20
8.099999999999996
 30
0
 11
6.17867965644036
 21
8.299999999999999
 31
0
  0
LINE
  8
0
 62
7
 10
6.190811690796323
 20
8.099999999999996
 30
0
 11
6.390811690796323
 21
8.299999999999999
 31
0
  0
LINE
  8
0
 62
7
 10
6.402943725152287
 20
8.099999999999996
 30
0
 11
6.602943725152287
 21
8.299999999999999
 31
0
  0
LINE
  8
0
 62
7
 10
6.615075759508251
 20
8.099999999999996
 30
0
 11
6.815075759508251
 21
8.299999999999999
 31
0
  0
LINE
  8
0
 62
7
 10
6.827207793864215
 20
8.099999999999996
 30
0
 11
7.027207793864215
 21
8.299999999999999
 31
0
  0
LINE
  8
0
 62
7
 10
7.039339828220179
 20
8.099999999999996
 30
0
 11
7.239339828220179
 21
8.299999999999999
 31
0
  0
LINE
  8
0
 62
7
 10
7.251471862576143
 20
8.099999999999996
 30
0
 11
7.451471862576143
 21
8.299999999999999
 31
0
  0
LINE
  8
0
 62
7
 10
7.463603896932106
 20
8.099999999999996
 30
0
 11
7.663603896932107
 21
8.299999999999999
 31
0
  0
LINE
  8
0
 62
7
 10
7.67573593128807
 20
8.099999999999996
 30
0
 11
7.749999999999999
 21
8.174264068711926
 31
0
  0
ENDBLK
  8
0
  0
BLOCK
  8
0
  2
*X7
 70
1
 10
0
 20
0
 30
0
  0
LINE
  8
0
 62
7
  6
DASHED
 10
4.839999999999998
 20
10.88576297914498
 30
0
 11
5.004237020855027
 21
11.05
 31
0
  0
LINE
  8
0
 62
7
  6
DASHED
 10
5.016369055210991
 20
10.85
 30
0
 11
5.216369055210991
 21
11.05
 31
0
  0
LINE
  8
0
 62
7
  6
DASHED
 10
5.228501089566954
 20
10.85
 30
0
 11
5.428501089566955
 21
11.05
 31
0
  0
LINE
  8
0
 62
7
  6
DASHED
 10
5.440633123922918
 20
10.85
 30
0
 11
5.640633123922918
 21
11.05
 31
0
  0
LINE
  8
0
 62
7
  6
DASHED
 10
5.652765158278882
 20
10.85
 30
0
 11
5.852765158278882
 21
11.05
 31
0
  0
LINE
  8
0
 62
7
  6
DASHED
 10
5.864897192634846
 20
10.85
 30
0
 11
6.064897192634846
 21
11.05
 31
0
  0
LINE
  8
0
 62
7
  6
DASHED
 10
6.07702922699081
 20
10.85
 30
0
 11
6.27702922699081
 21
11.05
 31
0
  0
LINE
  8
0
 62
7
  6
DASHED
 10
6.289161261346774
 20
10.85
 30
0
 11
6.489161261346774
 21
11.05
 31
0
  0
LINE
  8
0
 62
7
  6
DASHED
 10
6.501293295702737
 20
10.85
 30
0
 11
6.701293295702738
 21
11.05
 31
0
  0
LINE
  8
0
 62
7
  6
DASHED
 10
6.713425330058701
 20
10.85
 30
0
 11
6.913425330058701
 21
11.05
 31
0
  0
LINE
  8
0
 62
7
  6
DASHED
 10
6.925557364414665
 20
10.85
 30
0
 11
7.125557364414665
 21
11.05
 31
0
  0
LINE
  8
0
 62
7
  6
DASHED
 10
7.137689398770629
 20
10.85
 30
0
 11
7.337689398770629
 21
11.05
 31
0
  0
LINE
  8
0
 62
7
  6
DASHED
 10
7.349821433126593
 20
10.85
 30
0
 11
7.549821433126593
 21
11.05
 31
0
  0
LINE
  8
0
 62
7
  6
DASHED
 10
7.561953467482557
 20
10.85
 30
0
 11
7.75
 21
11.03804653251744
 31
0
  0
LINE
  8
0
 62
7
 10
4.839999999999998
 20
10.99182899632296
 30
0
 11
4.898171003677044
 21
11.05
 31
0
  0
LINE
  8
0
 62
7
 10
4.910303038033008
 20
10.85
 30
0
 11
5.110303038033008
 21
11.05
 31
0
  0
LINE
  8
0
 62
7
 10
5.122435072388972
 20
10.85
 30
0
 11
5.322435072388972
 21
11.05
 31
0
  0
LINE
  8
0
 62
7
 10
5.334567106744935
 20
10.85
 30
0
 11
5.534567106744936
 21
11.05
 31
0
  0
LINE
  8
0
 62
7
 10
5.546699141100899
 20
10.85
 30
0
 11
5.746699141100899
 21
11.05
 31
0
  0
LINE
  8
0
 62
7
 10
5.758831175456863
 20
10.85
 30
0
 11
5.958831175456863
 21
11.05
 31
0
  0
LINE
  8
0
 62
7
 10
5.970963209812827
 20
10.85
 30
0
 11
6.170963209812827
 21
11.05
 31
0
  0
LINE
  8
0
 62
7
 10
6.183095244168791
 20
10.85
 30
0
 11
6.383095244168791
 21
11.05
 31
0
  0
LINE
  8
0
 62
7
 10
6.395227278524755
 20
10.85
 30
0
 11
6.595227278524755
 21
11.05
 31
0
  0
LINE
  8
0
 62
7
 10
6.607359312880718
 20
10.85
 30
0
 11
6.807359312880719
 21
11.05
 31
0
  0
LINE
  8
0
 62
7
 10
6.819491347236682
 20
10.85
 30
0
 11
7.019491347236682
 21
11.05
 31
0
  0
LINE
  8
0
 62
7
 10
7.031623381592646
 20
10.85
 30
0
 11
7.231623381592646
 21
11.05
 31
0
  0
LINE
  8
0
 62
7
 10
7.24375541594861
 20
10.85
 30
0
 11
7.44375541594861
 21
11.05
 31
0
  0
LINE
  8
0
 62
7
 10
7.455887450304574
 20
10.85
 30
0
 11
7.655887450304574
 21
11.05
 31
0
  0
LINE
  8
0
 62
7
 10
7.668019484660538
 20
10.85
 30
0
 11
7.749999999999999
 21
10.93198051533946
 31
0
  0
ENDBLK
  8
0
  0
BLOCK
  8
0
  2
*X8
 70
1
 10
0
 20
0
 30
0
  0
LINE
  8
0
 62
7
 10
0.4999999999999991
 20
8.030687219636729
 30
0
 11
0.5693127803632656
 21
8.099999999999996
 31
0
  0
LINE
  8
0
 62
7
 10
0.6314448147192304
 20
7.949999999999996
 30
0
 11
0.739999999999998
 21
8.058555185280763
 31
0
  0
LINE
  8
0
 62
7
 10
0.5253787975412485
 20
7.949999999999996
 30
0
 11
0.6753787975412489
 21
8.099999999999998
 31
0
  0
LINE
  8
0
 62
7
 10
0.7375108318972128
 20
7.949999999999996
 30
0
 11
0.7399999999999993
 21
7.952489168102781
 31
0
  0
ENDBLK
  8
0
  0
BLOCK
  8
0
  2
*X9
 70
1
 10
0
 20
0
 30
0
  0
LINE
  8
0
 62
7
 10
0.5000000000000004
 20
10.78840366626426
 30
0
 11
0.5615963337357339
 21
10.85
 31
0
  0
LINE
  8
0
 62
7
 10
0.5000000000000004
 20
10.5762716319083
 30
0
 11
0.7399999999999993
 21
10.81627163190829
 31
0
  0
LINE
  8
0
 62
7
 10
0.5000000000000004
 20
10.36413959755233
 30
0
 11
0.7399999999999993
 21
10.60413959755233
 31
0
  0
LINE
  8
0
 62
7
 10
0.5000000000000004
 20
10.15200756319637
 30
0
 11
0.7399999999999993
 21
10.39200756319637
 31
0
  0
LINE
  8
0
 62
7
 10
0.5000000000000004
 20
9.939875528840407
 30
0
 11
0.7399999999999993
 21
10.1798755288404
 31
0
  0
LINE
  8
0
 62
7
 10
0.5000000000000004
 20
9.727743494484443
 30
0
 11
0.7399999999999993
 21
9.96774349448444
 31
0
  0
LINE
  8
0
 62
7
 10
0.5000000000000004
 20
9.515611460128479
 30
0
 11
0.7399999999999993
 21
9.755611460128476
 31
0
  0
LINE
  8
0
 62
7
 10
0.5000000000000004
 20
9.303479425772515
 30
0
 11
0.7399999999999993
 21
9.543479425772512
 31
0
  0
LINE
  8
0
 62
7
 10
0.5000000000000004
 20
9.091347391416551
 30
0
 11
0.7399999999999993
 21
9.331347391416548
 31
0
  0
LINE
  8
0
 62
7
 10
0.5000000000000004
 20
8.879215357060588
 30
0
 11
0.7399999999999993
 21
9.119215357060584
 31
0
  0
LINE
  8
0
 62
7
 10
0.5000000000000004
 20
8.667083322704624
 30
0
 11
0.7399999999999993
 21
8.90708332270462
 31
0
  0
LINE
  8
0
 62
7
 10
0.5000000000000004
 20
8.45495128834866
 30
0
 11
0.7399999999999993
 21
8.694951288348657
 31
0
  0
LINE
  8
0
 62
7
 10
0.5571807460073028
 20
8.299999999999997
 30
0
 11
0.7399999999999993
 21
8.482819253992693
 31
0
  0
LINE
  8
0
 62
7
 10
0.5
 20
10.68233764908628
 30
0
 11
0.6676623509137176
 21
10.85
 31
0
  0
LINE
  8
0
 62
7
 10
0.5
 20
10.47020561473031
 30
0
 11
0.7399999999999989
 21
10.71020561473031
 31
0
  0
LINE
  8
0
 62
7
 10
0.5
 20
10.25807358037435
 30
0
 11
0.7399999999999989
 21
10.49807358037435
 31
0
  0
LINE
  8
0
 62
7
 10
0.5
 20
10.04594154601839
 30
0
 11
0.7399999999999989
 21
10.28594154601839
 31
0
  0
LINE
  8
0
 62
7
 10
0.5
 20
9.833809511662423
 30
0
 11
0.7399999999999989
 21
10.07380951166242
 31
0
  0
LINE
  8
0
 62
7
 10
0.5
 20
9.621677477306459
 30
0
 11
0.7399999999999989
 21
9.861677477306458
 31
0
  0
LINE
  8
0
 62
7
 10
0.5
 20
9.409545442950495
 30
0
 11
0.7399999999999989
 21
9.649545442950494
 31
0
  0
LINE
  8
0
 62
7
 10
0.5
 20
9.197413408594532
 30
0
 11
0.7399999999999989
 21
9.43741340859453
 31
0
  0
LINE
  8
0
 62
7
 10
0.5
 20
8.985281374238568
 30
0
 11
0.7399999999999989
 21
9.225281374238566
 31
0
  0
LINE
  8
0
 62
7
 10
0.5
 20
8.773149339882604
 30
0
 11
0.7399999999999989
 21
9.013149339882602
 31
0
  0
LINE
  8
0
 62
7
 10
0.5
 20
8.56101730552664
 30
0
 11
0.7399999999999989
 21
8.801017305526639
 31
0
  0
LINE
  8
0
 62
7
 10
0.5
 20
8.348885271170676
 30
0
 11
0.7399999999999989
 21
8.588885271170675
 31
0
  0
LINE
  8
0
 62
7
 10
0.6632467631852861
 20
8.299999999999997
 30
0
 11
0.7399999999999989
 21
8.376753236814711
 31
0
  0
ENDBLK
  8
0
  0
BLOCK
  8
0
  2
*X10
 70
1
 10
0
 20
0
 30
0
  0
LINE
  8
0
 62
7
 10
0.549464299379772
 20
11.05
 30
0
 11
0.6994642993797715
 21
11.2
 31
0
  0
LINE
  8
0
 62
7
 10
0.5
 20
11.10660171779821
 30
0
 11
0.5933982822017896
 21
11.2
 31
0
  0
LINE
  8
0
 62
7
 10
0.6555303165577557
 20
11.05
 30
0
 11
0.7399999999999993
 21
11.13446968344224
 31
0
  0
ENDBLK
  8
0
  0
BLOCK
  8
0
  2
*X11
 70
1
 10
0
 20
0
 30
0
  0
LINE
  8
0
 62
7
  6
DASHED
 10
2.639999999999996
 20
8.261498910433048
 30
0
 11
2.678501089566946
 21
8.299999999999997
 31
0
  0
LINE
  8
0
 62
7
  6
DASHED
 10
2.690633123922909
 20
8.099999999999996
 30
0
 11
2.89063312392291
 21
8.299999999999997
 31
0
  0
LINE
  8
0
 62
7
  6
DASHED
 10
2.902765158278873
 20
8.099999999999996
 30
0
 11
2.939999999999997
 21
8.137234841721121
 31
0
  0
LINE
  8
0
 62
7
 10
2.639999999999997
 20
8.155432893255066
 30
0
 11
2.784567106744927
 21
8.299999999999997
 31
0
  0
LINE
  8
0
 62
7
 10
2.79669914110089
 20
8.099999999999994
 30
0
 11
2.939999999999998
 21
8.243300858899103
 31
0
  0
ENDBLK
  8
0
  0
BLOCK
  8
0
  2
*X12
 70
1
 10
0
 20
0
 30
0
  0
LINE
  8
0
 62
7
  6
DASHED
 10
2.639999999999996
 20
11.01921535706058
 30
0
 11
2.670784642939415
 21
11.05
 31
0
  0
LINE
  8
0
 62
7
  6
DASHED
 10
2.682916677295376
 20
10.85
 30
0
 11
2.88291667729538
 21
11.05
 31
0
  0
LINE
  8
0
 62
7
  6
DASHED
 10
2.895048711651341
 20
10.85
 30
0
 11
2.939999999999999
 21
10.89495128834866
 31
0
  0
LINE
  8
0
 62
7
 10
2.639999999999996
 20
10.9131493398826
 30
0
 11
2.776850660117397
 21
11.05
 31
0
  0
LINE
  8
0
 62
7
 10
2.78898269447336
 20
10.85
 30
0
 11
2.939999999999998
 21
11.00101730552664
 31
0
  0
ENDBLK
  8
0
  0
BLOCK
  8
0
  2
*X13
 70
1
 10
0
 20
0
 30
0
  0
LINE
  8
0
 62
7
  6
DASHED
 10
0.4999999999999991
 20
11.00053570062023
 30
0
 11
0.5494642993797729
 21
11.05
 31
0
  0
LINE
  8
0
 62
7
  6
DASHED
 10
0.5615963337357357
 20
10.85
 30
0
 11
0.7399999999999984
 21
11.02840366626426
 31
0
  0
LINE
  8
0
 62
7
 10
0.5000000000000009
 20
10.89446968344225
 30
0
 11
0.6555303165577557
 21
11.05
 31
0
  0
LINE
  8
0
 62
7
 10
0.6676623509137176
 20
10.85
 30
0
 11
0.7399999999999984
 21
10.92233764908628
 31
0
  0
ENDBLK
  8
0
  0
BLOCK
  8
0
  2
*X14
 70
1
 10
0
 20
0
 30
0
  0
LINE
  8
0
 62
7
  6
DASHED
 10
0.5
 20
8.242819253992694
 30
0
 11
0.5571807460073028
 21
8.299999999999997
 31
0
  0
LINE
  8
0
 62
7
  6
DASHED
 10
0.5693127803632669
 20
8.099999999999996
 30
0
 11
0.739999999999998
 21
8.270687219636727
 31
0
  0
LINE
  8
0
 62
7
 10
0.4999999999999991
 20
8.136753236814712
 30
0
 11
0.6632467631852856
 21
8.299999999999997
 31
0
  0
LINE
  8
0
 62
7
 10
0.6753787975412489
 20
8.099999999999998
 30
0
 11
0.739999999999998
 21
8.164621202458745
 31
0
  0
ENDBLK
  8
0
  0
BLOCK
  8
0
  2
*X15
 70
1
 10
0
 20
0
 30
0
  0
LINE
  8
0
 62
7
 10
4.839999999999999
 20
5.582462120245873
 30
0
 11
5.164999999999996
 21
5.907462120245871
 31
0
  0
LINE
  8
0
 62
7
 10
4.999669914110098
 20
5.530000000000003
 30
0
 11
5.23966991411009
 21
5.769999999999996
 31
0
  0
LINE
  8
0
 62
7
 10
5.211801948466062
 20
5.530000000000003
 30
0
 11
5.451801948466054
 21
5.769999999999996
 31
0
  0
LINE
  8
0
 62
7
 10
5.423933982822025
 20
5.530000000000003
 30
0
 11
5.663933982822018
 21
5.769999999999996
 31
0
  0
LINE
  8
0
 62
7
 10
5.636066017177989
 20
5.530000000000003
 30
0
 11
5.876066017177981
 21
5.769999999999996
 31
0
  0
LINE
  8
0
 62
7
 10
5.848198051533953
 20
5.530000000000003
 30
0
 11
6.088198051533945
 21
5.769999999999996
 31
0
  0
LINE
  8
0
 62
7
 10
6.060330085889917
 20
5.530000000000003
 30
0
 11
6.300330085889909
 21
5.769999999999996
 31
0
  0
LINE
  8
0
 62
7
 10
6.272462120245881
 20
5.530000000000003
 30
0
 11
6.512462120245873
 21
5.769999999999996
 31
0
  0
LINE
  8
0
 62
7
 10
6.484594154601845
 20
5.530000000000003
 30
0
 11
6.724594154601837
 21
5.769999999999996
 31
0
  0
LINE
  8
0
 62
7
 10
6.696726188957808
 20
5.530000000000003
 30
0
 11
6.936726188957801
 21
5.769999999999996
 31
0
  0
LINE
  8
0
 62
7
 10
6.908858223313772
 20
5.530000000000003
 30
0
 11
7.148858223313765
 21
5.769999999999996
 31
0
  0
LINE
  8
0
 62
7
 10
7.424999999999999
 20
5.834009742330265
 30
0
 11
7.510990257669727
 21
5.919999999999995
 31
0
  0
LINE
  8
0
 62
7
 10
7.120990257669736
 20
5.530000000000003
 30
0
 11
7.360990257669728
 21
5.769999999999996
 31
0
  0
LINE
  8
0
 62
7
 10
7.3331222920257
 20
5.530000000000003
 30
0
 11
7.600000000000001
 21
5.796877707974303
 31
0
  0
LINE
  8
0
 62
7
 10
7.545254326381664
 20
5.530000000000003
 30
0
 11
7.764999999999998
 21
5.749745673618337
 31
0
  0
LINE
  8
0
 62
7
 10
7.757386360737628
 20
5.530000000000003
 30
0
 11
7.764999999999998
 21
5.537613639262373
 31
0
  0
LINE
  8
0
 62
7
 10
4.989999999999998
 20
5.838528137423855
 30
0
 11
5.071471862576138
 21
5.919999999999995
 31
0
  0
LINE
  8
0
 62
7
 10
4.839999999999999
 20
5.688528137423855
 30
0
 11
4.921471862576139
 21
5.769999999999995
 31
0
  0
LINE
  8
0
 62
7
 10
4.893603896932115
 20
5.530000000000002
 30
0
 11
5.164999999999998
 21
5.801396103067891
 31
0
  0
LINE
  8
0
 62
7
 10
5.105735931288079
 20
5.530000000000002
 30
0
 11
5.345735931288071
 21
5.769999999999994
 31
0
  0
LINE
  8
0
 62
7
 10
5.317867965644043
 20
5.530000000000002
 30
0
 11
5.557867965644035
 21
5.769999999999994
 31
0
  0
LINE
  8
0
 62
7
 10
5.530000000000006
 20
5.530000000000002
 30
0
 11
5.769999999999999
 21
5.769999999999994
 31
0
  0
LINE
  8
0
 62
7
 10
5.74213203435597
 20
5.530000000000002
 30
0
 11
5.982132034355963
 21
5.769999999999994
 31
0
  0
LINE
  8
0
 62
7
 10
5.954264068711934
 20
5.530000000000002
 30
0
 11
6.194264068711926
 21
5.769999999999994
 31
0
  0
LINE
  8
0
 62
7
 10
6.166396103067898
 20
5.530000000000002
 30
0
 11
6.40639610306789
 21
5.769999999999994
 31
0
  0
LINE
  8
0
 62
7
 10
6.378528137423862
 20
5.530000000000002
 30
0
 11
6.618528137423854
 21
5.769999999999994
 31
0
  0
LINE
  8
0
 62
7
 10
6.590660171779826
 20
5.530000000000002
 30
0
 11
6.830660171779818
 21
5.769999999999994
 31
0
  0
LINE
  8
0
 62
7
 10
6.802792206135789
 20
5.530000000000002
 30
0
 11
7.042792206135782
 21
5.769999999999994
 31
0
  0
LINE
  8
0
 62
7
 10
7.014924240491753
 20
5.530000000000002
 30
0
 11
7.254924240491746
 21
5.769999999999994
 31
0
  0
LINE
  8
0
 62
7
 10
7.227056274847717
 20
5.530000000000002
 30
0
 11
7.599999999999999
 21
5.902943725152284
 31
0
  0
LINE
  8
0
 62
7
 10
7.439188309203681
 20
5.530000000000002
 30
0
 11
7.679188309203674
 21
5.769999999999995
 31
0
  0
LINE
  8
0
 62
7
 10
7.651320343559645
 20
5.530000000000002
 30
0
 11
7.764999999999998
 21
5.643679656440355
 31
0
  0
ENDBLK
  8
0
  0
BLOCK
  8
0
  2
*X16
 70
1
 10
0
 20
0
 30
0
  0
LINE
  8
0
 62
7
 10
4.839999999999998
 20
5.370330085889908
 30
0
 11
4.959669914110099
 21
5.490000000000004
 31
0
  0
LINE
  8
0
 62
7
 10
4.931801948466054
 20
5.25
 30
0
 11
5.171801948466062
 21
5.490000000000004
 31
0
  0
LINE
  8
0
 62
7
 10
4.989999999999998
 20
5.096066017177979
 30
0
 11
5.383933982822026
 21
5.490000000000004
 31
0
  0
LINE
  8
0
 62
7
 10
5.356066017177986
 20
5.25
 30
0
 11
5.59606601717799
 21
5.490000000000004
 31
0
  0
LINE
  8
0
 62
7
 10
4.989999999999998
 20
4.883933982822015
 30
0
 11
5.165000000000001
 21
5.058933982822017
 31
0
  0
LINE
  8
0
 62
7
 10
5.56819805153395
 20
5.25
 30
0
 11
5.808198051533954
 21
5.490000000000004
 31
0
  0
LINE
  8
0
 62
7
 10
4.989999999999998
 20
4.671801948466051
 30
0
 11
5.165000000000002
 21
4.846801948466054
 31
0
  0
LINE
  8
0
 62
7
 10
5.780330085889914
 20
5.25
 30
0
 11
6.020330085889918
 21
5.490000000000004
 31
0
  0
LINE
  8
0
 62
7
 10
4.989999999999998
 20
4.459669914110087
 30
0
 11
5.165000000000003
 21
4.634669914110091
 31
0
  0
LINE
  8
0
 62
7
 10
5.992462120245878
 20
5.25
 30
0
 11
6.232462120245882
 21
5.490000000000004
 31
0
  0
LINE
  8
0
 62
7
 10
4.989999999999998
 20
4.247537879754123
 30
0
 11
5.165000000000004
 21
4.422537879754128
 31
0
  0
LINE
  8
0
 62
7
 10
6.204594154601842
 20
5.25
 30
0
 11
6.444594154601845
 21
5.490000000000004
 31
0
  0
LINE
  8
0
 62
7
 10
4.989999999999998
 20
4.035405845398159
 30
0
 11
5.165000000000004
 21
4.210405845398165
 31
0
  0
LINE
  8
0
 62
7
 10
6.416726188957806
 20
5.25
 30
0
 11
6.656726188957809
 21
5.490000000000004
 31
0
  0
LINE
  8
0
 62
7
 10
4.989999999999998
 20
3.823273811042195
 30
0
 11
5.165000000000005
 21
3.998273811042202
 31
0
  0
LINE
  8
0
 62
7
 10
6.628858223313769
 20
5.25
 30
0
 11
6.868858223313773
 21
5.490000000000004
 31
0
  0
LINE
  8
0
 62
7
 10
4.989999999999998
 20
3.611141776686231
 30
0
 11
5.165000000000006
 21
3.786141776686239
 31
0
  0
LINE
  8
0
 62
7
 10
6.840990257669733
 20
5.25
 30
0
 11
7.080990257669737
 21
5.490000000000004
 31
0
  0
LINE
  8
0
 62
7
 10
4.989999999999998
 20
3.399009742330267
 30
0
 11
5.165000000000007
 21
3.574009742330275
 31
0
  0
LINE
  8
0
 62
7
 10
7.053122292025697
 20
5.25
 30
0
 11
7.293122292025701
 21
5.490000000000004
 31
0
  0
LINE
  8
0
 62
7
 10
5.053122292025696
 20
3.25
 30
0
 11
5.16500000000001
 21
3.361877707974313
 31
0
  0
LINE
  8
0
 62
7
 10
7.265254326381661
 20
5.25
 30
0
 11
7.505254326381665
 21
5.490000000000004
 31
0
  0
LINE
  8
0
 62
7
 10
7.424999999999999
 20
5.197613639262372
 30
0
 11
7.717386360737629
 21
5.490000000000004
 31
0
  0
LINE
  8
0
 62
7
 10
7.689518395093589
 20
5.25
 30
0
 11
7.764999999999998
 21
5.325481604906408
 31
0
  0
LINE
  8
0
 62
7
 10
7.424999999999999
 20
4.985481604906408
 30
0
 11
7.599999999999998
 21
5.160481604906407
 31
0
  0
LINE
  8
0
 62
7
 10
7.424999999999999
 20
4.773349570550444
 30
0
 11
7.599999999999998
 21
4.948349570550443
 31
0
  0
LINE
  8
0
 62
7
 10
7.424999999999999
 20
4.56121753619448
 30
0
 11
7.599999999999998
 21
4.736217536194479
 31
0
  0
LINE
  8
0
 62
7
 10
7.424999999999999
 20
4.349085501838516
 30
0
 11
7.599999999999998
 21
4.524085501838515
 31
0
  0
LINE
  8
0
 62
7
 10
7.424999999999999
 20
4.136953467482552
 30
0
 11
7.599999999999998
 21
4.311953467482551
 31
0
  0
LINE
  8
0
 62
7
 10
7.424999999999999
 20
3.924821433126588
 30
0
 11
7.599999999999998
 21
4.099821433126587
 31
0
  0
LINE
  8
0
 62
7
 10
7.424999999999999
 20
3.712689398770624
 30
0
 11
7.599999999999998
 21
3.887689398770623
 31
0
  0
LINE
  8
0
 62
7
 10
7.424999999999999
 20
3.50055736441466
 30
0
 11
7.599999999999998
 21
3.675557364414659
 31
0
  0
LINE
  8
0
 62
7
 10
7.486574669941303
 20
3.35
 30
0
 11
7.599999999999998
 21
3.463425330058695
 31
0
  0
LINE
  8
0
 62
7
 10
4.839999999999999
 20
5.47639610306789
 30
0
 11
4.853603896932116
 21
5.490000000000002
 31
0
  0
LINE
  8
0
 62
7
 10
4.839999999999999
 20
5.264264068711926
 30
0
 11
5.06573593128808
 21
5.490000000000002
 31
0
  0
LINE
  8
0
 62
7
 10
4.989999999999998
 20
5.20213203435596
 30
0
 11
5.277867965644043
 21
5.490000000000002
 31
0
  0
LINE
  8
0
 62
7
 10
5.250000000000004
 20
5.249999999999999
 30
0
 11
5.490000000000007
 21
5.490000000000002
 31
0
  0
LINE
  8
0
 62
7
 10
4.989999999999998
 20
4.989999999999996
 30
0
 11
5.165000000000001
 21
5.164999999999998
 31
0
  0
LINE
  8
0
 62
7
 10
5.462132034355967
 20
5.249999999999999
 30
0
 11
5.702132034355971
 21
5.490000000000002
 31
0
  0
LINE
  8
0
 62
7
 10
4.989999999999998
 20
4.777867965644032
 30
0
 11
5.165000000000002
 21
4.952867965644035
 31
0
  0
LINE
  8
0
 62
7
 10
5.674264068711931
 20
5.249999999999999
 30
0
 11
5.914264068711935
 21
5.490000000000002
 31
0
  0
LINE
  8
0
 62
7
 10
4.989999999999998
 20
4.565735931288068
 30
0
 11
5.165000000000003
 21
4.740735931288072
 31
0
  0
LINE
  8
0
 62
7
 10
5.886396103067895
 20
5.249999999999999
 30
0
 11
6.126396103067899
 21
5.490000000000002
 31
0
  0
LINE
  8
0
 62
7
 10
4.989999999999998
 20
4.353603896932104
 30
0
 11
5.165000000000004
 21
4.528603896932109
 31
0
  0
LINE
  8
0
 62
7
 10
6.098528137423859
 20
5.249999999999999
 30
0
 11
6.338528137423863
 21
5.490000000000002
 31
0
  0
LINE
  8
0
 62
7
 10
4.989999999999998
 20
4.14147186257614
 30
0
 11
5.165000000000004
 21
4.316471862576146
 31
0
  0
LINE
  8
0
 62
7
 10
6.310660171779823
 20
5.249999999999999
 30
0
 11
6.550660171779827
 21
5.490000000000002
 31
0
  0
LINE
  8
0
 62
7
 10
4.989999999999998
 20
3.929339828220177
 30
0
 11
5.165000000000005
 21
4.104339828220184
 31
0
  0
LINE
  8
0
 62
7
 10
6.522792206135787
 20
5.249999999999999
 30
0
 11
6.76279220613579
 21
5.490000000000002
 31
0
  0
LINE
  8
0
 62
7
 10
4.989999999999998
 20
3.717207793864212
 30
0
 11
5.165000000000006
 21
3.89220779386422
 31
0
  0
LINE
  8
0
 62
7
 10
6.73492424049175
 20
5.249999999999999
 30
0
 11
6.974924240491754
 21
5.490000000000002
 31
0
  0
LINE
  8
0
 62
7
 10
4.989999999999998
 20
3.505075759508248
 30
0
 11
5.165000000000007
 21
3.680075759508257
 31
0
  0
LINE
  8
0
 62
7
 10
6.947056274847714
 20
5.249999999999999
 30
0
 11
7.187056274847718
 21
5.490000000000002
 31
0
  0
LINE
  8
0
 62
7
 10
4.989999999999998
 20
3.292943725152284
 30
0
 11
5.165000000000008
 21
3.467943725152293
 31
0
  0
LINE
  8
0
 62
7
 10
7.159188309203678
 20
5.249999999999999
 30
0
 11
7.399188309203682
 21
5.490000000000002
 31
0
  0
LINE
  8
0
 62
7
 10
5.159188309203679
 20
3.25
 30
0
 11
5.165
 21
3.255811690796321
 31
0
  0
LINE
  8
0
 62
7
 10
7.371320343559642
 20
5.249999999999999
 30
0
 11
7.611320343559646
 21
5.490000000000002
 31
0
  0
LINE
  8
0
 62
7
 10
7.424999999999999
 20
5.09154762208439
 30
0
 11
7.764999999999997
 21
5.431547622084389
 31
0
  0
LINE
  8
0
 62
7
 10
7.424999999999999
 20
4.879415587728426
 30
0
 11
7.599999999999998
 21
5.054415587728425
 31
0
  0
LINE
  8
0
 62
7
 10
7.424999999999999
 20
4.667283553372462
 30
0
 11
7.599999999999998
 21
4.842283553372461
 31
0
  0
LINE
  8
0
 62
7
 10
7.424999999999999
 20
4.455151519016498
 30
0
 11
7.599999999999998
 21
4.630151519016497
 31
0
  0
LINE
  8
0
 62
7
 10
7.424999999999999
 20
4.243019484660534
 30
0
 11
7.599999999999998
 21
4.418019484660533
 31
0
  0
LINE
  8
0
 62
7
 10
7.424999999999999
 20
4.03088745030457
 30
0
 11
7.599999999999998
 21
4.205887450304569
 31
0
  0
LINE
  8
0
 62
7
 10
7.424999999999999
 20
3.818755415948606
 30
0
 11
7.599999999999998
 21
3.993755415948606
 31
0
  0
LINE
  8
0
 62
7
 10
7.424999999999999
 20
3.606623381592642
 30
0
 11
7.599999999999998
 21
3.781623381592641
 31
0
  0
LINE
  8
0
 62
7
 10
7.424999999999999
 20
3.394491347236678
 30
0
 11
7.599999999999998
 21
3.569491347236677
 31
0
  0
LINE
  8
0
 62
7
 10
7.592640687119285
 20
3.35
 30
0
 11
7.599999999999998
 21
3.357359312880713
 31
0
  0
ENDBLK
  8
0
  0
BLOCK
  8
0
  2
*D0
 70
1
 10
0
 20
0
 30
0
  0
LINE
  8
0
 62
7
 10
8.049857641743481
 20
10.18554380179876
 30
0
 11
8.049857641743481
 21
11.05
 31
0
  0
LINE
  8
0
 62
7
 10
8.049857641743481
 20
8.299999999999997
 30
0
 11
8.049857641743481
 21
9.10554380179876
 31
0
  0
LINE
  8
0
 62
7
 10
7.749999999999999
 20
11.05
 30
0
 11
8.099857641743482
 21
11.05
 31
0
  0
LINE
  8
0
 62
7
 10
7.749999999999999
 20
8.299999999999997
 30
0
 11
8.099857641743482
 21
8.299999999999997
 31
0
  0
LINE
  8
0
 62
7
 10
8.014502302684154
 20
8.335355339059324
 30
0
 11
8.085212980802808
 21
8.26464466094067
 31
0
  0
LINE
  8
0
 62
7
 10
8.085212980802808
 20
11.01464466094067
 30
0
 11
8.014502302684154
 21
11.08535533905933
 31
0
  0
TEXT
  8
0
 62
7
 10
8.019857641743481
 20
9.508043801798761
 30
0
 40
0.1
  1
2,75
 50
90
 41
0.9
  0
TEXT
  8
0
 62
7
 10
8.179857641743482
 20
9.305543801798761
 30
0
 40
0.1
  1
(260-280)
 50
90
 41
0.9
  0
ENDBLK
  8
0
  0
BLOCK
  8
0
  2
*D1
 70
1
 10
0
 20
0
 30
0
  0
LINE
  8
0
 62
7
 10
6.62286753637807
 20
11.5034480892129
 30
0
 11
7.424999999999998
 21
11.5034480892129
 31
0
  0
LINE
  8
0
 62
7
 10
5.164999999999997
 20
11.5034480892129
 30
0
 11
5.94786753637807
 21
11.5034480892129
 31
0
  0
LINE
  8
0
 62
7
 10
7.424999999999998
 20
11.2
 30
0
 11
7.424999999999998
 21
11.5534480892129
 31
0
  0
LINE
  8
0
 62
7
 10
5.164999999999997
 20
11.2
 30
0
 11
5.164999999999997
 21
11.5534480892129
 31
0
  0
LINE
  8
0
 62
7
 10
7.389644660940671
 20
11.46809275015357
 30
0
 11
7.460355339059325
 21
11.53880342827223
 31
0
  0
LINE
  8
0
 62
7
 10
5.200355339059325
 20
11.53880342827223
 30
0
 11
5.12964466094067
 21
11.46809275015357
 31
0
  0
TEXT
  8
0
 62
7
 10
6.14786753637807
 20
11.4584480892129
 30
0
 40
0.1
  1
2,26
 41
0.9
  0
ENDBLK
  8
0
  0
BLOCK
  8
0
  2
*D2
 70
1
 10
0
 20
0
 30
0
  0
LINE
  8
0
 62
7
 10
4.64792891543175
 20
4.45762523633113
 30
0
 11
4.64792891543175
 21
5.250000000000001
 31
0
  0
LINE
  8
0
 62
7
 10
4.64792891543175
 20
3.25
 30
0
 11
4.64792891543175
 21
3.897625236331131
 31
0
  0
LINE
  8
0
 62
7
 10
4.989999999999998
 20
5.250000000000001
 30
0
 11
4.59792891543175
 21
5.250000000000001
 31
0
  0
LINE
  8
0
 62
7
 10
4.989999999999998
 20
3.25
 30
0
 11
4.59792891543175
 21
3.25
 31
0
  0
LINE
  8
0
 62
7
 10
4.612573576372423
 20
3.285355339059328
 30
0
 11
4.683284254491078
 21
3.214644660940673
 31
0
  0
LINE
  8
0
 62
7
 10
4.683284254491078
 20
5.214644660940674
 30
0
 11
4.612573576372423
 21
5.285355339059328
 31
0
  0
TEXT
  8
0
 62
7
 10
4.69792891543175
 20
4.14762523633113
 30
0
 40
0.1
  1
2
 50
90
 41
0.9
  0
ENDBLK
  8
0
  0
BLOCK
  8
0
  2
*D3
 70
1
 10
0
 20
0
 30
0
  0
LINE
  8
0
 62
7
 10
6.672787655850771
 20
6.11927188426165
 30
0
 11
7.424999999999999
 21
6.11927188426165
 31
0
  0
LINE
  8
0
 62
7
 10
5.164999999999998
 20
6.11927188426165
 30
0
 11
5.89778765585077
 21
6.11927188426165
 31
0
  0
LINE
  8
0
 62
7
 10
7.424999999999999
 20
5.769999999999994
 30
0
 11
7.424999999999999
 21
6.16927188426165
 31
0
  0
LINE
  8
0
 62
7
 10
5.164999999999998
 20
5.769999999999994
 30
0
 11
5.164999999999998
 21
6.16927188426165
 31
0
  0
LINE
  8
0
 62
7
 10
5.200355339059326
 20
6.154627223320977
 30
0
 11
5.129644660940671
 21
6.083916545202323
 31
0
  0
LINE
  8
0
 62
7
 10
7.389644660940672
 20
6.083916545202323
 30
0
 11
7.460355339059326
 21
6.154627223320977
 31
0
  0
TEXT
  8
0
 62
7
 10
6.14778765585077
 20
6.07427188426165
 30
0
 40
0.1
  1
2,26
 41
0.9
  0
ENDBLK
  8
0
  0
BLOCK
  8
0
  2
*D4
 70
1
 10
0
 20
0
 30
0
  0
LINE
  8
0
 62
7
 10
8.009585798415941
 20
4.62104443919265
 30
0
 11
8.009585798415941
 21
5.25
 31
0
  0
LINE
  8
0
 62
7
 10
8.009585798415941
 20
3.35
 30
0
 11
8.009585798415941
 21
3.96604443919265
 31
0
  0
LINE
  8
0
 62
7
 10
7.599999999999999
 20
5.25
 30
0
 11
8.059585798415942
 21
5.25
 31
0
  0
LINE
  8
0
 62
7
 10
7.599999999999999
 20
3.35
 30
0
 11
8.059585798415942
 21
3.35
 31
0
  0
LINE
  8
0
 62
7
 10
8.044941137475268
 20
5.214644660940673
 30
0
 11
7.974230459356614
 21
5.285355339059327
 31
0
  0
LINE
  8
0
 62
7
 10
7.974230459356614
 20
3.385355339059327
 30
0
 11
8.044941137475268
 21
3.314644660940672
 31
0
  0
TEXT
  8
0
 62
7
 10
8.054585798415941
 20
4.21604443919265
 30
0
 40
0.1
  1
1,9
 50
90
 41
0.9
  0
ENDBLK
  8
0
  0
ENDSEC
  0
SECTION
  2
ENTITIES
  0
INSERT
  8
0
  2
*X0
 10
0
 20
0
 30
0
  0
INSERT
  8
0
  2
*X1
 10
0
 20
0
 30
0
  0
INSERT
  8
0
  2
*X2
 10
0
 20
0
 30
0
  0
INSERT
  8
0
  2
*X3
 10
0
 20
0
 30
0
  0
INSERT
  8
0
  2
*X4
 10
0
 20
0
 30
0
  0
INSERT
  8
0
  2
*X5
 10
0
 20
0
 30
0
  0
INSERT
  8
0
  2
*X6
 10
0
 20
0
 30
0
  0
INSERT
  8
0
  2
*X7
 10
0
 20
0
 30
0
  0
INSERT
  8
0
  2
*X8
 10
0
 20
0
 30
0
  0
INSERT
  8
0
  2
*X9
 10
0
 20
0
 30
0
  0
INSERT
  8
0
  2
*X10
 10
0
 20
0
 30
0
  0
INSERT
  8
0
  2
*X11
 10
0
 20
0
 30
0
  0
INSERT
  8
0
  2
*X12
 10
0
 20
0
 30
0
  0
INSERT
  8
0
  2
*X13
 10
0
 20
0
 30
0
  0
INSERT
  8
0
  2
*X14
 10
0
 20
0
 30
0
  0
INSERT
  8
0
  2
*X15
 10
0
 20
0
 30
0
  0
INSERT
  8
0
  2
*X16
 10
0
 20
0
 30
0
  0
LINE
  8
0
 62
7
 10
7.599999999999998
 20
8.099999999999996
 30
0
 11
7.749999999999999
 21
8.099999999999996
 31
0
  0
LINE
  8
0
 62
7
 10
7.599999999999999
 20
8.299999999999997
 30
0
 11
7.749999999999999
 21
8.299999999999997
 31
0
  0
LINE
  8
0
 62
7
 10
7.599999999999999
 20
10.85
 30
0
 11
7.749999999999999
 21
10.85
 31
0
  0
LINE
  8
0
 62
7
 10
7.599999999999999
 20
11.05
 30
0
 11
7.749999999999999
 21
11.05
 31
0
  0
LINE
  8
0
 62
7
 10
7.599999999999998
 20
8.099999999999996
 30
0
 11
7.599999999999999
 21
7.949999999999996
 31
0
  0
LINE
  8
0
 62
7
 10
7.424999999999997
 20
8.099999999999996
 30
0
 11
7.599999999999998
 21
8.099999999999996
 31
0
  0
LINE
  8
0
 62
7
 10
7.599999999999999
 20
8.399999999999997
 30
0
 11
7.599999999999999
 21
8.299999999999997
 31
0
  0
LINE
  8
0
 62
7
 10
7.424999999999999
 20
8.299999999999997
 30
0
 11
7.599999999999999
 21
8.299999999999997
 31
0
  0
LINE
  8
0
 62
7
 10
7.424999999999999
 20
10.85
 30
0
 11
7.599999999999999
 21
10.85
 31
0
  0
LINE
  8
0
 62
7
 10
7.599999999999999
 20
11.15
 30
0
 11
7.599999999999999
 21
11.05
 31
0
  0
LINE
  8
0
 62
7
 10
7.424999999999999
 20
11.05
 30
0
 11
7.599999999999999
 21
11.05
 31
0
  0
LINE
  8
0
 62
7
 10
7.424999999999997
 20
8.099999999999996
 30
0
 11
7.424999999999999
 21
7.949999999999996
 31
0
  0
LINE
  8
0
 62
7
 10
5.164999999999996
 20
8.099999999999996
 30
0
 11
7.424999999999997
 21
8.099999999999996
 31
0
  0
LINE
  8
0
 62
7
 10
7.424999999999999
 20
8.399999999999997
 30
0
 11
7.424999999999999
 21
8.299999999999997
 31
0
  0
LINE
  8
0
 62
7
 10
5.164999999999999
 20
8.299999999999997
 30
0
 11
7.424999999999999
 21
8.299999999999997
 31
0
  0
LINE
  8
0
 62
7
 10
5.164999999999999
 20
10.85
 30
0
 11
7.424999999999999
 21
10.85
 31
0
  0
LINE
  8
0
 62
7
 10
7.424999999999999
 20
11.15
 30
0
 11
7.424999999999999
 21
11.05
 31
0
  0
LINE
  8
0
 62
7
 10
5.164999999999999
 20
11.05
 30
0
 11
7.424999999999999
 21
11.05
 31
0
  0
LINE
  8
0
 62
7
 10
5.164999999999996
 20
8.099999999999996
 30
0
 11
5.164999999999999
 21
7.949999999999996
 31
0
  0
LINE
  8
0
 62
7
 10
4.989999999999998
 20
8.099999999999996
 30
0
 11
5.164999999999996
 21
8.099999999999996
 31
0
  0
LINE
  8
0
 62
7
 10
5.164999999999999
 20
8.399999999999997
 30
0
 11
5.164999999999999
 21
8.299999999999997
 31
0
  0
LINE
  8
0
 62
7
 10
4.989999999999998
 20
8.299999999999997
 30
0
 11
5.164999999999999
 21
8.299999999999997
 31
0
  0
LINE
  8
0
 62
7
 10
4.989999999999998
 20
10.85
 30
0
 11
5.164999999999999
 21
10.85
 31
0
  0
LINE
  8
0
 62
7
 10
5.164999999999999
 20
11.15
 30
0
 11
5.164999999999999
 21
11.05
 31
0
  0
LINE
  8
0
 62
7
 10
4.989999999999998
 20
11.05
 30
0
 11
5.164999999999999
 21
11.05
 31
0
  0
LINE
  8
0
 62
7
 10
4.989999999999998
 20
8.099999999999996
 30
0
 11
4.989999999999998
 21
7.949999999999996
 31
0
  0
LINE
  8
0
 62
7
 10
4.839999999999999
 20
8.099999999999996
 30
0
 11
4.989999999999998
 21
8.099999999999996
 31
0
  0
LINE
  8
0
 62
7
 10
4.989999999999998
 20
8.399999999999997
 30
0
 11
4.989999999999998
 21
8.299999999999997
 31
0
  0
LINE
  8
0
 62
7
 10
4.839999999999999
 20
8.299999999999997
 30
0
 11
4.989999999999998
 21
8.299999999999997
 31
0
  0
LINE
  8
0
 62
7
 10
4.839999999999999
 20
10.85
 30
0
 11
4.989999999999998
 21
10.85
 31
0
  0
LINE
  8
0
 62
7
 10
4.989999999999998
 20
11.15
 30
0
 11
4.989999999999998
 21
11.05
 31
0
  0
LINE
  8
0
 62
7
 10
4.839999999999999
 20
11.05
 30
0
 11
4.989999999999998
 21
11.05
 31
0
  0
LINE
  8
0
 62
7
  6
DASHDOT
 10
7.749999999999999
 20
8.099999999999996
 30
0
 11
7.749999999999999
 21
8.049999999999995
 31
0
  0
LINE
  8
0
 62
7
  6
DASHDOT
 10
7.749999999999999
 20
10.85
 30
0
 11
7.749999999999999
 21
10.8
 31
0
  0
LINE
  8
0
 62
7
  6
DASHDOT
 10
4.839999999999999
 20
8.099999999999996
 30
0
 11
4.839999999999999
 21
8.049999999999995
 31
0
  0
LINE
  8
0
 62
7
  6
DASHDOT
 10
4.839999999999999
 20
10.85
 30
0
 11
4.839999999999999
 21
10.8
 31
0
  0
LINE
  8
0
 62
7
  6
DASHDOT
 10
7.599999999999998
 20
11.2
 30
0
 11
7.649999999999999
 21
11.2
 31
0
  0
LINE
  8
0
 62
7
  6
DASHDOT
 10
7.599999999999999
 20
7.949999999999996
 30
0
 11
7.649999999999999
 21
7.949999999999996
 31
0
  0
LINE
  8
0
 62
7
  6
DASHDOT
 10
5.164999999999996
 20
11.2
 30
0
 11
5.214999999999999
 21
11.2
 31
0
  0
LINE
  8
0
 62
7
  6
DASHDOT
 10
5.164999999999999
 20
7.949999999999996
 30
0
 11
5.214999999999999
 21
7.949999999999996
 31
0
  0
LINE
  8
0
 62
7
 10
7.599999999999999
 20
8.399999999999997
 30
0
 11
7.749999999999999
 21
8.399999999999997
 31
0
  0
LINE
  8
0
 62
7
 10
7.599999999999999
 20
10.85
 30
0
 11
7.599999999999999
 21
8.399999999999997
 31
0
  0
LINE
  8
0
 62
7
  6
DASHDOT
 10
7.749999999999997
 20
8.449999999999998
 30
0
 11
7.749999999999999
 21
8.399999999999997
 31
0
  0
LINE
  8
0
 62
7
 10
5.164999999999999
 20
8.399999999999997
 30
0
 11
7.424999999999999
 21
8.399999999999997
 31
0
  0
LINE
  8
0
 62
7
 10
7.424999999999999
 20
10.85
 30
0
 11
7.424999999999999
 21
8.399999999999997
 31
0
  0
LINE
  8
0
 62
7
 10
5.164999999999999
 20
10.85
 30
0
 11
5.164999999999999
 21
8.399999999999997
 31
0
  0
LINE
  8
0
 62
7
 10
4.839999999999999
 20
8.399999999999997
 30
0
 11
4.989999999999998
 21
8.399999999999997
 31
0
  0
LINE
  8
0
 62
7
 10
4.989999999999998
 20
10.85
 30
0
 11
4.989999999999998
 21
8.399999999999997
 31
0
  0
LINE
  8
0
 62
7
  6
DASHDOT
 10
4.839999999999998
 20
8.449999999999998
 30
0
 11
4.839999999999999
 21
8.399999999999997
 31
0
  0
LINE
  8
0
 62
7
 10
7.599999999999999
 20
11.15
 30
0
 11
7.749999999999999
 21
11.15
 31
0
  0
LINE
  8
0
 62
7
 10
7.599999999999998
 20
11.2
 30
0
 11
7.599999999999999
 21
11.15
 31
0
  0
LINE
  8
0
 62
7
  6
DASHDOT
 10
7.749999999999997
 20
11.2
 30
0
 11
7.749999999999999
 21
11.15
 31
0
  0
LINE
  8
0
 62
7
 10
5.164999999999999
 20
11.15
 30
0
 11
7.424999999999999
 21
11.15
 31
0
  0
LINE
  8
0
 62
7
 10
7.424999999999997
 20
11.2
 30
0
 11
7.424999999999999
 21
11.15
 31
0
  0
LINE
  8
0
 62
7
 10
5.164999999999996
 20
11.2
 30
0
 11
5.164999999999999
 21
11.15
 31
0
  0
LINE
  8
0
 62
7
 10
4.839999999999999
 20
11.15
 30
0
 11
4.989999999999998
 21
11.15
 31
0
  0
LINE
  8
0
 62
7
 10
4.989999999999998
 20
11.2
 30
0
 11
4.989999999999998
 21
11.15
 31
0
  0
LINE
  8
0
 62
7
  6
DASHDOT
 10
4.839999999999998
 20
11.2
 30
0
 11
4.839999999999999
 21
11.15
 31
0
  0
LINE
  8
0
 62
7
  6
DASHDOT
 10
4.839999999999999
 20
8.299999999999997
 30
0
 11
4.839999999999999
 21
8.099999999999996
 31
0
  0
LINE
  8
0
 62
7
  6
DASHDOT
 10
4.839999999999999
 20
8.399999999999997
 30
0
 11
4.839999999999999
 21
8.299999999999997
 31
0
  0
LINE
  8
0
 62
7
  6
DASHDOT
 10
4.989999999999998
 20
7.949999999999996
 30
0
 11
5.164999999999999
 21
7.949999999999996
 31
0
  0
LINE
  8
0
 62
7
  6
DASHDOT
 10
4.939999999999999
 20
7.949999999999996
 30
0
 11
4.989999999999998
 21
7.949999999999996
 31
0
  0
LINE
  8
0
 62
7
  6
DASHDOT
 10
7.749999999999999
 20
8.299999999999997
 30
0
 11
7.749999999999999
 21
8.099999999999996
 31
0
  0
LINE
  8
0
 62
7
  6
DASHDOT
 10
7.749999999999999
 20
8.399999999999997
 30
0
 11
7.749999999999999
 21
8.299999999999997
 31
0
  0
LINE
  8
0
 62
7
  6
DASHDOT
 10
7.424999999999999
 20
7.949999999999996
 30
0
 11
7.599999999999999
 21
7.949999999999996
 31
0
  0
LINE
  8
0
 62
7
  6
DASHDOT
 10
7.374999999999999
 20
7.949999999999996
 30
0
 11
7.424999999999999
 21
7.949999999999996
 31
0
  0
LINE
  8
0
 62
7
  6
DASHDOT
 10
7.749999999999999
 20
11.05
 30
0
 11
7.749999999999999
 21
10.85
 31
0
  0
LINE
  8
0
 62
7
  6
DASHDOT
 10
7.749999999999999
 20
11.15
 30
0
 11
7.749999999999999
 21
11.05
 31
0
  0
LINE
  8
0
 62
7
  6
DASHDOT
 10
7.424999999999997
 20
11.2
 30
0
 11
7.599999999999998
 21
11.2
 31
0
  0
LINE
  8
0
 62
7
  6
DASHDOT
 10
7.374999999999999
 20
11.2
 30
0
 11
7.424999999999997
 21
11.2
 31
0
  0
LINE
  8
0
 62
7
  6
DASHDOT
 10
4.839999999999999
 20
11.05
 30
0
 11
4.839999999999999
 21
10.85
 31
0
  0
LINE
  8
0
 62
7
  6
DASHDOT
 10
4.839999999999999
 20
11.15
 30
0
 11
4.839999999999999
 21
11.05
 31
0
  0
LINE
  8
0
 62
7
  6
DASHDOT
 10
4.989999999999998
 20
11.2
 30
0
 11
5.164999999999996
 21
11.2
 31
0
  0
LINE
  8
0
 62
7
  6
DASHDOT
 10
4.939999999999999
 20
11.2
 30
0
 11
4.989999999999998
 21
11.2
 31
0
  0
LINE
  8
0
 62
7
 10
0.5
 20
7.949999999999996
 30
0
 11
0.4999999999999991
 21
8.099999999999996
 31
0
  0
LINE
  8
0
 62
7
 10
0.7399999999999982
 20
11.2
 30
0
 11
0.7399999999999992
 21
11.05
 31
0
  0
LINE
  8
0
 62
7
 10
0.5
 20
11.05
 30
0
 11
0.7399999999999992
 21
11.05
 31
0
  0
LINE
  8
0
 62
7
 10
0.5
 20
11.05
 30
0
 11
0.4999999999999991
 21
11.2
 31
0
  0
LINE
  8
0
 62
7
 10
0.7399999999999992
 20
11.05
 30
0
 11
0.7399999999999992
 21
10.85
 31
0
  0
LINE
  8
0
 62
7
 10
0.5
 20
10.85
 30
0
 11
0.7399999999999992
 21
10.85
 31
0
  0
LINE
  8
0
 62
7
 10
0.5
 20
10.85
 30
0
 11
0.5
 21
11.05
 31
0
  0
LINE
  8
0
 62
7
 10
0.7399999999999992
 20
10.85
 30
0
 11
0.7399999999999992
 21
8.299999999999997
 31
0
  0
LINE
  8
0
 62
7
 10
0.5
 20
8.299999999999997
 30
0
 11
0.7399999999999992
 21
8.299999999999997
 31
0
  0
LINE
  8
0
 62
7
 10
0.5
 20
8.299999999999997
 30
0
 11
0.5
 21
10.85
 31
0
  0
LINE
  8
0
 62
7
 10
0.7399999999999992
 20
8.299999999999997
 30
0
 11
0.7399999999999982
 21
8.099999999999996
 31
0
  0
LINE
  8
0
 62
7
 10
0.4999999999999991
 20
8.099999999999996
 30
0
 11
0.7399999999999982
 21
8.099999999999996
 31
0
  0
LINE
  8
0
 62
7
 10
0.4999999999999991
 20
8.099999999999996
 30
0
 11
0.5
 21
8.299999999999997
 31
0
  0
LINE
  8
0
 62
7
 10
0.7399999999999982
 20
8.099999999999996
 30
0
 11
0.7399999999999992
 21
7.949999999999996
 31
0
  0
LINE
  8
0
 62
7
 10
2.639999999999997
 20
11.05
 30
0
 11
2.639999999999997
 21
10.85
 31
0
  0
LINE
  8
0
 62
7
 10
2.639999999999997
 20
10.85
 30
0
 11
2.939999999999998
 21
10.85
 31
0
  0
LINE
  8
0
 62
7
 10
2.639999999999997
 20
11.05
 30
0
 11
2.939999999999998
 21
11.05
 31
0
  0
LINE
  8
0
 62
7
 10
2.639999999999997
 20
8.299999999999997
 30
0
 11
2.939999999999998
 21
8.299999999999997
 31
0
  0
LINE
  8
0
 62
7
 10
2.639999999999997
 20
8.299999999999997
 30
0
 11
2.639999999999997
 21
8.099999999999996
 31
0
  0
LINE
  8
0
 62
7
 10
2.639999999999997
 20
8.099999999999996
 30
0
 11
2.939999999999998
 21
8.099999999999996
 31
0
  0
LINE
  8
0
 62
7
  6
DASHDOT
 10
0.45
 20
11.2
 30
0
 11
0.4999999999999991
 21
11.2
 31
0
  0
LINE
  8
0
 62
7
  6
DASHDOT
 10
2.939999999999998
 20
11.2
 30
0
 11
2.939999999999998
 21
11.15
 31
0
  0
LINE
  8
0
 62
7
  6
DASHDOT
 10
2.939999999999998
 20
8.049999999999995
 30
0
 11
2.939999999999998
 21
8.099999999999996
 31
0
  0
LINE
  8
0
 62
7
  6
DASHDOT
 10
0.45
 20
7.949999999999996
 30
0
 11
0.5
 21
7.949999999999996
 31
0
  0
LINE
  8
0
 62
7
 10
2.639999999999997
 20
8.399999999999997
 30
0
 11
2.939999999999998
 21
8.399999999999997
 31
0
  0
LINE
  8
0
 62
7
  6
DASHDOT
 10
2.939999999999998
 20
8.399999999999997
 30
0
 11
2.939999999999998
 21
8.449999999999998
 31
0
  0
LINE
  8
0
 62
7
 10
2.639999999999997
 20
11.15
 30
0
 11
2.939999999999998
 21
11.15
 31
0
  0
LINE
  8
0
 62
7
  6
DASHDOT
 10
2.939999999999998
 20
11.15
 30
0
 11
2.939999999999998
 21
11.05
 31
0
  0
LINE
  8
0
 62
7
  6
DASHDOT
 10
2.939999999999998
 20
8.299999999999997
 30
0
 11
2.939999999999998
 21
8.399999999999997
 31
0
  0
LINE
  8
0
 62
7
  6
DASHDOT
 10
2.939999999999998
 20
8.099999999999996
 30
0
 11
2.939999999999998
 21
8.299999999999997
 31
0
  0
LINE
  8
0
 62
7
  6
DASHDOT
 10
0.5
 20
7.949999999999996
 30
0
 11
0.7399999999999992
 21
7.949999999999996
 31
0
  0
LINE
  8
0
 62
7
  6
DASHDOT
 10
0.7399999999999992
 20
7.949999999999996
 30
0
 11
0.7899999999999991
 21
7.949999999999996
 31
0
  0
LINE
  8
0
 62
7
  6
DASHDOT
 10
0.7399999999999982
 20
11.2
 30
0
 11
0.7899999999999991
 21
11.2
 31
0
  0
LINE
  8
0
 62
7
  6
DASHDOT
 10
0.4999999999999991
 20
11.2
 30
0
 11
0.7399999999999982
 21
11.2
 31
0
  0
LINE
  8
0
 62
7
  6
DASHDOT
 10
2.939999999999998
 20
10.85
 30
0
 11
2.939999999999998
 21
10.8
 31
0
  0
LINE
  8
0
 62
7
  6
DASHDOT
 10
2.939999999999998
 20
11.05
 30
0
 11
2.939999999999998
 21
10.85
 31
0
  0
LINE
  8
0
 62
7
  6
DASHED
 10
0.7399999999999992
 20
11.05
 30
0
 11
2.639999999999997
 21
11.05
 31
0
  0
LINE
  8
0
 62
7
  6
DASHED
 10
0.7399999999999992
 20
10.85
 30
0
 11
2.639999999999997
 21
10.85
 31
0
  0
LINE
  8
0
 62
7
  6
DASHED
 10
0.7399999999999992
 20
8.299999999999997
 30
0
 11
2.639999999999997
 21
8.299999999999997
 31
0
  0
LINE
  8
0
 62
7
  6
DASHED
 10
0.7399999999999982
 20
8.099999999999996
 30
0
 11
2.639999999999997
 21
8.099999999999996
 31
0
  0
LINE
  8
0
 62
7
 10
4.839999999999999
 20
5.769999999999995
 30
0
 11
4.989999999999998
 21
5.769999999999995
 31
0
  0
LINE
  8
0
 62
7
 10
4.989999999999998
 20
5.769999999999995
 30
0
 11
4.989999999999998
 21
5.919999999999995
 31
0
  0
LINE
  8
0
 62
7
 10
5.164999999999996
 20
5.919999999999995
 30
0
 11
5.164999999999999
 21
5.769999999999995
 31
0
  0
LINE
  8
0
 62
7
 10
5.164999999999999
 20
5.769999999999995
 30
0
 11
7.424999999999999
 21
5.769999999999995
 31
0
  0
LINE
  8
0
 62
7
 10
7.424999999999999
 20
5.769999999999995
 30
0
 11
7.424999999999997
 21
5.919999999999995
 31
0
  0
LINE
  8
0
 62
7
 10
7.599999999999998
 20
5.919999999999995
 30
0
 11
7.599999999999999
 21
5.769999999999995
 31
0
  0
LINE
  8
0
 62
7
 10
7.599999999999999
 20
5.769999999999995
 30
0
 11
7.764999999999998
 21
5.769999999999995
 31
0
  0
LINE
  8
0
 62
7
 10
4.839999999999999
 20
5.530000000000002
 30
0
 11
7.764999999999998
 21
5.530000000000002
 31
0
  0
LINE
  8
0
 62
7
 10
4.839999999999999
 20
5.490000000000002
 30
0
 11
7.764999999999998
 21
5.490000000000002
 31
0
  0
LINE
  8
0
 62
7
 10
4.839999999999999
 20
5.25
 30
0
 11
4.989999999999998
 21
5.25
 31
0
  0
LINE
  8
0
 62
7
 10
5.164999999999999
 20
3.25
 30
0
 11
5.165000000000008
 21
3.35
 31
0
  0
LINE
  8
0
 62
7
 10
4.989999999999998
 20
3.25
 30
0
 11
5.164999999999999
 21
3.25
 31
0
  0
LINE
  8
0
 62
7
 10
4.989999999999998
 20
5.25
 30
0
 11
4.989999999999998
 21
3.25
 31
0
  0
LINE
  8
0
 62
7
 10
5.164999999999999
 20
5.25
 30
0
 11
7.424999999999999
 21
5.25
 31
0
  0
LINE
  8
0
 62
7
 10
7.424999999999999
 20
5.25
 30
0
 11
7.424999999999999
 21
3.4
 31
0
  0
LINE
  8
0
 62
7
 10
7.599999999999999
 20
3.35
 30
0
 11
7.599999999999999
 21
5.25
 31
0
  0
LINE
  8
0
 62
7
 10
7.599999999999999
 20
5.25
 30
0
 11
7.764999999999998
 21
5.25
 31
0
  0
LINE
  8
0
 62
7
 10
7.424999999999999
 20
3.35
 30
0
 11
7.599999999999999
 21
3.35
 31
0
  0
LINE
  8
0
 62
7
 10
7.424999999999999
 20
3.4
 30
0
 11
5.165000000000008
 21
3.4
 31
0
  0
LINE
  8
0
 62
7
 10
5.165000000000008
 20
3.4
 30
0
 11
5.164999999999999
 21
5.25
 31
0
  0
LINE
  8
0
 62
7
 10
7.424999999999999
 20
3.4
 30
0
 11
7.424999999999999
 21
3.35
 31
0
  0
LINE
  8
0
 62
7
  6
DASHDOT
 10
7.424999999999999
 20
3.35
 30
0
 11
5.165000000000008
 21
3.35
 31
0
  0
LINE
  8
0
 62
7
 10
5.165000000000008
 20
3.35
 30
0
 11
5.165000000000008
 21
3.4
 31
0
  0
LINE
  8
0
 62
7
  6
DASHDOT
 10
4.939999999999999
 20
5.919999999999995
 30
0
 11
4.989999999999998
 21
5.919999999999995
 31
0
  0
LINE
  8
0
 62
7
  6
DASHDOT
 10
7.374999999999999
 20
5.919999999999995
 30
0
 11
7.424999999999997
 21
5.919999999999995
 31
0
  0
LINE
  8
0
 62
7
  6
DASHDOT
 10
4.839999999999999
 20
5.819999999999995
 30
0
 11
4.839999999999999
 21
5.769999999999995
 31
0
  0
LINE
  8
0
 62
7
  6
DASHDOT
 10
7.764999999999998
 20
5.819999999999995
 30
0
 11
7.764999999999998
 21
5.769999999999995
 31
0
  0
LINE
  8
0
 62
7
  6
DASHDOT
 10
7.764999999999998
 20
5.769999999999995
 30
0
 11
7.764999999999998
 21
5.530000000000002
 31
0
  0
LINE
  8
0
 62
7
  6
DASHDOT
 10
7.764999999999998
 20
5.25
 30
0
 11
7.764999999999998
 21
5.2
 31
0
  0
LINE
  8
0
 62
7
  6
DASHDOT
 10
4.989999999999998
 20
5.919999999999995
 30
0
 11
5.164999999999996
 21
5.919999999999995
 31
0
  0
LINE
  8
0
 62
7
  6
DASHDOT
 10
5.164999999999996
 20
5.919999999999995
 30
0
 11
5.214999999999999
 21
5.919999999999995
 31
0
  0
LINE
  8
0
 62
7
  6
DASHDOT
 10
4.839999999999999
 20
5.769999999999995
 30
0
 11
4.839999999999999
 21
5.530000000000002
 31
0
  0
LINE
  8
0
 62
7
  6
DASHDOT
 10
4.839999999999999
 20
5.25
 30
0
 11
4.839999999999999
 21
5.2
 31
0
  0
LINE
  8
0
 62
7
  6
DASHDOT
 10
7.764999999999998
 20
5.530000000000002
 30
0
 11
7.764999999999998
 21
5.490000000000002
 31
0
  0
LINE
  8
0
 62
7
  6
DASHDOT
 10
4.839999999999999
 20
5.530000000000002
 30
0
 11
4.839999999999999
 21
5.490000000000002
 31
0
  0
LINE
  8
0
 62
7
  6
DASHDOT
 10
7.764999999999998
 20
5.490000000000002
 30
0
 11
7.764999999999998
 21
5.25
 31
0
  0
LINE
  8
0
 62
7
  6
DASHDOT
 10
4.839999999999999
 20
5.490000000000002
 30
0
 11
4.839999999999999
 21
5.25
 31
0
  0
LINE
  8
0
 62
7
  6
DASHDOT
 10
7.599999999999998
 20
5.919999999999995
 30
0
 11
7.649999999999999
 21
5.919999999999995
 31
0
  0
LINE
  8
0
 62
7
  6
DASHDOT
 10
7.424999999999997
 20
5.919999999999995
 30
0
 11
7.599999999999998
 21
5.919999999999995
 31
0
  0
LINE
  8
0
 62
7
  6
DASHED
 10
7.370000000000008
 20
10.90166666666666
 30
0
 11
6.419999849999998
 21
10.90166666666666
 31
0
  0
LINE
  8
0
 62
7
  6
DASHED
 10
7.370000000000008
 20
10.96666666666666
 30
0
 11
7.370000000000008
 21
10.90166666666666
 31
0
  0
LINE
  8
0
 62
7
  6
DASHED
 10
6.419999849999998
 20
10.90166666666666
 30
0
 11
6.419999849999998
 21
10.96666666666666
 31
0
  0
LINE
  8
0
 62
7
  6
DASHED
 10
6.419999849999998
 20
10.96666666666666
 30
0
 11
7.370000000000008
 21
10.96666666666666
 31
0
  0
LINE
  8
0
 62
7
 10
7.369999849999998
 20
10.71833322666666
 30
0
 11
6.419999849999998
 21
10.71833322666666
 31
0
  0
LINE
  8
0
 62
7
 10
7.369999849999998
 20
10.78333322666666
 30
0
 11
7.369999849999998
 21
10.71833322666666
 31
0
  0
LINE
  8
0
 62
7
 10
6.419999849999998
 20
10.71833322666666
 30
0
 11
6.419999849999998
 21
10.78333322666666
 31
0
  0
LINE
  8
0
 62
7
 10
6.419999849999998
 20
10.78333322666666
 30
0
 11
7.369999849999998
 21
10.78333322666666
 31
0
  0
LINE
  8
0
 62
7
 10
7.369999849999998
 20
10.53499994666666
 30
0
 11
6.419999849999998
 21
10.53499994666666
 31
0
  0
LINE
  8
0
 62
7
 10
7.369999849999998
 20
10.59999994666666
 30
0
 11
7.369999849999998
 21
10.53499994666666
 31
0
  0
LINE
  8
0
 62
7
 10
6.419999849999998
 20
10.53499994666666
 30
0
 11
6.419999849999998
 21
10.59999994666666
 31
0
  0
LINE
  8
0
 62
7
 10
6.419999849999998
 20
10.59999994666666
 30
0
 11
7.369999849999998
 21
10.59999994666666
 31
0
  0
LINE
  8
0
 62
7
 10
7.369999849999998
 20
10.35166666666666
 30
0
 11
6.420000149999996
 21
10.35166666666666
 31
0
  0
LINE
  8
0
 62
7
 10
7.369999849999998
 20
10.41666666666666
 30
0
 11
7.369999849999998
 21
10.35166666666666
 31
0
  0
LINE
  8
0
 62
7
 10
6.420000149999996
 20
10.35166666666666
 30
0
 11
6.420000149999996
 21
10.41666666666666
 31
0
  0
LINE
  8
0
 62
7
 10
6.420000149999996
 20
10.41666666666666
 30
0
 11
7.369999849999998
 21
10.41666666666666
 31
0
  0
LINE
  8
0
 62
7
 10
7.369999849999998
 20
10.23333322666666
 30
0
 11
7.369999849999998
 21
10.16833322666666
 31
0
  0
LINE
  8
0
 62
7
 10
6.419999849999998
 20
10.16833322666666
 30
0
 11
6.419999849999998
 21
10.23333322666666
 31
0
  0
LINE
  8
0
 62
7
 10
7.369999849999998
 20
10.16833322666666
 30
0
 11
6.419999849999998
 21
10.16833322666666
 31
0
  0
LINE
  8
0
 62
7
 10
6.419999849999998
 20
10.23333322666666
 30
0
 11
7.369999849999998
 21
10.23333322666666
 31
0
  0
LINE
  8
0
 62
7
 10
7.182820279999998
 20
10.04999994666666
 30
0
 11
7.182820279999998
 21
9.984999946666663
 31
0
  0
LINE
  8
0
 62
7
 10
6.359670559999999
 20
9.984999946666663
 30
0
 11
6.359670559999999
 21
10.04999994666666
 31
0
  0
LINE
  8
0
 62
7
 10
6.359670559999999
 20
10.04999994666666
 30
0
 11
7.182820279999998
 21
10.04999994666666
 31
0
  0
LINE
  8
0
 62
7
 10
7.182820279999998
 20
9.984999946666663
 30
0
 11
6.359670559999999
 21
9.984999946666663
 31
0
  0
LINE
  8
0
 62
7
 10
6.690798189999997
 20
9.866666666666664
 30
0
 11
6.690798189999997
 21
9.801666666666662
 31
0
  0
LINE
  8
0
 62
7
 10
6.192906029999999
 20
9.801666666666662
 30
0
 11
6.192906029999999
 21
9.866666666666664
 31
0
  0
LINE
  8
0
 62
7
 10
6.192906029999999
 20
9.866666666666664
 30
0
 11
6.690798189999997
 21
9.866666666666664
 31
0
  0
LINE
  8
0
 62
7
 10
6.690798189999997
 20
9.801666666666662
 30
0
 11
6.192906029999999
 21
9.801666666666662
 31
0
  0
LINE
  8
0
 62
7
 10
6.340115959999999
 20
9.683333226666665
 30
0
 11
6.340115959999999
 21
9.618333226666664
 31
0
  0
LINE
  8
0
 62
7
 10
5.748477169999997
 20
9.618333226666664
 30
0
 11
5.748477169999997
 21
9.683333226666665
 31
0
  0
LINE
  8
0
 62
7
 10
5.748477169999997
 20
9.683333226666665
 30
0
 11
6.340115959999999
 21
9.683333226666665
 31
0
  0
LINE
  8
0
 62
7
 10
6.340115959999999
 20
9.618333226666664
 30
0
 11
5.748477169999997
 21
9.618333226666664
 31
0
  0
LINE
  8
0
 62
7
 10
6.242923729999998
 20
9.499999946666664
 30
0
 11
6.242923729999998
 21
9.434999946666663
 31
0
  0
LINE
  8
0
 62
7
 10
5.219999879999995
 20
9.434999946666663
 30
0
 11
5.219999879999995
 21
9.499999946666664
 31
0
  0
LINE
  8
0
 62
7
 10
5.219999879999995
 20
9.499999946666664
 30
0
 11
6.242923729999998
 21
9.499999946666664
 31
0
  0
LINE
  8
0
 62
7
 10
6.242923729999998
 20
9.434999946666663
 30
0
 11
5.219999879999995
 21
9.434999946666663
 31
0
  0
LINE
  8
0
 62
7
 10
6.170000229999998
 20
9.316666586666663
 30
0
 11
6.170000229999998
 21
9.251666586666664
 31
0
  0
LINE
  8
0
 62
7
 10
5.219999879999995
 20
9.251666586666664
 30
0
 11
5.219999879999995
 21
9.316666586666663
 31
0
  0
LINE
  8
0
 62
7
 10
6.170000229999998
 20
9.251666586666664
 30
0
 11
5.219999879999995
 21
9.251666586666664
 31
0
  0
LINE
  8
0
 62
7
 10
5.219999879999995
 20
9.316666586666663
 30
0
 11
6.170000229999998
 21
9.316666586666663
 31
0
  0
LINE
  8
0
 62
7
 10
6.169999999999998
 20
9.068333226666665
 30
0
 11
5.219999849999999
 21
9.068333226666665
 31
0
  0
LINE
  8
0
 62
7
 10
6.169999999999998
 20
9.133333226666664
 30
0
 11
6.169999999999998
 21
9.068333226666665
 31
0
  0
LINE
  8
0
 62
7
 10
5.219999849999999
 20
9.068333226666665
 30
0
 11
5.219999849999999
 21
9.133333226666664
 31
0
  0
LINE
  8
0
 62
7
 10
5.219999849999999
 20
9.133333226666664
 30
0
 11
6.169999999999998
 21
9.133333226666664
 31
0
  0
LINE
  8
0
 62
7
 10
6.169999999999998
 20
8.884999906666662
 30
0
 11
5.219999809999997
 21
8.884999906666662
 31
0
  0
LINE
  8
0
 62
7
 10
6.169999999999998
 20
8.949999906666664
 30
0
 11
6.169999999999998
 21
8.884999906666662
 31
0
  0
LINE
  8
0
 62
7
 10
5.219999809999997
 20
8.884999906666662
 30
0
 11
5.219999809999997
 21
8.949999906666664
 31
0
  0
LINE
  8
0
 62
7
 10
5.219999809999997
 20
8.949999906666664
 30
0
 11
6.169999999999998
 21
8.949999906666664
 31
0
  0
LINE
  8
0
 62
7
 10
6.169999999999998
 20
8.701666566666665
 30
0
 11
5.220000109999997
 21
8.701666566666665
 31
0
  0
LINE
  8
0
 62
7
 10
6.169999999999998
 20
8.766666566666663
 30
0
 11
6.169999999999998
 21
8.701666566666665
 31
0
  0
LINE
  8
0
 62
7
 10
5.220000109999997
 20
8.701666566666665
 30
0
 11
5.220000109999997
 21
8.766666566666663
 31
0
  0
LINE
  8
0
 62
7
 10
5.220000109999997
 20
8.766666566666663
 30
0
 11
6.169999999999998
 21
8.766666566666663
 31
0
  0
LINE
  8
0
 62
7
 10
6.16999977
 20
8.518333226666664
 30
0
 11
5.219999689999999
 21
8.518333226666664
 31
0
  0
LINE
  8
0
 62
7
 10
6.16999977
 20
8.583333226666666
 30
0
 11
6.16999977
 21
8.518333226666664
 31
0
  0
LINE
  8
0
 62
7
 10
5.219999689999999
 20
8.518333226666664
 30
0
 11
5.219999689999999
 21
8.583333226666666
 31
0
  0
LINE
  8
0
 62
7
 10
5.219999689999999
 20
8.583333226666666
 30
0
 11
6.16999977
 21
8.583333226666666
 31
0
  0
LINE
  8
0
 62
7
 10
2.600001789999998
 20
10.90166666666666
 30
0
 11
2.32973995
 21
10.90166666666666
 31
0
  0
LINE
  8
0
 62
7
 10
2.32973995
 20
10.90166666666666
 30
0
 11
2.32973995
 21
10.96666666666666
 31
0
  0
LINE
  8
0
 62
7
 10
2.32973995
 20
10.96666666666666
 30
0
 11
2.600001789999998
 21
10.96666666666666
 31
0
  0
LINE
  8
0
 62
7
 10
2.600001789999998
 20
10.96666666666666
 30
0
 11
2.600001789999998
 21
10.90166666666666
 31
0
  0
LINE
  8
0
 62
7
 10
1.98728035
 20
10.71833322666666
 30
0
 11
1.98728035
 21
10.78333322666666
 31
0
  0
LINE
  8
0
 62
7
 10
2.419740099999998
 20
10.78333322666666
 30
0
 11
2.419740099999998
 21
10.71833322666666
 31
0
  0
LINE
  8
0
 62
7
 10
2.419740099999998
 20
10.71833322666666
 30
0
 11
1.98728035
 21
10.71833322666666
 31
0
  0
LINE
  8
0
 62
7
 10
1.98728035
 20
10.78333322666666
 30
0
 11
2.419740099999998
 21
10.78333322666666
 31
0
  0
LINE
  8
0
 62
7
 10
1.5985511
 20
10.53499994666666
 30
0
 11
1.5985511
 21
10.59999994666666
 31
0
  0
LINE
  8
0
 62
7
 10
2.252362370000002
 20
10.59999994666666
 30
0
 11
2.252362370000002
 21
10.53499994666666
 31
0
  0
LINE
  8
0
 62
7
 10
1.5985511
 20
10.59999994666666
 30
0
 11
2.252362370000002
 21
10.59999994666666
 31
0
  0
LINE
  8
0
 62
7
 10
2.252362370000002
 20
10.53499994666666
 30
0
 11
1.5985511
 21
10.53499994666666
 31
0
  0
LINE
  8
0
 62
7
 10
1.156714320000002
 20
10.35166666666666
 30
0
 11
1.156714320000002
 21
10.41666666666666
 31
0
  0
LINE
  8
0
 62
7
 10
2.14250816
 20
10.41666666666666
 30
0
 11
2.14250816
 21
10.35166666666666
 31
0
  0
LINE
  8
0
 62
7
 10
1.156714320000002
 20
10.41666666666666
 30
0
 11
2.14250816
 21
10.41666666666666
 31
0
  0
LINE
  8
0
 62
7
 10
2.14250816
 20
10.35166666666666
 30
0
 11
1.156714320000002
 21
10.35166666666666
 31
0
  0
LINE
  8
0
 62
7
 10
0.7949999999999992
 20
10.16833322666666
 30
0
 11
0.7949999999999992
 21
10.23333322666666
 31
0
  0
LINE
  8
0
 62
7
 10
2.040486599999999
 20
10.23333322666666
 30
0
 11
2.040486599999999
 21
10.16833322666666
 31
0
  0
LINE
  8
0
 62
7
 10
0.7949999999999992
 20
10.23333322666666
 30
0
 11
2.040486599999999
 21
10.23333322666666
 31
0
  0
LINE
  8
0
 62
7
 10
2.040486599999999
 20
10.16833322666666
 30
0
 11
0.7949999999999992
 21
10.16833322666666
 31
0
  0
LINE
  8
0
 62
7
 10
0.7949998499999993
 20
9.984999946666663
 30
0
 11
0.7949998499999993
 21
10.04999994666666
 31
0
  0
LINE
  8
0
 62
7
 10
1.90209755
 20
10.04999994666666
 30
0
 11
1.90209755
 21
9.984999946666663
 31
0
  0
LINE
  8
0
 62
7
 10
1.90209755
 20
9.984999946666663
 30
0
 11
0.7949998499999993
 21
9.984999946666663
 31
0
  0
LINE
  8
0
 62
7
 10
0.7949998499999993
 20
10.04999994666666
 30
0
 11
1.90209755
 21
10.04999994666666
 31
0
  0
LINE
  8
0
 62
7
 10
1.74500031
 20
9.801666666666662
 30
0
 11
0.7950003100000004
 21
9.801666666666662
 31
0
  0
LINE
  8
0
 62
7
 10
0.7950003100000004
 20
9.801666666666662
 30
0
 11
0.7950003100000004
 21
9.866666666666664
 31
0
  0
LINE
  8
0
 62
7
 10
1.74500031
 20
9.866666666666664
 30
0
 11
1.74500031
 21
9.801666666666662
 31
0
  0
LINE
  8
0
 62
7
 10
0.7950003100000004
 20
9.866666666666664
 30
0
 11
1.74500031
 21
9.866666666666664
 31
0
  0
LINE
  8
0
 62
7
 10
1.74500061
 20
9.618333226666664
 30
0
 11
0.7949999999999992
 21
9.618333226666664
 31
0
  0
LINE
  8
0
 62
7
 10
0.7949999999999992
 20
9.618333226666664
 30
0
 11
0.7949999999999992
 21
9.683333226666665
 31
0
  0
LINE
  8
0
 62
7
 10
1.74500061
 20
9.683333226666665
 30
0
 11
1.74500061
 21
9.618333226666664
 31
0
  0
LINE
  8
0
 62
7
 10
0.7949999999999992
 20
9.683333226666665
 30
0
 11
1.74500061
 21
9.683333226666665
 31
0
  0
LINE
  8
0
 62
7
 10
0.7950001499999991
 20
9.434999946666663
 30
0
 11
0.7950001499999991
 21
9.499999946666664
 31
0
  0
LINE
  8
0
 62
7
 10
1.867617649999999
 20
9.499999946666664
 30
0
 11
1.867617649999999
 21
9.434999946666663
 31
0
  0
LINE
  8
0
 62
7
 10
0.7950001499999991
 20
9.499999946666664
 30
0
 11
1.867617649999999
 21
9.499999946666664
 31
0
  0
LINE
  8
0
 62
7
 10
1.867617649999999
 20
9.434999946666663
 30
0
 11
0.7950001499999991
 21
9.434999946666663
 31
0
  0
LINE
  8
0
 62
7
 10
0.7950001499999991
 20
9.251666586666662
 30
0
 11
0.7950001499999991
 21
9.316666586666662
 31
0
  0
LINE
  8
0
 62
7
 10
2.008897550000001
 20
9.316666586666662
 30
0
 11
2.008897550000001
 21
9.251666586666662
 31
0
  0
LINE
  8
0
 62
7
 10
0.7950001499999991
 20
9.316666586666662
 30
0
 11
2.008897550000001
 21
9.316666586666662
 31
0
  0
LINE
  8
0
 62
7
 10
2.008897550000001
 20
9.251666586666662
 30
0
 11
0.7950001499999991
 21
9.251666586666662
 31
0
  0
LINE
  8
0
 62
7
 10
1.312108760000002
 20
9.068333226666665
 30
0
 11
1.312108760000002
 21
9.133333226666664
 31
0
  0
LINE
  8
0
 62
7
 10
2.117758639999999
 20
9.133333226666664
 30
0
 11
2.117758639999999
 21
9.068333226666665
 31
0
  0
LINE
  8
0
 62
7
 10
1.312108760000002
 20
9.133333226666664
 30
0
 11
2.117758639999999
 21
9.133333226666664
 31
0
  0
LINE
  8
0
 62
7
 10
2.117758639999999
 20
9.068333226666665
 30
0
 11
1.312108760000002
 21
9.068333226666665
 31
0
  0
LINE
  8
0
 62
7
 10
1.72285957
 20
8.884999906666662
 30
0
 11
1.72285957
 21
8.949999906666664
 31
0
  0
LINE
  8
0
 62
7
 10
2.289492069999999
 20
8.949999906666664
 30
0
 11
2.289492069999999
 21
8.884999906666662
 31
0
  0
LINE
  8
0
 62
7
 10
1.72285957
 20
8.949999906666664
 30
0
 11
2.289492069999999
 21
8.949999906666664
 31
0
  0
LINE
  8
0
 62
7
 10
2.289492069999999
 20
8.884999906666662
 30
0
 11
1.72285957
 21
8.884999906666662
 31
0
  0
LINE
  8
0
 62
7
 10
2.06625229
 20
8.701666566666665
 30
0
 11
2.06625229
 21
8.766666566666663
 31
0
  0
LINE
  8
0
 62
7
 10
2.480000569999996
 20
8.766666566666663
 30
0
 11
2.480000569999996
 21
8.701666566666665
 31
0
  0
LINE
  8
0
 62
7
 10
2.480000569999996
 20
8.701666566666665
 30
0
 11
2.06625229
 21
8.701666566666665
 31
0
  0
LINE
  8
0
 62
7
 10
2.06625229
 20
8.766666566666663
 30
0
 11
2.480000569999996
 21
8.766666566666663
 31
0
  0
LINE
  8
0
 62
7
 10
2.740000459999997
 20
8.518333226666664
 30
0
 11
2.390000499999999
 21
8.518333226666664
 31
0
  0
LINE
  8
0
 62
7
 10
2.390000499999999
 20
8.518333226666664
 30
0
 11
2.390000499999999
 21
8.583333226666666
 31
0
  0
LINE
  8
0
 62
7
 10
2.390000499999999
 20
8.583333226666666
 30
0
 11
2.740000459999997
 21
8.583333226666666
 31
0
  0
LINE
  8
0
 62
7
 10
2.740000459999997
 20
8.583333226666666
 30
0
 11
2.740000459999997
 21
8.518333226666664
 31
0
  0
LINE
  8
0
 62
7
 10
6.378025278773458
 20
4.244999999999999
 30
0
 11
6.420021743541469
 21
4.174365231539765
 31
0
  0
LINE
  8
0
 62
7
 10
6.249953945063539
 20
4.244999999999999
 30
0
 11
6.340116071419739
 21
4.244999999999999
 31
0
  0
LINE
  8
0
 62
7
 10
6.249953945063539
 20
4.244999999999999
 30
0
 11
6.378025278773458
 21
4.244999999999999
 31
0
  0
LINE
  8
0
 62
7
 10
6.214173563308167
 20
4.245
 30
0
 11
6.249953945063539
 21
4.244999999999999
 31
0
  0
LINE
  8
0
 62
7
 10
6.169999999999998
 20
4.187079396593195
 30
0
 11
6.214173563308167
 21
4.245
 31
0
  0
LINE
  8
0
 62
7
 10
6.169999999999998
 20
3.981102849737231
 30
0
 11
6.169999999999998
 21
4.08708748275146
 31
0
  0
LINE
  8
0
 62
7
 10
6.169999999999998
 20
3.981102849737231
 30
0
 11
6.169999999999998
 21
4.187079396593195
 31
0
  0
LINE
  8
0
 62
7
 10
6.918730608474809
 20
4.244999867582229
 30
0
 11
6.918730608474809
 21
3.399999999999999
 31
0
  0
LINE
  8
0
 62
7
 10
7.024385707736508
 20
3.460999999999999
 30
0
 11
6.918730608474809
 21
3.399999999999999
 31
0
  0
LINE
  8
0
 62
7
 10
6.813075509213109
 20
3.460999999999999
 30
0
 11
7.024385707736508
 21
3.460999999999999
 31
0
  0
LINE
  8
0
 62
7
 10
6.918730608474809
 20
3.399999999999999
 30
0
 11
6.813075509213109
 21
3.460999999999999
 31
0
  0
LINE
  8
0
 62
7
 10
6.170000132418178
 20
4.743730608474809
 30
0
 11
6.419999867601058
 21
4.743730608474809
 31
0
  0
LINE
  8
0
 62
7
 10
5.671269391525188
 20
3.25
 30
0
 11
5.671269391525188
 21
4.244999867635199
 31
0
  0
LINE
  8
0
 62
7
 10
7.369999999999999
 20
3.389999999999999
 30
0
 11
7.369999999999999
 21
3.66026059128124
 31
0
  0
LINE
  8
0
 62
7
 10
6.419999999999999
 20
3.660260493552809
 30
0
 11
6.419999999999999
 21
3.389999999999999
 31
0
  0
LINE
  8
0
 62
7
 10
7.369999999999999
 20
3.66026059128124
 30
0
 11
6.419999999999999
 21
3.660260493552809
 31
0
  0
LINE
  8
0
 62
7
 10
7.369999999999999
 20
3.57026059128124
 30
0
 11
7.369999999999999
 21
4.002720256143239
 31
0
  0
LINE
  8
0
 62
7
 10
6.419999999999999
 20
3.829128323714631
 30
0
 11
6.419999999999999
 21
3.570260493552809
 31
0
  0
LINE
  8
0
 62
7
 10
7.369999999999999
 20
4.002720256143239
 30
0
 11
6.419999999999999
 21
3.829128323714631
 31
0
  0
LINE
  8
0
 62
7
 10
7.369999999999999
 20
3.911230059051329
 30
0
 11
7.369999999999999
 21
4.39144947893084
 31
0
  0
LINE
  8
0
 62
7
 10
6.419999999999999
 20
3.946860301963
 30
0
 11
6.419999999999999
 21
3.737638126622709
 31
0
  0
LINE
  8
0
 62
7
 10
7.369999999999999
 20
4.39144947893084
 30
0
 11
6.419999999999999
 21
3.946860301963
 31
0
  0
LINE
  8
0
 62
7
 10
7.369999999999999
 20
4.29208143564519
 30
0
 11
7.369999999999999
 21
4.83328655637294
 31
0
  0
LINE
  8
0
 62
7
 10
6.419999999999999
 20
4.065247204886618
 30
0
 11
6.419999999999999
 21
3.847492258677349
 31
0
  0
LINE
  8
0
 62
7
 10
7.369999999999999
 20
4.83328655637294
 30
0
 11
6.419999999999999
 21
4.065247204886618
 31
0
  0
LINE
  8
0
 62
7
 10
7.369999999999999
 20
5.194999999999999
 30
0
 11
7.07584135328239
 21
5.194999999999999
 31
0
  0
LINE
  8
0
 62
7
 10
7.369999999999999
 20
4.717553010032769
 30
0
 11
7.369999999999999
 21
5.194999999999999
 31
0
  0
LINE
  8
0
 62
7
 10
6.419999999999999
 20
4.174352303743819
 30
0
 11
6.419999999999999
 21
3.94951365854645
 31
0
  0
LINE
  8
0
 62
7
 10
7.07584135328239
 20
5.194999999999999
 30
0
 11
6.419999999999999
 21
4.174352303743819
 31
0
  0
LINE
  8
0
 62
7
 10
7.182820312147318
 20
5.194999999999999
 30
0
 11
6.597825939176417
 21
5.194999999999999
 31
0
  0
LINE
  8
0
 62
7
 10
6.359670785120787
 20
4.27587082249716
 30
0
 11
6.378025278773458
 21
4.244999999999999
 31
0
  0
LINE
  8
0
 62
7
 10
6.597825939176417
 20
5.194999999999999
 30
0
 11
6.359670785120787
 21
4.27587082249716
 31
0
  0
LINE
  8
0
 62
7
 10
6.690798063368018
 20
5.194999999999999
 30
0
 11
6.192906045829218
 21
5.194999999999999
 31
0
  0
LINE
  8
0
 62
7
 10
6.192906045829218
 20
5.194999999999999
 30
0
 11
6.249953945063539
 21
4.244999999999999
 31
0
  0
LINE
  8
0
 62
7
 10
6.283068172185417
 20
5.194999999999999
 30
0
 11
5.748477320148108
 21
5.194999999999999
 31
0
  0
LINE
  8
0
 62
7
 10
6.161174401889207
 20
4.244999999999999
 30
0
 11
6.214173563308167
 21
4.245
 31
0
  0
LINE
  8
0
 62
7
 10
5.748477320148108
 20
5.194999999999999
 30
0
 11
6.161174401889207
 21
4.244999999999999
 31
0
  0
LINE
  8
0
 62
7
 10
5.219999999999999
 20
5.194999999999999
 30
0
 11
5.219999999999999
 21
5.159379921977441
 31
0
  0
LINE
  8
0
 62
7
 10
5.84660287112441
 20
5.194999999999999
 30
0
 11
5.219999999999999
 21
5.194999999999999
 31
0
  0
LINE
  8
0
 62
7
 10
6.120658582257056
 20
4.122382675871779
 30
0
 11
6.169999999999998
 21
4.187079396593195
 31
0
  0
LINE
  8
0
 62
7
 10
5.219999999999999
 20
5.159379921977441
 30
0
 11
6.120658582257056
 21
4.122382675871779
 31
0
  0
LINE
  8
0
 62
7
 10
5.219999999999999
 20
5.194999999999999
 30
0
 11
5.219999999999999
 21
4.57190686851912
 31
0
  0
LINE
  8
0
 62
7
 10
5.308269287705897
 20
5.194999999999999
 30
0
 11
5.219999999999999
 21
5.194999999999999
 31
0
  0
LINE
  8
0
 62
7
 10
5.219999999999999
 20
4.57190686851912
 30
0
 11
6.169999999999998
 21
3.981102849737231
 31
0
  0
LINE
  8
0
 62
7
 10
5.219999999999999
 20
4.677891501533339
 30
0
 11
5.219999999999999
 21
4.172745507077479
 31
0
  0
LINE
  8
0
 62
7
 10
6.169999999999998
 20
3.872241563600879
 30
0
 11
6.169999999999998
 21
3.981102849737231
 31
0
  0
LINE
  8
0
 62
7
 10
5.219999999999999
 20
4.172745507077479
 30
0
 11
6.169999999999998
 21
3.872241563600879
 31
0
  0
LINE
  8
0
 62
7
 10
5.219999999999999
 20
4.26714080499294
 30
0
 11
5.219999999999999
 21
3.832878570466789
 31
0
  0
LINE
  8
0
 62
7
 10
6.169999999999998
 20
3.700508320976659
 30
0
 11
6.169999999999998
 21
3.96663686151634
 31
0
  0
LINE
  8
0
 62
7
 10
5.219999999999999
 20
3.832878570466789
 30
0
 11
6.169999999999998
 21
3.700508320976659
 31
0
  0
LINE
  8
0
 62
7
 10
5.219999999999999
 20
3.923748037907199
 30
0
 11
5.219999999999999
 21
3.51
 31
0
  0
LINE
  8
0
 62
7
 10
6.169999999999998
 20
3.51
 30
0
 11
6.169999999999998
 21
3.791377788417069
 31
0
  0
LINE
  8
0
 62
7
 10
5.219999999999999
 20
3.51
 30
0
 11
6.169999999999998
 21
3.51
 31
0
  0
LINE
  8
0
 62
7
 10
5.219999999999999
 20
3.6
 30
0
 11
5.219999999999999
 21
3.25
 31
0
  0
LINE
  8
0
 62
7
 10
6.169999999999998
 20
3.25
 30
0
 11
6.169999999999998
 21
3.6
 31
0
  0
LINE
  8
0
 62
7
 10
5.219999999999999
 20
3.25
 30
0
 11
6.169999999999998
 21
3.25
 31
0
  0
LINE
  8
0
 62
7
 10
5.465163362998922
 20
4.90754994606256
 30
0
 11
5.465163362998922
 21
5.02754994606256
 31
0
  0
LINE
  8
0
 62
7
 10
5.540763362998923
 20
5.02754994606256
 30
0
 11
5.486763362998921
 21
4.96754994606256
 31
0
  0
LINE
  8
0
 62
7
 10
5.486763362998921
 20
4.96754994606256
 30
0
 11
5.540763362998923
 21
4.90754994606256
 31
0
  0
LINE
  8
0
 62
7
 10
5.486763362998921
 20
4.96754994606256
 30
0
 11
5.465163362998922
 21
4.943549946062561
 31
0
  0
LINE
  8
0
 62
7
 10
5.648763362998921
 20
5.02754994606256
 30
0
 11
5.573163362998922
 21
5.02754994606256
 31
0
  0
LINE
  8
0
 62
7
 10
5.573163362998922
 20
5.02754994606256
 30
0
 11
5.573163362998922
 21
4.96754994606256
 31
0
  0
LINE
  8
0
 62
7
 10
5.573163362998922
 20
4.90754994606256
 30
0
 11
5.648763362998921
 21
4.90754994606256
 31
0
  0
LINE
  8
0
 62
7
 10
5.637963362998922
 20
4.96754994606256
 30
0
 11
5.573163362998922
 21
4.96754994606256
 31
0
  0
LINE
  8
0
 62
7
 10
5.573163362998922
 20
4.96754994606256
 30
0
 11
5.573163362998922
 21
4.90754994606256
 31
0
  0
LINE
  8
0
 62
7
 10
5.681163362998922
 20
4.90754994606256
 30
0
 11
5.681163362998922
 21
5.02754994606256
 31
0
  0
LINE
  8
0
 62
7
 10
5.681163362998922
 20
5.02754994606256
 30
0
 11
5.756763362998922
 21
4.90754994606256
 31
0
  0
LINE
  8
0
 62
7
 10
5.756763362998922
 20
4.90754994606256
 30
0
 11
5.756763362998922
 21
5.02754994606256
 31
0
  0
LINE
  8
0
 62
7
 10
5.789163362998921
 20
4.90754994606256
 30
0
 11
5.789163362998921
 21
5.02754994606256
 31
0
  0
LINE
  8
0
 62
7
 10
5.789163362998921
 20
5.02754994606256
 30
0
 11
5.864763362998922
 21
4.90754994606256
 31
0
  0
LINE
  8
0
 62
7
 10
5.864763362998922
 20
4.90754994606256
 30
0
 11
5.864763362998922
 21
5.02754994606256
 31
0
  0
LINE
  8
0
 62
7
 10
5.972763362998922
 20
4.991549946062561
 30
0
 11
5.970063362998921
 21
5.00354994606256
 31
0
  0
LINE
  8
0
 62
7
 10
5.970063362998921
 20
5.00354994606256
 30
0
 11
5.964663362998921
 21
5.01254994606256
 31
0
  0
LINE
  8
0
 62
7
 10
5.964663362998921
 20
5.01254994606256
 30
0
 11
5.959263362998922
 21
5.01854994606256
 31
0
  0
LINE
  8
0
 62
7
 10
5.959263362998922
 20
5.01854994606256
 30
0
 11
5.951163362998923
 21
5.02454994606256
 31
0
  0
LINE
  8
0
 62
7
 10
5.951163362998923
 20
5.02454994606256
 30
0
 11
5.943063362998921
 21
5.02754994606256
 31
0
  0
LINE
  8
0
 62
7
 10
5.943063362998921
 20
5.02754994606256
 30
0
 11
5.926863362998922
 21
5.02754994606256
 31
0
  0
LINE
  8
0
 62
7
 10
5.926863362998922
 20
5.02754994606256
 30
0
 11
5.918763362998922
 21
5.02454994606256
 31
0
  0
LINE
  8
0
 62
7
 10
5.918763362998922
 20
5.02454994606256
 30
0
 11
5.910663362998921
 21
5.01854994606256
 31
0
  0
LINE
  8
0
 62
7
 10
5.910663362998921
 20
5.01854994606256
 30
0
 11
5.905263362998922
 21
5.01254994606256
 31
0
  0
LINE
  8
0
 62
7
 10
5.905263362998922
 20
5.01254994606256
 30
0
 11
5.899863362998921
 21
5.00354994606256
 31
0
  0
LINE
  8
0
 62
7
 10
5.899863362998921
 20
5.00354994606256
 30
0
 11
5.897163362998922
 21
4.991549946062561
 31
0
  0
LINE
  8
0
 62
7
 10
5.897163362998922
 20
4.991549946062561
 30
0
 11
5.897163362998922
 21
4.943549946062561
 31
0
  0
LINE
  8
0
 62
7
 10
5.897163362998922
 20
4.943549946062561
 30
0
 11
5.899863362998921
 21
4.931549946062561
 31
0
  0
LINE
  8
0
 62
7
 10
5.899863362998921
 20
4.931549946062561
 30
0
 11
5.905263362998922
 21
4.92254994606256
 31
0
  0
LINE
  8
0
 62
7
 10
5.905263362998922
 20
4.92254994606256
 30
0
 11
5.910663362998921
 21
4.916549946062561
 31
0
  0
LINE
  8
0
 62
7
 10
5.910663362998921
 20
4.916549946062561
 30
0
 11
5.918763362998922
 21
4.910549946062559
 31
0
  0
LINE
  8
0
 62
7
 10
5.918763362998922
 20
4.910549946062559
 30
0
 11
5.926863362998922
 21
4.90754994606256
 31
0
  0
LINE
  8
0
 62
7
 10
5.926863362998922
 20
4.90754994606256
 30
0
 11
5.943063362998921
 21
4.90754994606256
 31
0
  0
LINE
  8
0
 62
7
 10
5.943063362998921
 20
4.90754994606256
 30
0
 11
5.951163362998923
 21
4.910549946062559
 31
0
  0
LINE
  8
0
 62
7
 10
5.951163362998923
 20
4.910549946062559
 30
0
 11
5.959263362998922
 21
4.916549946062561
 31
0
  0
LINE
  8
0
 62
7
 10
5.959263362998922
 20
4.916549946062561
 30
0
 11
5.964663362998921
 21
4.92254994606256
 31
0
  0
LINE
  8
0
 62
7
 10
5.964663362998921
 20
4.92254994606256
 30
0
 11
5.970063362998921
 21
4.931549946062561
 31
0
  0
LINE
  8
0
 62
7
 10
5.970063362998921
 20
4.931549946062561
 30
0
 11
5.972763362998922
 21
4.943549946062561
 31
0
  0
LINE
  8
0
 62
7
 10
5.972763362998922
 20
4.943549946062561
 30
0
 11
5.972763362998922
 21
4.96754994606256
 31
0
  0
LINE
  8
0
 62
7
 10
5.972763362998922
 20
4.96754994606256
 30
0
 11
5.940363362998922
 21
4.96754994606256
 31
0
  0
LINE
  8
0
 62
7
 10
6.051063362998921
 20
5.02754994606256
 30
0
 11
6.034863362998921
 21
5.02754994606256
 31
0
  0
LINE
  8
0
 62
7
 10
6.034863362998921
 20
5.02754994606256
 30
0
 11
6.026763362998921
 21
5.02454994606256
 31
0
  0
LINE
  8
0
 62
7
 10
6.026763362998921
 20
5.02454994606256
 30
0
 11
6.018663362998922
 21
5.01854994606256
 31
0
  0
LINE
  8
0
 62
7
 10
6.018663362998922
 20
5.01854994606256
 30
0
 11
6.013263362998923
 21
5.01254994606256
 31
0
  0
LINE
  8
0
 62
7
 10
6.013263362998923
 20
5.01254994606256
 30
0
 11
6.007863362998922
 21
5.00354994606256
 31
0
  0
LINE
  8
0
 62
7
 10
6.007863362998922
 20
5.00354994606256
 30
0
 11
6.005163362998921
 21
4.991549946062561
 31
0
  0
LINE
  8
0
 62
7
 10
6.005163362998921
 20
4.991549946062561
 30
0
 11
6.005163362998921
 21
4.943549946062561
 31
0
  0
LINE
  8
0
 62
7
 10
6.005163362998921
 20
4.943549946062561
 30
0
 11
6.007863362998922
 21
4.931549946062561
 31
0
  0
LINE
  8
0
 62
7
 10
6.007863362998922
 20
4.931549946062561
 30
0
 11
6.013263362998923
 21
4.92254994606256
 31
0
  0
LINE
  8
0
 62
7
 10
6.013263362998923
 20
4.92254994606256
 30
0
 11
6.018663362998922
 21
4.916549946062561
 31
0
  0
LINE
  8
0
 62
7
 10
6.018663362998922
 20
4.916549946062561
 30
0
 11
6.026763362998921
 21
4.910549946062559
 31
0
  0
LINE
  8
0
 62
7
 10
6.026763362998921
 20
4.910549946062559
 30
0
 11
6.034863362998921
 21
4.90754994606256
 31
0
  0
LINE
  8
0
 62
7
 10
6.034863362998921
 20
4.90754994606256
 30
0
 11
6.051063362998921
 21
4.90754994606256
 31
0
  0
LINE
  8
0
 62
7
 10
6.051063362998921
 20
4.90754994606256
 30
0
 11
6.059163362998921
 21
4.910549946062559
 31
0
  0
LINE
  8
0
 62
7
 10
6.059163362998921
 20
4.910549946062559
 30
0
 11
6.067263362998922
 21
4.916549946062561
 31
0
  0
LINE
  8
0
 62
7
 10
6.067263362998922
 20
4.916549946062561
 30
0
 11
6.072663362998921
 21
4.92254994606256
 31
0
  0
LINE
  8
0
 62
7
 10
6.072663362998921
 20
4.92254994606256
 30
0
 11
6.078063362998922
 21
4.931549946062561
 31
0
  0
LINE
  8
0
 62
7
 10
6.078063362998922
 20
4.931549946062561
 30
0
 11
6.080763362998923
 21
4.943549946062561
 31
0
  0
LINE
  8
0
 62
7
 10
6.080763362998923
 20
4.943549946062561
 30
0
 11
6.080763362998923
 21
4.991549946062561
 31
0
  0
LINE
  8
0
 62
7
 10
6.080763362998923
 20
4.991549946062561
 30
0
 11
6.078063362998922
 21
5.00354994606256
 31
0
  0
LINE
  8
0
 62
7
 10
6.078063362998922
 20
5.00354994606256
 30
0
 11
6.072663362998921
 21
5.01254994606256
 31
0
  0
LINE
  8
0
 62
7
 10
6.072663362998921
 20
5.01254994606256
 30
0
 11
6.067263362998922
 21
5.01854994606256
 31
0
  0
LINE
  8
0
 62
7
 10
6.067263362998922
 20
5.01854994606256
 30
0
 11
6.059163362998921
 21
5.02454994606256
 31
0
  0
LINE
  8
0
 62
7
 10
6.059163362998921
 20
5.02454994606256
 30
0
 11
6.051063362998921
 21
5.02754994606256
 31
0
  0
LINE
  8
0
 62
7
 10
6.102363362998922
 20
5.02754994606256
 30
0
 11
6.140163362998923
 21
5.02754994606256
 31
0
  0
LINE
  8
0
 62
7
 10
6.140163362998923
 20
5.02754994606256
 30
0
 11
6.140163362998923
 21
4.90754994606256
 31
0
  0
LINE
  8
0
 62
7
 10
6.140163362998923
 20
5.02754994606256
 30
0
 11
6.177963362998923
 21
5.02754994606256
 31
0
  0
LINE
  8
0
 62
7
 10
6.210363362998923
 20
5.02754994606256
 30
0
 11
6.248163362998922
 21
5.02754994606256
 31
0
  0
LINE
  8
0
 62
7
 10
6.248163362998922
 20
5.02754994606256
 30
0
 11
6.248163362998922
 21
4.90754994606256
 31
0
  0
LINE
  8
0
 62
7
 10
6.248163362998922
 20
5.02754994606256
 30
0
 11
6.285963362998924
 21
5.02754994606256
 31
0
  0
LINE
  8
0
 62
7
 10
6.404763362998922
 20
4.94954994606256
 30
0
 11
6.458763362998922
 21
4.94954994606256
 31
0
  0
LINE
  8
0
 62
7
 10
6.566763362998923
 20
5.02754994606256
 30
0
 11
6.604563362998923
 21
5.02754994606256
 31
0
  0
LINE
  8
0
 62
7
 10
6.604563362998923
 20
5.02754994606256
 30
0
 11
6.604563362998923
 21
4.90754994606256
 31
0
  0
LINE
  8
0
 62
7
 10
6.604563362998923
 20
5.02754994606256
 30
0
 11
6.642363362998921
 21
5.02754994606256
 31
0
  0
LINE
  8
0
 62
7
 10
6.674763362998921
 20
4.90754994606256
 30
0
 11
6.674763362998921
 21
5.02754994606256
 31
0
  0
LINE
  8
0
 62
7
 10
6.674763362998921
 20
5.02754994606256
 30
0
 11
6.726063362998921
 21
5.02754994606256
 31
0
  0
LINE
  8
0
 62
7
 10
6.726063362998921
 20
5.02754994606256
 30
0
 11
6.736863362998922
 21
5.02454994606256
 31
0
  0
LINE
  8
0
 62
7
 10
6.736863362998922
 20
5.02454994606256
 30
0
 11
6.744963362998923
 21
5.01854994606256
 31
0
  0
LINE
  8
0
 62
7
 10
6.744963362998923
 20
5.01854994606256
 30
0
 11
6.747663362998921
 21
5.01254994606256
 31
0
  0
LINE
  8
0
 62
7
 10
6.747663362998921
 20
5.01254994606256
 30
0
 11
6.750363362998923
 21
5.00354994606256
 31
0
  0
LINE
  8
0
 62
7
 10
6.750363362998923
 20
5.00354994606256
 30
0
 11
6.750363362998923
 21
4.991549946062561
 31
0
  0
LINE
  8
0
 62
7
 10
6.750363362998923
 20
4.991549946062561
 30
0
 11
6.747663362998921
 21
4.98254994606256
 31
0
  0
LINE
  8
0
 62
7
 10
6.747663362998921
 20
4.98254994606256
 30
0
 11
6.744963362998923
 21
4.976549946062561
 31
0
  0
LINE
  8
0
 62
7
 10
6.744963362998923
 20
4.976549946062561
 30
0
 11
6.736863362998922
 21
4.97054994606256
 31
0
  0
LINE
  8
0
 62
7
 10
6.736863362998922
 20
4.97054994606256
 30
0
 11
6.726063362998921
 21
4.96754994606256
 31
0
  0
LINE
  8
0
 62
7
 10
6.726063362998921
 20
4.96754994606256
 30
0
 11
6.717963362998922
 21
4.96754994606256
 31
0
  0
LINE
  8
0
 62
7
 10
6.717963362998922
 20
4.96754994606256
 30
0
 11
6.750363362998923
 21
4.90754994606256
 31
0
  0
LINE
  8
0
 62
7
 10
6.717963362998922
 20
4.96754994606256
 30
0
 11
6.674763362998921
 21
4.96754994606256
 31
0
  0
LINE
  8
0
 62
7
 10
6.847563362998923
 20
5.02754994606256
 30
0
 11
6.771963362998922
 21
5.02754994606256
 31
0
  0
LINE
  8
0
 62
7
 10
6.771963362998922
 20
5.02754994606256
 30
0
 11
6.771963362998922
 21
4.96754994606256
 31
0
  0
LINE
  8
0
 62
7
 10
6.771963362998922
 20
4.90754994606256
 30
0
 11
6.847563362998923
 21
4.90754994606256
 31
0
  0
LINE
  8
0
 62
7
 10
6.836763362998923
 20
4.96754994606256
 30
0
 11
6.771963362998922
 21
4.96754994606256
 31
0
  0
LINE
  8
0
 62
7
 10
6.771963362998922
 20
4.96754994606256
 30
0
 11
6.771963362998922
 21
4.90754994606256
 31
0
  0
LINE
  8
0
 62
7
 10
6.879963362998923
 20
4.90754994606256
 30
0
 11
6.879963362998923
 21
4.96754994606256
 31
0
  0
LINE
  8
0
 62
7
 10
6.879963362998923
 20
5.02754994606256
 30
0
 11
6.931263362998924
 21
5.02754994606256
 31
0
  0
LINE
  8
0
 62
7
 10
6.931263362998924
 20
5.02754994606256
 30
0
 11
6.942063362998924
 21
5.02454994606256
 31
0
  0
LINE
  8
0
 62
7
 10
6.942063362998924
 20
5.02454994606256
 30
0
 11
6.950163362998923
 21
5.01854994606256
 31
0
  0
LINE
  8
0
 62
7
 10
6.950163362998923
 20
5.01854994606256
 30
0
 11
6.952863362998923
 21
5.01254994606256
 31
0
  0
LINE
  8
0
 62
7
 10
6.952863362998923
 20
5.01254994606256
 30
0
 11
6.955563362998923
 21
5.00354994606256
 31
0
  0
LINE
  8
0
 62
7
 10
6.955563362998923
 20
5.00354994606256
 30
0
 11
6.955563362998923
 21
4.991549946062561
 31
0
  0
LINE
  8
0
 62
7
 10
6.955563362998923
 20
4.991549946062561
 30
0
 11
6.952863362998923
 21
4.98254994606256
 31
0
  0
LINE
  8
0
 62
7
 10
6.952863362998923
 20
4.98254994606256
 30
0
 11
6.950163362998923
 21
4.976549946062561
 31
0
  0
LINE
  8
0
 62
7
 10
6.950163362998923
 20
4.976549946062561
 30
0
 11
6.942063362998924
 21
4.97054994606256
 31
0
  0
LINE
  8
0
 62
7
 10
6.942063362998924
 20
4.97054994606256
 30
0
 11
6.931263362998924
 21
4.96754994606256
 31
0
  0
LINE
  8
0
 62
7
 10
6.931263362998924
 20
4.96754994606256
 30
0
 11
6.879963362998923
 21
4.96754994606256
 31
0
  0
LINE
  8
0
 62
7
 10
6.879963362998923
 20
4.96754994606256
 30
0
 11
6.879963362998923
 21
5.02754994606256
 31
0
  0
LINE
  8
0
 62
7
 10
6.977163362998922
 20
4.90754994606256
 30
0
 11
6.977163362998922
 21
4.96754994606256
 31
0
  0
LINE
  8
0
 62
7
 10
6.977163362998922
 20
5.02754994606256
 30
0
 11
7.028463362998924
 21
5.02754994606256
 31
0
  0
LINE
  8
0
 62
7
 10
7.028463362998924
 20
5.02754994606256
 30
0
 11
7.039263362998923
 21
5.02454994606256
 31
0
  0
LINE
  8
0
 62
7
 10
7.039263362998923
 20
5.02454994606256
 30
0
 11
7.047363362998922
 21
5.01854994606256
 31
0
  0
LINE
  8
0
 62
7
 10
7.047363362998922
 20
5.01854994606256
 30
0
 11
7.050063362998923
 21
5.01254994606256
 31
0
  0
LINE
  8
0
 62
7
 10
7.050063362998923
 20
5.01254994606256
 30
0
 11
7.052763362998923
 21
5.00354994606256
 31
0
  0
LINE
  8
0
 62
7
 10
7.052763362998923
 20
5.00354994606256
 30
0
 11
7.052763362998923
 21
4.991549946062561
 31
0
  0
LINE
  8
0
 62
7
 10
7.052763362998923
 20
4.991549946062561
 30
0
 11
7.050063362998923
 21
4.98254994606256
 31
0
  0
LINE
  8
0
 62
7
 10
7.050063362998923
 20
4.98254994606256
 30
0
 11
7.047363362998922
 21
4.976549946062561
 31
0
  0
LINE
  8
0
 62
7
 10
7.047363362998922
 20
4.976549946062561
 30
0
 11
7.039263362998923
 21
4.97054994606256
 31
0
  0
LINE
  8
0
 62
7
 10
7.039263362998923
 20
4.97054994606256
 30
0
 11
7.028463362998924
 21
4.96754994606256
 31
0
  0
LINE
  8
0
 62
7
 10
7.028463362998924
 20
4.96754994606256
 30
0
 11
6.977163362998922
 21
4.96754994606256
 31
0
  0
LINE
  8
0
 62
7
 10
6.977163362998922
 20
4.96754994606256
 30
0
 11
6.977163362998922
 21
5.02754994606256
 31
0
  0
LINE
  8
0
 62
7
 10
7.149963362998924
 20
5.02754994606256
 30
0
 11
7.074363362998922
 21
5.02754994606256
 31
0
  0
LINE
  8
0
 62
7
 10
7.074363362998922
 20
5.02754994606256
 30
0
 11
7.074363362998922
 21
4.96754994606256
 31
0
  0
LINE
  8
0
 62
7
 10
7.074363362998922
 20
4.90754994606256
 30
0
 11
7.149963362998924
 21
4.90754994606256
 31
0
  0
LINE
  8
0
 62
7
 10
7.139163362998923
 20
4.96754994606256
 30
0
 11
7.074363362998922
 21
4.96754994606256
 31
0
  0
LINE
  8
0
 62
7
 10
7.074363362998922
 20
4.96754994606256
 30
0
 11
7.074363362998922
 21
4.90754994606256
 31
0
  0
LINE
  8
0
 62
7
 10
4.774999999999999
 20
3.009999999999999
 30
0
 11
4.850599999999999
 21
3.009999999999999
 31
0
  0
LINE
  8
0
 62
7
 10
4.850599999999999
 20
3.009999999999999
 30
0
 11
4.774999999999999
 21
2.889999999999999
 31
0
  0
LINE
  8
0
 62
7
 10
4.774999999999999
 20
2.889999999999999
 30
0
 11
4.850599999999999
 21
2.889999999999999
 31
0
  0
LINE
  8
0
 62
7
 10
4.882999999999999
 20
3.009999999999999
 30
0
 11
4.882999999999999
 21
2.949999999999999
 31
0
  0
LINE
  8
0
 62
7
 10
4.882999999999999
 20
2.949999999999999
 30
0
 11
4.958599999999999
 21
2.949999999999999
 31
0
  0
LINE
  8
0
 62
7
 10
4.958599999999999
 20
3.009999999999999
 30
0
 11
4.958599999999999
 21
2.949999999999999
 31
0
  0
LINE
  8
0
 62
7
 10
4.958599999999999
 20
2.949999999999999
 30
0
 11
4.958599999999999
 21
2.889999999999999
 31
0
  0
LINE
  8
0
 62
7
 10
4.882999999999999
 20
2.949999999999999
 30
0
 11
4.882999999999999
 21
2.889999999999999
 31
0
  0
LINE
  8
0
 62
7
 10
4.991
 20
3.009999999999999
 30
0
 11
5.020699999999998
 21
2.889999999999999
 31
0
  0
LINE
  8
0
 62
7
 10
5.020699999999998
 20
2.889999999999999
 30
0
 11
5.044999999999998
 21
3.009999999999999
 31
0
  0
LINE
  8
0
 62
7
 10
5.044999999999998
 20
3.009999999999999
 30
0
 11
5.069299999999998
 21
2.889999999999999
 31
0
  0
LINE
  8
0
 62
7
 10
5.069299999999998
 20
2.889999999999999
 30
0
 11
5.099
 21
3.009999999999999
 31
0
  0
LINE
  8
0
 62
7
 10
5.1206
 20
2.992
 30
0
 11
5.125999999999999
 21
3.001
 31
0
  0
LINE
  8
0
 62
7
 10
5.125999999999999
 20
3.001
 30
0
 11
5.134099999999999
 21
3.007
 31
0
  0
LINE
  8
0
 62
7
 10
5.134099999999999
 20
3.007
 30
0
 11
5.1449
 21
3.009999999999999
 31
0
  0
LINE
  8
0
 62
7
 10
5.1449
 20
3.009999999999999
 30
0
 11
5.161099999999999
 21
3.009999999999999
 31
0
  0
LINE
  8
0
 62
7
 10
5.161099999999999
 20
3.009999999999999
 30
0
 11
5.1719
 21
3.007
 31
0
  0
LINE
  8
0
 62
7
 10
5.1719
 20
3.007
 30
0
 11
5.18
 21
3.001
 31
0
  0
LINE
  8
0
 62
7
 10
5.18
 20
3.001
 30
0
 11
5.185399999999999
 21
2.992
 31
0
  0
LINE
  8
0
 62
7
 10
5.185399999999999
 20
2.992
 30
0
 11
5.185399999999999
 21
2.979999999999999
 31
0
  0
LINE
  8
0
 62
7
 10
5.185399999999999
 20
2.979999999999999
 30
0
 11
5.18
 21
2.968
 31
0
  0
LINE
  8
0
 62
7
 10
5.18
 20
2.968
 30
0
 11
5.1206
 21
2.889999999999999
 31
0
  0
LINE
  8
0
 62
7
 10
5.1206
 20
2.889999999999999
 30
0
 11
5.185399999999999
 21
2.889999999999999
 31
0
  0
LINE
  8
0
 62
7
 10
5.217799999999999
 20
2.992
 30
0
 11
5.223199999999999
 21
3.001
 31
0
  0
LINE
  8
0
 62
7
 10
5.223199999999999
 20
3.001
 30
0
 11
5.2313
 21
3.007
 31
0
  0
LINE
  8
0
 62
7
 10
5.2313
 20
3.007
 30
0
 11
5.2421
 21
3.009999999999999
 31
0
  0
LINE
  8
0
 62
7
 10
5.2421
 20
3.009999999999999
 30
0
 11
5.258299999999998
 21
3.009999999999999
 31
0
  0
LINE
  8
0
 62
7
 10
5.258299999999998
 20
3.009999999999999
 30
0
 11
5.269099999999999
 21
3.007
 31
0
  0
LINE
  8
0
 62
7
 10
5.269099999999999
 20
3.007
 30
0
 11
5.277199999999999
 21
3.001
 31
0
  0
LINE
  8
0
 62
7
 10
5.277199999999999
 20
3.001
 30
0
 11
5.282599999999999
 21
2.992
 31
0
  0
LINE
  8
0
 62
7
 10
5.282599999999999
 20
2.992
 30
0
 11
5.282599999999999
 21
2.979999999999999
 31
0
  0
LINE
  8
0
 62
7
 10
5.282599999999999
 20
2.979999999999999
 30
0
 11
5.277199999999999
 21
2.968
 31
0
  0
LINE
  8
0
 62
7
 10
5.277199999999999
 20
2.968
 30
0
 11
5.217799999999999
 21
2.889999999999999
 31
0
  0
LINE
  8
0
 62
7
 10
5.217799999999999
 20
2.889999999999999
 30
0
 11
5.282599999999999
 21
2.889999999999999
 31
0
  0
LINE
  8
0
 62
7
 10
5.315
 20
2.938
 30
0
 11
5.317699999999999
 21
2.949999999999999
 31
0
  0
LINE
  8
0
 62
7
 10
5.317699999999999
 20
2.949999999999999
 30
0
 11
5.323099999999999
 21
2.959
 31
0
  0
LINE
  8
0
 62
7
 10
5.323099999999999
 20
2.959
 30
0
 11
5.331199999999999
 21
2.964999999999999
 31
0
  0
LINE
  8
0
 62
7
 10
5.331199999999999
 20
2.964999999999999
 30
0
 11
5.339299999999999
 21
2.968
 31
0
  0
LINE
  8
0
 62
7
 10
5.339299999999999
 20
2.968
 30
0
 11
5.355499999999999
 21
2.968
 31
0
  0
LINE
  8
0
 62
7
 10
5.355499999999999
 20
2.968
 30
0
 11
5.363599999999999
 21
2.964999999999999
 31
0
  0
LINE
  8
0
 62
7
 10
5.363599999999999
 20
2.964999999999999
 30
0
 11
5.3717
 21
2.959
 31
0
  0
LINE
  8
0
 62
7
 10
5.3717
 20
2.959
 30
0
 11
5.3771
 21
2.949999999999999
 31
0
  0
LINE
  8
0
 62
7
 10
5.3771
 20
2.949999999999999
 30
0
 11
5.379799999999999
 21
2.938
 31
0
  0
LINE
  8
0
 62
7
 10
5.379799999999999
 20
2.938
 30
0
 11
5.379799999999999
 21
2.919999999999999
 31
0
  0
LINE
  8
0
 62
7
 10
5.379799999999999
 20
2.919999999999999
 30
0
 11
5.3771
 21
2.908
 31
0
  0
LINE
  8
0
 62
7
 10
5.3771
 20
2.908
 30
0
 11
5.3717
 21
2.899
 31
0
  0
LINE
  8
0
 62
7
 10
5.3717
 20
2.899
 30
0
 11
5.363599999999999
 21
2.893
 31
0
  0
LINE
  8
0
 62
7
 10
5.363599999999999
 20
2.893
 30
0
 11
5.355499999999999
 21
2.889999999999999
 31
0
  0
LINE
  8
0
 62
7
 10
5.355499999999999
 20
2.889999999999999
 30
0
 11
5.339299999999999
 21
2.889999999999999
 31
0
  0
LINE
  8
0
 62
7
 10
5.339299999999999
 20
2.889999999999999
 30
0
 11
5.331199999999999
 21
2.893
 31
0
  0
LINE
  8
0
 62
7
 10
5.331199999999999
 20
2.893
 30
0
 11
5.323099999999999
 21
2.899
 31
0
  0
LINE
  8
0
 62
7
 10
5.323099999999999
 20
2.899
 30
0
 11
5.317699999999999
 21
2.908
 31
0
  0
LINE
  8
0
 62
7
 10
5.317699999999999
 20
2.908
 30
0
 11
5.315
 21
2.919999999999999
 31
0
  0
LINE
  8
0
 62
7
 10
5.315
 20
2.919999999999999
 30
0
 11
5.315
 21
2.938
 31
0
  0
LINE
  8
0
 62
7
 10
5.315
 20
2.979999999999999
 30
0
 11
5.317699999999999
 21
2.992
 31
0
  0
LINE
  8
0
 62
7
 10
5.317699999999999
 20
2.992
 30
0
 11
5.323099999999999
 21
3.001
 31
0
  0
LINE
  8
0
 62
7
 10
5.323099999999999
 20
3.001
 30
0
 11
5.331199999999999
 21
3.007
 31
0
  0
LINE
  8
0
 62
7
 10
5.331199999999999
 20
3.007
 30
0
 11
5.339299999999999
 21
3.009999999999999
 31
0
  0
LINE
  8
0
 62
7
 10
5.339299999999999
 20
3.009999999999999
 30
0
 11
5.355499999999999
 21
3.009999999999999
 31
0
  0
LINE
  8
0
 62
7
 10
5.355499999999999
 20
3.009999999999999
 30
0
 11
5.363599999999999
 21
3.007
 31
0
  0
LINE
  8
0
 62
7
 10
5.363599999999999
 20
3.007
 30
0
 11
5.3717
 21
3.001
 31
0
  0
LINE
  8
0
 62
7
 10
5.3717
 20
3.001
 30
0
 11
5.3771
 21
2.992
 31
0
  0
LINE
  8
0
 62
7
 10
5.315
 20
2.938
 30
0
 11
5.315
 21
2.979999999999999
 31
0
  0
LINE
  8
0
 62
7
 10
5.412199999999999
 20
2.889999999999999
 30
0
 11
5.412199999999999
 21
3.009999999999999
 31
0
  0
LINE
  8
0
 62
7
 10
5.412199999999999
 20
3.009999999999999
 30
0
 11
5.463499999999999
 21
3.009999999999999
 31
0
  0
LINE
  8
0
 62
7
 10
5.463499999999999
 20
3.009999999999999
 30
0
 11
5.474299999999999
 21
3.007
 31
0
  0
LINE
  8
0
 62
7
 10
5.474299999999999
 20
3.007
 30
0
 11
5.482399999999998
 21
3.001
 31
0
  0
LINE
  8
0
 62
7
 10
5.482399999999998
 20
3.001
 30
0
 11
5.485099999999998
 21
2.994999999999999
 31
0
  0
LINE
  8
0
 62
7
 10
5.485099999999998
 20
2.994999999999999
 30
0
 11
5.487799999999999
 21
2.986
 31
0
  0
LINE
  8
0
 62
7
 10
5.487799999999999
 20
2.986
 30
0
 11
5.487799999999999
 21
2.974
 31
0
  0
LINE
  8
0
 62
7
 10
5.487799999999999
 20
2.974
 30
0
 11
5.485099999999998
 21
2.964999999999999
 31
0
  0
LINE
  8
0
 62
7
 10
5.485099999999998
 20
2.964999999999999
 30
0
 11
5.482399999999998
 21
2.959
 31
0
  0
LINE
  8
0
 62
7
 10
5.482399999999998
 20
2.959
 30
0
 11
5.474299999999999
 21
2.953
 31
0
  0
LINE
  8
0
 62
7
 10
5.474299999999999
 20
2.953
 30
0
 11
5.463499999999999
 21
2.949999999999999
 31
0
  0
LINE
  8
0
 62
7
 10
5.463499999999999
 20
2.949999999999999
 30
0
 11
5.455399999999999
 21
2.949999999999999
 31
0
  0
LINE
  8
0
 62
7
 10
5.455399999999999
 20
2.949999999999999
 30
0
 11
5.487799999999999
 21
2.889999999999999
 31
0
  0
LINE
  8
0
 62
7
 10
5.455399999999999
 20
2.949999999999999
 30
0
 11
5.412199999999999
 21
2.949999999999999
 31
0
  0
LINE
  8
0
 62
7
 10
5.509399999999999
 20
2.938
 30
0
 11
5.512099999999999
 21
2.949999999999999
 31
0
  0
LINE
  8
0
 62
7
 10
5.512099999999999
 20
2.949999999999999
 30
0
 11
5.517499999999999
 21
2.959
 31
0
  0
LINE
  8
0
 62
7
 10
5.517499999999999
 20
2.959
 30
0
 11
5.525599999999999
 21
2.964999999999999
 31
0
  0
LINE
  8
0
 62
7
 10
5.525599999999999
 20
2.964999999999999
 30
0
 11
5.533699999999999
 21
2.968
 31
0
  0
LINE
  8
0
 62
7
 10
5.533699999999999
 20
2.968
 30
0
 11
5.549899999999998
 21
2.968
 31
0
  0
LINE
  8
0
 62
7
 10
5.549899999999998
 20
2.968
 30
0
 11
5.557999999999999
 21
2.964999999999999
 31
0
  0
LINE
  8
0
 62
7
 10
5.557999999999999
 20
2.964999999999999
 30
0
 11
5.566099999999999
 21
2.959
 31
0
  0
LINE
  8
0
 62
7
 10
5.566099999999999
 20
2.959
 30
0
 11
5.571499999999999
 21
2.949999999999999
 31
0
  0
LINE
  8
0
 62
7
 10
5.571499999999999
 20
2.949999999999999
 30
0
 11
5.574199999999999
 21
2.938
 31
0
  0
LINE
  8
0
 62
7
 10
5.574199999999999
 20
2.938
 30
0
 11
5.574199999999999
 21
2.919999999999999
 31
0
  0
LINE
  8
0
 62
7
 10
5.574199999999999
 20
2.919999999999999
 30
0
 11
5.571499999999999
 21
2.908
 31
0
  0
LINE
  8
0
 62
7
 10
5.571499999999999
 20
2.908
 30
0
 11
5.566099999999999
 21
2.899
 31
0
  0
LINE
  8
0
 62
7
 10
5.566099999999999
 20
2.899
 30
0
 11
5.557999999999999
 21
2.893
 31
0
  0
LINE
  8
0
 62
7
 10
5.557999999999999
 20
2.893
 30
0
 11
5.549899999999998
 21
2.889999999999999
 31
0
  0
LINE
  8
0
 62
7
 10
5.549899999999998
 20
2.889999999999999
 30
0
 11
5.533699999999999
 21
2.889999999999999
 31
0
  0
LINE
  8
0
 62
7
 10
5.533699999999999
 20
2.889999999999999
 30
0
 11
5.525599999999999
 21
2.893
 31
0
  0
LINE
  8
0
 62
7
 10
5.525599999999999
 20
2.893
 30
0
 11
5.517499999999999
 21
2.899
 31
0
  0
LINE
  8
0
 62
7
 10
5.517499999999999
 20
2.899
 30
0
 11
5.512099999999999
 21
2.908
 31
0
  0
LINE
  8
0
 62
7
 10
5.512099999999999
 20
2.908
 30
0
 11
5.509399999999999
 21
2.919999999999999
 31
0
  0
LINE
  8
0
 62
7
 10
5.509399999999999
 20
2.919999999999999
 30
0
 11
5.509399999999999
 21
2.938
 31
0
  0
LINE
  8
0
 62
7
 10
5.509399999999999
 20
2.979999999999999
 30
0
 11
5.512099999999999
 21
2.992
 31
0
  0
LINE
  8
0
 62
7
 10
5.512099999999999
 20
2.992
 30
0
 11
5.517499999999999
 21
3.001
 31
0
  0
LINE
  8
0
 62
7
 10
5.517499999999999
 20
3.001
 30
0
 11
5.525599999999999
 21
3.007
 31
0
  0
LINE
  8
0
 62
7
 10
5.525599999999999
 20
3.007
 30
0
 11
5.533699999999999
 21
3.009999999999999
 31
0
  0
LINE
  8
0
 62
7
 10
5.533699999999999
 20
3.009999999999999
 30
0
 11
5.549899999999998
 21
3.009999999999999
 31
0
  0
LINE
  8
0
 62
7
 10
5.549899999999998
 20
3.009999999999999
 30
0
 11
5.557999999999999
 21
3.007
 31
0
  0
LINE
  8
0
 62
7
 10
5.557999999999999
 20
3.007
 30
0
 11
5.566099999999999
 21
3.001
 31
0
  0
LINE
  8
0
 62
7
 10
5.566099999999999
 20
3.001
 30
0
 11
5.571499999999999
 21
2.992
 31
0
  0
LINE
  8
0
 62
7
 10
5.509399999999999
 20
2.938
 30
0
 11
5.509399999999999
 21
2.979999999999999
 31
0
  0
LINE
  8
0
 62
7
 10
7.274999999999999
 20
2.889999999999999
 30
0
 11
7.274999999999999
 21
2.989999999999999
 31
0
  0
LINE
  8
0
 62
7
 10
7.274999999999999
 20
2.989999999999999
 30
0
 11
7.337999999999998
 21
2.889999999999999
 31
0
  0
LINE
  8
0
 62
7
 10
7.337999999999998
 20
2.889999999999999
 30
0
 11
7.337999999999998
 21
2.989999999999999
 31
0
  0
LINE
  8
0
 62
7
 10
7.418999999999999
 20
2.889999999999999
 30
0
 11
7.364999999999999
 21
2.889999999999999
 31
0
  0
LINE
  8
0
 62
7
 10
7.364999999999999
 20
2.889999999999999
 30
0
 11
7.364999999999999
 21
2.989999999999999
 31
0
  0
LINE
  8
0
 62
7
 10
7.446
 20
2.94
 30
0
 11
7.481999999999998
 21
2.94
 31
0
  0
LINE
  8
0
 62
7
 10
7.481999999999998
 20
2.94
 30
0
 11
7.486499999999999
 21
2.94
 31
0
  0
LINE
  8
0
 62
7
 10
7.486499999999999
 20
2.94
 30
0
 11
7.495499999999999
 21
2.934999999999999
 31
0
  0
LINE
  8
0
 62
7
 10
7.495499999999999
 20
2.934999999999999
 30
0
 11
7.499999999999999
 21
2.929999999999999
 31
0
  0
LINE
  8
0
 62
7
 10
7.499999999999999
 20
2.929999999999999
 30
0
 11
7.504499999999999
 21
2.919999999999999
 31
0
  0
LINE
  8
0
 62
7
 10
7.504499999999999
 20
2.919999999999999
 30
0
 11
7.504499999999999
 21
2.909999999999999
 31
0
  0
LINE
  8
0
 62
7
 10
7.504499999999999
 20
2.909999999999999
 30
0
 11
7.499999999999999
 21
2.899999999999999
 31
0
  0
LINE
  8
0
 62
7
 10
7.499999999999999
 20
2.899999999999999
 30
0
 11
7.495499999999999
 21
2.895
 31
0
  0
LINE
  8
0
 62
7
 10
7.495499999999999
 20
2.895
 30
0
 11
7.486499999999999
 21
2.889999999999999
 31
0
  0
LINE
  8
0
 62
7
 10
7.486499999999999
 20
2.889999999999999
 30
0
 11
7.446
 21
2.889999999999999
 31
0
  0
LINE
  8
0
 62
7
 10
7.446
 20
2.889999999999999
 30
0
 11
7.446
 21
2.94
 31
0
  0
LINE
  8
0
 62
7
 10
7.446
 20
2.989999999999999
 30
0
 11
7.47975
 21
2.989999999999999
 31
0
  0
LINE
  8
0
 62
7
 10
7.47975
 20
2.989999999999999
 30
0
 11
7.491
 21
2.987499999999999
 31
0
  0
LINE
  8
0
 62
7
 10
7.491
 20
2.987499999999999
 30
0
 11
7.497749999999998
 21
2.979999999999999
 31
0
  0
LINE
  8
0
 62
7
 10
7.497749999999998
 20
2.979999999999999
 30
0
 11
7.499999999999999
 21
2.969999999999999
 31
0
  0
LINE
  8
0
 62
7
 10
7.499999999999999
 20
2.969999999999999
 30
0
 11
7.499999999999999
 21
2.959999999999999
 31
0
  0
LINE
  8
0
 62
7
 10
7.499999999999999
 20
2.959999999999999
 30
0
 11
7.495499999999999
 21
2.949999999999999
 31
0
  0
LINE
  8
0
 62
7
 10
7.495499999999999
 20
2.949999999999999
 30
0
 11
7.48875
 21
2.942499999999999
 31
0
  0
LINE
  8
0
 62
7
 10
7.48875
 20
2.942499999999999
 30
0
 11
7.481999999999998
 21
2.94
 31
0
  0
LINE
  8
0
 62
7
 10
7.446
 20
2.94
 30
0
 11
7.446
 21
2.989999999999999
 31
0
  0
LINE
  8
0
 62
7
 10
7.646249999999999
 20
2.942499999999999
 30
0
 11
7.639499999999998
 21
2.952499999999999
 31
0
  0
LINE
  8
0
 62
7
 10
7.639499999999998
 20
2.952499999999999
 30
0
 11
7.632749999999999
 21
2.9575
 31
0
  0
LINE
  8
0
 62
7
 10
7.632749999999999
 20
2.9575
 30
0
 11
7.625999999999999
 21
2.959999999999999
 31
0
  0
LINE
  8
0
 62
7
 10
7.625999999999999
 20
2.959999999999999
 30
0
 11
7.616999999999999
 21
2.959999999999999
 31
0
  0
LINE
  8
0
 62
7
 10
7.616999999999999
 20
2.959999999999999
 30
0
 11
7.610249999999998
 21
2.9575
 31
0
  0
LINE
  8
0
 62
7
 10
7.610249999999998
 20
2.9575
 30
0
 11
7.6035
 21
2.952499999999999
 31
0
  0
LINE
  8
0
 62
7
 10
7.6035
 20
2.952499999999999
 30
0
 11
7.596749999999999
 21
2.942499999999999
 31
0
  0
LINE
  8
0
 62
7
 10
7.596749999999999
 20
2.942499999999999
 30
0
 11
7.594499999999998
 21
2.934999999999999
 31
0
  0
LINE
  8
0
 62
7
 10
7.594499999999998
 20
2.934999999999999
 30
0
 11
7.594499999999998
 21
2.914999999999999
 31
0
  0
LINE
  8
0
 62
7
 10
7.594499999999998
 20
2.914999999999999
 30
0
 11
7.596749999999999
 21
2.907499999999999
 31
0
  0
LINE
  8
0
 62
7
 10
7.596749999999999
 20
2.907499999999999
 30
0
 11
7.6035
 21
2.897499999999999
 31
0
  0
LINE
  8
0
 62
7
 10
7.6035
 20
2.897499999999999
 30
0
 11
7.610249999999998
 21
2.892499999999999
 31
0
  0
LINE
  8
0
 62
7
 10
7.610249999999998
 20
2.892499999999999
 30
0
 11
7.616999999999999
 21
2.889999999999999
 31
0
  0
LINE
  8
0
 62
7
 10
7.616999999999999
 20
2.889999999999999
 30
0
 11
7.625999999999999
 21
2.889999999999999
 31
0
  0
LINE
  8
0
 62
7
 10
7.625999999999999
 20
2.889999999999999
 30
0
 11
7.632749999999999
 21
2.892499999999999
 31
0
  0
LINE
  8
0
 62
7
 10
7.632749999999999
 20
2.892499999999999
 30
0
 11
7.639499999999998
 21
2.897499999999999
 31
0
  0
LINE
  8
0
 62
7
 10
7.639499999999998
 20
2.897499999999999
 30
0
 11
7.646249999999999
 21
2.907499999999999
 31
0
  0
LINE
  8
0
 62
7
 10
7.718249999999999
 20
2.934999999999999
 30
0
 11
7.716
 21
2.942499999999999
 31
0
  0
LINE
  8
0
 62
7
 10
7.716
 20
2.942499999999999
 30
0
 11
7.709249999999999
 21
2.952499999999999
 31
0
  0
LINE
  8
0
 62
7
 10
7.709249999999999
 20
2.952499999999999
 30
0
 11
7.7025
 21
2.9575
 31
0
  0
LINE
  8
0
 62
7
 10
7.7025
 20
2.9575
 30
0
 11
7.695749999999999
 21
2.959999999999999
 31
0
  0
LINE
  8
0
 62
7
 10
7.695749999999999
 20
2.959999999999999
 30
0
 11
7.686749999999998
 21
2.959999999999999
 31
0
  0
LINE
  8
0
 62
7
 10
7.686749999999998
 20
2.959999999999999
 30
0
 11
7.68
 21
2.9575
 31
0
  0
LINE
  8
0
 62
7
 10
7.68
 20
2.9575
 30
0
 11
7.673249999999999
 21
2.952499999999999
 31
0
  0
LINE
  8
0
 62
7
 10
7.673249999999999
 20
2.952499999999999
 30
0
 11
7.666499999999998
 21
2.942499999999999
 31
0
  0
LINE
  8
0
 62
7
 10
7.666499999999998
 20
2.942499999999999
 30
0
 11
7.664249999999999
 21
2.934999999999999
 31
0
  0
LINE
  8
0
 62
7
 10
7.664249999999999
 20
2.934999999999999
 30
0
 11
7.664249999999999
 21
2.914999999999999
 31
0
  0
LINE
  8
0
 62
7
 10
7.664249999999999
 20
2.914999999999999
 30
0
 11
7.666499999999998
 21
2.907499999999999
 31
0
  0
LINE
  8
0
 62
7
 10
7.666499999999998
 20
2.907499999999999
 30
0
 11
7.673249999999999
 21
2.897499999999999
 31
0
  0
LINE
  8
0
 62
7
 10
7.673249999999999
 20
2.897499999999999
 30
0
 11
7.68
 21
2.892499999999999
 31
0
  0
LINE
  8
0
 62
7
 10
7.68
 20
2.892499999999999
 30
0
 11
7.686749999999998
 21
2.889999999999999
 31
0
  0
LINE
  8
0
 62
7
 10
7.686749999999998
 20
2.889999999999999
 30
0
 11
7.695749999999999
 21
2.889999999999999
 31
0
  0
LINE
  8
0
 62
7
 10
7.695749999999999
 20
2.889999999999999
 30
0
 11
7.7025
 21
2.892499999999999
 31
0
  0
LINE
  8
0
 62
7
 10
7.7025
 20
2.892499999999999
 30
0
 11
7.709249999999999
 21
2.897499999999999
 31
0
  0
LINE
  8
0
 62
7
 10
7.709249999999999
 20
2.897499999999999
 30
0
 11
7.716
 21
2.907499999999999
 31
0
  0
LINE
  8
0
 62
7
 10
7.716
 20
2.907499999999999
 30
0
 11
7.718249999999999
 21
2.914999999999999
 31
0
  0
LINE
  8
0
 62
7
 10
7.718249999999999
 20
2.959999999999999
 30
0
 11
7.718249999999999
 21
2.934999999999999
 31
0
  0
LINE
  8
0
 62
7
 10
7.718249999999999
 20
2.892499999999999
 30
0
 11
7.720499999999999
 21
2.889999999999999
 31
0
  0
LINE
  8
0
 62
7
 10
7.720499999999999
 20
2.889999999999999
 30
0
 11
7.722749999999998
 21
2.889999999999999
 31
0
  0
LINE
  8
0
 62
7
 10
7.718249999999999
 20
2.914999999999999
 30
0
 11
7.718249999999999
 21
2.892499999999999
 31
0
  0
LINE
  8
0
 62
7
 10
7.718249999999999
 20
2.934999999999999
 30
0
 11
7.718249999999999
 21
2.914999999999999
 31
0
  0
LINE
  8
0
 62
7
 10
7.740749999999998
 20
2.889999999999999
 30
0
 11
7.740749999999998
 21
2.892499999999999
 31
0
  0
LINE
  8
0
 62
7
 10
7.740749999999998
 20
2.892499999999999
 30
0
 11
7.742999999999999
 21
2.892499999999999
 31
0
  0
LINE
  8
0
 62
7
 10
7.742999999999999
 20
2.892499999999999
 30
0
 11
7.742999999999999
 21
2.889999999999999
 31
0
  0
LINE
  8
0
 62
7
 10
7.742999999999999
 20
2.889999999999999
 30
0
 11
7.740749999999998
 21
2.889999999999999
 31
0
  0
LINE
  8
0
 62
7
 10
7.86675
 20
2.989999999999999
 30
0
 11
7.875749999999998
 21
2.989999999999999
 31
0
  0
LINE
  8
0
 62
7
 10
7.875749999999998
 20
2.989999999999999
 30
0
 11
7.882499999999999
 21
2.987499999999999
 31
0
  0
LINE
  8
0
 62
7
 10
7.882499999999999
 20
2.987499999999999
 30
0
 11
7.887
 21
2.982499999999999
 31
0
  0
LINE
  8
0
 62
7
 10
7.887
 20
2.982499999999999
 30
0
 11
7.891499999999998
 21
2.975
 31
0
  0
LINE
  8
0
 62
7
 10
7.891499999999998
 20
2.975
 30
0
 11
7.891499999999998
 21
2.964999999999999
 31
0
  0
LINE
  8
0
 62
7
 10
7.891499999999998
 20
2.964999999999999
 30
0
 11
7.889249999999999
 21
2.959999999999999
 31
0
  0
LINE
  8
0
 62
7
 10
7.889249999999999
 20
2.959999999999999
 30
0
 11
7.882499999999999
 21
2.952499999999999
 31
0
  0
LINE
  8
0
 62
7
 10
7.882499999999999
 20
2.952499999999999
 30
0
 11
7.875749999999998
 21
2.949999999999999
 31
0
  0
LINE
  8
0
 62
7
 10
7.875749999999998
 20
2.949999999999999
 30
0
 11
7.86675
 21
2.949999999999999
 31
0
  0
LINE
  8
0
 62
7
 10
7.86675
 20
2.949999999999999
 30
0
 11
7.859999999999999
 21
2.952499999999999
 31
0
  0
LINE
  8
0
 62
7
 10
7.859999999999999
 20
2.952499999999999
 30
0
 11
7.853249999999999
 21
2.959999999999999
 31
0
  0
LINE
  8
0
 62
7
 10
7.853249999999999
 20
2.959999999999999
 30
0
 11
7.850999999999999
 21
2.964999999999999
 31
0
  0
LINE
  8
0
 62
7
 10
7.850999999999999
 20
2.964999999999999
 30
0
 11
7.850999999999999
 21
2.975
 31
0
  0
LINE
  8
0
 62
7
 10
7.850999999999999
 20
2.975
 30
0
 11
7.855499999999998
 21
2.982499999999999
 31
0
  0
LINE
  8
0
 62
7
 10
7.855499999999998
 20
2.982499999999999
 30
0
 11
7.859999999999999
 21
2.987499999999999
 31
0
  0
LINE
  8
0
 62
7
 10
7.859999999999999
 20
2.987499999999999
 30
0
 11
7.86675
 21
2.989999999999999
 31
0
  0
LINE
  8
0
 62
7
 10
7.86675
 20
2.949999999999999
 30
0
 11
7.855499999999998
 21
2.944999999999999
 31
0
  0
LINE
  8
0
 62
7
 10
7.855499999999998
 20
2.944999999999999
 30
0
 11
7.84875
 21
2.9375
 31
0
  0
LINE
  8
0
 62
7
 10
7.84875
 20
2.9375
 30
0
 11
7.844249999999999
 21
2.927499999999999
 31
0
  0
LINE
  8
0
 62
7
 10
7.844249999999999
 20
2.927499999999999
 30
0
 11
7.844249999999999
 21
2.9125
 31
0
  0
LINE
  8
0
 62
7
 10
7.844249999999999
 20
2.9125
 30
0
 11
7.84875
 21
2.902499999999999
 31
0
  0
LINE
  8
0
 62
7
 10
7.84875
 20
2.902499999999999
 30
0
 11
7.855499999999998
 21
2.895
 31
0
  0
LINE
  8
0
 62
7
 10
7.855499999999998
 20
2.895
 30
0
 11
7.864499999999999
 21
2.889999999999999
 31
0
  0
LINE
  8
0
 62
7
 10
7.864499999999999
 20
2.889999999999999
 30
0
 11
7.877999999999999
 21
2.889999999999999
 31
0
  0
LINE
  8
0
 62
7
 10
7.877999999999999
 20
2.889999999999999
 30
0
 11
7.887
 21
2.895
 31
0
  0
LINE
  8
0
 62
7
 10
7.887
 20
2.895
 30
0
 11
7.893749999999999
 21
2.902499999999999
 31
0
  0
LINE
  8
0
 62
7
 10
7.893749999999999
 20
2.902499999999999
 30
0
 11
7.898249999999999
 21
2.9125
 31
0
  0
LINE
  8
0
 62
7
 10
7.898249999999999
 20
2.9125
 30
0
 11
7.898249999999999
 21
2.927499999999999
 31
0
  0
LINE
  8
0
 62
7
 10
7.898249999999999
 20
2.927499999999999
 30
0
 11
7.893749999999999
 21
2.9375
 31
0
  0
LINE
  8
0
 62
7
 10
7.893749999999999
 20
2.9375
 30
0
 11
7.887
 21
2.944999999999999
 31
0
  0
LINE
  8
0
 62
7
 10
7.887
 20
2.944999999999999
 30
0
 11
7.875749999999998
 21
2.949999999999999
 31
0
  0
LINE
  8
0
 62
7
 10
7.988249999999998
 20
2.949999999999999
 30
0
 11
7.986000000000001
 21
2.94
 31
0
  0
LINE
  8
0
 62
7
 10
7.986000000000001
 20
2.94
 30
0
 11
7.981499999999999
 21
2.932499999999999
 31
0
  0
LINE
  8
0
 62
7
 10
7.981499999999999
 20
2.932499999999999
 30
0
 11
7.974749999999999
 21
2.927499999999999
 31
0
  0
LINE
  8
0
 62
7
 10
7.974749999999999
 20
2.927499999999999
 30
0
 11
7.967999999999998
 21
2.924999999999999
 31
0
  0
LINE
  8
0
 62
7
 10
7.967999999999998
 20
2.924999999999999
 30
0
 11
7.954499999999999
 21
2.924999999999999
 31
0
  0
LINE
  8
0
 62
7
 10
7.954499999999999
 20
2.924999999999999
 30
0
 11
7.947749999999998
 21
2.927499999999999
 31
0
  0
LINE
  8
0
 62
7
 10
7.947749999999998
 20
2.927499999999999
 30
0
 11
7.941
 21
2.932499999999999
 31
0
  0
LINE
  8
0
 62
7
 10
7.941
 20
2.932499999999999
 30
0
 11
7.936499999999999
 21
2.94
 31
0
  0
LINE
  8
0
 62
7
 10
7.936499999999999
 20
2.94
 30
0
 11
7.934249999999999
 21
2.949999999999999
 31
0
  0
LINE
  8
0
 62
7
 10
7.934249999999999
 20
2.949999999999999
 30
0
 11
7.934249999999999
 21
2.964999999999999
 31
0
  0
LINE
  8
0
 62
7
 10
7.934249999999999
 20
2.964999999999999
 30
0
 11
7.936499999999999
 21
2.975
 31
0
  0
LINE
  8
0
 62
7
 10
7.936499999999999
 20
2.975
 30
0
 11
7.941
 21
2.982499999999999
 31
0
  0
LINE
  8
0
 62
7
 10
7.941
 20
2.982499999999999
 30
0
 11
7.947749999999998
 21
2.987499999999999
 31
0
  0
LINE
  8
0
 62
7
 10
7.947749999999998
 20
2.987499999999999
 30
0
 11
7.954499999999999
 21
2.989999999999999
 31
0
  0
LINE
  8
0
 62
7
 10
7.954499999999999
 20
2.989999999999999
 30
0
 11
7.967999999999998
 21
2.989999999999999
 31
0
  0
LINE
  8
0
 62
7
 10
7.967999999999998
 20
2.989999999999999
 30
0
 11
7.974749999999999
 21
2.987499999999999
 31
0
  0
LINE
  8
0
 62
7
 10
7.974749999999999
 20
2.987499999999999
 30
0
 11
7.981499999999999
 21
2.982499999999999
 31
0
  0
LINE
  8
0
 62
7
 10
7.981499999999999
 20
2.982499999999999
 30
0
 11
7.986000000000001
 21
2.975
 31
0
  0
LINE
  8
0
 62
7
 10
7.986000000000001
 20
2.975
 30
0
 11
7.988249999999998
 21
2.964999999999999
 31
0
  0
LINE
  8
0
 62
7
 10
7.988249999999998
 20
2.964999999999999
 30
0
 11
7.988249999999998
 21
2.949999999999999
 31
0
  0
LINE
  8
0
 62
7
 10
7.988249999999998
 20
2.914999999999999
 30
0
 11
7.986000000000001
 21
2.904999999999999
 31
0
  0
LINE
  8
0
 62
7
 10
7.986000000000001
 20
2.904999999999999
 30
0
 11
7.981499999999999
 21
2.897499999999999
 31
0
  0
LINE
  8
0
 62
7
 10
7.981499999999999
 20
2.897499999999999
 30
0
 11
7.974749999999999
 21
2.892499999999999
 31
0
  0
LINE
  8
0
 62
7
 10
7.974749999999999
 20
2.892499999999999
 30
0
 11
7.967999999999998
 21
2.889999999999999
 31
0
  0
LINE
  8
0
 62
7
 10
7.967999999999998
 20
2.889999999999999
 30
0
 11
7.954499999999999
 21
2.889999999999999
 31
0
  0
LINE
  8
0
 62
7
 10
7.954499999999999
 20
2.889999999999999
 30
0
 11
7.947749999999998
 21
2.892499999999999
 31
0
  0
LINE
  8
0
 62
7
 10
7.947749999999998
 20
2.892499999999999
 30
0
 11
7.941
 21
2.897499999999999
 31
0
  0
LINE
  8
0
 62
7
 10
7.941
 20
2.897499999999999
 30
0
 11
7.936499999999999
 21
2.904999999999999
 31
0
  0
LINE
  8
0
 62
7
 10
7.988249999999998
 20
2.949999999999999
 30
0
 11
7.988249999999998
 21
2.914999999999999
 31
0
  0
LINE
  8
0
 62
7
 10
8.138999999999999
 20
2.942499999999999
 30
0
 11
8.132249999999999
 21
2.952499999999999
 31
0
  0
LINE
  8
0
 62
7
 10
8.132249999999999
 20
2.952499999999999
 30
0
 11
8.125499999999999
 21
2.9575
 31
0
  0
LINE
  8
0
 62
7
 10
8.125499999999999
 20
2.9575
 30
0
 11
8.118749999999999
 21
2.959999999999999
 31
0
  0
LINE
  8
0
 62
7
 10
8.118749999999999
 20
2.959999999999999
 30
0
 11
8.10975
 21
2.959999999999999
 31
0
  0
LINE
  8
0
 62
7
 10
8.10975
 20
2.959999999999999
 30
0
 11
8.103
 21
2.9575
 31
0
  0
LINE
  8
0
 62
7
 10
8.103
 20
2.9575
 30
0
 11
8.09625
 21
2.952499999999999
 31
0
  0
LINE
  8
0
 62
7
 10
8.09625
 20
2.952499999999999
 30
0
 11
8.089499999999999
 21
2.942499999999999
 31
0
  0
LINE
  8
0
 62
7
 10
8.089499999999999
 20
2.942499999999999
 30
0
 11
8.087249999999999
 21
2.934999999999999
 31
0
  0
LINE
  8
0
 62
7
 10
8.087249999999999
 20
2.934999999999999
 30
0
 11
8.087249999999999
 21
2.914999999999999
 31
0
  0
LINE
  8
0
 62
7
 10
8.087249999999999
 20
2.914999999999999
 30
0
 11
8.089499999999999
 21
2.907499999999999
 31
0
  0
LINE
  8
0
 62
7
 10
8.089499999999999
 20
2.907499999999999
 30
0
 11
8.09625
 21
2.897499999999999
 31
0
  0
LINE
  8
0
 62
7
 10
8.09625
 20
2.897499999999999
 30
0
 11
8.103
 21
2.892499999999999
 31
0
  0
LINE
  8
0
 62
7
 10
8.103
 20
2.892499999999999
 30
0
 11
8.10975
 21
2.889999999999999
 31
0
  0
LINE
  8
0
 62
7
 10
8.10975
 20
2.889999999999999
 30
0
 11
8.118749999999999
 21
2.889999999999999
 31
0
  0
LINE
  8
0
 62
7
 10
8.118749999999999
 20
2.889999999999999
 30
0
 11
8.125499999999999
 21
2.892499999999999
 31
0
  0
LINE
  8
0
 62
7
 10
8.125499999999999
 20
2.892499999999999
 30
0
 11
8.132249999999999
 21
2.897499999999999
 31
0
  0
LINE
  8
0
 62
7
 10
8.132249999999999
 20
2.897499999999999
 30
0
 11
8.138999999999999
 21
2.907499999999999
 31
0
  0
LINE
  8
0
 62
7
 10
8.197499999999998
 20
2.934999999999999
 30
0
 11
8.197499999999998
 21
2.889999999999999
 31
0
  0
LINE
  8
0
 62
7
 10
8.156999999999998
 20
2.959999999999999
 30
0
 11
8.156999999999998
 21
2.934999999999999
 31
0
  0
LINE
  8
0
 62
7
 10
8.156999999999998
 20
2.889999999999999
 30
0
 11
8.156999999999998
 21
2.934999999999999
 31
0
  0
LINE
  8
0
 62
7
 10
8.156999999999998
 20
2.934999999999999
 30
0
 11
8.159249999999998
 21
2.947499999999999
 31
0
  0
LINE
  8
0
 62
7
 10
8.159249999999998
 20
2.947499999999999
 30
0
 11
8.161499999999998
 21
2.952499999999999
 31
0
  0
LINE
  8
0
 62
7
 10
8.161499999999998
 20
2.952499999999999
 30
0
 11
8.166
 21
2.9575
 31
0
  0
LINE
  8
0
 62
7
 10
8.166
 20
2.9575
 30
0
 11
8.172749999999999
 21
2.959999999999999
 31
0
  0
LINE
  8
0
 62
7
 10
8.172749999999999
 20
2.959999999999999
 30
0
 11
8.181749999999999
 21
2.959999999999999
 31
0
  0
LINE
  8
0
 62
7
 10
8.181749999999999
 20
2.959999999999999
 30
0
 11
8.188499999999999
 21
2.9575
 31
0
  0
LINE
  8
0
 62
7
 10
8.188499999999999
 20
2.9575
 30
0
 11
8.192999999999998
 21
2.952499999999999
 31
0
  0
LINE
  8
0
 62
7
 10
8.192999999999998
 20
2.952499999999999
 30
0
 11
8.19525
 21
2.947499999999999
 31
0
  0
LINE
  8
0
 62
7
 10
8.19525
 20
2.947499999999999
 30
0
 11
8.197499999999998
 21
2.934999999999999
 31
0
  0
LINE
  8
0
 62
7
 10
8.197499999999998
 20
2.934999999999999
 30
0
 11
8.19975
 21
2.947499999999999
 31
0
  0
LINE
  8
0
 62
7
 10
8.19975
 20
2.947499999999999
 30
0
 11
8.201999999999998
 21
2.952499999999999
 31
0
  0
LINE
  8
0
 62
7
 10
8.201999999999998
 20
2.952499999999999
 30
0
 11
8.206499999999998
 21
2.9575
 31
0
  0
LINE
  8
0
 62
7
 10
8.206499999999998
 20
2.9575
 30
0
 11
8.213249999999999
 21
2.959999999999999
 31
0
  0
LINE
  8
0
 62
7
 10
8.213249999999999
 20
2.959999999999999
 30
0
 11
8.222250000000001
 21
2.959999999999999
 31
0
  0
LINE
  8
0
 62
7
 10
8.222250000000001
 20
2.959999999999999
 30
0
 11
8.228999999999997
 21
2.9575
 31
0
  0
LINE
  8
0
 62
7
 10
8.233500000000001
 20
2.952499999999999
 30
0
 11
8.228999999999997
 21
2.9575
 31
0
  0
LINE
  8
0
 62
7
 10
8.228999999999997
 20
2.9575
 30
0
 11
8.233500000000001
 21
2.952499999999999
 31
0
  0
LINE
  8
0
 62
7
 10
8.233500000000001
 20
2.952499999999999
 30
0
 11
8.235749999999999
 21
2.947499999999999
 31
0
  0
LINE
  8
0
 62
7
 10
8.235749999999999
 20
2.947499999999999
 30
0
 11
8.237999999999998
 21
2.934999999999999
 31
0
  0
LINE
  8
0
 62
7
 10
8.237999999999998
 20
2.934999999999999
 30
0
 11
8.237999999999998
 21
2.889999999999999
 31
0
  0
ARC
  8
0
 62
7
 10
6.420731145389986
 20
4.24573114538996
 30
0
 40
0.4980000000000042
 50
359.9158651664814
 51
90.08413483135539
  0
ARC
  8
0
 62
7
 10
6.169268854610086
 20
4.245731145389992
 30
0
 40
0.4979999999999993
 50
89.91586516643974
 51
180.084134827428
  0
CIRCLE
  8
0
 62
7
 10
5.671269391525188
 20
3.25
 30
0
 40
0.0600000000000005
  0
DIMENSION
  8
0
  6
CONTINUOUS
 62
7
  2
*D1
  3
DMST_1
 10
5.164999999999997
 20
11.5034480892129
 30
0
 11
6.28536753637807
 21
11.5034480892129
 31
0
 12
0
 22
0
 32
0
 70
0
 13
7.424999999999997
 23
11.2
 33
0
 14
5.164999999999996
 24
11.2
 34
0
 53
0
  0
DIMENSION
  8
0
  6
CONTINUOUS
 62
7
  2
*D2
  3
DMST_2
 10
4.64792891543175
 20
3.25
 30
0
 11
4.64792891543175
 21
4.177625236331131
 31
0
 12
0
 22
0
 32
0
 70
0
 13
4.989999999999998
 23
5.25
 33
0
 14
4.989999999999998
 24
3.25
 34
0
 50
90
 53
0
  0
DIMENSION
  8
0
  6
CONTINUOUS
 62
7
  2
*D3
  3
DMST_2
 10
5.164999999999998
 20
6.11927188426165
 30
0
 11
6.28528765585077
 21
6.11927188426165
 31
0
 12
0
 22
0
 32
0
 70
0
 13
7.424999999999999
 23
5.769999999999995
 33
0
 14
5.164999999999999
 24
5.769999999999995
 34
0
 53
0
  0
DIMENSION
  8
0
  6
CONTINUOUS
 62
7
  2
*D4
  3
DMST_2
 10
8.009585798415941
 20
3.35
 30
0
 11
8.009585798415941
 21
4.29354443919265
 31
0
 12
0
 22
0
 32
0
 70
0
 13
7.599999999999999
 23
5.25
 33
0
 14
7.599999999999999
 24
3.35
 34
0
 50
90
 53
0
  0
INSERT
  8
0
  2
*D0
 10
0
 20
0
 30
0
  0
ENDSEC
  0
EOF
