  0
SECTION
  2
HEADER
  9
$ACADVER
  1
AC1009
  9
$INSBASE
 10
0
 20
0
  9
$EXTMIN
 10
0.6091197803751531
 20
2.500000000000001
  9
$EXTMAX
 10
8.250000000000007
 20
11.6094710204125
  9
$LIMMIN
 10
0.6091197803751531
 20
2.500000000000001
  9
$LIMMAX
 10
8.250000000000007
 20
11.6094710204125
  9
$VIEWCTR
 10
10
 20
10
  9
$VIEWSIZE
 40
10
  9
$SNAPMODE
 70
0
  9
$SNAPUNIT
 10
1
 20
1
  9
$SNAPBASE
 10
0
 20
0
  9
$SNAPANG
 50
0
  9
$SNAPSTYLE
 70
0
  9
$SNAPISOPAIR
 70
0
  9
$GRIDMODE
 70
0
  9
$GRIDUNIT
 10
0
 20
0
  9
$ORTHOMODE
 70
0
  9
$REGENMODE
 70
1
  9
$FILLMODE
 70
1
  9
$QTEXTMODE
 70
0
  9
$DRAGMODE
 70
2
  9
$LTSCALE
 40
1
  9
$OSMODE
 70
0
  9
$ATTMODE
 70
1
  9
$TEXTSIZE
 40
3.5
  9
$TRACEWID
 40
0.5
  9
$TEXTSTYLE
  7
STANDARD
  9
$CLAYER
  8
0
  9
$CELTYPE
  6
BYLAYER
  9
$CECOLOR
 62
256
  9
$DIMSCALE
 40
1
  9
$DIMASZ
 40
0.18
  9
$DIMEXO
 40
0.0625
  9
$DIMDLI
 40
0.38
  9
$DIMRND
 40
0
  9
$DIMDLE
 40
0
  9
$DIMEXE
 40
0.18
  9
$DIMTP
 40
0
  9
$DIMTM
 40
0
  9
$DIMTXT
 40
0.18
  9
$DIMCEN
 40
0.09
  9
$DIMTSZ
 40
0
  9
$DIMTOL
 70
0
  9
$DIMLIM
 70
0
  9
$DIMTIH
 70
1
  9
$DIMTOH
 70
1
  9
$DIMSE1
 70
0
  9
$DIMSE2
 70
0
  9
$DIMTAD
 70
0
  9
$DIMZIN
 70
0
  9
$DIMBLK
  1

  9
$DIMASO
 70
1
  9
$DIMSHO
 70
1
  9
$DIMPOST
  1

  9
$DIMAPOST
  1

  9
$DIMALT
 70
0
  9
$DIMALTD
 70
2
  9
$DIMALTF
 40
25.4
  9
$DIMLFAC
 40
1
  9
$DIMTOFL
 70
0
  9
$DIMTVP
 40
0
  9
$DIMTIX
 70
0
  9
$DIMSOXD
 70
0
  9
$DIMSAH
 70
0
  9
$DIMBLK1
  1

  9
$DIMBLK2
  1

  9
$DIMSTYLE
  2
*UNNAMED
  9
$DIMCLRD
 70
0
  9
$DIMCLRE
 70
0
  9
$DIMCLRT
 70
0
  9
$DIMTFAC
 40
1
  9
$DIMGAP
 40
0.09
  9
$LUNITS
 70
2
  9
$LUPREC
 70
4
  9
$AXISMODE
 70
0
  9
$AXISUNIT
 10
0
 20
0
  9
$SKETCHINC
 40
0.1
  9
$FILLETRAD
 40
2
  9
$AUNITS
 70
0
  9
$AUPREC
 70
0
  9
$MENU
  1
ACAD
  9
$ELEVATION
 40
0
  9
$THICKNESS
 40
0
  9
$VIEWDIR
 10
0
 20
0
 30
1
  9
$LIMCHECK
 70
0
  9
$BLIPMODE
 70
1
  9
$CHAMFERA
 40
0
  9
$CHAMFERB
 40
0
  9
$FASTZOOM
 70
1
  9
$SKPOLY
 70
0
  9
$ANGBASE
 50
0
  9
$ANGDIR
 70
0
  9
$PDMODE
 70
0
  9
$PDSIZE
 40
0
  9
$PLINEWID
 40
0
  9
$COORDS
 70
2
  0
ENDSEC
  0
SECTION
  2
TABLES
  0
TABLE
  2
DIMSTYLE
 70
1
  0
DIMSTYLE
  2
DMST_1
 70
0
  3

  4

  5

  6

  7

 40
1
 41
0.1
 42
0
 43
0.7
 44
0.2
 45
0
 46
0
 47
0
 48
0
140
0.1
141
0
142
0.1
143
25.4
144
1
145
0
146
1
147
0.25
 71
0
 72
0
 73
0
 74
0
 75
0
 76
0
 77
0
 78
9
170
0
171
2
172
0
173
0
174
0
175
0
176
7
177
7
178
7
  0
ENDTAB
  0
TABLE
  2
LTYPE
 70
9
  0
LTYPE
  2
CONTINUOUS
 70
64
  3
Solid line
 72
65
 73
0
 40
0
  0
LTYPE
  2
BORDER
 70
64
  3
__ __ . __ __ .
 72
65
 73
6
 40
0.4195151127821545
 49
0.1198614607949013
 49
-0.05993073039745065
 49
0.1198614607949013
 49
-0.05993073039745065
 49
0
 49
-0.05993073039745065
  0
LTYPE
  2
CENTER
 70
64
  3
____ _ ____ _
 72
65
 73
4
 40
0.4794458431796052
 49
0.2996536519872532
 49
-0.05993073039745065
 49
0.05993073039745065
 49
-0.05993073039745065
  0
LTYPE
  2
DASHDOT
 70
64
  3
__ . __ . __ .
 72
65
 73
4
 40
0.2397229215898026
 49
0.1198614607949013
 49
-0.05993073039745065
 49
0
 49
-0.05993073039745065
  0
LTYPE
  2
DASHED
 70
64
  3
__ __ __ __ __
 72
65
 73
2
 40
0.179792191192352
 49
0.1198614607949013
 49
-0.05993073039745065
  0
LTYPE
  2
DIVIDE
 70
64
  3
__ . . __ . . 
 72
65
 73
6
 40
0.2996536519872532
 49
0.1198614607949013
 49
-0.05993073039745065
 49
0
 49
-0.05993073039745065
 49
0
 49
-0.05993073039745065
  0
LTYPE
  2
DOT
 70
64
  3
..............
 72
65
 73
4
 40
0.1198614607949013
 49
0
 49
-0.05993073039745065
 49
0
 49
-0.05993073039745065
  0
LTYPE
  2
HIDDEN
 70
64
  3
_ _ _ _ _ _ _
 72
65
 73
2
 40
0.08989609559617598
 49
0.05993073039745065
 49
-0.02996536519872533
  0
LTYPE
  2
PHANTOM
 70
64
  3
_____ _ _ _____ _ _ 
 72
65
 73
6
 40
0.5993073039745065
 49
0.2996536519872532
 49
-0.05993073039745065
 49
0.05993073039745065
 49
-0.05993073039745065
 49
0.05993073039745065
 49
-0.05993073039745065
  0
ENDTAB
  0
TABLE
  2
LAYER
 70
2
  0
LAYER
  2
0
 70
0
 62
7
  6
CONTINUOUS
  0
ENDTAB
  0
TABLE
  2
STYLE
 70
4
  0
STYLE
  2
STANDARD
 70
0
 40
0
 41
1
 50
0
 71
0
 42
3.5
  3
txt
  4

  0
STYLE
  2
SIMPLEX
 70
0
 40
0
 41
1
 50
0
 71
0
 42
3.5
  3
simplex
  4

  0
STYLE
  2
COMPLEX
 70
0
 40
0
 41
1
 50
0
 71
0
 42
3.5
  3
complex
  4

  0
STYLE
  2
ITALIC
 70
0
 40
0
 41
1
 50
0
 71
0
 42
3.5
  3
italic
  4

  0
ENDTAB
  0
TABLE
  2
VIEW
 70
0
  0
ENDTAB
  0
ENDSEC
  0
SECTION
  2
BLOCKS
  0
BLOCK
  8
0
  2
*X0
 70
1
 10
0
 20
0
 30
0
  0
LINE
  8
0
 62
7
 10
1.25
 20
4.644112549695427
 30
0
 11
1.275887450304575
 21
4.670000000000001
 31
0
  0
LINE
  8
0
 62
7
 10
1.25
 20
4.431980515339463
 30
0
 11
1.488019484660539
 21
4.670000000000001
 31
0
  0
LINE
  8
0
 62
7
 10
1.460151519016504
 20
4.430000000000001
 30
0
 11
1.700151519016503
 21
4.670000000000001
 31
0
  0
LINE
  8
0
 62
7
 10
1.25
 20
4.219848480983499
 30
0
 11
1.424999999999999
 21
4.394848480983499
 31
0
  0
LINE
  8
0
 62
7
 10
1.672283553372468
 20
4.430000000000001
 30
0
 11
1.912283553372467
 21
4.670000000000001
 31
0
  0
LINE
  8
0
 62
7
 10
1.25
 20
4.007716446627535
 30
0
 11
1.424999999999998
 21
4.182716446627533
 31
0
  0
LINE
  8
0
 62
7
 10
1.884415587728433
 20
4.430000000000001
 30
0
 11
2.124415587728432
 21
4.670000000000001
 31
0
  0
LINE
  8
0
 62
7
 10
1.25
 20
3.795584412271571
 30
0
 11
1.424999999999996
 21
3.970584412271568
 31
0
  0
LINE
  8
0
 62
7
 10
2.096547622084397
 20
4.430000000000001
 30
0
 11
2.336547622084396
 21
4.670000000000001
 31
0
  0
LINE
  8
0
 62
7
 10
1.25
 20
3.583452377915607
 30
0
 11
1.424999999999995
 21
3.758452377915602
 31
0
  0
LINE
  8
0
 62
7
 10
2.308679656440361
 20
4.430000000000001
 30
0
 11
2.54867965644036
 21
4.670000000000001
 31
0
  0
LINE
  8
0
 62
7
 10
1.25
 20
3.371320343559643
 30
0
 11
1.424999999999994
 21
3.546320343559636
 31
0
  0
LINE
  8
0
 62
7
 10
2.520811690796326
 20
4.430000000000001
 30
0
 11
2.760811690796324
 21
4.670000000000001
 31
0
  0
LINE
  8
0
 62
7
 10
2.73294372515229
 20
4.430000000000001
 30
0
 11
2.972943725152289
 21
4.670000000000001
 31
0
  0
LINE
  8
0
 62
7
 10
2.945075759508254
 20
4.430000000000001
 30
0
 11
3.185075759508253
 21
4.670000000000001
 31
0
  0
LINE
  8
0
 62
7
 10
3.157207793864218
 20
4.430000000000001
 30
0
 11
3.397207793864217
 21
4.670000000000001
 31
0
  0
LINE
  8
0
 62
7
 10
3.369339828220183
 20
4.430000000000001
 30
0
 11
3.609339828220182
 21
4.670000000000001
 31
0
  0
LINE
  8
0
 62
7
 10
3.581471862576147
 20
4.430000000000001
 30
0
 11
3.821471862576146
 21
4.670000000000001
 31
0
  0
LINE
  8
0
 62
7
 10
3.793603896932111
 20
4.430000000000001
 30
0
 11
4.03360389693211
 21
4.670000000000001
 31
0
  0
LINE
  8
0
 62
7
 10
4.005735931288076
 20
4.430000000000001
 30
0
 11
4.245735931288074
 21
4.670000000000001
 31
0
  0
LINE
  8
0
 62
7
 10
4.217867965644039
 20
4.430000000000001
 30
0
 11
4.457867965644038
 21
4.670000000000001
 31
0
  0
LINE
  8
0
 62
7
 10
4.430000000000003
 20
4.430000000000001
 30
0
 11
4.670000000000002
 21
4.670000000000001
 31
0
  0
LINE
  8
0
 62
7
 10
4.642132034355967
 20
4.430000000000001
 30
0
 11
4.882132034355966
 21
4.670000000000001
 31
0
  0
LINE
  8
0
 62
7
 10
4.854264068711931
 20
4.430000000000001
 30
0
 11
5.094264068711929
 21
4.670000000000001
 31
0
  0
LINE
  8
0
 62
7
 10
5.066396103067895
 20
4.430000000000001
 30
0
 11
5.285000000000011
 21
4.648603896932117
 31
0
  0
LINE
  8
0
 62
7
 10
5.278528137423859
 20
4.430000000000001
 30
0
 11
5.285000000000011
 21
4.436471862576153
 31
0
  0
ENDBLK
  8
0
  0
BLOCK
  8
0
  2
*X1
 70
1
 10
0
 20
0
 30
0
  0
LINE
  8
0
 62
7
 10
1.267840917787124
 20
7.949999999999998
 30
0
 11
1.417840917787125
 21
8.099999999999998
 31
0
  0
LINE
  8
0
 62
7
 10
1.25
 20
8.038225099390855
 30
0
 11
1.311774900609143
 21
8.099999999999998
 31
0
  0
LINE
  8
0
 62
7
 10
1.373906934965107
 20
7.949999999999998
 30
0
 11
1.425
 21
8.00109306503489
 31
0
  0
ENDBLK
  8
0
  0
BLOCK
  8
0
  2
*X2
 70
1
 10
0
 20
0
 30
0
  0
LINE
  8
0
 62
7
 10
1.25
 20
10.6898755288404
 30
0
 11
1.410124471159591
 21
10.85
 31
0
  0
LINE
  8
0
 62
7
 10
1.25
 20
10.47774349448444
 30
0
 11
1.425
 21
10.65274349448444
 31
0
  0
LINE
  8
0
 62
7
 10
1.25
 20
10.26561146012848
 30
0
 11
1.425
 21
10.44061146012847
 31
0
  0
LINE
  8
0
 62
7
 10
1.25
 20
10.05347942577251
 30
0
 11
1.425
 21
10.22847942577251
 31
0
  0
LINE
  8
0
 62
7
 10
1.25
 20
9.841347391416548
 30
0
 11
1.425
 21
10.01634739141655
 31
0
  0
LINE
  8
0
 62
7
 10
1.25
 20
9.629215357060584
 30
0
 11
1.425
 21
9.804215357060583
 31
0
  0
LINE
  8
0
 62
7
 10
1.25
 20
9.41708332270462
 30
0
 11
1.425
 21
9.592083322704619
 31
0
  0
LINE
  8
0
 62
7
 10
1.25
 20
9.204951288348656
 30
0
 11
1.425
 21
9.379951288348655
 31
0
  0
LINE
  8
0
 62
7
 10
1.25
 20
8.992819253992693
 30
0
 11
1.425
 21
9.167819253992691
 31
0
  0
LINE
  8
0
 62
7
 10
1.25
 20
8.780687219636729
 30
0
 11
1.425
 21
8.955687219636728
 31
0
  0
LINE
  8
0
 62
7
 10
1.25
 20
8.568555185280765
 30
0
 11
1.425
 21
8.743555185280764
 31
0
  0
LINE
  8
0
 62
7
 10
1.25
 20
8.356423150924801
 30
0
 11
1.425
 21
8.5314231509248
 31
0
  0
LINE
  8
0
 62
7
 10
1.405708883431161
 20
8.299999999999999
 30
0
 11
1.425
 21
8.319291116568836
 31
0
  0
LINE
  8
0
 62
7
 10
1.25
 20
10.79594154601839
 30
0
 11
1.304058453981609
 21
10.85
 31
0
  0
LINE
  8
0
 62
7
 10
1.25
 20
10.58380951166242
 30
0
 11
1.425
 21
10.75880951166242
 31
0
  0
LINE
  8
0
 62
7
 10
1.25
 20
10.37167747730646
 30
0
 11
1.425
 21
10.54667747730646
 31
0
  0
LINE
  8
0
 62
7
 10
1.25
 20
10.1595454429505
 30
0
 11
1.425
 21
10.33454544295049
 31
0
  0
LINE
  8
0
 62
7
 10
1.25
 20
9.947413408594532
 30
0
 11
1.425
 21
10.12241340859453
 31
0
  0
LINE
  8
0
 62
7
 10
1.25
 20
9.735281374238568
 30
0
 11
1.425
 21
9.910281374238565
 31
0
  0
LINE
  8
0
 62
7
 10
1.25
 20
9.523149339882604
 30
0
 11
1.425
 21
9.698149339882601
 31
0
  0
LINE
  8
0
 62
7
 10
1.25
 20
9.31101730552664
 30
0
 11
1.425
 21
9.486017305526637
 31
0
  0
LINE
  8
0
 62
7
 10
1.25
 20
9.098885271170676
 30
0
 11
1.425
 21
9.273885271170673
 31
0
  0
LINE
  8
0
 62
7
 10
1.25
 20
8.886753236814712
 30
0
 11
1.425
 21
9.06175323681471
 31
0
  0
LINE
  8
0
 62
7
 10
1.25
 20
8.674621202458749
 30
0
 11
1.425
 21
8.849621202458746
 31
0
  0
LINE
  8
0
 62
7
 10
1.25
 20
8.462489168102785
 30
0
 11
1.425
 21
8.637489168102782
 31
0
  0
LINE
  8
0
 62
7
 10
1.299642866253178
 20
8.299999999999997
 30
0
 11
1.425
 21
8.425357133746818
 31
0
  0
ENDBLK
  8
0
  0
BLOCK
  8
0
  2
*X3
 70
1
 10
0
 20
0
 30
0
  0
LINE
  8
0
 62
7
 10
1.25
 20
11.11413959755234
 30
0
 11
1.335860402447663
 21
11.2
 31
0
  0
LINE
  8
0
 62
7
 10
1.397992436803627
 20
11.05
 30
0
 11
1.425
 21
11.07700756319637
 31
0
  0
LINE
  8
0
 62
7
 10
1.291926419625645
 20
11.05
 30
0
 11
1.425
 21
11.18307358037436
 31
0
  0
ENDBLK
  8
0
  0
BLOCK
  8
0
  2
*X4
 70
1
 10
0
 20
0
 30
0
  0
LINE
  8
0
 62
7
  6
DASHED
 10
1.1
 20
8.206423150924801
 30
0
 11
1.193576849075198
 21
8.299999999999997
 31
0
  0
LINE
  8
0
 62
7
  6
DASHED
 10
1.205708883431162
 20
8.099999999999998
 30
0
 11
1.405708883431162
 21
8.299999999999997
 31
0
  0
LINE
  8
0
 62
7
  6
DASHED
 10
1.417840917787127
 20
8.099999999999998
 30
0
 11
1.617840917787126
 21
8.299999999999997
 31
0
  0
LINE
  8
0
 62
7
  6
DASHED
 10
1.629972952143091
 20
8.099999999999998
 30
0
 11
1.829972952143091
 21
8.299999999999997
 31
0
  0
LINE
  8
0
 62
7
  6
DASHED
 10
1.842104986499055
 20
8.099999999999998
 30
0
 11
2.042104986499055
 21
8.299999999999997
 31
0
  0
LINE
  8
0
 62
7
  6
DASHED
 10
2.05423702085502
 20
8.099999999999998
 30
0
 11
2.254237020855019
 21
8.299999999999997
 31
0
  0
LINE
  8
0
 62
7
  6
DASHED
 10
2.266369055210984
 20
8.099999999999998
 30
0
 11
2.466369055210984
 21
8.299999999999997
 31
0
  0
LINE
  8
0
 62
7
  6
DASHED
 10
2.478501089566948
 20
8.099999999999998
 30
0
 11
2.678501089566948
 21
8.299999999999997
 31
0
  0
LINE
  8
0
 62
7
  6
DASHED
 10
2.690633123922912
 20
8.099999999999998
 30
0
 11
2.890633123922912
 21
8.299999999999997
 31
0
  0
LINE
  8
0
 62
7
  6
DASHED
 10
2.902765158278877
 20
8.099999999999998
 30
0
 11
3.102765158278876
 21
8.299999999999997
 31
0
  0
LINE
  8
0
 62
7
  6
DASHED
 10
3.114897192634841
 20
8.099999999999998
 30
0
 11
3.314897192634841
 21
8.299999999999997
 31
0
  0
LINE
  8
0
 62
7
  6
DASHED
 10
3.327029226990805
 20
8.099999999999998
 30
0
 11
3.527029226990805
 21
8.299999999999997
 31
0
  0
LINE
  8
0
 62
7
  6
DASHED
 10
3.53916126134677
 20
8.099999999999998
 30
0
 11
3.739161261346769
 21
8.299999999999997
 31
0
  0
LINE
  8
0
 62
7
  6
DASHED
 10
3.751293295702734
 20
8.099999999999998
 30
0
 11
3.951293295702734
 21
8.299999999999997
 31
0
  0
LINE
  8
0
 62
7
  6
DASHED
 10
3.963425330058698
 20
8.099999999999998
 30
0
 11
4.163425330058698
 21
8.299999999999997
 31
0
  0
LINE
  8
0
 62
7
  6
DASHED
 10
4.175557364414662
 20
8.099999999999998
 30
0
 11
4.375557364414662
 21
8.299999999999997
 31
0
  0
LINE
  8
0
 62
7
  6
DASHED
 10
4.387689398770626
 20
8.099999999999998
 30
0
 11
4.587689398770626
 21
8.299999999999997
 31
0
  0
LINE
  8
0
 62
7
  6
DASHED
 10
4.59982143312659
 20
8.099999999999998
 30
0
 11
4.799821433126589
 21
8.299999999999997
 31
0
  0
LINE
  8
0
 62
7
  6
DASHED
 10
4.811953467482554
 20
8.099999999999998
 30
0
 11
5.011953467482553
 21
8.299999999999997
 31
0
  0
LINE
  8
0
 62
7
  6
DASHED
 10
5.024085501838518
 20
8.099999999999998
 30
0
 11
5.224085501838517
 21
8.299999999999997
 31
0
  0
LINE
  8
0
 62
7
  6
DASHED
 10
5.236217536194482
 20
8.099999999999998
 30
0
 11
5.325000000000012
 21
8.188782463805529
 31
0
  0
LINE
  8
0
 62
7
 10
1.100000000000001
 20
8.100357133746821
 30
0
 11
1.299642866253179
 21
8.299999999999997
 31
0
  0
LINE
  8
0
 62
7
 10
1.311774900609146
 20
8.1
 30
0
 11
1.511774900609144
 21
8.299999999999997
 31
0
  0
LINE
  8
0
 62
7
 10
1.52390693496511
 20
8.1
 30
0
 11
1.723906934965108
 21
8.299999999999997
 31
0
  0
LINE
  8
0
 62
7
 10
1.736038969321074
 20
8.1
 30
0
 11
1.936038969321072
 21
8.299999999999997
 31
0
  0
LINE
  8
0
 62
7
 10
1.948171003677039
 20
8.1
 30
0
 11
2.148171003677037
 21
8.299999999999997
 31
0
  0
LINE
  8
0
 62
7
 10
2.160303038033003
 20
8.1
 30
0
 11
2.360303038033001
 21
8.299999999999997
 31
0
  0
LINE
  8
0
 62
7
 10
2.372435072388967
 20
8.1
 30
0
 11
2.572435072388965
 21
8.299999999999997
 31
0
  0
LINE
  8
0
 62
7
 10
2.584567106744931
 20
8.1
 30
0
 11
2.784567106744929
 21
8.299999999999997
 31
0
  0
LINE
  8
0
 62
7
 10
2.796699141100896
 20
8.1
 30
0
 11
2.996699141100894
 21
8.299999999999997
 31
0
  0
LINE
  8
0
 62
7
 10
3.00883117545686
 20
8.1
 30
0
 11
3.208831175456858
 21
8.299999999999997
 31
0
  0
LINE
  8
0
 62
7
 10
3.220963209812824
 20
8.1
 30
0
 11
3.420963209812822
 21
8.299999999999997
 31
0
  0
LINE
  8
0
 62
7
 10
3.433095244168789
 20
8.1
 30
0
 11
3.633095244168786
 21
8.299999999999997
 31
0
  0
LINE
  8
0
 62
7
 10
3.645227278524753
 20
8.1
 30
0
 11
3.845227278524751
 21
8.299999999999997
 31
0
  0
LINE
  8
0
 62
7
 10
3.857359312880717
 20
8.1
 30
0
 11
4.057359312880715
 21
8.299999999999997
 31
0
  0
LINE
  8
0
 62
7
 10
4.069491347236681
 20
8.1
 30
0
 11
4.269491347236679
 21
8.299999999999997
 31
0
  0
LINE
  8
0
 62
7
 10
4.281623381592645
 20
8.1
 30
0
 11
4.481623381592643
 21
8.299999999999997
 31
0
  0
LINE
  8
0
 62
7
 10
4.493755415948609
 20
8.1
 30
0
 11
4.693755415948607
 21
8.299999999999997
 31
0
  0
LINE
  8
0
 62
7
 10
4.705887450304573
 20
8.1
 30
0
 11
4.90588745030457
 21
8.299999999999997
 31
0
  0
LINE
  8
0
 62
7
 10
4.918019484660537
 20
8.1
 30
0
 11
5.118019484660534
 21
8.299999999999997
 31
0
  0
LINE
  8
0
 62
7
 10
5.130151519016501
 20
8.1
 30
0
 11
5.325000000000013
 21
8.294848480983511
 31
0
  0
ENDBLK
  8
0
  0
BLOCK
  8
0
  2
*X5
 70
1
 10
0
 20
0
 30
0
  0
LINE
  8
0
 62
7
  6
DASHED
 10
1.100000000000001
 20
10.96413959755234
 30
0
 11
1.185860402447664
 21
11.05
 31
0
  0
LINE
  8
0
 62
7
  6
DASHED
 10
1.197992436803632
 20
10.85
 30
0
 11
1.397992436803629
 21
11.05
 31
0
  0
LINE
  8
0
 62
7
  6
DASHED
 10
1.410124471159596
 20
10.85
 30
0
 11
1.610124471159593
 21
11.05
 31
0
  0
LINE
  8
0
 62
7
  6
DASHED
 10
1.62225650551556
 20
10.85
 30
0
 11
1.822256505515557
 21
11.05
 31
0
  0
LINE
  8
0
 62
7
  6
DASHED
 10
1.834388539871525
 20
10.85
 30
0
 11
2.034388539871522
 21
11.05
 31
0
  0
LINE
  8
0
 62
7
  6
DASHED
 10
2.046520574227489
 20
10.85
 30
0
 11
2.246520574227486
 21
11.05
 31
0
  0
LINE
  8
0
 62
7
  6
DASHED
 10
2.258652608583453
 20
10.85
 30
0
 11
2.45865260858345
 21
11.05
 31
0
  0
LINE
  8
0
 62
7
  6
DASHED
 10
2.470784642939417
 20
10.85
 30
0
 11
2.670784642939414
 21
11.05
 31
0
  0
LINE
  8
0
 62
7
  6
DASHED
 10
2.682916677295382
 20
10.85
 30
0
 11
2.882916677295379
 21
11.05
 31
0
  0
LINE
  8
0
 62
7
  6
DASHED
 10
2.895048711651346
 20
10.85
 30
0
 11
3.095048711651343
 21
11.05
 31
0
  0
LINE
  8
0
 62
7
  6
DASHED
 10
3.10718074600731
 20
10.85
 30
0
 11
3.307180746007307
 21
11.05
 31
0
  0
LINE
  8
0
 62
7
  6
DASHED
 10
3.319312780363274
 20
10.85
 30
0
 11
3.519312780363272
 21
11.05
 31
0
  0
LINE
  8
0
 62
7
  6
DASHED
 10
3.531444814719239
 20
10.85
 30
0
 11
3.731444814719236
 21
11.05
 31
0
  0
LINE
  8
0
 62
7
  6
DASHED
 10
3.743576849075203
 20
10.85
 30
0
 11
3.9435768490752
 21
11.05
 31
0
  0
LINE
  8
0
 62
7
  6
DASHED
 10
3.955708883431167
 20
10.85
 30
0
 11
4.155708883431164
 21
11.05
 31
0
  0
LINE
  8
0
 62
7
  6
DASHED
 10
4.167840917787132
 20
10.85
 30
0
 11
4.367840917787128
 21
11.05
 31
0
  0
LINE
  8
0
 62
7
  6
DASHED
 10
4.379972952143095
 20
10.85
 30
0
 11
4.579972952143092
 21
11.05
 31
0
  0
LINE
  8
0
 62
7
  6
DASHED
 10
4.592104986499059
 20
10.85
 30
0
 11
4.792104986499056
 21
11.05
 31
0
  0
LINE
  8
0
 62
7
  6
DASHED
 10
4.804237020855023
 20
10.85
 30
0
 11
5.00423702085502
 21
11.05
 31
0
  0
LINE
  8
0
 62
7
  6
DASHED
 10
5.016369055210987
 20
10.85
 30
0
 11
5.216369055210984
 21
11.05
 31
0
  0
LINE
  8
0
 62
7
  6
DASHED
 10
5.228501089566951
 20
10.85
 30
0
 11
5.325000000000012
 21
10.94649891043306
 31
0
  0
LINE
  8
0
 62
7
 10
1.1
 20
10.85807358037435
 30
0
 11
1.291926419625649
 21
11.05
 31
0
  0
LINE
  8
0
 62
7
 10
1.304058453981612
 20
10.85
 30
0
 11
1.504058453981614
 21
11.05
 31
0
  0
LINE
  8
0
 62
7
 10
1.516190488337577
 20
10.85
 30
0
 11
1.716190488337578
 21
11.05
 31
0
  0
LINE
  8
0
 62
7
 10
1.728322522693541
 20
10.85
 30
0
 11
1.928322522693542
 21
11.05
 31
0
  0
LINE
  8
0
 62
7
 10
1.940454557049505
 20
10.85
 30
0
 11
2.140454557049507
 21
11.05
 31
0
  0
LINE
  8
0
 62
7
 10
2.152586591405469
 20
10.85
 30
0
 11
2.352586591405471
 21
11.05
 31
0
  0
LINE
  8
0
 62
7
 10
2.364718625761434
 20
10.85
 30
0
 11
2.564718625761435
 21
11.05
 31
0
  0
LINE
  8
0
 62
7
 10
2.576850660117398
 20
10.85
 30
0
 11
2.776850660117399
 21
11.05
 31
0
  0
LINE
  8
0
 62
7
 10
2.788982694473362
 20
10.85
 30
0
 11
2.988982694473364
 21
11.05
 31
0
  0
LINE
  8
0
 62
7
 10
3.001114728829327
 20
10.85
 30
0
 11
3.201114728829328
 21
11.05
 31
0
  0
LINE
  8
0
 62
7
 10
3.213246763185291
 20
10.85
 30
0
 11
3.413246763185292
 21
11.05
 31
0
  0
LINE
  8
0
 62
7
 10
3.425378797541255
 20
10.85
 30
0
 11
3.625378797541257
 21
11.05
 31
0
  0
LINE
  8
0
 62
7
 10
3.637510831897219
 20
10.85
 30
0
 11
3.837510831897221
 21
11.05
 31
0
  0
LINE
  8
0
 62
7
 10
3.849642866253184
 20
10.85
 30
0
 11
4.049642866253185
 21
11.05
 31
0
  0
LINE
  8
0
 62
7
 10
4.061774900609148
 20
10.85
 30
0
 11
4.261774900609149
 21
11.05
 31
0
  0
LINE
  8
0
 62
7
 10
4.273906934965112
 20
10.85
 30
0
 11
4.473906934965113
 21
11.05
 31
0
  0
LINE
  8
0
 62
7
 10
4.486038969321076
 20
10.85
 30
0
 11
4.686038969321077
 21
11.05
 31
0
  0
LINE
  8
0
 62
7
 10
4.698171003677039
 20
10.85
 30
0
 11
4.898171003677041
 21
11.05
 31
0
  0
LINE
  8
0
 62
7
 10
4.910303038033003
 20
10.85
 30
0
 11
5.110303038033004
 21
11.05
 31
0
  0
LINE
  8
0
 62
7
 10
5.122435072388967
 20
10.85
 30
0
 11
5.322435072388968
 21
11.05
 31
0
  0
ENDBLK
  8
0
  0
BLOCK
  8
0
  2
*X6
 70
1
 10
0
 20
0
 30
0
  0
LINE
  8
0
 62
7
 10
7.960000000000009
 20
8.066066017177992
 30
0
 11
7.993933982822015
 21
8.099999999999998
 31
0
  0
LINE
  8
0
 62
7
 10
8.056066017177983
 20
7.949999999999998
 30
0
 11
8.200000000000008
 21
8.093933982822023
 31
0
  0
LINE
  8
0
 62
7
 10
7.960000000000007
 20
7.960000000000006
 30
0
 11
8.099999999999998
 21
8.099999999999998
 31
0
  0
LINE
  8
0
 62
7
 10
8.162132034355965
 20
7.949999999999999
 30
0
 11
8.200000000000008
 21
7.987867965644043
 31
0
  0
ENDBLK
  8
0
  0
BLOCK
  8
0
  2
*X7
 70
1
 10
0
 20
0
 30
0
  0
LINE
  8
0
 62
7
 10
7.960000000000008
 20
10.82378246380552
 30
0
 11
7.986217536194484
 21
10.85
 31
0
  0
LINE
  8
0
 62
7
 10
7.960000000000008
 20
10.61165042944956
 30
0
 11
8.198349570550448
 21
10.85
 31
0
  0
LINE
  8
0
 62
7
 10
7.960000000000008
 20
10.39951839509359
 30
0
 11
8.200000000000008
 21
10.63951839509359
 31
0
  0
LINE
  8
0
 62
7
 10
7.960000000000008
 20
10.18738636073763
 30
0
 11
8.200000000000008
 21
10.42738636073763
 31
0
  0
LINE
  8
0
 62
7
 10
7.960000000000008
 20
9.975254326381664
 30
0
 11
8.200000000000008
 21
10.21525432638166
 31
0
  0
LINE
  8
0
 62
7
 10
7.960000000000008
 20
9.763122292025701
 30
0
 11
8.200000000000008
 21
10.0031222920257
 31
0
  0
LINE
  8
0
 62
7
 10
7.960000000000008
 20
9.550990257669737
 30
0
 11
8.200000000000008
 21
9.790990257669737
 31
0
  0
LINE
  8
0
 62
7
 10
7.960000000000008
 20
9.338858223313773
 30
0
 11
8.200000000000008
 21
9.578858223313773
 31
0
  0
LINE
  8
0
 62
7
 10
7.960000000000008
 20
9.126726188957809
 30
0
 11
8.200000000000008
 21
9.366726188957809
 31
0
  0
LINE
  8
0
 62
7
 10
7.960000000000008
 20
8.914594154601845
 30
0
 11
8.200000000000008
 21
9.154594154601845
 31
0
  0
LINE
  8
0
 62
7
 10
7.960000000000008
 20
8.702462120245881
 30
0
 11
8.200000000000008
 21
8.942462120245882
 31
0
  0
LINE
  8
0
 62
7
 10
7.960000000000008
 20
8.490330085889918
 30
0
 11
8.200000000000008
 21
8.730330085889918
 31
0
  0
LINE
  8
0
 62
7
 10
7.98180194846605
 20
8.299999999999997
 30
0
 11
8.200000000000008
 21
8.518198051533954
 31
0
  0
LINE
  8
0
 62
7
 10
8.193933982822013
 20
8.299999999999997
 30
0
 11
8.200000000000008
 21
8.30606601717799
 31
0
  0
LINE
  8
0
 62
7
 10
7.960000000000008
 20
10.71771644662754
 30
0
 11
8.092283553372464
 21
10.85
 31
0
  0
LINE
  8
0
 62
7
 10
7.960000000000008
 20
10.50558441227157
 30
0
 11
8.200000000000008
 21
10.74558441227157
 31
0
  0
LINE
  8
0
 62
7
 10
7.960000000000008
 20
10.29345237791561
 30
0
 11
8.200000000000008
 21
10.53345237791561
 31
0
  0
LINE
  8
0
 62
7
 10
7.960000000000008
 20
10.08132034355964
 30
0
 11
8.200000000000008
 21
10.32132034355965
 31
0
  0
LINE
  8
0
 62
7
 10
7.960000000000008
 20
9.869188309203681
 30
0
 11
8.200000000000008
 21
10.10918830920368
 31
0
  0
LINE
  8
0
 62
7
 10
7.960000000000008
 20
9.657056274847717
 30
0
 11
8.200000000000008
 21
9.897056274847719
 31
0
  0
LINE
  8
0
 62
7
 10
7.960000000000008
 20
9.444924240491753
 30
0
 11
8.200000000000008
 21
9.684924240491755
 31
0
  0
LINE
  8
0
 62
7
 10
7.960000000000008
 20
9.232792206135789
 30
0
 11
8.200000000000008
 21
9.472792206135791
 31
0
  0
LINE
  8
0
 62
7
 10
7.960000000000008
 20
9.020660171779825
 30
0
 11
8.200000000000008
 21
9.260660171779827
 31
0
  0
LINE
  8
0
 62
7
 10
7.960000000000008
 20
8.808528137423862
 30
0
 11
8.200000000000008
 21
9.048528137423864
 31
0
  0
LINE
  8
0
 62
7
 10
7.960000000000008
 20
8.596396103067898
 30
0
 11
8.200000000000008
 21
8.8363961030679
 31
0
  0
LINE
  8
0
 62
7
 10
7.960000000000008
 20
8.384264068711934
 30
0
 11
8.200000000000008
 21
8.624264068711936
 31
0
  0
LINE
  8
0
 62
7
 10
8.087867965644033
 20
8.299999999999995
 30
0
 11
8.200000000000008
 21
8.412132034355972
 31
0
  0
ENDBLK
  8
0
  0
BLOCK
  8
0
  2
*X8
 70
1
 10
0
 20
0
 30
0
  0
LINE
  8
0
 62
7
 10
7.97408550183852
 20
11.05
 30
0
 11
8.12408550183852
 21
11.2
 31
0
  0
LINE
  8
0
 62
7
 10
8.186217536194484
 20
11.05
 30
0
 11
8.200000000000008
 21
11.06378246380552
 31
0
  0
LINE
  8
0
 62
7
 10
7.960000000000009
 20
11.14198051533947
 30
0
 11
8.018019484660535
 21
11.2
 31
0
  0
LINE
  8
0
 62
7
 10
8.0801515190165
 20
11.05
 30
0
 11
8.200000000000006
 21
11.16984848098351
 31
0
  0
ENDBLK
  8
0
  0
BLOCK
  8
0
  2
*X9
 70
1
 10
0
 20
0
 30
0
  0
LINE
  8
0
 62
7
  6
DASHED
 10
6.580000000000013
 20
8.170990257669743
 30
0
 11
6.709009742330267
 21
8.299999999999997
 31
0
  0
LINE
  8
0
 62
7
  6
DASHED
 10
6.721141776686231
 20
8.099999999999998
 30
0
 11
6.880000000000011
 21
8.258858223313778
 31
0
  0
LINE
  8
0
 62
7
 10
6.580000000000012
 20
8.277056274847723
 30
0
 11
6.602943725152285
 21
8.299999999999997
 31
0
  0
LINE
  8
0
 62
7
 10
6.61507575950825
 20
8.099999999999998
 30
0
 11
6.815075759508249
 21
8.299999999999997
 31
0
  0
LINE
  8
0
 62
7
 10
6.827207793864214
 20
8.099999999999998
 30
0
 11
6.880000000000012
 21
8.152792206135796
 31
0
  0
ENDBLK
  8
0
  0
BLOCK
  8
0
  2
*X10
 70
1
 10
0
 20
0
 30
0
  0
LINE
  8
0
 62
7
  6
DASHED
 10
6.580000000000011
 20
10.92870670429728
 30
0
 11
6.701293295702735
 21
11.05
 31
0
  0
LINE
  8
0
 62
7
  6
DASHED
 10
6.713425330058699
 20
10.85
 30
0
 11
6.880000000000011
 21
11.01657466994131
 31
0
  0
LINE
  8
0
 62
7
 10
6.580000000000013
 20
11.03477272147526
 30
0
 11
6.595227278524755
 21
11.05
 31
0
  0
LINE
  8
0
 62
7
 10
6.607359312880718
 20
10.85
 30
0
 11
6.807359312880719
 21
11.05
 31
0
  0
LINE
  8
0
 62
7
 10
6.819491347236681
 20
10.85
 30
0
 11
6.88000000000001
 21
10.91050865276333
 31
0
  0
ENDBLK
  8
0
  0
BLOCK
  8
0
  2
*X11
 70
1
 10
0
 20
0
 30
0
  0
LINE
  8
0
 62
7
  6
DASHED
 10
7.960000000000008
 20
11.03591449816149
 30
0
 11
7.97408550183852
 21
11.05
 31
0
  0
LINE
  8
0
 62
7
  6
DASHED
 10
7.986217536194484
 20
10.85
 30
0
 11
8.186217536194484
 21
11.05
 31
0
  0
LINE
  8
0
 62
7
  6
DASHED
 10
8.198349570550448
 20
10.85
 30
0
 11
8.200000000000006
 21
10.85165042944956
 31
0
  0
LINE
  8
0
 62
7
 10
7.960000000000009
 20
10.92984848098351
 30
0
 11
8.0801515190165
 21
11.05
 31
0
  0
LINE
  8
0
 62
7
 10
8.092283553372464
 20
10.85
 30
0
 11
8.200000000000008
 21
10.95771644662754
 31
0
  0
ENDBLK
  8
0
  0
BLOCK
  8
0
  2
*X12
 70
1
 10
0
 20
0
 30
0
  0
LINE
  8
0
 62
7
  6
DASHED
 10
7.960000000000009
 20
8.278198051533954
 30
0
 11
7.98180194846605
 21
8.299999999999997
 31
0
  0
LINE
  8
0
 62
7
  6
DASHED
 10
7.993933982822015
 20
8.099999999999998
 30
0
 11
8.193933982822013
 21
8.299999999999997
 31
0
  0
LINE
  8
0
 62
7
 10
7.960000000000008
 20
8.17213203435597
 30
0
 11
8.087867965644033
 21
8.299999999999995
 31
0
  0
LINE
  8
0
 62
7
 10
8.099999999999998
 20
8.099999999999998
 30
0
 11
8.20000000000001
 21
8.200000000000008
 31
0
  0
ENDBLK
  8
0
  0
BLOCK
  8
0
  2
*X13
 70
1
 10
0
 20
0
 30
0
  0
LINE
  8
0
 62
7
 10
1.25
 20
5.068376618407356
 30
0
 11
1.281623381592643
 21
5.099999999999999
 31
0
  0
LINE
  8
0
 62
7
 10
1.25
 20
4.856244584051392
 30
0
 11
1.425
 21
5.031244584051392
 31
0
  0
LINE
  8
0
 62
7
 10
1.315887450304574
 20
4.71
 30
0
 11
1.555887450304573
 21
4.949999999999999
 31
0
  0
LINE
  8
0
 62
7
 10
1.528019484660538
 20
4.71
 30
0
 11
1.768019484660538
 21
4.949999999999999
 31
0
  0
LINE
  8
0
 62
7
 10
1.740151519016502
 20
4.71
 30
0
 11
1.980151519016502
 21
4.949999999999999
 31
0
  0
LINE
  8
0
 62
7
 10
1.952283553372467
 20
4.71
 30
0
 11
2.192283553372466
 21
4.949999999999999
 31
0
  0
LINE
  8
0
 62
7
 10
2.164415587728431
 20
4.71
 30
0
 11
2.404415587728431
 21
4.949999999999999
 31
0
  0
LINE
  8
0
 62
7
 10
2.376547622084395
 20
4.71
 30
0
 11
2.616547622084395
 21
4.949999999999999
 31
0
  0
LINE
  8
0
 62
7
 10
2.588679656440359
 20
4.71
 30
0
 11
2.828679656440359
 21
4.949999999999999
 31
0
  0
LINE
  8
0
 62
7
 10
2.800811690796324
 20
4.71
 30
0
 11
3.040811690796323
 21
4.949999999999999
 31
0
  0
LINE
  8
0
 62
7
 10
3.012943725152288
 20
4.71
 30
0
 11
3.252943725152288
 21
4.949999999999999
 31
0
  0
LINE
  8
0
 62
7
 10
3.225075759508252
 20
4.71
 30
0
 11
3.465075759508252
 21
4.949999999999999
 31
0
  0
LINE
  8
0
 62
7
 10
3.437207793864216
 20
4.71
 30
0
 11
3.677207793864216
 21
4.949999999999999
 31
0
  0
LINE
  8
0
 62
7
 10
3.649339828220181
 20
4.71
 30
0
 11
3.889339828220181
 21
4.949999999999999
 31
0
  0
LINE
  8
0
 62
7
 10
3.861471862576145
 20
4.71
 30
0
 11
4.101471862576145
 21
4.949999999999999
 31
0
  0
LINE
  8
0
 62
7
 10
4.073603896932109
 20
4.71
 30
0
 11
4.313603896932109
 21
4.949999999999999
 31
0
  0
LINE
  8
0
 62
7
 10
4.285735931288073
 20
4.71
 30
0
 11
4.525735931288072
 21
4.949999999999999
 31
0
  0
LINE
  8
0
 62
7
 10
4.497867965644037
 20
4.71
 30
0
 11
4.737867965644036
 21
4.949999999999999
 31
0
  0
LINE
  8
0
 62
7
 10
4.710000000000001
 20
4.71
 30
0
 11
4.95
 21
4.949999999999999
 31
0
  0
LINE
  8
0
 62
7
 10
4.922132034355965
 20
4.71
 30
0
 11
5.162132034355964
 21
4.949999999999999
 31
0
  0
LINE
  8
0
 62
7
 10
5.134264068711929
 20
4.71
 30
0
 11
5.285000000000012
 21
4.860735931288083
 31
0
  0
ENDBLK
  8
0
  0
BLOCK
  8
0
  2
*D0
 70
1
 10
0
 20
0
 30
0
  0
LINE
  8
0
 62
7
 10
0.7341197803751531
 20
10.35537270765913
 30
0
 11
0.7341197803751531
 21
11.05
 31
0
  0
LINE
  8
0
 62
7
 10
0.7341197803751531
 20
8.299999999999999
 30
0
 11
0.7341197803751531
 21
9.175372707659132
 31
0
  0
LINE
  8
0
 62
7
 10
1.1
 20
11.05
 30
0
 11
0.6841197803751531
 21
11.05
 31
0
  0
LINE
  8
0
 62
7
 10
1.1
 20
8.299999999999999
 30
0
 11
0.6841197803751531
 21
8.299999999999999
 31
0
  0
LINE
  8
0
 62
7
 10
0.7694751194344805
 20
11.01464466094067
 30
0
 11
0.6987644413158257
 21
11.08535533905933
 31
0
  0
LINE
  8
0
 62
7
 10
0.6987644413158257
 20
8.335355339059326
 30
0
 11
0.7694751194344805
 21
8.264644660940672
 31
0
  0
TEXT
  8
0
 62
7
 10
0.7091197803751531
 20
9.645372707659133
 30
0
 40
0.1
  1
275
 50
90
 41
0.9
  0
TEXT
  8
0
 62
7
 10
0.8591197803751531
 20
9.425372707659132
 30
0
 40
0.1
  1
(260-280)
 50
90
 41
0.9
  0
ENDBLK
  8
0
  0
BLOCK
  8
0
  2
*D1
 70
1
 10
0
 20
0
 30
0
  0
LINE
  8
0
 62
7
 10
3.60124726647187
 20
3.00132557786366
 30
0
 11
5.185000000000011
 21
3.00132557786366
 31
0
  0
LINE
  8
0
 62
7
 10
1.424999999999993
 20
3.00132557786366
 30
0
 11
2.82624726647187
 21
3.00132557786366
 31
0
  0
LINE
  8
0
 62
7
 10
5.185000000000011
 20
3.350000000000001
 30
0
 11
5.185000000000011
 21
2.95132557786366
 31
0
  0
LINE
  8
0
 62
7
 10
1.424999999999993
 20
3.350000000000001
 30
0
 11
1.424999999999993
 21
2.95132557786366
 31
0
  0
LINE
  8
0
 62
7
 10
5.149644660940684
 20
2.965970238804333
 30
0
 11
5.220355339059338
 21
3.036680916922987
 31
0
  0
LINE
  8
0
 62
7
 10
1.46035533905932
 20
3.036680916922987
 30
0
 11
1.389644660940666
 21
2.965970238804333
 31
0
  0
TEXT
  8
0
 62
7
 10
3.07624726647187
 20
2.95632557786366
 30
0
 40
0.1
  1
3,76
 41
0.9
  0
ENDBLK
  8
0
  0
BLOCK
  8
0
  2
*D2
 70
1
 10
0
 20
0
 30
0
  0
LINE
  8
0
 62
7
 10
3.69385844123966
 20
5.365700042041741
 30
0
 11
5.285000000000011
 21
5.365700042041741
 31
0
  0
LINE
  8
0
 62
7
 10
1.425
 20
5.365700042041741
 30
0
 11
2.91885844123966
 21
5.365700042041741
 31
0
  0
LINE
  8
0
 62
7
 10
5.285000000000011
 20
4.949999999999998
 30
0
 11
5.285000000000011
 21
5.415700042041741
 31
0
  0
LINE
  8
0
 62
7
 10
1.425
 20
4.949999999999998
 30
0
 11
1.425
 21
5.415700042041741
 31
0
  0
LINE
  8
0
 62
7
 10
1.460355339059327
 20
5.401055381101068
 30
0
 11
1.389644660940673
 21
5.330344702982414
 31
0
  0
LINE
  8
0
 62
7
 10
5.249644660940683
 20
5.330344702982414
 30
0
 11
5.320355339059338
 21
5.401055381101068
 31
0
  0
TEXT
  8
0
 62
7
 10
3.16885844123966
 20
5.320700042041741
 30
0
 40
0.1
  1
3,86
 41
0.9
  0
ENDBLK
  8
0
  0
BLOCK
  8
0
  2
*D3
 70
1
 10
0
 20
0
 30
0
  0
LINE
  8
0
 62
7
 10
0.941837051795444
 20
4.254369463564331
 30
0
 11
0.941837051795444
 21
4.430000000000001
 31
0
  0
LINE
  8
0
 62
7
 10
0.941837051795444
 20
3.350000000000001
 30
0
 11
0.941837051795444
 21
3.50936946356433
 31
0
  0
LINE
  8
0
 62
7
 10
1.425
 20
4.430000000000001
 30
0
 11
0.8918370517954439
 21
4.430000000000001
 31
0
  0
LINE
  8
0
 62
7
 10
1.424999999999993
 20
3.350000000000001
 30
0
 11
0.8918370517954439
 21
3.350000000000001
 31
0
  0
LINE
  8
0
 62
7
 10
0.9771923908547714
 20
4.394644660940673
 30
0
 11
0.9064817127361166
 21
4.465355339059328
 31
0
  0
LINE
  8
0
 62
7
 10
0.9064817127361166
 20
3.385355339059328
 30
0
 11
0.9771923908547714
 21
3.314644660940674
 31
0
  0
TEXT
  8
0
 62
7
 10
0.986837051795444
 20
3.75936946356433
 30
0
 40
0.1
  1
1,08
 50
90
 41
0.9
  0
ENDBLK
  8
0
  0
BLOCK
  8
0
  2
*D4
 70
1
 10
0
 20
0
 30
0
  0
LINE
  8
0
 62
7
 10
3.648328801018011
 20
11.5544710204125
 30
0
 11
5.185000000000012
 21
11.5544710204125
 31
0
  0
LINE
  8
0
 62
7
 10
1.425000000000001
 20
11.5544710204125
 30
0
 11
2.873328801018011
 21
11.5544710204125
 31
0
  0
LINE
  8
0
 62
7
 10
5.185000000000012
 20
11.05
 30
0
 11
5.185000000000012
 21
11.6044710204125
 31
0
  0
LINE
  8
0
 62
7
 10
1.425000000000001
 20
11.05
 30
0
 11
1.425000000000001
 21
11.6044710204125
 31
0
  0
LINE
  8
0
 62
7
 10
5.149644660940685
 20
11.51911568135317
 30
0
 11
5.220355339059339
 21
11.58982635947183
 31
0
  0
LINE
  8
0
 62
7
 10
1.460355339059328
 20
11.58982635947183
 30
0
 11
1.389644660940674
 21
11.51911568135317
 31
0
  0
TEXT
  8
0
 62
7
 10
3.123328801018011
 20
11.5094710204125
 30
0
 40
0.1
  1
3,76
 41
0.9
  0
ENDBLK
  8
0
  0
ENDSEC
  0
SECTION
  2
ENTITIES
  0
INSERT
  8
0
  2
*X0
 10
0
 20
0
 30
0
  0
INSERT
  8
0
  2
*X1
 10
0
 20
0
 30
0
  0
INSERT
  8
0
  2
*X2
 10
0
 20
0
 30
0
  0
INSERT
  8
0
  2
*X3
 10
0
 20
0
 30
0
  0
INSERT
  8
0
  2
*X4
 10
0
 20
0
 30
0
  0
INSERT
  8
0
  2
*X5
 10
0
 20
0
 30
0
  0
INSERT
  8
0
  2
*X6
 10
0
 20
0
 30
0
  0
INSERT
  8
0
  2
*X7
 10
0
 20
0
 30
0
  0
INSERT
  8
0
  2
*X8
 10
0
 20
0
 30
0
  0
INSERT
  8
0
  2
*X9
 10
0
 20
0
 30
0
  0
INSERT
  8
0
  2
*X10
 10
0
 20
0
 30
0
  0
INSERT
  8
0
  2
*X11
 10
0
 20
0
 30
0
  0
INSERT
  8
0
  2
*X12
 10
0
 20
0
 30
0
  0
INSERT
  8
0
  2
*X13
 10
0
 20
0
 30
0
  0
LINE
  8
0
 62
7
 10
7.905006370000002
 20
8.518333226666666
 30
0
 11
6.95500032
 21
8.518333226666666
 31
0
  0
LINE
  8
0
 62
7
 10
6.95500032
 20
8.518333226666666
 30
0
 11
6.95500032
 21
8.583333226666666
 31
0
  0
LINE
  8
0
 62
7
 10
7.905006370000002
 20
8.583333226666666
 30
0
 11
7.905006370000002
 21
8.518333226666666
 31
0
  0
LINE
  8
0
 62
7
 10
6.95500032
 20
8.583333226666666
 30
0
 11
7.905006370000002
 21
8.583333226666666
 31
0
  0
LINE
  8
0
 62
7
 10
7.905002630000005
 20
8.701666566666665
 30
0
 11
6.955000850000005
 21
8.701666566666665
 31
0
  0
LINE
  8
0
 62
7
 10
6.955000850000005
 20
8.701666566666665
 30
0
 11
6.955000850000005
 21
8.766666566666665
 31
0
  0
LINE
  8
0
 62
7
 10
7.905002630000005
 20
8.766666566666665
 30
0
 11
7.905002630000005
 21
8.701666566666665
 31
0
  0
LINE
  8
0
 62
7
 10
6.955000850000005
 20
8.766666566666665
 30
0
 11
7.905002630000005
 21
8.766666566666665
 31
0
  0
LINE
  8
0
 62
7
 10
7.905000770000014
 20
8.884999906666669
 30
0
 11
6.955000700000006
 21
8.884999906666669
 31
0
  0
LINE
  8
0
 62
7
 10
6.955000700000006
 20
8.884999906666669
 30
0
 11
6.955000700000006
 21
8.949999906666667
 31
0
  0
LINE
  8
0
 62
7
 10
7.905000770000014
 20
8.949999906666667
 30
0
 11
7.905000770000014
 21
8.884999906666669
 31
0
  0
LINE
  8
0
 62
7
 10
6.955000700000006
 20
8.949999906666667
 30
0
 11
7.905000770000014
 21
8.949999906666667
 31
0
  0
LINE
  8
0
 62
7
 10
7.905002500000002
 20
9.068333226666665
 30
0
 11
6.95499986
 21
9.068333226666665
 31
0
  0
LINE
  8
0
 62
7
 10
6.95499986
 20
9.068333226666665
 30
0
 11
6.95499986
 21
9.133333226666666
 31
0
  0
LINE
  8
0
 62
7
 10
7.905002500000002
 20
9.133333226666666
 30
0
 11
7.905002500000002
 21
9.068333226666665
 31
0
  0
LINE
  8
0
 62
7
 10
6.95499986
 20
9.133333226666666
 30
0
 11
7.905002500000002
 21
9.133333226666666
 31
0
  0
LINE
  8
0
 62
7
 10
7.904999940000003
 20
9.251666586666667
 30
0
 11
6.954999940000004
 21
9.251666586666667
 31
0
  0
LINE
  8
0
 62
7
 10
6.954999940000004
 20
9.251666586666667
 30
0
 11
6.954999940000004
 21
9.316666586666667
 31
0
  0
LINE
  8
0
 62
7
 10
7.904999940000003
 20
9.316666586666667
 30
0
 11
7.904999940000003
 21
9.251666586666667
 31
0
  0
LINE
  8
0
 62
7
 10
6.954999940000004
 20
9.316666586666667
 30
0
 11
7.904999940000003
 21
9.316666586666667
 31
0
  0
LINE
  8
0
 62
7
 10
7.905000999999998
 20
9.434999946666668
 30
0
 11
6.95500017
 21
9.434999946666668
 31
0
  0
LINE
  8
0
 62
7
 10
6.95500017
 20
9.434999946666668
 30
0
 11
6.95500017
 21
9.499999946666668
 31
0
  0
LINE
  8
0
 62
7
 10
7.905000999999998
 20
9.499999946666668
 30
0
 11
7.905000999999998
 21
9.434999946666668
 31
0
  0
LINE
  8
0
 62
7
 10
6.95500017
 20
9.499999946666668
 30
0
 11
7.905000999999998
 21
9.499999946666668
 31
0
  0
LINE
  8
0
 62
7
 10
7.905001580000004
 20
9.618333226666666
 30
0
 11
6.95500032
 21
9.618333226666666
 31
0
  0
LINE
  8
0
 62
7
 10
6.95500032
 20
9.618333226666666
 30
0
 11
6.95500032
 21
9.683333226666667
 31
0
  0
LINE
  8
0
 62
7
 10
7.905001580000004
 20
9.683333226666667
 30
0
 11
7.905001580000004
 21
9.618333226666666
 31
0
  0
LINE
  8
0
 62
7
 10
6.95500032
 20
9.683333226666667
 30
0
 11
7.905001580000004
 21
9.683333226666667
 31
0
  0
LINE
  8
0
 62
7
 10
7.905000609999997
 20
9.801666666666666
 30
0
 11
6.955000090000003
 21
9.801666666666666
 31
0
  0
LINE
  8
0
 62
7
 10
6.955000090000003
 20
9.801666666666666
 30
0
 11
6.955000090000003
 21
9.866666666666665
 31
0
  0
LINE
  8
0
 62
7
 10
7.905000609999997
 20
9.866666666666665
 30
0
 11
7.905000609999997
 21
9.801666666666666
 31
0
  0
LINE
  8
0
 62
7
 10
6.955000090000003
 20
9.866666666666665
 30
0
 11
7.905000609999997
 21
9.866666666666665
 31
0
  0
LINE
  8
0
 62
7
 10
7.905000000000008
 20
9.984999946666669
 30
0
 11
6.95500017
 21
9.984999946666669
 31
0
  0
LINE
  8
0
 62
7
 10
6.95500017
 20
9.984999946666669
 30
0
 11
6.95500017
 21
10.04999994666667
 31
0
  0
LINE
  8
0
 62
7
 10
7.905000000000008
 20
10.04999994666667
 30
0
 11
7.905000000000008
 21
9.984999946666669
 31
0
  0
LINE
  8
0
 62
7
 10
6.95500017
 20
10.04999994666667
 30
0
 11
7.905000000000008
 21
10.04999994666667
 31
0
  0
LINE
  8
0
 62
7
 10
7.904999990000012
 20
10.16833322666667
 30
0
 11
6.955000240000001
 21
10.16833322666667
 31
0
  0
LINE
  8
0
 62
7
 10
6.955000240000001
 20
10.16833322666667
 30
0
 11
6.955000240000001
 21
10.23333322666667
 31
0
  0
LINE
  8
0
 62
7
 10
7.904999990000012
 20
10.23333322666667
 30
0
 11
7.904999990000012
 21
10.16833322666667
 31
0
  0
LINE
  8
0
 62
7
 10
6.955000240000001
 20
10.23333322666667
 30
0
 11
7.904999990000012
 21
10.23333322666667
 31
0
  0
LINE
  8
0
 62
7
 10
7.905000170000008
 20
10.35166666666667
 30
0
 11
6.954999940000004
 21
10.35166666666667
 31
0
  0
LINE
  8
0
 62
7
 10
6.954999940000004
 20
10.35166666666667
 30
0
 11
6.954999940000004
 21
10.41666666666667
 31
0
  0
LINE
  8
0
 62
7
 10
7.905000170000008
 20
10.41666666666667
 30
0
 11
7.905000170000008
 21
10.35166666666667
 31
0
  0
LINE
  8
0
 62
7
 10
6.954999940000004
 20
10.41666666666667
 30
0
 11
7.905000170000008
 21
10.41666666666667
 31
0
  0
LINE
  8
0
 62
7
 10
6.955000090000003
 20
10.53499994666667
 30
0
 11
6.955000090000003
 21
10.59999994666667
 31
0
  0
LINE
  8
0
 62
7
 10
7.905000210000008
 20
10.59999994666667
 30
0
 11
7.905000210000008
 21
10.53499994666667
 31
0
  0
LINE
  8
0
 62
7
 10
7.905000210000008
 20
10.53499994666667
 30
0
 11
6.955000090000003
 21
10.53499994666667
 31
0
  0
LINE
  8
0
 62
7
 10
6.955000090000003
 20
10.59999994666667
 30
0
 11
7.905000210000008
 21
10.59999994666667
 31
0
  0
LINE
  8
0
 62
7
 10
6.955000090000003
 20
10.71833322666667
 30
0
 11
6.955000090000003
 21
10.78333322666667
 31
0
  0
LINE
  8
0
 62
7
 10
7.9008546
 20
10.78333322666667
 30
0
 11
7.9008546
 21
10.71833322666667
 31
0
  0
LINE
  8
0
 62
7
 10
7.9008546
 20
10.71833322666667
 30
0
 11
6.955000090000003
 21
10.71833322666667
 31
0
  0
LINE
  8
0
 62
7
 10
6.955000090000003
 20
10.78333322666667
 30
0
 11
7.9008546
 21
10.78333322666667
 31
0
  0
LINE
  8
0
 62
7
 10
6.92000001
 20
10.90166666666667
 30
0
 11
6.92000001
 21
10.96666666666667
 31
0
  0
LINE
  8
0
 62
7
 10
7.322679080000004
 20
10.96666666666667
 30
0
 11
7.322679080000004
 21
10.90166666666667
 31
0
  0
LINE
  8
0
 62
7
 10
7.322679080000004
 20
10.90166666666667
 30
0
 11
6.92000001
 21
10.90166666666667
 31
0
  0
LINE
  8
0
 62
7
 10
6.92000001
 20
10.96666666666667
 30
0
 11
7.322679080000004
 21
10.96666666666667
 31
0
  0
LINE
  8
0
 62
7
 10
5.285000040000051
 20
8.518333226666666
 30
0
 11
4.935000080000054
 21
8.518333226666666
 31
0
  0
LINE
  8
0
 62
7
 10
4.935000080000054
 20
8.518333226666666
 30
0
 11
4.935000080000054
 21
8.583333226666666
 31
0
  0
LINE
  8
0
 62
7
 10
5.285000040000051
 20
8.583333226666666
 30
0
 11
5.285000040000051
 21
8.518333226666666
 31
0
  0
LINE
  8
0
 62
7
 10
4.935000080000054
 20
8.583333226666666
 30
0
 11
5.285000040000051
 21
8.583333226666666
 31
0
  0
LINE
  8
0
 62
7
 10
5.025000110000052
 20
8.701666566666665
 30
0
 11
4.675000080000054
 21
8.701666566666665
 31
0
  0
LINE
  8
0
 62
7
 10
4.675000080000054
 20
8.701666566666665
 30
0
 11
4.675000080000054
 21
8.766666566666665
 31
0
  0
LINE
  8
0
 62
7
 10
4.675000080000054
 20
8.766666566666665
 30
0
 11
5.025000110000052
 21
8.766666566666665
 31
0
  0
LINE
  8
0
 62
7
 10
5.025000110000052
 20
8.766666566666665
 30
0
 11
5.025000110000052
 21
8.701666566666665
 31
0
  0
LINE
  8
0
 62
7
 10
4.765000150000041
 20
8.884999906666669
 30
0
 11
4.415000000000052
 21
8.884999906666669
 31
0
  0
LINE
  8
0
 62
7
 10
4.415000000000052
 20
8.884999906666669
 30
0
 11
4.415000000000052
 21
8.949999906666667
 31
0
  0
LINE
  8
0
 62
7
 10
4.765000150000041
 20
8.949999906666667
 30
0
 11
4.765000150000041
 21
8.884999906666669
 31
0
  0
LINE
  8
0
 62
7
 10
4.415000000000052
 20
8.949999906666667
 30
0
 11
4.765000150000041
 21
8.949999906666667
 31
0
  0
LINE
  8
0
 62
7
 10
4.505000080000054
 20
9.068333226666665
 30
0
 11
4.155000000000051
 21
9.068333226666665
 31
0
  0
LINE
  8
0
 62
7
 10
4.155000000000051
 20
9.068333226666665
 30
0
 11
4.155000000000051
 21
9.133333226666666
 31
0
  0
LINE
  8
0
 62
7
 10
4.155000000000051
 20
9.133333226666666
 30
0
 11
4.505000080000054
 21
9.133333226666666
 31
0
  0
LINE
  8
0
 62
7
 10
4.505000080000054
 20
9.133333226666666
 30
0
 11
4.505000080000054
 21
9.068333226666665
 31
0
  0
LINE
  8
0
 62
7
 10
4.245000080000054
 20
9.251666586666667
 30
0
 11
3.89500015000004
 21
9.251666586666667
 31
0
  0
LINE
  8
0
 62
7
 10
3.89500015000004
 20
9.251666586666667
 30
0
 11
3.89500015000004
 21
9.316666586666667
 31
0
  0
LINE
  8
0
 62
7
 10
3.89500015000004
 20
9.316666586666667
 30
0
 11
4.245000080000054
 21
9.316666586666667
 31
0
  0
LINE
  8
0
 62
7
 10
4.245000080000054
 20
9.316666586666667
 30
0
 11
4.245000080000054
 21
9.251666586666667
 31
0
  0
LINE
  8
0
 62
7
 10
3.985000000000051
 20
9.434999946666668
 30
0
 11
3.635000000000051
 21
9.434999946666668
 31
0
  0
LINE
  8
0
 62
7
 10
3.635000000000051
 20
9.434999946666668
 30
0
 11
3.635000000000051
 21
9.499999946666668
 31
0
  0
LINE
  8
0
 62
7
 10
3.635000000000051
 20
9.499999946666668
 30
0
 11
3.985000000000051
 21
9.499999946666668
 31
0
  0
LINE
  8
0
 62
7
 10
3.985000000000051
 20
9.499999946666668
 30
0
 11
3.985000000000051
 21
9.434999946666668
 31
0
  0
LINE
  8
0
 62
7
 10
3.725000000000051
 20
9.618333226666666
 30
0
 11
3.374999850000052
 21
9.618333226666666
 31
0
  0
LINE
  8
0
 62
7
 10
3.374999850000052
 20
9.618333226666666
 30
0
 11
3.374999850000052
 21
9.683333226666667
 31
0
  0
LINE
  8
0
 62
7
 10
3.374999850000052
 20
9.683333226666667
 30
0
 11
3.725000000000051
 21
9.683333226666667
 31
0
  0
LINE
  8
0
 62
7
 10
3.725000000000051
 20
9.683333226666667
 30
0
 11
3.725000000000051
 21
9.618333226666666
 31
0
  0
LINE
  8
0
 62
7
 10
3.465000000000051
 20
9.801666666666666
 30
0
 11
3.115000000000051
 21
9.801666666666666
 31
0
  0
LINE
  8
0
 62
7
 10
3.115000000000051
 20
9.801666666666666
 30
0
 11
3.115000000000051
 21
9.866666666666665
 31
0
  0
LINE
  8
0
 62
7
 10
3.465000000000051
 20
9.866666666666665
 30
0
 11
3.465000000000051
 21
9.801666666666666
 31
0
  0
LINE
  8
0
 62
7
 10
3.115000000000051
 20
9.866666666666665
 30
0
 11
3.465000000000051
 21
9.866666666666665
 31
0
  0
LINE
  8
0
 62
7
 10
2.788522640000054
 20
9.984999946666669
 30
0
 11
2.788522640000054
 21
10.04999994666667
 31
0
  0
LINE
  8
0
 62
7
 10
3.205000000000051
 20
10.04999994666667
 30
0
 11
3.205000000000051
 21
9.984999946666669
 31
0
  0
LINE
  8
0
 62
7
 10
3.205000000000051
 20
9.984999946666669
 30
0
 11
2.788522640000054
 21
9.984999946666669
 31
0
  0
LINE
  8
0
 62
7
 10
2.788522640000054
 20
10.04999994666667
 30
0
 11
3.205000000000051
 21
10.04999994666667
 31
0
  0
LINE
  8
0
 62
7
 10
2.376582030000052
 20
10.16833322666667
 30
0
 11
2.376582030000052
 21
10.23333322666667
 31
0
  0
LINE
  8
0
 62
7
 10
3.014709780000041
 20
10.23333322666667
 30
0
 11
3.014709780000041
 21
10.16833322666667
 31
0
  0
LINE
  8
0
 62
7
 10
2.376582030000052
 20
10.23333322666667
 30
0
 11
3.014709780000041
 21
10.23333322666667
 31
0
  0
LINE
  8
0
 62
7
 10
3.014709780000041
 20
10.16833322666667
 30
0
 11
2.376582030000052
 21
10.16833322666667
 31
0
  0
LINE
  8
0
 62
7
 10
1.953719480000051
 20
10.35166666666667
 30
0
 11
1.953719480000051
 21
10.41666666666667
 31
0
  0
LINE
  8
0
 62
7
 10
2.90776901000004
 20
10.41666666666667
 30
0
 11
2.90776901000004
 21
10.35166666666667
 31
0
  0
LINE
  8
0
 62
7
 10
1.953719480000051
 20
10.41666666666667
 30
0
 11
2.90776901000004
 21
10.41666666666667
 31
0
  0
LINE
  8
0
 62
7
 10
2.90776901000004
 20
10.35166666666667
 30
0
 11
1.953719480000051
 21
10.35166666666667
 31
0
  0
LINE
  8
0
 62
7
 10
1.479999690000052
 20
10.53499994666667
 30
0
 11
1.479999690000052
 21
10.59999994666667
 31
0
  0
LINE
  8
0
 62
7
 10
2.804905700000051
 20
10.59999994666667
 30
0
 11
2.804905700000051
 21
10.53499994666667
 31
0
  0
LINE
  8
0
 62
7
 10
1.479999690000052
 20
10.59999994666667
 30
0
 11
2.804905700000051
 21
10.59999994666667
 31
0
  0
LINE
  8
0
 62
7
 10
2.804905700000051
 20
10.53499994666667
 30
0
 11
1.479999690000052
 21
10.53499994666667
 31
0
  0
LINE
  8
0
 62
7
 10
1.479999690000052
 20
10.71833322666667
 30
0
 11
1.479999690000052
 21
10.78333322666667
 31
0
  0
LINE
  8
0
 62
7
 10
2.72633759000005
 20
10.78333322666667
 30
0
 11
2.72633759000005
 21
10.71833322666667
 31
0
  0
LINE
  8
0
 62
7
 10
2.72633759000005
 20
10.71833322666667
 30
0
 11
1.479999690000052
 21
10.71833322666667
 31
0
  0
LINE
  8
0
 62
7
 10
1.479999690000052
 20
10.78333322666667
 30
0
 11
2.72633759000005
 21
10.78333322666667
 31
0
  0
LINE
  8
0
 62
7
  6
DASHED
 10
1.480000000000051
 20
10.90166666666667
 30
0
 11
1.480000000000051
 21
10.96666666666667
 31
0
  0
LINE
  8
0
 62
7
  6
DASHED
 10
2.52245514000005
 20
10.96666666666667
 30
0
 11
2.52245514000005
 21
10.90166666666667
 31
0
  0
LINE
  8
0
 62
7
  6
DASHED
 10
2.52245514000005
 20
10.90166666666667
 30
0
 11
1.480000000000051
 21
10.90166666666667
 31
0
  0
LINE
  8
0
 62
7
  6
DASHED
 10
1.480000000000051
 20
10.96666666666667
 30
0
 11
2.52245514000005
 21
10.96666666666667
 31
0
  0
LINE
  8
0
 62
7
 10
1.940461565195288
 20
3.400000000000001
 30
0
 11
1.940461565195288
 21
3.424999395563772
 31
0
  0
LINE
  8
0
 62
7
 10
1.940461565195288
 20
3.400000000000001
 30
0
 11
1.834806465933591
 21
3.461000000000002
 31
0
  0
LINE
  8
0
 62
7
 10
1.834806465933591
 20
3.461000000000002
 30
0
 11
2.046116664456993
 21
3.461000000000002
 31
0
  0
LINE
  8
0
 62
7
 10
2.046116664456993
 20
3.461000000000002
 30
0
 11
1.940461565195288
 21
3.400000000000001
 31
0
  0
LINE
  8
0
 62
7
 10
2.43000060433638
 20
3.914538434804713
 30
0
 11
5.285
 21
3.914538434804713
 31
0
  0
LINE
  8
0
 62
7
 10
5.285
 20
4.375
 30
0
 11
4.935
 21
4.375
 31
0
  0
LINE
  8
0
 62
7
 10
4.935
 20
3.425000000000001
 30
0
 11
5.285
 21
3.425000000000001
 31
0
  0
LINE
  8
0
 62
7
 10
5.285
 20
3.425000000000001
 30
0
 11
5.285
 21
4.375
 31
0
  0
LINE
  8
0
 62
7
 10
5.025
 20
4.375
 30
0
 11
4.675
 21
4.375
 31
0
  0
LINE
  8
0
 62
7
 10
4.675
 20
3.425000000000001
 30
0
 11
5.025
 21
3.425000000000001
 31
0
  0
LINE
  8
0
 62
7
 10
5.025
 20
3.425000000000001
 30
0
 11
5.025
 21
4.375
 31
0
  0
LINE
  8
0
 62
7
 10
4.765
 20
4.375
 30
0
 11
4.415
 21
4.375
 31
0
  0
LINE
  8
0
 62
7
 10
4.415
 20
3.425000000000001
 30
0
 11
4.765
 21
3.425000000000001
 31
0
  0
LINE
  8
0
 62
7
 10
4.765
 20
3.425000000000001
 30
0
 11
4.765
 21
4.375
 31
0
  0
LINE
  8
0
 62
7
 10
4.505000000000001
 20
4.375
 30
0
 11
4.155
 21
4.375
 31
0
  0
LINE
  8
0
 62
7
 10
4.155
 20
3.425000000000001
 30
0
 11
4.505000000000001
 21
3.425000000000001
 31
0
  0
LINE
  8
0
 62
7
 10
4.505000000000001
 20
3.425000000000001
 30
0
 11
4.505000000000001
 21
4.375
 31
0
  0
LINE
  8
0
 62
7
 10
4.245
 20
4.375
 30
0
 11
3.895
 21
4.375
 31
0
  0
LINE
  8
0
 62
7
 10
3.895
 20
3.425000000000001
 30
0
 11
4.245
 21
3.425000000000001
 31
0
  0
LINE
  8
0
 62
7
 10
4.245
 20
3.425000000000001
 30
0
 11
4.245
 21
4.375
 31
0
  0
LINE
  8
0
 62
7
 10
3.985
 20
4.375
 30
0
 11
3.635
 21
4.375
 31
0
  0
LINE
  8
0
 62
7
 10
3.635
 20
3.425000000000001
 30
0
 11
3.985
 21
3.425000000000001
 31
0
  0
LINE
  8
0
 62
7
 10
3.985
 20
3.425000000000001
 30
0
 11
3.985
 21
4.375
 31
0
  0
LINE
  8
0
 62
7
 10
3.725
 20
4.375
 30
0
 11
3.375
 21
4.375
 31
0
  0
LINE
  8
0
 62
7
 10
3.375
 20
3.425000000000001
 30
0
 11
3.725
 21
3.425000000000001
 31
0
  0
LINE
  8
0
 62
7
 10
3.725
 20
3.425000000000001
 30
0
 11
3.725
 21
4.375
 31
0
  0
LINE
  8
0
 62
7
 10
3.465
 20
4.375
 30
0
 11
3.115
 21
4.375
 31
0
  0
LINE
  8
0
 62
7
 10
3.115
 20
3.425000000000001
 30
0
 11
3.465
 21
3.425000000000001
 31
0
  0
LINE
  8
0
 62
7
 10
3.465
 20
3.425000000000001
 30
0
 11
3.465
 21
4.375
 31
0
  0
LINE
  8
0
 62
7
 10
3.205
 20
4.375
 30
0
 11
2.788522745692413
 21
4.375
 31
0
  0
LINE
  8
0
 62
7
 10
2.923801958161974
 20
3.425000000000001
 30
0
 11
3.205
 21
3.425000000000001
 31
0
  0
LINE
  8
0
 62
7
 10
3.205
 20
3.425000000000001
 30
0
 11
3.205
 21
4.375
 31
0
  0
LINE
  8
0
 62
7
 10
2.87943065482935
 20
4.375
 30
0
 11
2.376582139775972
 21
4.375
 31
0
  0
LINE
  8
0
 62
7
 10
2.808888688007391
 20
3.425000000000001
 30
0
 11
3.014709867298913
 21
3.425000000000001
 31
0
  0
LINE
  8
0
 62
7
 10
3.014709867298913
 20
3.425000000000001
 30
0
 11
2.87943065482935
 21
4.375
 31
0
  0
LINE
  8
0
 62
7
 10
2.475462579112827
 20
4.375
 30
0
 11
1.953719521753363
 21
4.375
 31
0
  0
LINE
  8
0
 62
7
 10
2.726337383280439
 20
3.425000000000001
 30
0
 11
2.907769127344251
 21
3.425000000000001
 31
0
  0
LINE
  8
0
 62
7
 10
2.907769127344251
 20
3.425000000000001
 30
0
 11
2.475462579112827
 21
4.375
 31
0
  0
LINE
  8
0
 62
7
 10
2.067642577236213
 20
4.375
 30
0
 11
1.48
 21
4.375
 31
0
  0
LINE
  8
0
 62
7
 10
1.48
 20
4.375
 30
0
 11
1.48
 21
4.25787129077425
 31
0
  0
LINE
  8
0
 62
7
 10
2.726337383280439
 20
3.425000000000001
 30
0
 11
2.804905824015659
 21
3.425000000000001
 31
0
  0
LINE
  8
0
 62
7
 10
2.804905824015659
 20
3.425000000000001
 30
0
 11
2.067642577236213
 21
4.375
 31
0
  0
LINE
  8
0
 62
7
 10
1.48
 20
4.370854085393603
 30
0
 11
1.48
 21
3.699498885964513
 31
0
  0
LINE
  8
0
 62
7
 10
2.726337383280439
 20
3.425000000000001
 30
0
 11
1.48
 21
4.370854085393603
 31
0
  0
LINE
  8
0
 62
7
 10
1.48
 20
3.792678555410492
 30
0
 11
1.48
 21
3.390000000000001
 31
0
  0
LINE
  8
0
 62
7
 10
2.456278936841602
 20
3.425000000000001
 30
0
 11
2.522455413612912
 21
3.513138142762613
 31
0
  0
LINE
  8
0
 62
7
 10
2.522455413612912
 20
3.513138142762613
 30
0
 11
1.48
 21
3.792678555410492
 31
0
  0
LINE
  8
0
 62
7
 10
2.456278936841602
 20
3.425000000000001
 30
0
 11
2.726337383280439
 21
3.425000000000001
 31
0
  0
LINE
  8
0
 62
7
 10
2.690982768532809
 20
3.425000000000001
 30
0
 11
2.726337383280439
 21
3.425000000000001
 31
0
  0
LINE
  8
0
 62
7
 10
2.57746169222394
 20
3.425000000000001
 30
0
 11
2.726337383280439
 21
3.425000000000001
 31
0
  0
LINE
  8
0
 62
7
 10
2.43
 20
3.390000000000001
 30
0
 11
2.456278936841602
 21
3.425000000000001
 31
0
  0
LINE
  8
0
 62
7
 10
1.425
 20
8.099999999999998
 30
0
 11
5.185000000000011
 21
8.099999999999998
 31
0
  0
LINE
  8
0
 62
7
 10
5.185000000000011
 20
8.099999999999998
 30
0
 11
5.185000000000011
 21
8.299999999999997
 31
0
  0
LINE
  8
0
 62
7
 10
7.960000000000008
 20
8.299999999999997
 30
0
 11
7.960000000000008
 21
8.399999999999997
 31
0
  0
LINE
  8
0
 62
7
  6
DASHED
 10
7.960000000000008
 20
8.399999999999997
 30
0
 11
6.880000000000011
 21
8.399999999999997
 31
0
  0
LINE
  8
0
 62
7
 10
1.425
 20
4.949999999999998
 30
0
 11
5.285000000000011
 21
4.949999999999998
 31
0
  0
LINE
  8
0
 62
7
 10
1.25
 20
4.71
 30
0
 11
5.285000000000011
 21
4.71
 31
0
  0
LINE
  8
0
 62
7
 10
5.285000000000011
 20
4.949999999999998
 30
0
 11
5.285000000000011
 21
4.71
 31
0
  0
LINE
  8
0
 62
7
 10
1.25
 20
4.670000000000001
 30
0
 11
5.285000000000011
 21
4.670000000000001
 31
0
  0
LINE
  8
0
 62
7
 10
5.185000000000011
 20
4.430000000000001
 30
0
 11
5.285000000000011
 21
4.430000000000001
 31
0
  0
LINE
  8
0
 62
7
 10
5.285000000000011
 20
4.670000000000001
 30
0
 11
5.285000000000011
 21
4.430000000000001
 31
0
  0
LINE
  8
0
 62
7
  6
DASHDOT
 10
5.185000000000011
 20
4.430000000000001
 30
0
 11
5.185000000000011
 21
3.400000000000001
 31
0
  0
LINE
  8
0
 62
7
 10
1.424999999999993
 20
3.350000000000001
 30
0
 11
1.424999999999993
 21
3.400000000000001
 31
0
  0
LINE
  8
0
 62
7
 10
5.185000000000011
 20
3.400000000000001
 30
0
 11
1.424999999999993
 21
3.400000000000001
 31
0
  0
LINE
  8
0
 62
7
 10
5.185000000000011
 20
11.05
 30
0
 11
5.325000000000012
 21
11.05
 31
0
  0
LINE
  8
0
 62
7
 10
5.185000000000011
 20
11.05
 30
0
 11
5.325000000000012
 21
11.05
 31
0
  0
LINE
  8
0
 62
7
 10
5.185000000000011
 20
8.099999999999998
 30
0
 11
5.325000000000012
 21
8.099999999999998
 31
0
  0
LINE
  8
0
 62
7
 10
1.425
 20
8.299999999999997
 30
0
 11
5.185000000000011
 21
8.299999999999997
 31
0
  0
LINE
  8
0
 62
7
 10
1.425
 20
10.85
 30
0
 11
5.185000000000011
 21
10.85
 31
0
  0
LINE
  8
0
 62
7
 10
1.425
 20
11.05
 30
0
 11
5.185000000000011
 21
11.05
 31
0
  0
LINE
  8
0
 62
7
 10
1.425
 20
8.099999999999998
 30
0
 11
1.425
 21
7.949999999999998
 31
0
  0
LINE
  8
0
 62
7
 10
1.25
 20
8.099999999999998
 30
0
 11
1.425
 21
8.099999999999998
 31
0
  0
LINE
  8
0
 62
7
 10
1.25
 20
8.299999999999997
 30
0
 11
1.425
 21
8.299999999999997
 31
0
  0
LINE
  8
0
 62
7
 10
1.25
 20
10.85
 30
0
 11
1.425
 21
10.85
 31
0
  0
LINE
  8
0
 62
7
 10
1.25
 20
11.05
 30
0
 11
1.425
 21
11.05
 31
0
  0
LINE
  8
0
 62
7
 10
1.25
 20
8.099999999999998
 30
0
 11
1.25
 21
7.949999999999998
 31
0
  0
LINE
  8
0
 62
7
 10
1.1
 20
8.099999999999998
 30
0
 11
1.25
 21
8.099999999999998
 31
0
  0
LINE
  8
0
 62
7
 10
1.25
 20
8.399999999999997
 30
0
 11
1.25
 21
8.299999999999997
 31
0
  0
LINE
  8
0
 62
7
 10
1.1
 20
8.299999999999997
 30
0
 11
1.25
 21
8.299999999999997
 31
0
  0
LINE
  8
0
 62
7
 10
1.1
 20
10.85
 30
0
 11
1.25
 21
10.85
 31
0
  0
LINE
  8
0
 62
7
 10
1.25
 20
11.15
 30
0
 11
1.25
 21
11.05
 31
0
  0
LINE
  8
0
 62
7
 10
1.1
 20
11.05
 30
0
 11
1.25
 21
11.05
 31
0
  0
LINE
  8
0
 62
7
  6
DASHDOT
 10
5.325000000000012
 20
8.099999999999998
 30
0
 11
5.325000000000012
 21
8.049999999999997
 31
0
  0
LINE
  8
0
 62
7
  6
DASHDOT
 10
5.325000000000012
 20
10.85
 30
0
 11
5.325000000000012
 21
10.8
 31
0
  0
LINE
  8
0
 62
7
  6
DASHDOT
 10
1.1
 20
8.099999999999998
 30
0
 11
1.1
 21
8.049999999999997
 31
0
  0
LINE
  8
0
 62
7
  6
DASHDOT
 10
1.1
 20
10.85
 30
0
 11
1.1
 21
10.8
 31
0
  0
LINE
  8
0
 62
7
  6
DASHDOT
 10
1.425
 20
11.2
 30
0
 11
1.475
 21
11.2
 31
0
  0
LINE
  8
0
 62
7
  6
DASHDOT
 10
1.425
 20
7.949999999999998
 30
0
 11
1.475
 21
7.949999999999998
 31
0
  0
LINE
  8
0
 62
7
  6
DASHDOT
 10
5.325000000000012
 20
8.449999999999998
 30
0
 11
5.325000000000012
 21
8.399999999999997
 31
0
  0
LINE
  8
0
 62
7
 10
1.425
 20
10.85
 30
0
 11
1.425
 21
8.399999999999997
 31
0
  0
LINE
  8
0
 62
7
 10
1.1
 20
8.399999999999997
 30
0
 11
1.25
 21
8.399999999999997
 31
0
  0
LINE
  8
0
 62
7
 10
1.25
 20
10.85
 30
0
 11
1.25
 21
8.399999999999997
 31
0
  0
LINE
  8
0
 62
7
  6
DASHDOT
 10
1.1
 20
8.449999999999998
 30
0
 11
1.1
 21
8.399999999999997
 31
0
  0
LINE
  8
0
 62
7
  6
DASHDOT
 10
5.325000000000012
 20
11.2
 30
0
 11
5.325000000000012
 21
11.15
 31
0
  0
LINE
  8
0
 62
7
 10
1.425
 20
11.2
 30
0
 11
1.425
 21
11.15
 31
0
  0
LINE
  8
0
 62
7
 10
1.1
 20
11.15
 30
0
 11
1.25
 21
11.15
 31
0
  0
LINE
  8
0
 62
7
 10
1.25
 20
11.2
 30
0
 11
1.25
 21
11.15
 31
0
  0
LINE
  8
0
 62
7
  6
DASHDOT
 10
1.1
 20
11.2
 30
0
 11
1.1
 21
11.15
 31
0
  0
LINE
  8
0
 62
7
  6
DASHDOT
 10
1.1
 20
8.299999999999997
 30
0
 11
1.1
 21
8.099999999999998
 31
0
  0
LINE
  8
0
 62
7
  6
DASHDOT
 10
1.1
 20
8.399999999999997
 30
0
 11
1.1
 21
8.299999999999997
 31
0
  0
LINE
  8
0
 62
7
  6
DASHDOT
 10
1.25
 20
7.949999999999998
 30
0
 11
1.425
 21
7.949999999999998
 31
0
  0
LINE
  8
0
 62
7
  6
DASHDOT
 10
1.2
 20
7.949999999999998
 30
0
 11
1.25
 21
7.949999999999998
 31
0
  0
LINE
  8
0
 62
7
  6
DASHDOT
 10
5.325000000000012
 20
8.299999999999997
 30
0
 11
5.325000000000012
 21
8.099999999999998
 31
0
  0
LINE
  8
0
 62
7
  6
DASHDOT
 10
5.325000000000012
 20
8.399999999999997
 30
0
 11
5.325000000000012
 21
8.299999999999997
 31
0
  0
LINE
  8
0
 62
7
  6
DASHDOT
 10
5.325000000000012
 20
11.05
 30
0
 11
5.325000000000012
 21
10.85
 31
0
  0
LINE
  8
0
 62
7
  6
DASHDOT
 10
5.325000000000012
 20
11.15
 30
0
 11
5.325000000000012
 21
11.05
 31
0
  0
LINE
  8
0
 62
7
  6
DASHDOT
 10
1.1
 20
11.05
 30
0
 11
1.1
 21
10.85
 31
0
  0
LINE
  8
0
 62
7
  6
DASHDOT
 10
1.1
 20
11.15
 30
0
 11
1.1
 21
11.05
 31
0
  0
LINE
  8
0
 62
7
  6
DASHDOT
 10
1.25
 20
11.2
 30
0
 11
1.425
 21
11.2
 31
0
  0
LINE
  8
0
 62
7
  6
DASHDOT
 10
1.2
 20
11.2
 30
0
 11
1.25
 21
11.2
 31
0
  0
LINE
  8
0
 62
7
 10
8.200000000000008
 20
8.099999999999998
 30
0
 11
8.200000000000008
 21
7.949999999999998
 31
0
  0
LINE
  8
0
 62
7
 10
7.960000000000008
 20
11.15
 30
0
 11
7.960000000000008
 21
11.2
 31
0
  0
LINE
  8
0
 62
7
 10
7.960000000000008
 20
11.05
 30
0
 11
8.200000000000008
 21
11.05
 31
0
  0
LINE
  8
0
 62
7
 10
8.200000000000008
 20
11.2
 30
0
 11
8.200000000000008
 21
11.05
 31
0
  0
LINE
  8
0
 62
7
 10
7.960000000000008
 20
10.85
 30
0
 11
7.960000000000008
 21
11.05
 31
0
  0
LINE
  8
0
 62
7
 10
7.960000000000008
 20
10.85
 30
0
 11
8.200000000000008
 21
10.85
 31
0
  0
LINE
  8
0
 62
7
 10
8.200000000000008
 20
11.05
 30
0
 11
8.200000000000008
 21
10.85
 31
0
  0
LINE
  8
0
 62
7
 10
7.960000000000008
 20
8.399999999999997
 30
0
 11
7.960000000000008
 21
10.85
 31
0
  0
LINE
  8
0
 62
7
 10
7.960000000000008
 20
8.299999999999997
 30
0
 11
8.200000000000008
 21
8.299999999999997
 31
0
  0
LINE
  8
0
 62
7
 10
8.200000000000008
 20
10.85
 30
0
 11
8.200000000000008
 21
8.299999999999997
 31
0
  0
LINE
  8
0
 62
7
 10
7.960000000000008
 20
8.099999999999998
 30
0
 11
7.960000000000008
 21
8.299999999999997
 31
0
  0
LINE
  8
0
 62
7
 10
7.960000000000008
 20
8.099999999999998
 30
0
 11
8.200000000000008
 21
8.099999999999998
 31
0
  0
LINE
  8
0
 62
7
 10
8.200000000000008
 20
8.299999999999997
 30
0
 11
8.200000000000008
 21
8.099999999999998
 31
0
  0
LINE
  8
0
 62
7
 10
7.960000000000008
 20
7.949999999999998
 30
0
 11
7.960000000000008
 21
8.099999999999998
 31
0
  0
LINE
  8
0
 62
7
 10
6.880000000000011
 20
10.85
 30
0
 11
6.880000000000011
 21
11.05
 31
0
  0
LINE
  8
0
 62
7
 10
6.580000000000012
 20
10.85
 30
0
 11
6.880000000000011
 21
10.85
 31
0
  0
LINE
  8
0
 62
7
 10
6.580000000000012
 20
11.05
 30
0
 11
6.880000000000011
 21
11.05
 31
0
  0
LINE
  8
0
 62
7
 10
6.580000000000012
 20
8.299999999999997
 30
0
 11
6.880000000000011
 21
8.299999999999997
 31
0
  0
LINE
  8
0
 62
7
 10
6.880000000000011
 20
8.099999999999998
 30
0
 11
6.880000000000011
 21
8.299999999999997
 31
0
  0
LINE
  8
0
 62
7
 10
6.580000000000012
 20
8.099999999999998
 30
0
 11
6.880000000000011
 21
8.099999999999998
 31
0
  0
LINE
  8
0
 62
7
  6
DASHDOT
 10
8.200000000000008
 20
11.2
 30
0
 11
8.250000000000007
 21
11.2
 31
0
  0
LINE
  8
0
 62
7
  6
DASHDOT
 10
6.580000000000012
 20
11.15
 30
0
 11
6.580000000000012
 21
11.2
 31
0
  0
LINE
  8
0
 62
7
  6
DASHDOT
 10
6.580000000000012
 20
8.099999999999998
 30
0
 11
6.580000000000012
 21
8.049999999999997
 31
0
  0
LINE
  8
0
 62
7
  6
DASHDOT
 10
8.200000000000008
 20
7.949999999999998
 30
0
 11
8.250000000000007
 21
7.949999999999998
 31
0
  0
LINE
  8
0
 62
7
 10
6.580000000000012
 20
8.399999999999997
 30
0
 11
6.880000000000011
 21
8.399999999999997
 31
0
  0
LINE
  8
0
 62
7
  6
DASHDOT
 10
6.580000000000012
 20
8.449999999999998
 30
0
 11
6.580000000000012
 21
8.399999999999997
 31
0
  0
LINE
  8
0
 62
7
 10
6.580000000000012
 20
11.15
 30
0
 11
6.880000000000011
 21
11.15
 31
0
  0
LINE
  8
0
 62
7
  6
DASHDOT
 10
6.580000000000012
 20
11.05
 30
0
 11
6.580000000000012
 21
11.15
 31
0
  0
LINE
  8
0
 62
7
  6
DASHDOT
 10
6.580000000000012
 20
8.399999999999997
 30
0
 11
6.580000000000012
 21
8.299999999999997
 31
0
  0
LINE
  8
0
 62
7
  6
DASHDOT
 10
6.580000000000012
 20
8.299999999999997
 30
0
 11
6.580000000000012
 21
8.099999999999998
 31
0
  0
LINE
  8
0
 62
7
  6
DASHDOT
 10
7.960000000000008
 20
7.949999999999998
 30
0
 11
8.200000000000008
 21
7.949999999999998
 31
0
  0
LINE
  8
0
 62
7
  6
DASHDOT
 10
7.910000000000008
 20
7.949999999999998
 30
0
 11
7.960000000000008
 21
7.949999999999998
 31
0
  0
LINE
  8
0
 62
7
  6
DASHDOT
 10
7.910000000000008
 20
11.2
 30
0
 11
7.960000000000008
 21
11.2
 31
0
  0
LINE
  8
0
 62
7
  6
DASHDOT
 10
7.960000000000008
 20
11.2
 30
0
 11
8.200000000000008
 21
11.2
 31
0
  0
LINE
  8
0
 62
7
  6
DASHDOT
 10
6.580000000000012
 20
10.8
 30
0
 11
6.580000000000012
 21
10.85
 31
0
  0
LINE
  8
0
 62
7
  6
DASHDOT
 10
6.580000000000012
 20
10.85
 30
0
 11
6.580000000000012
 21
11.05
 31
0
  0
LINE
  8
0
 62
7
  6
DASHED
 10
6.880000000000011
 20
11.05
 30
0
 11
7.960000000000008
 21
11.05
 31
0
  0
LINE
  8
0
 62
7
  6
DASHED
 10
6.880000000000011
 20
10.85
 30
0
 11
7.960000000000008
 21
10.85
 31
0
  0
LINE
  8
0
 62
7
  6
DASHED
 10
6.880000000000011
 20
8.299999999999997
 30
0
 11
7.960000000000008
 21
8.299999999999997
 31
0
  0
LINE
  8
0
 62
7
  6
DASHED
 10
6.880000000000011
 20
8.099999999999998
 30
0
 11
7.960000000000008
 21
8.099999999999998
 31
0
  0
LINE
  8
0
 62
7
 10
1.425
 20
5.099999999999998
 30
0
 11
1.425
 21
4.949999999999998
 31
0
  0
LINE
  8
0
 62
7
 10
1.25
 20
3.350000000000001
 30
0
 11
1.424999999999993
 21
3.350000000000001
 31
0
  0
LINE
  8
0
 62
7
 10
1.25
 20
4.670000000000001
 30
0
 11
1.25
 21
3.350000000000001
 31
0
  0
LINE
  8
0
 62
7
 10
1.425
 20
4.430000000000001
 30
0
 11
5.185000000000011
 21
4.430000000000001
 31
0
  0
LINE
  8
0
 62
7
  6
DASHDOT
 10
5.185000000000011
 20
3.400000000000001
 30
0
 11
5.185000000000011
 21
3.350000000000001
 31
0
  0
LINE
  8
0
 62
7
  6
DASHDOT
 10
5.185000000000011
 20
3.350000000000001
 30
0
 11
1.424999999999993
 21
3.350000000000001
 31
0
  0
LINE
  8
0
 62
7
 10
1.424999999999993
 20
3.400000000000001
 30
0
 11
1.425
 21
4.430000000000001
 31
0
  0
LINE
  8
0
 62
7
  6
DASHDOT
 10
1.2
 20
5.099999999999998
 30
0
 11
1.25
 21
5.099999999999998
 31
0
  0
LINE
  8
0
 62
7
  6
DASHDOT
 10
1.25
 20
5.099999999999998
 30
0
 11
1.425
 21
5.099999999999998
 31
0
  0
LINE
  8
0
 62
7
  6
DASHDOT
 10
1.425
 20
5.099999999999998
 30
0
 11
1.475
 21
5.099999999999998
 31
0
  0
LINE
  8
0
 62
7
 10
1.25
 20
5.099999999999998
 30
0
 11
1.25
 21
4.71
 31
0
  0
LINE
  8
0
 62
7
 10
1.425
 20
8.399999999999997
 30
0
 11
5.325000000000012
 21
8.399999999999997
 31
0
  0
LINE
  8
0
 62
7
 10
1.425
 20
8.399999999999997
 30
0
 11
1.425
 21
8.299999999999997
 31
0
  0
LINE
  8
0
 62
7
 10
5.185000000000011
 20
8.299999999999997
 30
0
 11
5.325000000000012
 21
8.299999999999997
 31
0
  0
LINE
  8
0
 62
7
 10
5.325000000000012
 20
11.15
 30
0
 11
1.425
 21
11.15
 31
0
  0
LINE
  8
0
 62
7
 10
1.425
 20
11.15
 30
0
 11
1.425
 21
11.05
 31
0
  0
LINE
  8
0
 62
7
 10
5.185000000000011
 20
11.05
 30
0
 11
5.185000000000011
 21
10.85
 31
0
  0
LINE
  8
0
 62
7
 10
5.185000000000011
 20
10.85
 30
0
 11
5.325000000000012
 21
10.85
 31
0
  0
LINE
  8
0
 62
7
  6
DASHED
 10
7.960000000000008
 20
11.15
 30
0
 11
6.880000000000011
 21
11.15
 31
0
  0
LINE
  8
0
 62
7
 10
7.960000000000008
 20
11.05
 30
0
 11
7.960000000000008
 21
11.15
 31
0
  0
LINE
  8
0
 62
7
 10
2.535632343581451
 20
4.087159741100321
 30
0
 11
2.535632343581451
 21
4.207159741100321
 31
0
  0
LINE
  8
0
 62
7
 10
2.611232343581451
 20
4.207159741100321
 30
0
 11
2.557232343581451
 21
4.147159741100322
 31
0
  0
LINE
  8
0
 62
7
 10
2.557232343581451
 20
4.147159741100322
 30
0
 11
2.611232343581451
 21
4.087159741100321
 31
0
  0
LINE
  8
0
 62
7
 10
2.557232343581451
 20
4.147159741100322
 30
0
 11
2.535632343581451
 21
4.123159741100321
 31
0
  0
LINE
  8
0
 62
7
 10
2.719232343581452
 20
4.207159741100321
 30
0
 11
2.643632343581451
 21
4.207159741100321
 31
0
  0
LINE
  8
0
 62
7
 10
2.643632343581451
 20
4.207159741100321
 30
0
 11
2.643632343581451
 21
4.147159741100322
 31
0
  0
LINE
  8
0
 62
7
 10
2.643632343581451
 20
4.087159741100321
 30
0
 11
2.719232343581452
 21
4.087159741100321
 31
0
  0
LINE
  8
0
 62
7
 10
2.708432343581451
 20
4.147159741100322
 30
0
 11
2.643632343581451
 21
4.147159741100322
 31
0
  0
LINE
  8
0
 62
7
 10
2.643632343581451
 20
4.147159741100322
 30
0
 11
2.643632343581451
 21
4.087159741100321
 31
0
  0
LINE
  8
0
 62
7
 10
2.751632343581451
 20
4.087159741100321
 30
0
 11
2.751632343581451
 21
4.207159741100321
 31
0
  0
LINE
  8
0
 62
7
 10
2.751632343581451
 20
4.207159741100321
 30
0
 11
2.827232343581451
 21
4.087159741100321
 31
0
  0
LINE
  8
0
 62
7
 10
2.827232343581451
 20
4.087159741100321
 30
0
 11
2.827232343581451
 21
4.207159741100321
 31
0
  0
LINE
  8
0
 62
7
 10
2.859632343581451
 20
4.087159741100321
 30
0
 11
2.859632343581451
 21
4.207159741100321
 31
0
  0
LINE
  8
0
 62
7
 10
2.859632343581451
 20
4.207159741100321
 30
0
 11
2.935232343581451
 21
4.087159741100321
 31
0
  0
LINE
  8
0
 62
7
 10
2.935232343581451
 20
4.087159741100321
 30
0
 11
2.935232343581451
 21
4.207159741100321
 31
0
  0
LINE
  8
0
 62
7
 10
3.043232343581451
 20
4.171159741100321
 30
0
 11
3.040532343581452
 21
4.183159741100321
 31
0
  0
LINE
  8
0
 62
7
 10
3.040532343581452
 20
4.183159741100321
 30
0
 11
3.035132343581451
 21
4.192159741100322
 31
0
  0
LINE
  8
0
 62
7
 10
3.035132343581451
 20
4.192159741100322
 30
0
 11
3.02973234358145
 21
4.198159741100321
 31
0
  0
LINE
  8
0
 62
7
 10
3.02973234358145
 20
4.198159741100321
 30
0
 11
3.021632343581451
 21
4.20415974110032
 31
0
  0
LINE
  8
0
 62
7
 10
3.021632343581451
 20
4.20415974110032
 30
0
 11
3.013532343581451
 21
4.207159741100321
 31
0
  0
LINE
  8
0
 62
7
 10
3.013532343581451
 20
4.207159741100321
 30
0
 11
2.997332343581451
 21
4.207159741100321
 31
0
  0
LINE
  8
0
 62
7
 10
2.997332343581451
 20
4.207159741100321
 30
0
 11
2.989232343581452
 21
4.20415974110032
 31
0
  0
LINE
  8
0
 62
7
 10
2.989232343581452
 20
4.20415974110032
 30
0
 11
2.981132343581451
 21
4.198159741100321
 31
0
  0
LINE
  8
0
 62
7
 10
2.981132343581451
 20
4.198159741100321
 30
0
 11
2.975732343581451
 21
4.192159741100322
 31
0
  0
LINE
  8
0
 62
7
 10
2.975732343581451
 20
4.192159741100322
 30
0
 11
2.970332343581451
 21
4.183159741100321
 31
0
  0
LINE
  8
0
 62
7
 10
2.970332343581451
 20
4.183159741100321
 30
0
 11
2.967632343581451
 21
4.171159741100321
 31
0
  0
LINE
  8
0
 62
7
 10
2.967632343581451
 20
4.171159741100321
 30
0
 11
2.967632343581451
 21
4.123159741100321
 31
0
  0
LINE
  8
0
 62
7
 10
2.967632343581451
 20
4.123159741100321
 30
0
 11
2.970332343581451
 21
4.11115974110032
 31
0
  0
LINE
  8
0
 62
7
 10
2.970332343581451
 20
4.11115974110032
 30
0
 11
2.975732343581451
 21
4.102159741100322
 31
0
  0
LINE
  8
0
 62
7
 10
2.975732343581451
 20
4.102159741100322
 30
0
 11
2.981132343581451
 21
4.096159741100321
 31
0
  0
LINE
  8
0
 62
7
 10
2.981132343581451
 20
4.096159741100321
 30
0
 11
2.989232343581452
 21
4.090159741100321
 31
0
  0
LINE
  8
0
 62
7
 10
2.989232343581452
 20
4.090159741100321
 30
0
 11
2.997332343581451
 21
4.087159741100321
 31
0
  0
LINE
  8
0
 62
7
 10
2.997332343581451
 20
4.087159741100321
 30
0
 11
3.013532343581451
 21
4.087159741100321
 31
0
  0
LINE
  8
0
 62
7
 10
3.013532343581451
 20
4.087159741100321
 30
0
 11
3.021632343581451
 21
4.090159741100321
 31
0
  0
LINE
  8
0
 62
7
 10
3.021632343581451
 20
4.090159741100321
 30
0
 11
3.02973234358145
 21
4.096159741100321
 31
0
  0
LINE
  8
0
 62
7
 10
3.02973234358145
 20
4.096159741100321
 30
0
 11
3.035132343581451
 21
4.102159741100322
 31
0
  0
LINE
  8
0
 62
7
 10
3.035132343581451
 20
4.102159741100322
 30
0
 11
3.040532343581452
 21
4.11115974110032
 31
0
  0
LINE
  8
0
 62
7
 10
3.040532343581452
 20
4.11115974110032
 30
0
 11
3.043232343581451
 21
4.123159741100321
 31
0
  0
LINE
  8
0
 62
7
 10
3.043232343581451
 20
4.123159741100321
 30
0
 11
3.043232343581451
 21
4.147159741100322
 31
0
  0
LINE
  8
0
 62
7
 10
3.043232343581451
 20
4.147159741100322
 30
0
 11
3.010832343581451
 21
4.147159741100322
 31
0
  0
LINE
  8
0
 62
7
 10
3.121532343581451
 20
4.207159741100321
 30
0
 11
3.105332343581451
 21
4.207159741100321
 31
0
  0
LINE
  8
0
 62
7
 10
3.105332343581451
 20
4.207159741100321
 30
0
 11
3.097232343581451
 21
4.20415974110032
 31
0
  0
LINE
  8
0
 62
7
 10
3.097232343581451
 20
4.20415974110032
 30
0
 11
3.089132343581451
 21
4.198159741100321
 31
0
  0
LINE
  8
0
 62
7
 10
3.089132343581451
 20
4.198159741100321
 30
0
 11
3.083732343581451
 21
4.192159741100322
 31
0
  0
LINE
  8
0
 62
7
 10
3.083732343581451
 20
4.192159741100322
 30
0
 11
3.078332343581451
 21
4.183159741100321
 31
0
  0
LINE
  8
0
 62
7
 10
3.078332343581451
 20
4.183159741100321
 30
0
 11
3.075632343581451
 21
4.171159741100321
 31
0
  0
LINE
  8
0
 62
7
 10
3.075632343581451
 20
4.171159741100321
 30
0
 11
3.075632343581451
 21
4.123159741100321
 31
0
  0
LINE
  8
0
 62
7
 10
3.075632343581451
 20
4.123159741100321
 30
0
 11
3.078332343581451
 21
4.11115974110032
 31
0
  0
LINE
  8
0
 62
7
 10
3.078332343581451
 20
4.11115974110032
 30
0
 11
3.083732343581451
 21
4.102159741100322
 31
0
  0
LINE
  8
0
 62
7
 10
3.083732343581451
 20
4.102159741100322
 30
0
 11
3.089132343581451
 21
4.096159741100321
 31
0
  0
LINE
  8
0
 62
7
 10
3.089132343581451
 20
4.096159741100321
 30
0
 11
3.097232343581451
 21
4.090159741100321
 31
0
  0
LINE
  8
0
 62
7
 10
3.097232343581451
 20
4.090159741100321
 30
0
 11
3.105332343581451
 21
4.087159741100321
 31
0
  0
LINE
  8
0
 62
7
 10
3.105332343581451
 20
4.087159741100321
 30
0
 11
3.121532343581451
 21
4.087159741100321
 31
0
  0
LINE
  8
0
 62
7
 10
3.121532343581451
 20
4.087159741100321
 30
0
 11
3.129632343581451
 21
4.090159741100321
 31
0
  0
LINE
  8
0
 62
7
 10
3.129632343581451
 20
4.090159741100321
 30
0
 11
3.137732343581451
 21
4.096159741100321
 31
0
  0
LINE
  8
0
 62
7
 10
3.137732343581451
 20
4.096159741100321
 30
0
 11
3.143132343581451
 21
4.102159741100322
 31
0
  0
LINE
  8
0
 62
7
 10
3.143132343581451
 20
4.102159741100322
 30
0
 11
3.148532343581451
 21
4.11115974110032
 31
0
  0
LINE
  8
0
 62
7
 10
3.148532343581451
 20
4.11115974110032
 30
0
 11
3.151232343581452
 21
4.123159741100321
 31
0
  0
LINE
  8
0
 62
7
 10
3.151232343581452
 20
4.123159741100321
 30
0
 11
3.151232343581452
 21
4.171159741100321
 31
0
  0
LINE
  8
0
 62
7
 10
3.151232343581452
 20
4.171159741100321
 30
0
 11
3.148532343581451
 21
4.183159741100321
 31
0
  0
LINE
  8
0
 62
7
 10
3.148532343581451
 20
4.183159741100321
 30
0
 11
3.143132343581451
 21
4.192159741100322
 31
0
  0
LINE
  8
0
 62
7
 10
3.143132343581451
 20
4.192159741100322
 30
0
 11
3.137732343581451
 21
4.198159741100321
 31
0
  0
LINE
  8
0
 62
7
 10
3.137732343581451
 20
4.198159741100321
 30
0
 11
3.129632343581451
 21
4.20415974110032
 31
0
  0
LINE
  8
0
 62
7
 10
3.129632343581451
 20
4.20415974110032
 30
0
 11
3.121532343581451
 21
4.207159741100321
 31
0
  0
LINE
  8
0
 62
7
 10
3.172832343581451
 20
4.207159741100321
 30
0
 11
3.210632343581451
 21
4.207159741100321
 31
0
  0
LINE
  8
0
 62
7
 10
3.210632343581451
 20
4.207159741100321
 30
0
 11
3.210632343581451
 21
4.087159741100321
 31
0
  0
LINE
  8
0
 62
7
 10
3.210632343581451
 20
4.207159741100321
 30
0
 11
3.248432343581451
 21
4.207159741100321
 31
0
  0
LINE
  8
0
 62
7
 10
3.280832343581451
 20
4.207159741100321
 30
0
 11
3.318632343581452
 21
4.207159741100321
 31
0
  0
LINE
  8
0
 62
7
 10
3.318632343581452
 20
4.207159741100321
 30
0
 11
3.318632343581452
 21
4.087159741100321
 31
0
  0
LINE
  8
0
 62
7
 10
3.318632343581452
 20
4.207159741100321
 30
0
 11
3.356432343581451
 21
4.207159741100321
 31
0
  0
LINE
  8
0
 62
7
 10
3.475232343581451
 20
4.129159741100319
 30
0
 11
3.529232343581452
 21
4.129159741100319
 31
0
  0
LINE
  8
0
 62
7
 10
3.637232343581452
 20
4.207159741100321
 30
0
 11
3.675032343581452
 21
4.207159741100321
 31
0
  0
LINE
  8
0
 62
7
 10
3.675032343581452
 20
4.207159741100321
 30
0
 11
3.675032343581452
 21
4.087159741100321
 31
0
  0
LINE
  8
0
 62
7
 10
3.675032343581452
 20
4.207159741100321
 30
0
 11
3.712832343581451
 21
4.207159741100321
 31
0
  0
LINE
  8
0
 62
7
 10
3.745232343581451
 20
4.087159741100321
 30
0
 11
3.745232343581451
 21
4.207159741100321
 31
0
  0
LINE
  8
0
 62
7
 10
3.745232343581451
 20
4.207159741100321
 30
0
 11
3.796532343581452
 21
4.207159741100321
 31
0
  0
LINE
  8
0
 62
7
 10
3.796532343581452
 20
4.207159741100321
 30
0
 11
3.807332343581452
 21
4.20415974110032
 31
0
  0
LINE
  8
0
 62
7
 10
3.807332343581452
 20
4.20415974110032
 30
0
 11
3.815432343581451
 21
4.198159741100321
 31
0
  0
LINE
  8
0
 62
7
 10
3.815432343581451
 20
4.198159741100321
 30
0
 11
3.818132343581452
 21
4.192159741100322
 31
0
  0
LINE
  8
0
 62
7
 10
3.818132343581452
 20
4.192159741100322
 30
0
 11
3.820832343581452
 21
4.183159741100321
 31
0
  0
LINE
  8
0
 62
7
 10
3.820832343581452
 20
4.183159741100321
 30
0
 11
3.820832343581452
 21
4.171159741100321
 31
0
  0
LINE
  8
0
 62
7
 10
3.820832343581452
 20
4.171159741100321
 30
0
 11
3.818132343581452
 21
4.162159741100321
 31
0
  0
LINE
  8
0
 62
7
 10
3.818132343581452
 20
4.162159741100321
 30
0
 11
3.815432343581451
 21
4.15615974110032
 31
0
  0
LINE
  8
0
 62
7
 10
3.815432343581451
 20
4.15615974110032
 30
0
 11
3.807332343581452
 21
4.150159741100321
 31
0
  0
LINE
  8
0
 62
7
 10
3.807332343581452
 20
4.150159741100321
 30
0
 11
3.796532343581452
 21
4.147159741100322
 31
0
  0
LINE
  8
0
 62
7
 10
3.796532343581452
 20
4.147159741100322
 30
0
 11
3.788432343581451
 21
4.147159741100322
 31
0
  0
LINE
  8
0
 62
7
 10
3.788432343581451
 20
4.147159741100322
 30
0
 11
3.820832343581452
 21
4.087159741100321
 31
0
  0
LINE
  8
0
 62
7
 10
3.788432343581451
 20
4.147159741100322
 30
0
 11
3.745232343581451
 21
4.147159741100322
 31
0
  0
LINE
  8
0
 62
7
 10
3.918032343581451
 20
4.207159741100321
 30
0
 11
3.842432343581452
 21
4.207159741100321
 31
0
  0
LINE
  8
0
 62
7
 10
3.842432343581452
 20
4.207159741100321
 30
0
 11
3.842432343581452
 21
4.147159741100322
 31
0
  0
LINE
  8
0
 62
7
 10
3.842432343581452
 20
4.087159741100321
 30
0
 11
3.918032343581451
 21
4.087159741100321
 31
0
  0
LINE
  8
0
 62
7
 10
3.907232343581452
 20
4.147159741100322
 30
0
 11
3.842432343581452
 21
4.147159741100322
 31
0
  0
LINE
  8
0
 62
7
 10
3.842432343581452
 20
4.147159741100322
 30
0
 11
3.842432343581452
 21
4.087159741100321
 31
0
  0
LINE
  8
0
 62
7
 10
3.950432343581451
 20
4.087159741100321
 30
0
 11
3.950432343581451
 21
4.147159741100322
 31
0
  0
LINE
  8
0
 62
7
 10
3.950432343581451
 20
4.207159741100321
 30
0
 11
4.001732343581452
 21
4.207159741100321
 31
0
  0
LINE
  8
0
 62
7
 10
4.001732343581452
 20
4.207159741100321
 30
0
 11
4.012532343581452
 21
4.20415974110032
 31
0
  0
LINE
  8
0
 62
7
 10
4.012532343581452
 20
4.20415974110032
 30
0
 11
4.020632343581451
 21
4.198159741100321
 31
0
  0
LINE
  8
0
 62
7
 10
4.020632343581451
 20
4.198159741100321
 30
0
 11
4.023332343581451
 21
4.192159741100322
 31
0
  0
LINE
  8
0
 62
7
 10
4.023332343581451
 20
4.192159741100322
 30
0
 11
4.026032343581451
 21
4.183159741100321
 31
0
  0
LINE
  8
0
 62
7
 10
4.026032343581451
 20
4.183159741100321
 30
0
 11
4.026032343581451
 21
4.171159741100321
 31
0
  0
LINE
  8
0
 62
7
 10
4.026032343581451
 20
4.171159741100321
 30
0
 11
4.023332343581451
 21
4.162159741100321
 31
0
  0
LINE
  8
0
 62
7
 10
4.023332343581451
 20
4.162159741100321
 30
0
 11
4.020632343581451
 21
4.15615974110032
 31
0
  0
LINE
  8
0
 62
7
 10
4.020632343581451
 20
4.15615974110032
 30
0
 11
4.012532343581452
 21
4.150159741100321
 31
0
  0
LINE
  8
0
 62
7
 10
4.012532343581452
 20
4.150159741100321
 30
0
 11
4.001732343581452
 21
4.147159741100322
 31
0
  0
LINE
  8
0
 62
7
 10
4.001732343581452
 20
4.147159741100322
 30
0
 11
3.950432343581451
 21
4.147159741100322
 31
0
  0
LINE
  8
0
 62
7
 10
3.950432343581451
 20
4.147159741100322
 30
0
 11
3.950432343581451
 21
4.207159741100321
 31
0
  0
LINE
  8
0
 62
7
 10
4.047632343581452
 20
4.087159741100321
 30
0
 11
4.047632343581452
 21
4.147159741100322
 31
0
  0
LINE
  8
0
 62
7
 10
4.047632343581452
 20
4.207159741100321
 30
0
 11
4.098932343581452
 21
4.207159741100321
 31
0
  0
LINE
  8
0
 62
7
 10
4.098932343581452
 20
4.207159741100321
 30
0
 11
4.109732343581452
 21
4.20415974110032
 31
0
  0
LINE
  8
0
 62
7
 10
4.109732343581452
 20
4.20415974110032
 30
0
 11
4.117832343581451
 21
4.198159741100321
 31
0
  0
LINE
  8
0
 62
7
 10
4.117832343581451
 20
4.198159741100321
 30
0
 11
4.120532343581452
 21
4.192159741100322
 31
0
  0
LINE
  8
0
 62
7
 10
4.120532343581452
 20
4.192159741100322
 30
0
 11
4.123232343581452
 21
4.183159741100321
 31
0
  0
LINE
  8
0
 62
7
 10
4.123232343581452
 20
4.183159741100321
 30
0
 11
4.123232343581452
 21
4.171159741100321
 31
0
  0
LINE
  8
0
 62
7
 10
4.123232343581452
 20
4.171159741100321
 30
0
 11
4.120532343581452
 21
4.162159741100321
 31
0
  0
LINE
  8
0
 62
7
 10
4.120532343581452
 20
4.162159741100321
 30
0
 11
4.117832343581451
 21
4.15615974110032
 31
0
  0
LINE
  8
0
 62
7
 10
4.117832343581451
 20
4.15615974110032
 30
0
 11
4.109732343581452
 21
4.150159741100321
 31
0
  0
LINE
  8
0
 62
7
 10
4.109732343581452
 20
4.150159741100321
 30
0
 11
4.098932343581452
 21
4.147159741100322
 31
0
  0
LINE
  8
0
 62
7
 10
4.098932343581452
 20
4.147159741100322
 30
0
 11
4.047632343581452
 21
4.147159741100322
 31
0
  0
LINE
  8
0
 62
7
 10
4.047632343581452
 20
4.147159741100322
 30
0
 11
4.047632343581452
 21
4.207159741100321
 31
0
  0
LINE
  8
0
 62
7
 10
4.220432343581452
 20
4.207159741100321
 30
0
 11
4.144832343581451
 21
4.207159741100321
 31
0
  0
LINE
  8
0
 62
7
 10
4.144832343581451
 20
4.207159741100321
 30
0
 11
4.144832343581451
 21
4.147159741100322
 31
0
  0
LINE
  8
0
 62
7
 10
4.144832343581451
 20
4.087159741100321
 30
0
 11
4.220432343581452
 21
4.087159741100321
 31
0
  0
LINE
  8
0
 62
7
 10
4.209632343581451
 20
4.147159741100322
 30
0
 11
4.144832343581451
 21
4.147159741100322
 31
0
  0
LINE
  8
0
 62
7
 10
4.144832343581451
 20
4.147159741100322
 30
0
 11
4.144832343581451
 21
4.087159741100321
 31
0
  0
LINE
  8
0
 62
7
 10
0.675
 20
2.620000000000001
 30
0
 11
0.7506
 21
2.620000000000001
 31
0
  0
LINE
  8
0
 62
7
 10
0.7506
 20
2.620000000000001
 30
0
 11
0.675
 21
2.500000000000001
 31
0
  0
LINE
  8
0
 62
7
 10
0.675
 20
2.500000000000001
 30
0
 11
0.7506
 21
2.500000000000001
 31
0
  0
LINE
  8
0
 62
7
 10
0.8289
 20
2.620000000000001
 30
0
 11
0.8127000000000001
 21
2.620000000000001
 31
0
  0
LINE
  8
0
 62
7
 10
0.8127000000000001
 20
2.620000000000001
 30
0
 11
0.8046000000000002
 21
2.617000000000001
 31
0
  0
LINE
  8
0
 62
7
 10
0.8046000000000002
 20
2.617000000000001
 30
0
 11
0.7965
 21
2.611000000000001
 31
0
  0
LINE
  8
0
 62
7
 10
0.7965
 20
2.611000000000001
 30
0
 11
0.7911000000000001
 21
2.605000000000001
 31
0
  0
LINE
  8
0
 62
7
 10
0.7911000000000001
 20
2.605000000000001
 30
0
 11
0.7857000000000001
 21
2.596000000000001
 31
0
  0
LINE
  8
0
 62
7
 10
0.7857000000000001
 20
2.596000000000001
 30
0
 11
0.7830000000000001
 21
2.584000000000001
 31
0
  0
LINE
  8
0
 62
7
 10
0.7830000000000001
 20
2.584000000000001
 30
0
 11
0.7830000000000001
 21
2.536000000000001
 31
0
  0
LINE
  8
0
 62
7
 10
0.7830000000000001
 20
2.536000000000001
 30
0
 11
0.7857000000000001
 21
2.524000000000001
 31
0
  0
LINE
  8
0
 62
7
 10
0.7857000000000001
 20
2.524000000000001
 30
0
 11
0.7911000000000001
 21
2.515000000000001
 31
0
  0
LINE
  8
0
 62
7
 10
0.7911000000000001
 20
2.515000000000001
 30
0
 11
0.7965
 21
2.509000000000001
 31
0
  0
LINE
  8
0
 62
7
 10
0.7965
 20
2.509000000000001
 30
0
 11
0.8046000000000002
 21
2.503000000000001
 31
0
  0
LINE
  8
0
 62
7
 10
0.8046000000000002
 20
2.503000000000001
 30
0
 11
0.8127000000000001
 21
2.500000000000001
 31
0
  0
LINE
  8
0
 62
7
 10
0.8127000000000001
 20
2.500000000000001
 30
0
 11
0.8289
 21
2.500000000000001
 31
0
  0
LINE
  8
0
 62
7
 10
0.8289
 20
2.500000000000001
 30
0
 11
0.8370000000000002
 21
2.503000000000001
 31
0
  0
LINE
  8
0
 62
7
 10
0.8370000000000002
 20
2.503000000000001
 30
0
 11
0.8451000000000001
 21
2.509000000000001
 31
0
  0
LINE
  8
0
 62
7
 10
0.8451000000000001
 20
2.509000000000001
 30
0
 11
0.8505000000000001
 21
2.515000000000001
 31
0
  0
LINE
  8
0
 62
7
 10
0.8505000000000001
 20
2.515000000000001
 30
0
 11
0.8559000000000001
 21
2.524000000000001
 31
0
  0
LINE
  8
0
 62
7
 10
0.8559000000000001
 20
2.524000000000001
 30
0
 11
0.8586000000000003
 21
2.536000000000001
 31
0
  0
LINE
  8
0
 62
7
 10
0.8586000000000003
 20
2.536000000000001
 30
0
 11
0.8586000000000003
 21
2.584000000000001
 31
0
  0
LINE
  8
0
 62
7
 10
0.8586000000000003
 20
2.584000000000001
 30
0
 11
0.8559000000000001
 21
2.596000000000001
 31
0
  0
LINE
  8
0
 62
7
 10
0.8559000000000001
 20
2.596000000000001
 30
0
 11
0.8505000000000001
 21
2.605000000000001
 31
0
  0
LINE
  8
0
 62
7
 10
0.8505000000000001
 20
2.605000000000001
 30
0
 11
0.8451000000000001
 21
2.611000000000001
 31
0
  0
LINE
  8
0
 62
7
 10
0.8451000000000001
 20
2.611000000000001
 30
0
 11
0.8370000000000002
 21
2.617000000000001
 31
0
  0
LINE
  8
0
 62
7
 10
0.8370000000000002
 20
2.617000000000001
 30
0
 11
0.8289
 21
2.620000000000001
 31
0
  0
LINE
  8
0
 62
7
 10
0.8802000000000002
 20
2.620000000000001
 30
0
 11
0.9180000000000001
 21
2.500000000000001
 31
0
  0
LINE
  8
0
 62
7
 10
0.9180000000000001
 20
2.500000000000001
 30
0
 11
0.9558000000000002
 21
2.620000000000001
 31
0
  0
LINE
  8
0
 62
7
 10
0.9882000000000002
 20
2.602000000000001
 30
0
 11
0.9936000000000003
 21
2.611000000000001
 31
0
  0
LINE
  8
0
 62
7
 10
0.9936000000000003
 20
2.611000000000001
 30
0
 11
1.0017
 21
2.617000000000001
 31
0
  0
LINE
  8
0
 62
7
 10
1.0017
 20
2.617000000000001
 30
0
 11
1.0125
 21
2.620000000000001
 31
0
  0
LINE
  8
0
 62
7
 10
1.0125
 20
2.620000000000001
 30
0
 11
1.0287
 21
2.620000000000001
 31
0
  0
LINE
  8
0
 62
7
 10
1.0287
 20
2.620000000000001
 30
0
 11
1.0368
 21
2.617000000000001
 31
0
  0
LINE
  8
0
 62
7
 10
1.0368
 20
2.617000000000001
 30
0
 11
1.0449
 21
2.611000000000001
 31
0
  0
LINE
  8
0
 62
7
 10
1.0449
 20
2.611000000000001
 30
0
 11
1.0503
 21
2.602000000000001
 31
0
  0
LINE
  8
0
 62
7
 10
1.0503
 20
2.602000000000001
 30
0
 11
1.053
 21
2.590000000000001
 31
0
  0
LINE
  8
0
 62
7
 10
1.053
 20
2.590000000000001
 30
0
 11
1.053
 21
2.581000000000001
 31
0
  0
LINE
  8
0
 62
7
 10
1.053
 20
2.581000000000001
 30
0
 11
1.0503
 21
2.572000000000001
 31
0
  0
LINE
  8
0
 62
7
 10
1.0503
 20
2.572000000000001
 30
0
 11
1.0449
 21
2.566000000000001
 31
0
  0
LINE
  8
0
 62
7
 10
1.0449
 20
2.566000000000001
 30
0
 11
1.0314
 21
2.560000000000001
 31
0
  0
LINE
  8
0
 62
7
 10
1.0125
 20
2.560000000000001
 30
0
 11
1.0314
 21
2.560000000000001
 31
0
  0
LINE
  8
0
 62
7
 10
1.0314
 20
2.560000000000001
 30
0
 11
1.0449
 21
2.554000000000001
 31
0
  0
LINE
  8
0
 62
7
 10
1.0449
 20
2.554000000000001
 30
0
 11
1.0503
 21
2.548000000000001
 31
0
  0
LINE
  8
0
 62
7
 10
1.0503
 20
2.548000000000001
 30
0
 11
1.053
 21
2.539000000000001
 31
0
  0
LINE
  8
0
 62
7
 10
1.053
 20
2.539000000000001
 30
0
 11
1.053
 21
2.530000000000001
 31
0
  0
LINE
  8
0
 62
7
 10
1.053
 20
2.530000000000001
 30
0
 11
1.0503
 21
2.518000000000001
 31
0
  0
LINE
  8
0
 62
7
 10
1.0503
 20
2.518000000000001
 30
0
 11
1.0449
 21
2.509000000000001
 31
0
  0
LINE
  8
0
 62
7
 10
1.0449
 20
2.509000000000001
 30
0
 11
1.0368
 21
2.503000000000001
 31
0
  0
LINE
  8
0
 62
7
 10
1.0368
 20
2.503000000000001
 30
0
 11
1.0287
 21
2.500000000000001
 31
0
  0
LINE
  8
0
 62
7
 10
1.0287
 20
2.500000000000001
 30
0
 11
1.0125
 21
2.500000000000001
 31
0
  0
LINE
  8
0
 62
7
 10
1.0125
 20
2.500000000000001
 30
0
 11
1.0017
 21
2.503000000000001
 31
0
  0
LINE
  8
0
 62
7
 10
1.0017
 20
2.503000000000001
 30
0
 11
0.9936000000000003
 21
2.509000000000001
 31
0
  0
LINE
  8
0
 62
7
 10
0.9936000000000003
 20
2.509000000000001
 30
0
 11
0.9882000000000002
 21
2.518000000000001
 31
0
  0
LINE
  8
0
 62
7
 10
1.0854
 20
2.608000000000001
 30
0
 11
1.0854
 21
2.620000000000001
 31
0
  0
LINE
  8
0
 62
7
 10
1.0854
 20
2.620000000000001
 30
0
 11
1.1502
 21
2.620000000000001
 31
0
  0
LINE
  8
0
 62
7
 10
1.1502
 20
2.620000000000001
 30
0
 11
1.0962
 21
2.500000000000001
 31
0
  0
LINE
  8
0
 62
7
 10
1.1826
 20
2.548000000000001
 30
0
 11
1.1853
 21
2.560000000000001
 31
0
  0
LINE
  8
0
 62
7
 10
1.1853
 20
2.560000000000001
 30
0
 11
1.1907
 21
2.569000000000001
 31
0
  0
LINE
  8
0
 62
7
 10
1.1907
 20
2.569000000000001
 30
0
 11
1.1988
 21
2.575000000000001
 31
0
  0
LINE
  8
0
 62
7
 10
1.1988
 20
2.575000000000001
 30
0
 11
1.2069
 21
2.578000000000002
 31
0
  0
LINE
  8
0
 62
7
 10
1.2069
 20
2.578000000000002
 30
0
 11
1.2231
 21
2.578000000000002
 31
0
  0
LINE
  8
0
 62
7
 10
1.2231
 20
2.578000000000002
 30
0
 11
1.2312
 21
2.575000000000001
 31
0
  0
LINE
  8
0
 62
7
 10
1.2312
 20
2.575000000000001
 30
0
 11
1.2393
 21
2.569000000000001
 31
0
  0
LINE
  8
0
 62
7
 10
1.2393
 20
2.569000000000001
 30
0
 11
1.2447
 21
2.560000000000001
 31
0
  0
LINE
  8
0
 62
7
 10
1.2447
 20
2.560000000000001
 30
0
 11
1.2474
 21
2.548000000000001
 31
0
  0
LINE
  8
0
 62
7
 10
1.2474
 20
2.548000000000001
 30
0
 11
1.2474
 21
2.530000000000001
 31
0
  0
LINE
  8
0
 62
7
 10
1.2474
 20
2.530000000000001
 30
0
 11
1.2447
 21
2.518000000000001
 31
0
  0
LINE
  8
0
 62
7
 10
1.2447
 20
2.518000000000001
 30
0
 11
1.2393
 21
2.509000000000001
 31
0
  0
LINE
  8
0
 62
7
 10
1.2393
 20
2.509000000000001
 30
0
 11
1.2312
 21
2.503000000000001
 31
0
  0
LINE
  8
0
 62
7
 10
1.2312
 20
2.503000000000001
 30
0
 11
1.2231
 21
2.500000000000001
 31
0
  0
LINE
  8
0
 62
7
 10
1.2231
 20
2.500000000000001
 30
0
 11
1.2069
 21
2.500000000000001
 31
0
  0
LINE
  8
0
 62
7
 10
1.2069
 20
2.500000000000001
 30
0
 11
1.1988
 21
2.503000000000001
 31
0
  0
LINE
  8
0
 62
7
 10
1.1988
 20
2.503000000000001
 30
0
 11
1.1907
 21
2.509000000000001
 31
0
  0
LINE
  8
0
 62
7
 10
1.1907
 20
2.509000000000001
 30
0
 11
1.1853
 21
2.518000000000001
 31
0
  0
LINE
  8
0
 62
7
 10
1.1853
 20
2.518000000000001
 30
0
 11
1.1826
 21
2.530000000000001
 31
0
  0
LINE
  8
0
 62
7
 10
1.1826
 20
2.530000000000001
 30
0
 11
1.1826
 21
2.548000000000001
 31
0
  0
LINE
  8
0
 62
7
 10
1.1826
 20
2.590000000000001
 30
0
 11
1.1853
 21
2.602000000000001
 31
0
  0
LINE
  8
0
 62
7
 10
1.1853
 20
2.602000000000001
 30
0
 11
1.1907
 21
2.611000000000001
 31
0
  0
LINE
  8
0
 62
7
 10
1.1907
 20
2.611000000000001
 30
0
 11
1.1988
 21
2.617000000000001
 31
0
  0
LINE
  8
0
 62
7
 10
1.1988
 20
2.617000000000001
 30
0
 11
1.2069
 21
2.620000000000001
 31
0
  0
LINE
  8
0
 62
7
 10
1.2069
 20
2.620000000000001
 30
0
 11
1.2231
 21
2.620000000000001
 31
0
  0
LINE
  8
0
 62
7
 10
1.2231
 20
2.620000000000001
 30
0
 11
1.2312
 21
2.617000000000001
 31
0
  0
LINE
  8
0
 62
7
 10
1.2312
 20
2.617000000000001
 30
0
 11
1.2393
 21
2.611000000000001
 31
0
  0
LINE
  8
0
 62
7
 10
1.2393
 20
2.611000000000001
 30
0
 11
1.2447
 21
2.602000000000001
 31
0
  0
LINE
  8
0
 62
7
 10
1.1826
 20
2.548000000000001
 30
0
 11
1.1826
 21
2.590000000000001
 31
0
  0
LINE
  8
0
 62
7
 10
1.3446
 20
2.500000000000001
 30
0
 11
1.2798
 21
2.500000000000001
 31
0
  0
LINE
  8
0
 62
7
 10
1.2798
 20
2.500000000000001
 30
0
 11
1.2798
 21
2.620000000000001
 31
0
  0
LINE
  8
0
 62
7
 10
1.377
 20
2.548000000000001
 30
0
 11
1.3797
 21
2.560000000000001
 31
0
  0
LINE
  8
0
 62
7
 10
1.3797
 20
2.560000000000001
 30
0
 11
1.3851
 21
2.569000000000001
 31
0
  0
LINE
  8
0
 62
7
 10
1.3851
 20
2.569000000000001
 30
0
 11
1.3932
 21
2.575000000000001
 31
0
  0
LINE
  8
0
 62
7
 10
1.3932
 20
2.575000000000001
 30
0
 11
1.4013
 21
2.578000000000002
 31
0
  0
LINE
  8
0
 62
7
 10
1.4013
 20
2.578000000000002
 30
0
 11
1.4175
 21
2.578000000000002
 31
0
  0
LINE
  8
0
 62
7
 10
1.4175
 20
2.578000000000002
 30
0
 11
1.4256
 21
2.575000000000001
 31
0
  0
LINE
  8
0
 62
7
 10
1.4256
 20
2.575000000000001
 30
0
 11
1.4337
 21
2.569000000000001
 31
0
  0
LINE
  8
0
 62
7
 10
1.4337
 20
2.569000000000001
 30
0
 11
1.4391
 21
2.560000000000001
 31
0
  0
LINE
  8
0
 62
7
 10
1.4391
 20
2.560000000000001
 30
0
 11
1.4418
 21
2.548000000000001
 31
0
  0
LINE
  8
0
 62
7
 10
1.4418
 20
2.548000000000001
 30
0
 11
1.4418
 21
2.530000000000001
 31
0
  0
LINE
  8
0
 62
7
 10
1.4418
 20
2.530000000000001
 30
0
 11
1.4391
 21
2.518000000000001
 31
0
  0
LINE
  8
0
 62
7
 10
1.4391
 20
2.518000000000001
 30
0
 11
1.4337
 21
2.509000000000001
 31
0
  0
LINE
  8
0
 62
7
 10
1.4337
 20
2.509000000000001
 30
0
 11
1.4256
 21
2.503000000000001
 31
0
  0
LINE
  8
0
 62
7
 10
1.4256
 20
2.503000000000001
 30
0
 11
1.4175
 21
2.500000000000001
 31
0
  0
LINE
  8
0
 62
7
 10
1.4175
 20
2.500000000000001
 30
0
 11
1.4013
 21
2.500000000000001
 31
0
  0
LINE
  8
0
 62
7
 10
1.4013
 20
2.500000000000001
 30
0
 11
1.3932
 21
2.503000000000001
 31
0
  0
LINE
  8
0
 62
7
 10
1.3932
 20
2.503000000000001
 30
0
 11
1.3851
 21
2.509000000000001
 31
0
  0
LINE
  8
0
 62
7
 10
1.3851
 20
2.509000000000001
 30
0
 11
1.3797
 21
2.518000000000001
 31
0
  0
LINE
  8
0
 62
7
 10
1.3797
 20
2.518000000000001
 30
0
 11
1.377
 21
2.530000000000001
 31
0
  0
LINE
  8
0
 62
7
 10
1.377
 20
2.530000000000001
 30
0
 11
1.377
 21
2.548000000000001
 31
0
  0
LINE
  8
0
 62
7
 10
1.377
 20
2.590000000000001
 30
0
 11
1.3797
 21
2.602000000000001
 31
0
  0
LINE
  8
0
 62
7
 10
1.3797
 20
2.602000000000001
 30
0
 11
1.3851
 21
2.611000000000001
 31
0
  0
LINE
  8
0
 62
7
 10
1.3851
 20
2.611000000000001
 30
0
 11
1.3932
 21
2.617000000000001
 31
0
  0
LINE
  8
0
 62
7
 10
1.3932
 20
2.617000000000001
 30
0
 11
1.4013
 21
2.620000000000001
 31
0
  0
LINE
  8
0
 62
7
 10
1.4013
 20
2.620000000000001
 30
0
 11
1.4175
 21
2.620000000000001
 31
0
  0
LINE
  8
0
 62
7
 10
1.4175
 20
2.620000000000001
 30
0
 11
1.4256
 21
2.617000000000001
 31
0
  0
LINE
  8
0
 62
7
 10
1.4256
 20
2.617000000000001
 30
0
 11
1.4337
 21
2.611000000000001
 31
0
  0
LINE
  8
0
 62
7
 10
1.4337
 20
2.611000000000001
 30
0
 11
1.4391
 21
2.602000000000001
 31
0
  0
LINE
  8
0
 62
7
 10
1.377
 20
2.548000000000001
 30
0
 11
1.377
 21
2.590000000000001
 31
0
  0
LINE
  8
0
 62
7
 10
3.175
 20
2.500000000000001
 30
0
 11
3.175
 21
2.600000000000001
 31
0
  0
LINE
  8
0
 62
7
 10
3.175
 20
2.600000000000001
 30
0
 11
3.238
 21
2.500000000000001
 31
0
  0
LINE
  8
0
 62
7
 10
3.238
 20
2.500000000000001
 30
0
 11
3.238
 21
2.600000000000001
 31
0
  0
LINE
  8
0
 62
7
 10
3.319
 20
2.500000000000001
 30
0
 11
3.265
 21
2.500000000000001
 31
0
  0
LINE
  8
0
 62
7
 10
3.265
 20
2.500000000000001
 30
0
 11
3.265
 21
2.600000000000001
 31
0
  0
LINE
  8
0
 62
7
 10
3.346
 20
2.550000000000001
 30
0
 11
3.382
 21
2.550000000000001
 31
0
  0
LINE
  8
0
 62
7
 10
3.382
 20
2.550000000000001
 30
0
 11
3.3865
 21
2.550000000000001
 31
0
  0
LINE
  8
0
 62
7
 10
3.3865
 20
2.550000000000001
 30
0
 11
3.3955
 21
2.545000000000001
 31
0
  0
LINE
  8
0
 62
7
 10
3.3955
 20
2.545000000000001
 30
0
 11
3.4
 21
2.540000000000001
 31
0
  0
LINE
  8
0
 62
7
 10
3.4
 20
2.540000000000001
 30
0
 11
3.404500000000001
 21
2.530000000000001
 31
0
  0
LINE
  8
0
 62
7
 10
3.404500000000001
 20
2.530000000000001
 30
0
 11
3.404500000000001
 21
2.520000000000001
 31
0
  0
LINE
  8
0
 62
7
 10
3.404500000000001
 20
2.520000000000001
 30
0
 11
3.4
 21
2.510000000000001
 31
0
  0
LINE
  8
0
 62
7
 10
3.4
 20
2.510000000000001
 30
0
 11
3.3955
 21
2.505000000000001
 31
0
  0
LINE
  8
0
 62
7
 10
3.3955
 20
2.505000000000001
 30
0
 11
3.3865
 21
2.500000000000001
 31
0
  0
LINE
  8
0
 62
7
 10
3.3865
 20
2.500000000000001
 30
0
 11
3.346
 21
2.500000000000001
 31
0
  0
LINE
  8
0
 62
7
 10
3.346
 20
2.500000000000001
 30
0
 11
3.346
 21
2.550000000000001
 31
0
  0
LINE
  8
0
 62
7
 10
3.346
 20
2.600000000000001
 30
0
 11
3.37975
 21
2.600000000000001
 31
0
  0
LINE
  8
0
 62
7
 10
3.37975
 20
2.600000000000001
 30
0
 11
3.391
 21
2.597500000000001
 31
0
  0
LINE
  8
0
 62
7
 10
3.391
 20
2.597500000000001
 30
0
 11
3.39775
 21
2.590000000000001
 31
0
  0
LINE
  8
0
 62
7
 10
3.39775
 20
2.590000000000001
 30
0
 11
3.4
 21
2.580000000000001
 31
0
  0
LINE
  8
0
 62
7
 10
3.4
 20
2.580000000000001
 30
0
 11
3.4
 21
2.570000000000001
 31
0
  0
LINE
  8
0
 62
7
 10
3.4
 20
2.570000000000001
 30
0
 11
3.3955
 21
2.560000000000001
 31
0
  0
LINE
  8
0
 62
7
 10
3.3955
 20
2.560000000000001
 30
0
 11
3.38875
 21
2.552500000000001
 31
0
  0
LINE
  8
0
 62
7
 10
3.38875
 20
2.552500000000001
 30
0
 11
3.382
 21
2.550000000000001
 31
0
  0
LINE
  8
0
 62
7
 10
3.346
 20
2.550000000000001
 30
0
 11
3.346
 21
2.600000000000001
 31
0
  0
LINE
  8
0
 62
7
 10
3.54625
 20
2.552500000000001
 30
0
 11
3.5395
 21
2.562500000000001
 31
0
  0
LINE
  8
0
 62
7
 10
3.5395
 20
2.562500000000001
 30
0
 11
3.53275
 21
2.567500000000001
 31
0
  0
LINE
  8
0
 62
7
 10
3.53275
 20
2.567500000000001
 30
0
 11
3.526
 21
2.570000000000001
 31
0
  0
LINE
  8
0
 62
7
 10
3.526
 20
2.570000000000001
 30
0
 11
3.517
 21
2.570000000000001
 31
0
  0
LINE
  8
0
 62
7
 10
3.517
 20
2.570000000000001
 30
0
 11
3.51025
 21
2.567500000000001
 31
0
  0
LINE
  8
0
 62
7
 10
3.51025
 20
2.567500000000001
 30
0
 11
3.503500000000001
 21
2.562500000000001
 31
0
  0
LINE
  8
0
 62
7
 10
3.503500000000001
 20
2.562500000000001
 30
0
 11
3.49675
 21
2.552500000000001
 31
0
  0
LINE
  8
0
 62
7
 10
3.49675
 20
2.552500000000001
 30
0
 11
3.4945
 21
2.545000000000001
 31
0
  0
LINE
  8
0
 62
7
 10
3.4945
 20
2.545000000000001
 30
0
 11
3.4945
 21
2.525000000000001
 31
0
  0
LINE
  8
0
 62
7
 10
3.4945
 20
2.525000000000001
 30
0
 11
3.49675
 21
2.517500000000001
 31
0
  0
LINE
  8
0
 62
7
 10
3.49675
 20
2.517500000000001
 30
0
 11
3.503500000000001
 21
2.507500000000001
 31
0
  0
LINE
  8
0
 62
7
 10
3.503500000000001
 20
2.507500000000001
 30
0
 11
3.51025
 21
2.502500000000001
 31
0
  0
LINE
  8
0
 62
7
 10
3.51025
 20
2.502500000000001
 30
0
 11
3.517
 21
2.500000000000001
 31
0
  0
LINE
  8
0
 62
7
 10
3.517
 20
2.500000000000001
 30
0
 11
3.526
 21
2.500000000000001
 31
0
  0
LINE
  8
0
 62
7
 10
3.526
 20
2.500000000000001
 30
0
 11
3.53275
 21
2.502500000000001
 31
0
  0
LINE
  8
0
 62
7
 10
3.53275
 20
2.502500000000001
 30
0
 11
3.5395
 21
2.507500000000001
 31
0
  0
LINE
  8
0
 62
7
 10
3.5395
 20
2.507500000000001
 30
0
 11
3.54625
 21
2.517500000000001
 31
0
  0
LINE
  8
0
 62
7
 10
3.61825
 20
2.545000000000001
 30
0
 11
3.616000000000001
 21
2.552500000000001
 31
0
  0
LINE
  8
0
 62
7
 10
3.616000000000001
 20
2.552500000000001
 30
0
 11
3.60925
 21
2.562500000000001
 31
0
  0
LINE
  8
0
 62
7
 10
3.60925
 20
2.562500000000001
 30
0
 11
3.6025
 21
2.567500000000001
 31
0
  0
LINE
  8
0
 62
7
 10
3.6025
 20
2.567500000000001
 30
0
 11
3.595750000000001
 21
2.570000000000001
 31
0
  0
LINE
  8
0
 62
7
 10
3.595750000000001
 20
2.570000000000001
 30
0
 11
3.58675
 21
2.570000000000001
 31
0
  0
LINE
  8
0
 62
7
 10
3.58675
 20
2.570000000000001
 30
0
 11
3.580000000000001
 21
2.567500000000001
 31
0
  0
LINE
  8
0
 62
7
 10
3.580000000000001
 20
2.567500000000001
 30
0
 11
3.57325
 21
2.562500000000001
 31
0
  0
LINE
  8
0
 62
7
 10
3.57325
 20
2.562500000000001
 30
0
 11
3.5665
 21
2.552500000000001
 31
0
  0
LINE
  8
0
 62
7
 10
3.5665
 20
2.552500000000001
 30
0
 11
3.56425
 21
2.545000000000001
 31
0
  0
LINE
  8
0
 62
7
 10
3.56425
 20
2.545000000000001
 30
0
 11
3.56425
 21
2.525000000000001
 31
0
  0
LINE
  8
0
 62
7
 10
3.56425
 20
2.525000000000001
 30
0
 11
3.5665
 21
2.517500000000001
 31
0
  0
LINE
  8
0
 62
7
 10
3.5665
 20
2.517500000000001
 30
0
 11
3.57325
 21
2.507500000000001
 31
0
  0
LINE
  8
0
 62
7
 10
3.57325
 20
2.507500000000001
 30
0
 11
3.580000000000001
 21
2.502500000000001
 31
0
  0
LINE
  8
0
 62
7
 10
3.580000000000001
 20
2.502500000000001
 30
0
 11
3.58675
 21
2.500000000000001
 31
0
  0
LINE
  8
0
 62
7
 10
3.58675
 20
2.500000000000001
 30
0
 11
3.595750000000001
 21
2.500000000000001
 31
0
  0
LINE
  8
0
 62
7
 10
3.595750000000001
 20
2.500000000000001
 30
0
 11
3.6025
 21
2.502500000000001
 31
0
  0
LINE
  8
0
 62
7
 10
3.6025
 20
2.502500000000001
 30
0
 11
3.60925
 21
2.507500000000001
 31
0
  0
LINE
  8
0
 62
7
 10
3.60925
 20
2.507500000000001
 30
0
 11
3.616000000000001
 21
2.517500000000001
 31
0
  0
LINE
  8
0
 62
7
 10
3.616000000000001
 20
2.517500000000001
 30
0
 11
3.61825
 21
2.525000000000001
 31
0
  0
LINE
  8
0
 62
7
 10
3.61825
 20
2.570000000000001
 30
0
 11
3.61825
 21
2.545000000000001
 31
0
  0
LINE
  8
0
 62
7
 10
3.61825
 20
2.502500000000001
 30
0
 11
3.6205
 21
2.500000000000001
 31
0
  0
LINE
  8
0
 62
7
 10
3.6205
 20
2.500000000000001
 30
0
 11
3.62275
 21
2.500000000000001
 31
0
  0
LINE
  8
0
 62
7
 10
3.61825
 20
2.525000000000001
 30
0
 11
3.61825
 21
2.502500000000001
 31
0
  0
LINE
  8
0
 62
7
 10
3.61825
 20
2.545000000000001
 30
0
 11
3.61825
 21
2.525000000000001
 31
0
  0
LINE
  8
0
 62
7
 10
3.64075
 20
2.500000000000001
 30
0
 11
3.64075
 21
2.502500000000001
 31
0
  0
LINE
  8
0
 62
7
 10
3.64075
 20
2.502500000000001
 30
0
 11
3.643
 21
2.502500000000001
 31
0
  0
LINE
  8
0
 62
7
 10
3.643
 20
2.502500000000001
 30
0
 11
3.643
 21
2.500000000000001
 31
0
  0
LINE
  8
0
 62
7
 10
3.643
 20
2.500000000000001
 30
0
 11
3.64075
 21
2.500000000000001
 31
0
  0
LINE
  8
0
 62
7
 10
3.76675
 20
2.600000000000001
 30
0
 11
3.77575
 21
2.600000000000001
 31
0
  0
LINE
  8
0
 62
7
 10
3.77575
 20
2.600000000000001
 30
0
 11
3.782500000000001
 21
2.597500000000001
 31
0
  0
LINE
  8
0
 62
7
 10
3.782500000000001
 20
2.597500000000001
 30
0
 11
3.787
 21
2.592500000000001
 31
0
  0
LINE
  8
0
 62
7
 10
3.787
 20
2.592500000000001
 30
0
 11
3.7915
 21
2.585000000000001
 31
0
  0
LINE
  8
0
 62
7
 10
3.7915
 20
2.585000000000001
 30
0
 11
3.7915
 21
2.575000000000001
 31
0
  0
LINE
  8
0
 62
7
 10
3.7915
 20
2.575000000000001
 30
0
 11
3.78925
 21
2.570000000000001
 31
0
  0
LINE
  8
0
 62
7
 10
3.78925
 20
2.570000000000001
 30
0
 11
3.782500000000001
 21
2.562500000000001
 31
0
  0
LINE
  8
0
 62
7
 10
3.782500000000001
 20
2.562500000000001
 30
0
 11
3.77575
 21
2.560000000000001
 31
0
  0
LINE
  8
0
 62
7
 10
3.77575
 20
2.560000000000001
 30
0
 11
3.76675
 21
2.560000000000001
 31
0
  0
LINE
  8
0
 62
7
 10
3.76675
 20
2.560000000000001
 30
0
 11
3.76
 21
2.562500000000001
 31
0
  0
LINE
  8
0
 62
7
 10
3.76
 20
2.562500000000001
 30
0
 11
3.75325
 21
2.570000000000001
 31
0
  0
LINE
  8
0
 62
7
 10
3.75325
 20
2.570000000000001
 30
0
 11
3.751
 21
2.575000000000001
 31
0
  0
LINE
  8
0
 62
7
 10
3.751
 20
2.575000000000001
 30
0
 11
3.751
 21
2.585000000000001
 31
0
  0
LINE
  8
0
 62
7
 10
3.751
 20
2.585000000000001
 30
0
 11
3.7555
 21
2.592500000000001
 31
0
  0
LINE
  8
0
 62
7
 10
3.7555
 20
2.592500000000001
 30
0
 11
3.76
 21
2.597500000000001
 31
0
  0
LINE
  8
0
 62
7
 10
3.76
 20
2.597500000000001
 30
0
 11
3.76675
 21
2.600000000000001
 31
0
  0
LINE
  8
0
 62
7
 10
3.76675
 20
2.560000000000001
 30
0
 11
3.7555
 21
2.555000000000001
 31
0
  0
LINE
  8
0
 62
7
 10
3.7555
 20
2.555000000000001
 30
0
 11
3.748750000000001
 21
2.547500000000001
 31
0
  0
LINE
  8
0
 62
7
 10
3.748750000000001
 20
2.547500000000001
 30
0
 11
3.744250000000001
 21
2.537500000000001
 31
0
  0
LINE
  8
0
 62
7
 10
3.744250000000001
 20
2.537500000000001
 30
0
 11
3.744250000000001
 21
2.522500000000001
 31
0
  0
LINE
  8
0
 62
7
 10
3.744250000000001
 20
2.522500000000001
 30
0
 11
3.748750000000001
 21
2.512500000000001
 31
0
  0
LINE
  8
0
 62
7
 10
3.748750000000001
 20
2.512500000000001
 30
0
 11
3.7555
 21
2.505000000000001
 31
0
  0
LINE
  8
0
 62
7
 10
3.7555
 20
2.505000000000001
 30
0
 11
3.7645
 21
2.500000000000001
 31
0
  0
LINE
  8
0
 62
7
 10
3.7645
 20
2.500000000000001
 30
0
 11
3.778
 21
2.500000000000001
 31
0
  0
LINE
  8
0
 62
7
 10
3.778
 20
2.500000000000001
 30
0
 11
3.787
 21
2.505000000000001
 31
0
  0
LINE
  8
0
 62
7
 10
3.787
 20
2.505000000000001
 30
0
 11
3.79375
 21
2.512500000000001
 31
0
  0
LINE
  8
0
 62
7
 10
3.79375
 20
2.512500000000001
 30
0
 11
3.79825
 21
2.522500000000001
 31
0
  0
LINE
  8
0
 62
7
 10
3.79825
 20
2.522500000000001
 30
0
 11
3.79825
 21
2.537500000000001
 31
0
  0
LINE
  8
0
 62
7
 10
3.79825
 20
2.537500000000001
 30
0
 11
3.79375
 21
2.547500000000001
 31
0
  0
LINE
  8
0
 62
7
 10
3.79375
 20
2.547500000000001
 30
0
 11
3.787
 21
2.555000000000001
 31
0
  0
LINE
  8
0
 62
7
 10
3.787
 20
2.555000000000001
 30
0
 11
3.77575
 21
2.560000000000001
 31
0
  0
LINE
  8
0
 62
7
 10
3.88825
 20
2.560000000000001
 30
0
 11
3.886
 21
2.550000000000001
 31
0
  0
LINE
  8
0
 62
7
 10
3.886
 20
2.550000000000001
 30
0
 11
3.8815
 21
2.542500000000001
 31
0
  0
LINE
  8
0
 62
7
 10
3.8815
 20
2.542500000000001
 30
0
 11
3.874750000000001
 21
2.537500000000001
 31
0
  0
LINE
  8
0
 62
7
 10
3.874750000000001
 20
2.537500000000001
 30
0
 11
3.868
 21
2.535000000000001
 31
0
  0
LINE
  8
0
 62
7
 10
3.868
 20
2.535000000000001
 30
0
 11
3.8545
 21
2.535000000000001
 31
0
  0
LINE
  8
0
 62
7
 10
3.8545
 20
2.535000000000001
 30
0
 11
3.84775
 21
2.537500000000001
 31
0
  0
LINE
  8
0
 62
7
 10
3.84775
 20
2.537500000000001
 30
0
 11
3.841000000000001
 21
2.542500000000001
 31
0
  0
LINE
  8
0
 62
7
 10
3.841000000000001
 20
2.542500000000001
 30
0
 11
3.8365
 21
2.550000000000001
 31
0
  0
LINE
  8
0
 62
7
 10
3.8365
 20
2.550000000000001
 30
0
 11
3.83425
 21
2.560000000000001
 31
0
  0
LINE
  8
0
 62
7
 10
3.83425
 20
2.560000000000001
 30
0
 11
3.83425
 21
2.575000000000001
 31
0
  0
LINE
  8
0
 62
7
 10
3.83425
 20
2.575000000000001
 30
0
 11
3.8365
 21
2.585000000000001
 31
0
  0
LINE
  8
0
 62
7
 10
3.8365
 20
2.585000000000001
 30
0
 11
3.841000000000001
 21
2.592500000000001
 31
0
  0
LINE
  8
0
 62
7
 10
3.841000000000001
 20
2.592500000000001
 30
0
 11
3.84775
 21
2.597500000000001
 31
0
  0
LINE
  8
0
 62
7
 10
3.84775
 20
2.597500000000001
 30
0
 11
3.8545
 21
2.600000000000001
 31
0
  0
LINE
  8
0
 62
7
 10
3.8545
 20
2.600000000000001
 30
0
 11
3.868
 21
2.600000000000001
 31
0
  0
LINE
  8
0
 62
7
 10
3.868
 20
2.600000000000001
 30
0
 11
3.874750000000001
 21
2.597500000000001
 31
0
  0
LINE
  8
0
 62
7
 10
3.874750000000001
 20
2.597500000000001
 30
0
 11
3.8815
 21
2.592500000000001
 31
0
  0
LINE
  8
0
 62
7
 10
3.8815
 20
2.592500000000001
 30
0
 11
3.886
 21
2.585000000000001
 31
0
  0
LINE
  8
0
 62
7
 10
3.886
 20
2.585000000000001
 30
0
 11
3.88825
 21
2.575000000000001
 31
0
  0
LINE
  8
0
 62
7
 10
3.88825
 20
2.575000000000001
 30
0
 11
3.88825
 21
2.560000000000001
 31
0
  0
LINE
  8
0
 62
7
 10
3.88825
 20
2.525000000000001
 30
0
 11
3.886
 21
2.515000000000001
 31
0
  0
LINE
  8
0
 62
7
 10
3.886
 20
2.515000000000001
 30
0
 11
3.8815
 21
2.507500000000001
 31
0
  0
LINE
  8
0
 62
7
 10
3.8815
 20
2.507500000000001
 30
0
 11
3.874750000000001
 21
2.502500000000001
 31
0
  0
LINE
  8
0
 62
7
 10
3.874750000000001
 20
2.502500000000001
 30
0
 11
3.868
 21
2.500000000000001
 31
0
  0
LINE
  8
0
 62
7
 10
3.868
 20
2.500000000000001
 30
0
 11
3.8545
 21
2.500000000000001
 31
0
  0
LINE
  8
0
 62
7
 10
3.8545
 20
2.500000000000001
 30
0
 11
3.84775
 21
2.502500000000001
 31
0
  0
LINE
  8
0
 62
7
 10
3.84775
 20
2.502500000000001
 30
0
 11
3.841000000000001
 21
2.507500000000001
 31
0
  0
LINE
  8
0
 62
7
 10
3.841000000000001
 20
2.507500000000001
 30
0
 11
3.8365
 21
2.515000000000001
 31
0
  0
LINE
  8
0
 62
7
 10
3.88825
 20
2.560000000000001
 30
0
 11
3.88825
 21
2.525000000000001
 31
0
  0
LINE
  8
0
 62
7
 10
4.039000000000001
 20
2.552500000000001
 30
0
 11
4.03225
 21
2.562500000000001
 31
0
  0
LINE
  8
0
 62
7
 10
4.03225
 20
2.562500000000001
 30
0
 11
4.0255
 21
2.567500000000001
 31
0
  0
LINE
  8
0
 62
7
 10
4.0255
 20
2.567500000000001
 30
0
 11
4.01875
 21
2.570000000000001
 31
0
  0
LINE
  8
0
 62
7
 10
4.01875
 20
2.570000000000001
 30
0
 11
4.00975
 21
2.570000000000001
 31
0
  0
LINE
  8
0
 62
7
 10
4.00975
 20
2.570000000000001
 30
0
 11
4.003
 21
2.567500000000001
 31
0
  0
LINE
  8
0
 62
7
 10
4.003
 20
2.567500000000001
 30
0
 11
3.99625
 21
2.562500000000001
 31
0
  0
LINE
  8
0
 62
7
 10
3.99625
 20
2.562500000000001
 30
0
 11
3.9895
 21
2.552500000000001
 31
0
  0
LINE
  8
0
 62
7
 10
3.9895
 20
2.552500000000001
 30
0
 11
3.98725
 21
2.545000000000001
 31
0
  0
LINE
  8
0
 62
7
 10
3.98725
 20
2.545000000000001
 30
0
 11
3.98725
 21
2.525000000000001
 31
0
  0
LINE
  8
0
 62
7
 10
3.98725
 20
2.525000000000001
 30
0
 11
3.9895
 21
2.517500000000001
 31
0
  0
LINE
  8
0
 62
7
 10
3.9895
 20
2.517500000000001
 30
0
 11
3.99625
 21
2.507500000000001
 31
0
  0
LINE
  8
0
 62
7
 10
3.99625
 20
2.507500000000001
 30
0
 11
4.003
 21
2.502500000000001
 31
0
  0
LINE
  8
0
 62
7
 10
4.003
 20
2.502500000000001
 30
0
 11
4.00975
 21
2.500000000000001
 31
0
  0
LINE
  8
0
 62
7
 10
4.00975
 20
2.500000000000001
 30
0
 11
4.01875
 21
2.500000000000001
 31
0
  0
LINE
  8
0
 62
7
 10
4.01875
 20
2.500000000000001
 30
0
 11
4.0255
 21
2.502500000000001
 31
0
  0
LINE
  8
0
 62
7
 10
4.0255
 20
2.502500000000001
 30
0
 11
4.03225
 21
2.507500000000001
 31
0
  0
LINE
  8
0
 62
7
 10
4.03225
 20
2.507500000000001
 30
0
 11
4.039000000000001
 21
2.517500000000001
 31
0
  0
LINE
  8
0
 62
7
 10
4.0975
 20
2.545000000000001
 30
0
 11
4.0975
 21
2.500000000000001
 31
0
  0
LINE
  8
0
 62
7
 10
4.057
 20
2.570000000000001
 30
0
 11
4.057
 21
2.545000000000001
 31
0
  0
LINE
  8
0
 62
7
 10
4.057
 20
2.500000000000001
 30
0
 11
4.057
 21
2.545000000000001
 31
0
  0
LINE
  8
0
 62
7
 10
4.057
 20
2.545000000000001
 30
0
 11
4.05925
 21
2.557500000000001
 31
0
  0
LINE
  8
0
 62
7
 10
4.05925
 20
2.557500000000001
 30
0
 11
4.061500000000001
 21
2.562500000000001
 31
0
  0
LINE
  8
0
 62
7
 10
4.061500000000001
 20
2.562500000000001
 30
0
 11
4.066000000000001
 21
2.567500000000001
 31
0
  0
LINE
  8
0
 62
7
 10
4.066000000000001
 20
2.567500000000001
 30
0
 11
4.07275
 21
2.570000000000001
 31
0
  0
LINE
  8
0
 62
7
 10
4.07275
 20
2.570000000000001
 30
0
 11
4.08175
 21
2.570000000000001
 31
0
  0
LINE
  8
0
 62
7
 10
4.08175
 20
2.570000000000001
 30
0
 11
4.0885
 21
2.567500000000001
 31
0
  0
LINE
  8
0
 62
7
 10
4.0885
 20
2.567500000000001
 30
0
 11
4.093
 21
2.562500000000001
 31
0
  0
LINE
  8
0
 62
7
 10
4.093
 20
2.562500000000001
 30
0
 11
4.09525
 21
2.557500000000001
 31
0
  0
LINE
  8
0
 62
7
 10
4.09525
 20
2.557500000000001
 30
0
 11
4.0975
 21
2.545000000000001
 31
0
  0
LINE
  8
0
 62
7
 10
4.0975
 20
2.545000000000001
 30
0
 11
4.09975
 21
2.557500000000001
 31
0
  0
LINE
  8
0
 62
7
 10
4.09975
 20
2.557500000000001
 30
0
 11
4.102
 21
2.562500000000001
 31
0
  0
LINE
  8
0
 62
7
 10
4.102
 20
2.562500000000001
 30
0
 11
4.1065
 21
2.567500000000001
 31
0
  0
LINE
  8
0
 62
7
 10
4.1065
 20
2.567500000000001
 30
0
 11
4.11325
 21
2.570000000000001
 31
0
  0
LINE
  8
0
 62
7
 10
4.11325
 20
2.570000000000001
 30
0
 11
4.12225
 21
2.570000000000001
 31
0
  0
LINE
  8
0
 62
7
 10
4.12225
 20
2.570000000000001
 30
0
 11
4.129
 21
2.567500000000001
 31
0
  0
LINE
  8
0
 62
7
 10
4.133500000000001
 20
2.562500000000001
 30
0
 11
4.129
 21
2.567500000000001
 31
0
  0
LINE
  8
0
 62
7
 10
4.129
 20
2.567500000000001
 30
0
 11
4.133500000000001
 21
2.562500000000001
 31
0
  0
LINE
  8
0
 62
7
 10
4.133500000000001
 20
2.562500000000001
 30
0
 11
4.135750000000001
 21
2.557500000000001
 31
0
  0
LINE
  8
0
 62
7
 10
4.135750000000001
 20
2.557500000000001
 30
0
 11
4.138000000000001
 21
2.545000000000001
 31
0
  0
LINE
  8
0
 62
7
 10
4.138000000000001
 20
2.545000000000001
 30
0
 11
4.138000000000001
 21
2.500000000000001
 31
0
  0
ARC
  8
0
 62
7
 10
2.428459130617972
 20
3.426540869381711
 30
0
 40
0.4880000000000015
 50
89.81901621891771
 51
180.1809837927682
  0
CIRCLE
  8
0
 62
7
 10
5.285
 20
3.914538434804713
 30
0
 40
0.06000000000000094
  0
DIMENSION
  8
0
  6
CONTINUOUS
 62
7
  2
*D1
  3
DMST_1
 10
1.424999999999993
 20
3.00132557786366
 30
0
 11
3.21374726647187
 21
3.00132557786366
 31
0
 12
0
 22
0
 32
0
 70
0
 13
5.185000000000011
 23
3.350000000000001
 33
0
 14
1.424999999999993
 24
3.350000000000001
 34
0
 53
0
  0
DIMENSION
  8
0
  6
CONTINUOUS
 62
7
  2
*D2
  3
DMST_1
 10
1.425
 20
5.365700042041741
 30
0
 11
3.30635844123966
 21
5.365700042041741
 31
0
 12
0
 22
0
 32
0
 70
0
 13
5.285000000000011
 23
4.949999999999998
 33
0
 14
1.425
 24
4.949999999999998
 34
0
 53
0
  0
DIMENSION
  8
0
  6
CONTINUOUS
 62
7
  2
*D3
  3
DMST_1
 10
0.941837051795444
 20
3.350000000000001
 30
0
 11
0.941837051795444
 21
3.88186946356433
 31
0
 12
0
 22
0
 32
0
 70
0
 13
1.425
 23
4.430000000000001
 33
0
 14
1.424999999999993
 24
3.350000000000001
 34
0
 50
90
 53
0
  0
DIMENSION
  8
0
  6
CONTINUOUS
 62
7
  2
*D4
  3
DMST_1
 10
1.425000000000001
 20
11.5544710204125
 30
0
 11
3.260828801018011
 21
11.5544710204125
 31
0
 12
0
 22
0
 32
0
 70
0
 13
5.185000000000011
 23
11.05
 33
0
 14
1.425
 24
11.05
 34
0
 53
0
  0
INSERT
  8
0
  2
*D0
 10
0
 20
0
 30
0
  0
ENDSEC
  0
EOF
