  0
SECTION
  2
HEADER
  9
$ACADVER
  1
AC1009
  9
$INSBASE
 10
0
 20
0
  9
$EXTMIN
 10
0.1
 20
-0.35
  9
$EXTMAX
 10
5.56831964374577
 20
7.045003755054001
  9
$LIMMIN
 10
0.1
 20
-0.35
  9
$LIMMAX
 10
5.56831964374577
 20
7.045003755054001
  9
$VIEWCTR
 10
10
 20
10
  9
$VIEWSIZE
 40
10
  9
$SNAPMODE
 70
0
  9
$SNAPUNIT
 10
1
 20
1
  9
$SNAPBASE
 10
0
 20
0
  9
$SNAPANG
 50
0
  9
$SNAPSTYLE
 70
0
  9
$SNAPISOPAIR
 70
0
  9
$GRIDMODE
 70
0
  9
$GRIDUNIT
 10
0
 20
0
  9
$ORTHOMODE
 70
0
  9
$REGENMODE
 70
1
  9
$FILLMODE
 70
1
  9
$QTEXTMODE
 70
0
  9
$DRAGMODE
 70
2
  9
$LTSCALE
 40
1
  9
$OSMODE
 70
0
  9
$ATTMODE
 70
1
  9
$TEXTSIZE
 40
3.5
  9
$TRACEWID
 40
0.5
  9
$TEXTSTYLE
  7
STANDARD
  9
$CLAYER
  8
0
  9
$CELTYPE
  6
BYLAYER
  9
$CECOLOR
 62
256
  9
$DIMSCALE
 40
1
  9
$DIMASZ
 40
0.18
  9
$DIMEXO
 40
0.0625
  9
$DIMDLI
 40
0.38
  9
$DIMRND
 40
0
  9
$DIMDLE
 40
0
  9
$DIMEXE
 40
0.18
  9
$DIMTP
 40
0
  9
$DIMTM
 40
0
  9
$DIMTXT
 40
0.18
  9
$DIMCEN
 40
0.09
  9
$DIMTSZ
 40
0
  9
$DIMTOL
 70
0
  9
$DIMLIM
 70
0
  9
$DIMTIH
 70
1
  9
$DIMTOH
 70
1
  9
$DIMSE1
 70
0
  9
$DIMSE2
 70
0
  9
$DIMTAD
 70
0
  9
$DIMZIN
 70
0
  9
$DIMBLK
  1

  9
$DIMASO
 70
1
  9
$DIMSHO
 70
1
  9
$DIMPOST
  1

  9
$DIMAPOST
  1

  9
$DIMALT
 70
0
  9
$DIMALTD
 70
2
  9
$DIMALTF
 40
25.4
  9
$DIMLFAC
 40
1
  9
$DIMTOFL
 70
0
  9
$DIMTVP
 40
0
  9
$DIMTIX
 70
0
  9
$DIMSOXD
 70
0
  9
$DIMSAH
 70
0
  9
$DIMBLK1
  1

  9
$DIMBLK2
  1

  9
$DIMSTYLE
  2
*UNNAMED
  9
$DIMCLRD
 70
0
  9
$DIMCLRE
 70
0
  9
$DIMCLRT
 70
0
  9
$DIMTFAC
 40
1
  9
$DIMGAP
 40
0.09
  9
$LUNITS
 70
2
  9
$LUPREC
 70
4
  9
$AXISMODE
 70
0
  9
$AXISUNIT
 10
0
 20
0
  9
$SKETCHINC
 40
0.1
  9
$FILLETRAD
 40
2
  9
$AUNITS
 70
0
  9
$AUPREC
 70
0
  9
$MENU
  1
ACAD
  9
$ELEVATION
 40
0
  9
$THICKNESS
 40
0
  9
$VIEWDIR
 10
0
 20
0
 30
1
  9
$LIMCHECK
 70
0
  9
$BLIPMODE
 70
1
  9
$CHAMFERA
 40
0
  9
$CHAMFERB
 40
0
  9
$FASTZOOM
 70
1
  9
$SKPOLY
 70
0
  9
$ANGBASE
 50
0
  9
$ANGDIR
 70
0
  9
$PDMODE
 70
0
  9
$PDSIZE
 40
0
  9
$PLINEWID
 40
0
  9
$COORDS
 70
2
  0
ENDSEC
  0
SECTION
  2
TABLES
  0
TABLE
  2
DIMSTYLE
 70
2
  0
DIMSTYLE
  2
DMST_1
 70
0
  3

  4

  5

  6

  7

 40
1
 41
0.1
 42
0
 43
0.7
 44
0.2
 45
0
 46
0
 47
0
 48
0
140
0.1
141
0
142
0.1
143
25.4
144
1
145
0
146
1
147
0.25
 71
0
 72
0
 73
0
 74
0
 75
0
 76
0
 77
0
 78
9
170
0
171
2
172
0
173
0
174
0
175
0
176
7
177
7
178
7
  0
DIMSTYLE
  2
DMST_2
 70
0
  3

  4

  5

  6

  7

 40
1
 41
0.1
 42
0
 43
0.7
 44
0.1
 45
0
 46
0
 47
0
 48
0
140
0.1
141
0
142
0.1
143
25.4
144
1
145
0
146
1
147
0.1
 71
0
 72
0
 73
0
 74
0
 75
0
 76
0
 77
0
 78
9
170
0
171
2
172
0
173
0
174
0
175
0
176
7
177
7
178
7
  0
ENDTAB
  0
TABLE
  2
LTYPE
 70
9
  0
LTYPE
  2
CONTINUOUS
 70
64
  3
Solid line
 72
65
 73
0
 40
0
  0
LTYPE
  2
BORDER
 70
64
  3
__ __ . __ __ .
 72
65
 73
6
 40
0.3405593834564342
 49
0.09730268098755264
 49
-0.04865134049377632
 49
0.09730268098755264
 49
-0.04865134049377632
 49
0
 49
-0.04865134049377632
  0
LTYPE
  2
CENTER
 70
64
  3
____ _ ____ _
 72
65
 73
4
 40
0.3892107239502106
 49
0.2432567024688816
 49
-0.04865134049377632
 49
0.04865134049377632
 49
-0.04865134049377632
  0
LTYPE
  2
DASHDOT
 70
64
  3
__ . __ . __ .
 72
65
 73
4
 40
0.1946053619751053
 49
0.09730268098755264
 49
-0.04865134049377632
 49
0
 49
-0.04865134049377632
  0
LTYPE
  2
DASHED
 70
64
  3
__ __ __ __ __
 72
65
 73
2
 40
0.145954021481329
 49
0.09730268098755264
 49
-0.04865134049377632
  0
LTYPE
  2
DIVIDE
 70
64
  3
__ . . __ . . 
 72
65
 73
6
 40
0.2432567024688816
 49
0.09730268098755264
 49
-0.04865134049377632
 49
0
 49
-0.04865134049377632
 49
0
 49
-0.04865134049377632
  0
LTYPE
  2
DOT
 70
64
  3
..............
 72
65
 73
4
 40
0.09730268098755264
 49
0
 49
-0.04865134049377632
 49
0
 49
-0.04865134049377632
  0
LTYPE
  2
HIDDEN
 70
64
  3
_ _ _ _ _ _ _
 72
65
 73
2
 40
0.07297701074066448
 49
0.04865134049377632
 49
-0.02432567024688816
  0
LTYPE
  2
PHANTOM
 70
64
  3
_____ _ _ _____ _ _ 
 72
65
 73
6
 40
0.4865134049377632
 49
0.2432567024688816
 49
-0.04865134049377632
 49
0.04865134049377632
 49
-0.04865134049377632
 49
0.04865134049377632
 49
-0.04865134049377632
  0
ENDTAB
  0
TABLE
  2
LAYER
 70
2
  0
LAYER
  2
0
 70
0
 62
7
  6
CONTINUOUS
  0
ENDTAB
  0
TABLE
  2
STYLE
 70
4
  0
STYLE
  2
STANDARD
 70
0
 40
0
 41
1
 50
0
 71
0
 42
3.5
  3
txt
  4

  0
STYLE
  2
SIMPLEX
 70
0
 40
0
 41
1
 50
0
 71
0
 42
3.5
  3
simplex
  4

  0
STYLE
  2
COMPLEX
 70
0
 40
0
 41
1
 50
0
 71
0
 42
3.5
  3
complex
  4

  0
STYLE
  2
ITALIC
 70
0
 40
0
 41
1
 50
0
 71
0
 42
3.5
  3
italic
  4

  0
ENDTAB
  0
TABLE
  2
VIEW
 70
0
  0
ENDTAB
  0
ENDSEC
  0
SECTION
  2
BLOCKS
  0
BLOCK
  8
0
  2
*X0
 70
1
 10
0
 20
0
 30
0
  0
LINE
  8
0
 62
7
  6
DASHED
 10
2.629925695285988
 20
3.584519849887826
 30
0
 11
2.690068503374081
 21
3.644662657975919
 31
0
  0
LINE
  8
0
 62
7
  6
DASHED
 10
2.702200537730045
 20
3.444662657975917
 30
0
 11
2.902200537730045
 21
3.644662657975919
 31
0
  0
LINE
  8
0
 62
7
  6
DASHED
 10
2.91433257208601
 20
3.444662657975917
 30
0
 11
3.114332572086009
 21
3.644662657975919
 31
0
  0
LINE
  8
0
 62
7
  6
DASHED
 10
3.126464606441974
 20
3.444662657975917
 30
0
 11
3.326464606441974
 21
3.644662657975919
 31
0
  0
LINE
  8
0
 62
7
  6
DASHED
 10
3.338596640797938
 20
3.444662657975917
 30
0
 11
3.538596640797938
 21
3.644662657975919
 31
0
  0
LINE
  8
0
 62
7
  6
DASHED
 10
3.550728675153902
 20
3.444662657975917
 30
0
 11
3.750728675153902
 21
3.644662657975919
 31
0
  0
LINE
  8
0
 62
7
  6
DASHED
 10
3.762860709509867
 20
3.444662657975917
 30
0
 11
3.962860709509866
 21
3.644662657975919
 31
0
  0
LINE
  8
0
 62
7
  6
DASHED
 10
3.974992743865831
 20
3.444662657975917
 30
0
 11
4.174992743865831
 21
3.644662657975919
 31
0
  0
LINE
  8
0
 62
7
  6
DASHED
 10
4.187124778221795
 20
3.444662657975917
 30
0
 11
4.387124778221795
 21
3.644662657975919
 31
0
  0
LINE
  8
0
 62
7
  6
DASHED
 10
4.399256812577759
 20
3.444662657975917
 30
0
 11
4.599256812577758
 21
3.644662657975919
 31
0
  0
LINE
  8
0
 62
7
  6
DASHED
 10
4.611388846933723
 20
3.444662657975917
 30
0
 11
4.811388846933722
 21
3.644662657975919
 31
0
  0
LINE
  8
0
 62
7
  6
DASHED
 10
4.823520881289687
 20
3.444662657975917
 30
0
 11
5.023520881289686
 21
3.644662657975919
 31
0
  0
LINE
  8
0
 62
7
  6
DASHED
 10
5.035652915645651
 20
3.444662657975917
 30
0
 11
5.234925695285988
 21
3.643935437616255
 31
0
  0
LINE
  8
0
 62
7
 10
2.629925695285988
 20
3.478453832709845
 30
0
 11
2.796134520552063
 21
3.644662657975918
 31
0
  0
LINE
  8
0
 62
7
 10
2.808266554908028
 20
3.444662657975918
 30
0
 11
3.008266554908027
 21
3.644662657975918
 31
0
  0
LINE
  8
0
 62
7
 10
3.020398589263992
 20
3.444662657975918
 30
0
 11
3.220398589263992
 21
3.644662657975918
 31
0
  0
LINE
  8
0
 62
7
 10
3.232530623619956
 20
3.444662657975918
 30
0
 11
3.432530623619956
 21
3.644662657975918
 31
0
  0
LINE
  8
0
 62
7
 10
3.444662657975921
 20
3.444662657975918
 30
0
 11
3.64466265797592
 21
3.644662657975918
 31
0
  0
LINE
  8
0
 62
7
 10
3.656794692331885
 20
3.444662657975918
 30
0
 11
3.856794692331885
 21
3.644662657975918
 31
0
  0
LINE
  8
0
 62
7
 10
3.868926726687849
 20
3.444662657975918
 30
0
 11
4.068926726687849
 21
3.644662657975918
 31
0
  0
LINE
  8
0
 62
7
 10
4.081058761043813
 20
3.444662657975918
 30
0
 11
4.281058761043813
 21
3.644662657975918
 31
0
  0
LINE
  8
0
 62
7
 10
4.293190795399777
 20
3.444662657975918
 30
0
 11
4.493190795399777
 21
3.644662657975918
 31
0
  0
LINE
  8
0
 62
7
 10
4.505322829755741
 20
3.444662657975918
 30
0
 11
4.70532282975574
 21
3.644662657975918
 31
0
  0
LINE
  8
0
 62
7
 10
4.717454864111705
 20
3.444662657975918
 30
0
 11
4.917454864111704
 21
3.644662657975918
 31
0
  0
LINE
  8
0
 62
7
 10
4.929586898467669
 20
3.444662657975918
 30
0
 11
5.129586898467668
 21
3.644662657975918
 31
0
  0
LINE
  8
0
 62
7
 10
5.141718932823633
 20
3.444662657975918
 30
0
 11
5.234925695285988
 21
3.537869420438273
 31
0
  0
ENDBLK
  8
0
  0
BLOCK
  8
0
  2
*X1
 70
1
 10
0
 20
0
 30
0
  0
LINE
  8
0
 62
7
  6
DASHED
 10
5.007425695285979
 20
6.386283918599746
 30
0
 11
5.015804434662154
 21
6.394662657975919
 31
0
  0
LINE
  8
0
 62
7
  6
DASHED
 10
5.027936469018117
 20
6.194662657975919
 30
0
 11
5.227936469018117
 21
6.394662657975919
 31
0
  0
LINE
  8
0
 62
7
 10
5.007425695285889
 20
6.280217901421673
 30
0
 11
5.121870451840135
 21
6.394662657975919
 31
0
  0
LINE
  8
0
 62
7
 10
5.1340024861961
 20
6.19466265797592
 30
0
 11
5.234925695285989
 21
6.295585867065809
 31
0
  0
ENDBLK
  8
0
  0
BLOCK
  8
0
  2
*X2
 70
1
 10
0
 20
0
 30
0
  0
LINE
  8
0
 62
7
  6
DASHED
 10
2.629925695285988
 20
6.342236296515361
 30
0
 11
2.682352056746546
 21
6.394662657975919
 31
0
  0
LINE
  8
0
 62
7
  6
DASHED
 10
2.69448409110251
 20
6.19466265797592
 30
0
 11
2.857425695285988
 21
6.357604262159398
 31
0
  0
LINE
  8
0
 62
7
 10
2.629925695285988
 20
6.236170279337379
 30
0
 11
2.788418073924528
 21
6.394662657975919
 31
0
  0
LINE
  8
0
 62
7
 10
2.800550108280492
 20
6.194662657975919
 30
0
 11
2.857425695285988
 21
6.251538244981417
 31
0
  0
ENDBLK
  8
0
  0
BLOCK
  8
0
  2
*D0
 70
1
 10
0
 20
0
 30
0
  0
LINE
  8
0
 62
7
 10
5.44331964374577
 20
5.649335016229711
 30
0
 11
5.44331964374577
 21
6.394662657975919
 31
0
  0
LINE
  8
0
 62
7
 10
5.44331964374577
 20
3.644662657975918
 30
0
 11
5.44331964374577
 21
4.469335016229709
 31
0
  0
LINE
  8
0
 62
7
 10
5.234925695285987
 20
6.394662657975919
 30
0
 11
5.49331964374577
 21
6.394662657975919
 31
0
  0
LINE
  8
0
 62
7
 10
5.234925695285987
 20
3.644662657975918
 30
0
 11
5.49331964374577
 21
3.644662657975918
 31
0
  0
LINE
  8
0
 62
7
 10
5.478674982805098
 20
6.359307318916592
 30
0
 11
5.407964304686443
 21
6.430017997035247
 31
0
  0
LINE
  8
0
 62
7
 10
5.407964304686443
 20
3.680017997035245
 30
0
 11
5.478674982805098
 21
3.609307318916591
 31
0
  0
TEXT
  8
0
 62
7
 10
5.41831964374577
 20
4.93933501622971
 30
0
 40
0.1
  1
275
 50
90
 41
0.9
  0
TEXT
  8
0
 62
7
 10
5.56831964374577
 20
4.71933501622971
 30
0
 40
0.1
  1
(260-280)
 50
90
 41
0.9
  0
ENDBLK
  8
0
  0
BLOCK
  8
0
  2
*D1
 70
1
 10
0
 20
0
 30
0
  0
LINE
  8
0
 62
7
 10
4.305432535141732
 20
6.990003755054001
 30
0
 11
5.007425695285988
 21
6.990003755054001
 31
0
  0
LINE
  8
0
 62
7
 10
2.857425695285988
 20
6.990003755054001
 30
0
 11
3.560432535141731
 21
6.990003755054001
 31
0
  0
LINE
  8
0
 62
7
 10
5.007425695285988
 20
6.394662657975919
 30
0
 11
5.007425695285988
 21
7.040003755054001
 31
0
  0
LINE
  8
0
 62
7
 10
2.857425695285988
 20
6.394662657975919
 30
0
 11
2.857425695285988
 21
7.040003755054001
 31
0
  0
LINE
  8
0
 62
7
 10
4.972070356226661
 20
6.954648415994674
 30
0
 11
5.042781034345316
 21
7.025359094113329
 31
0
  0
LINE
  8
0
 62
7
 10
2.892781034345315
 20
7.025359094113329
 30
0
 11
2.822070356226661
 21
6.954648415994674
 31
0
  0
TEXT
  8
0
 62
7
 10
3.810432535141731
 20
6.945003755054001
 30
0
 40
0.1
  1
2,15
 41
0.9
  0
ENDBLK
  8
0
  0
BLOCK
  8
0
  2
*D2
 70
1
 10
0
 20
0
 30
0
  0
LINE
  8
0
 62
7
 10
5.364516838079471
 20
1.47303274235866
 30
0
 11
5.364516838079471
 21
2.349662657975918
 31
0
  0
LINE
  8
0
 62
7
 10
5.364516838079471
 20
0.199662657975918
 30
0
 11
5.364516838079471
 21
1.02803274235866
 31
0
  0
LINE
  8
0
 62
7
 10
3.932425695285988
 20
2.349662657975918
 30
0
 11
5.414516838079471
 21
2.349662657975918
 31
0
  0
LINE
  8
0
 62
7
 10
3.932425695285988
 20
0.199662657975918
 30
0
 11
5.414516838079471
 21
0.199662657975918
 31
0
  0
LINE
  8
0
 62
7
 10
5.399872177138798
 20
2.314307318916591
 30
0
 11
5.329161499020143
 21
2.385017997035245
 31
0
  0
LINE
  8
0
 62
7
 10
5.329161499020143
 20
0.2350179970352453
 30
0
 11
5.399872177138798
 21
0.1643073189165906
 31
0
  0
TEXT
  8
0
 62
7
 10
5.409516838079471
 20
1.12803274235866
 30
0
 40
0.1
  1
2,15
 50
90
 41
0.9
  0
ENDBLK
  8
0
  0
BLOCK
  8
0
  2
*D3
 70
1
 10
0
 20
0
 30
0
  0
LINE
  8
0
 62
7
 10
1.50240474437638
 20
2.72151844812955
 30
0
 11
2.307425695285987
 21
2.72151844812955
 31
0
  0
LINE
  8
0
 62
7
 10
0.1574256952859869
 20
2.72151844812955
 30
0
 11
1.05740474437638
 21
2.72151844812955
 31
0
  0
LINE
  8
0
 62
7
 10
2.307425695285987
 20
2.349662657975918
 30
0
 11
2.307425695285987
 21
2.77151844812955
 31
0
  0
LINE
  8
0
 62
7
 10
0.1574256952859869
 20
2.349662657975918
 30
0
 11
0.1574256952859869
 21
2.77151844812955
 31
0
  0
LINE
  8
0
 62
7
 10
2.27207035622666
 20
2.686163109070223
 30
0
 11
2.342781034345315
 21
2.756873787188877
 31
0
  0
LINE
  8
0
 62
7
 10
0.1927810343453143
 20
2.756873787188877
 30
0
 11
0.1220703562266595
 21
2.686163109070223
 31
0
  0
TEXT
  8
0
 62
7
 10
1.15740474437638
 20
2.67651844812955
 30
0
 40
0.1
  1
2,15
 41
0.9
  0
ENDBLK
  8
0
  0
BLOCK
  8
0
  2
*D4
 70
1
 10
0
 20
0
 30
0
  0
LINE
  8
0
 62
7
 10
4.0892001370305
 20
2.760919850962701
 30
0
 11
4.932425695285987
 21
2.760919850962701
 31
0
  0
LINE
  8
0
 62
7
 10
2.932425695285987
 20
2.760919850962701
 30
0
 11
3.8292001370305
 21
2.760919850962701
 31
0
  0
LINE
  8
0
 62
7
 10
4.932425695285987
 20
1.274662657975919
 30
0
 11
4.932425695285987
 21
2.810919850962701
 31
0
  0
LINE
  8
0
 62
7
 10
2.932425695285987
 20
1.274662657975919
 30
0
 11
2.932425695285987
 21
2.810919850962701
 31
0
  0
LINE
  8
0
 62
7
 10
2.967781034345314
 20
2.796275190022028
 30
0
 11
2.89707035622666
 21
2.725564511903374
 31
0
  0
LINE
  8
0
 62
7
 10
4.89707035622666
 20
2.725564511903374
 30
0
 11
4.967781034345315
 21
2.796275190022028
 31
0
  0
TEXT
  8
0
 62
7
 10
3.9292001370305
 20
2.710919850962701
 30
0
 40
0.1
  1
2
 41
0.9
  0
ENDBLK
  8
0
  0
ENDSEC
  0
SECTION
  2
ENTITIES
  0
INSERT
  8
0
  2
*X0
 10
0
 20
0
 30
0
  0
INSERT
  8
0
  2
*X1
 10
0
 20
0
 30
0
  0
INSERT
  8
0
  2
*X2
 10
0
 20
0
 30
0
  0
POINT
  8
0
 62
7
  6
DASHED
 10
3.932425695285988
 20
1.274662657975918
 30
0
  0
LINE
  8
0
 62
7
 10
4.003225695286005
 20
3.759662657975918
 30
0
 11
4.003225695286005
 21
3.744662657975919
 31
0
  0
LINE
  8
0
 62
7
 10
3.983225695286006
 20
3.759662657975918
 30
0
 11
4.003225695286005
 21
3.759662657975918
 31
0
  0
LINE
  8
0
 62
7
 10
3.983225695286006
 20
3.801091229404266
 30
0
 11
3.983225695286006
 21
3.759662657975918
 31
0
  0
LINE
  8
0
 62
7
 10
3.993225695286005
 20
3.801091229404266
 30
0
 11
3.983225695286006
 21
3.801091229404266
 31
0
  0
LINE
  8
0
 62
7
 10
3.993225695286005
 20
3.861091229404265
 30
0
 11
3.993225695286005
 21
3.801091229404266
 31
0
  0
LINE
  8
0
 62
7
 10
4.003225695286005
 20
3.861091229404265
 30
0
 11
3.993225695286005
 21
3.861091229404265
 31
0
  0
LINE
  8
0
 62
7
 10
4.003225695286005
 20
3.876091229404266
 30
0
 11
4.003225695286005
 21
3.861091229404265
 31
0
  0
LINE
  8
0
 62
7
 10
3.861625695285999
 20
3.876091229404266
 30
0
 11
4.003225695286005
 21
3.876091229404266
 31
0
  0
LINE
  8
0
 62
7
 10
3.861625695285999
 20
3.861091229404265
 30
0
 11
3.861625695285999
 21
3.876091229404266
 31
0
  0
LINE
  8
0
 62
7
 10
3.871625695285999
 20
3.861091229404265
 30
0
 11
3.861625695285999
 21
3.861091229404265
 31
0
  0
LINE
  8
0
 62
7
 10
3.871625695285999
 20
3.801091229404266
 30
0
 11
3.871625695285999
 21
3.861091229404265
 31
0
  0
LINE
  8
0
 62
7
 10
3.881625695285999
 20
3.801091229404266
 30
0
 11
3.871625695285999
 21
3.801091229404266
 31
0
  0
LINE
  8
0
 62
7
 10
3.881625695285999
 20
3.759662657975918
 30
0
 11
3.881625695285999
 21
3.801091229404266
 31
0
  0
LINE
  8
0
 62
7
 10
3.861625695285999
 20
3.759662657975918
 30
0
 11
3.881625695285999
 21
3.759662657975918
 31
0
  0
LINE
  8
0
 62
7
 10
3.861625695285999
 20
3.744662657975919
 30
0
 11
3.861625695285999
 21
3.759662657975918
 31
0
  0
LINE
  8
0
 62
7
 10
3.861625695285999
 20
3.759662657975918
 30
0
 11
4.003225695286005
 21
3.759662657975918
 31
0
  0
LINE
  8
0
 62
7
 10
3.993225695286005
 20
3.801091229404266
 30
0
 11
3.871625695285999
 21
3.801091229404266
 31
0
  0
LINE
  8
0
 62
7
 10
3.861625695285999
 20
3.861091229404265
 30
0
 11
4.003225695286005
 21
3.861091229404265
 31
0
  0
LINE
  8
0
 62
7
  6
DASHDOT
 10
4.327640544309484
 20
3.544662657975918
 30
0
 11
4.327640544309484
 21
3.961091229404265
 31
0
  0
LINE
  8
0
 62
7
 10
4.003225695286005
 20
3.941091229404265
 30
0
 11
3.932425695285988
 21
3.941091229404265
 31
0
  0
LINE
  8
0
 62
7
 10
4.700710302685999
 20
3.876091229404266
 30
0
 11
4.700710302685999
 21
3.941091229404265
 31
0
  0
LINE
  8
0
 62
7
 10
3.814477696543008
 20
3.876091229404266
 30
0
 11
4.700710302685999
 21
3.876091229404266
 31
0
  0
LINE
  8
0
 62
7
 10
3.814477696543008
 20
3.941091229404265
 30
0
 11
3.814477696543008
 21
3.876091229404266
 31
0
  0
LINE
  8
0
 62
7
 10
3.861625695285999
 20
3.941091229404265
 30
0
 11
3.814477696543008
 21
3.941091229404265
 31
0
  0
LINE
  8
0
 62
7
 10
4.003225695286005
 20
3.956091229404265
 30
0
 11
4.003225695286005
 21
3.941091229404265
 31
0
  0
LINE
  8
0
 62
7
 10
3.983225695286006
 20
3.956091229404265
 30
0
 11
4.003225695286005
 21
3.956091229404265
 31
0
  0
LINE
  8
0
 62
7
 10
3.983225695286006
 20
3.997519800832845
 30
0
 11
3.983225695286006
 21
3.956091229404265
 31
0
  0
LINE
  8
0
 62
7
 10
3.993225695286005
 20
3.997519800832845
 30
0
 11
3.983225695286006
 21
3.997519800832845
 31
0
  0
LINE
  8
0
 62
7
 10
3.993225695286005
 20
4.057519800832845
 30
0
 11
3.993225695286005
 21
3.997519800832845
 31
0
  0
LINE
  8
0
 62
7
 10
4.003225695286005
 20
4.057519800832845
 30
0
 11
3.993225695286005
 21
4.057519800832845
 31
0
  0
LINE
  8
0
 62
7
 10
4.003225695286005
 20
4.072519800832845
 30
0
 11
4.003225695286005
 21
4.057519800832845
 31
0
  0
LINE
  8
0
 62
7
 10
3.861625695285999
 20
4.072519800832845
 30
0
 11
4.003225695286005
 21
4.072519800832845
 31
0
  0
LINE
  8
0
 62
7
 10
3.861625695285999
 20
4.057519800832845
 30
0
 11
3.861625695285999
 21
4.072519800832845
 31
0
  0
LINE
  8
0
 62
7
 10
3.871625695285999
 20
4.057519800832845
 30
0
 11
3.861625695285999
 21
4.057519800832845
 31
0
  0
LINE
  8
0
 62
7
 10
3.871625695285999
 20
3.997519800832845
 30
0
 11
3.871625695285999
 21
4.057519800832845
 31
0
  0
LINE
  8
0
 62
7
 10
3.881625695285999
 20
3.997519800832845
 30
0
 11
3.871625695285999
 21
3.997519800832845
 31
0
  0
LINE
  8
0
 62
7
 10
3.881625695285999
 20
3.956091229404265
 30
0
 11
3.881625695285999
 21
3.997519800832845
 31
0
  0
LINE
  8
0
 62
7
 10
3.861625695285999
 20
3.956091229404265
 30
0
 11
3.881625695285999
 21
3.956091229404265
 31
0
  0
LINE
  8
0
 62
7
 10
3.861625695285999
 20
3.941091229404265
 30
0
 11
3.861625695285999
 21
3.956091229404265
 31
0
  0
LINE
  8
0
 62
7
 10
3.932425695285988
 20
3.941091229404265
 30
0
 11
3.861625695285999
 21
3.941091229404265
 31
0
  0
LINE
  8
0
 62
7
 10
3.861625695285999
 20
3.956091229404265
 30
0
 11
4.003225695286005
 21
3.956091229404265
 31
0
  0
LINE
  8
0
 62
7
 10
3.993225695286005
 20
3.997519800832845
 30
0
 11
3.871625695285999
 21
3.997519800832845
 31
0
  0
LINE
  8
0
 62
7
 10
3.861625695285999
 20
4.057519800832845
 30
0
 11
4.003225695286005
 21
4.057519800832845
 31
0
  0
LINE
  8
0
 62
7
 10
4.700710302685999
 20
3.941091229404265
 30
0
 11
4.003225695286005
 21
3.941091229404265
 31
0
  0
LINE
  8
0
 62
7
 10
4.003225695286005
 20
4.137519800832845
 30
0
 11
3.932425695285988
 21
4.137519800832845
 31
0
  0
LINE
  8
0
 62
7
 10
4.890264407886018
 20
4.072519800832845
 30
0
 11
4.890264407886018
 21
4.137519800832845
 31
0
  0
LINE
  8
0
 62
7
 10
3.813557271018101
 20
4.072519800832845
 30
0
 11
4.890264407886018
 21
4.072519800832845
 31
0
  0
LINE
  8
0
 62
7
 10
3.813557271018101
 20
4.137519800832845
 30
0
 11
3.813557271018101
 21
4.072519800832845
 31
0
  0
LINE
  8
0
 62
7
 10
3.861625695285999
 20
4.137519800832845
 30
0
 11
3.813557271018101
 21
4.137519800832845
 31
0
  0
LINE
  8
0
 62
7
 10
4.003225695286005
 20
4.152519800832844
 30
0
 11
4.003225695286005
 21
4.137519800832845
 31
0
  0
LINE
  8
0
 62
7
 10
3.983225695286006
 20
4.152519800832844
 30
0
 11
4.003225695286005
 21
4.152519800832844
 31
0
  0
LINE
  8
0
 62
7
 10
3.983225695286006
 20
4.193948372261483
 30
0
 11
3.983225695286006
 21
4.152519800832844
 31
0
  0
LINE
  8
0
 62
7
 10
3.993225695286005
 20
4.193948372261483
 30
0
 11
3.983225695286006
 21
4.193948372261483
 31
0
  0
LINE
  8
0
 62
7
 10
3.993225695286005
 20
4.253948372261482
 30
0
 11
3.993225695286005
 21
4.193948372261483
 31
0
  0
LINE
  8
0
 62
7
 10
4.003225695286005
 20
4.253948372261482
 30
0
 11
3.993225695286005
 21
4.253948372261482
 31
0
  0
LINE
  8
0
 62
7
 10
4.003225695286005
 20
4.268948372261483
 30
0
 11
4.003225695286005
 21
4.253948372261482
 31
0
  0
LINE
  8
0
 62
7
 10
3.861625695285999
 20
4.268948372261483
 30
0
 11
4.003225695286005
 21
4.268948372261483
 31
0
  0
LINE
  8
0
 62
7
 10
3.861625695285999
 20
4.253948372261482
 30
0
 11
3.861625695285999
 21
4.268948372261483
 31
0
  0
LINE
  8
0
 62
7
 10
3.871625695285999
 20
4.253948372261482
 30
0
 11
3.861625695285999
 21
4.253948372261482
 31
0
  0
LINE
  8
0
 62
7
 10
3.871625695285999
 20
4.193948372261483
 30
0
 11
3.871625695285999
 21
4.253948372261482
 31
0
  0
LINE
  8
0
 62
7
 10
3.881625695285999
 20
4.193948372261483
 30
0
 11
3.871625695285999
 21
4.193948372261483
 31
0
  0
LINE
  8
0
 62
7
 10
3.881625695285999
 20
4.152519800832844
 30
0
 11
3.881625695285999
 21
4.193948372261483
 31
0
  0
LINE
  8
0
 62
7
 10
3.861625695285999
 20
4.152519800832844
 30
0
 11
3.881625695285999
 21
4.152519800832844
 31
0
  0
LINE
  8
0
 62
7
 10
3.861625695285999
 20
4.137519800832845
 30
0
 11
3.861625695285999
 21
4.152519800832844
 31
0
  0
LINE
  8
0
 62
7
 10
3.932425695285988
 20
4.137519800832845
 30
0
 11
3.861625695285999
 21
4.137519800832845
 31
0
  0
LINE
  8
0
 62
7
 10
3.861625695285999
 20
4.152519800832844
 30
0
 11
4.003225695286005
 21
4.152519800832844
 31
0
  0
LINE
  8
0
 62
7
 10
3.993225695286005
 20
4.193948372261483
 30
0
 11
3.871625695285999
 21
4.193948372261483
 31
0
  0
LINE
  8
0
 62
7
 10
3.861625695285999
 20
4.253948372261482
 30
0
 11
4.003225695286005
 21
4.253948372261482
 31
0
  0
LINE
  8
0
 62
7
 10
4.890264407886018
 20
4.137519800832845
 30
0
 11
4.003225695286005
 21
4.137519800832845
 31
0
  0
LINE
  8
0
 62
7
 10
4.003225695286005
 20
4.333948372261482
 30
0
 11
3.932425695285988
 21
4.333948372261482
 31
0
  0
LINE
  8
0
 62
7
 10
4.926181213886011
 20
4.268948372261483
 30
0
 11
4.926181213886011
 21
4.333948372261482
 31
0
  0
LINE
  8
0
 62
7
 10
3.83170333699981
 20
4.268948372261483
 30
0
 11
4.926181213886011
 21
4.268948372261483
 31
0
  0
LINE
  8
0
 62
7
 10
3.83170333699981
 20
4.333948372261482
 30
0
 11
3.83170333699981
 21
4.268948372261483
 31
0
  0
LINE
  8
0
 62
7
 10
3.861625695285999
 20
4.333948372261482
 30
0
 11
3.83170333699981
 21
4.333948372261482
 31
0
  0
LINE
  8
0
 62
7
 10
4.003225695286005
 20
4.348948372261482
 30
0
 11
4.003225695286005
 21
4.333948372261482
 31
0
  0
LINE
  8
0
 62
7
 10
3.983225695286006
 20
4.348948372261482
 30
0
 11
4.003225695286005
 21
4.348948372261482
 31
0
  0
LINE
  8
0
 62
7
 10
3.983225695286006
 20
4.390376943690063
 30
0
 11
3.983225695286006
 21
4.348948372261482
 31
0
  0
LINE
  8
0
 62
7
 10
3.993225695286005
 20
4.390376943690063
 30
0
 11
3.983225695286006
 21
4.390376943690063
 31
0
  0
LINE
  8
0
 62
7
 10
3.993225695286005
 20
4.450376943690062
 30
0
 11
3.993225695286005
 21
4.390376943690063
 31
0
  0
LINE
  8
0
 62
7
 10
4.003225695286005
 20
4.450376943690062
 30
0
 11
3.993225695286005
 21
4.450376943690062
 31
0
  0
LINE
  8
0
 62
7
 10
4.003225695286005
 20
4.465376943690063
 30
0
 11
4.003225695286005
 21
4.450376943690062
 31
0
  0
LINE
  8
0
 62
7
 10
3.861625695285999
 20
4.465376943690063
 30
0
 11
4.003225695286005
 21
4.465376943690063
 31
0
  0
LINE
  8
0
 62
7
 10
3.861625695285999
 20
4.450376943690062
 30
0
 11
3.861625695285999
 21
4.465376943690063
 31
0
  0
LINE
  8
0
 62
7
 10
3.871625695285999
 20
4.450376943690062
 30
0
 11
3.861625695285999
 21
4.450376943690062
 31
0
  0
LINE
  8
0
 62
7
 10
3.871625695285999
 20
4.390376943690063
 30
0
 11
3.871625695285999
 21
4.450376943690062
 31
0
  0
LINE
  8
0
 62
7
 10
3.881625695285999
 20
4.390376943690063
 30
0
 11
3.871625695285999
 21
4.390376943690063
 31
0
  0
LINE
  8
0
 62
7
 10
3.881625695285999
 20
4.348948372261482
 30
0
 11
3.881625695285999
 21
4.390376943690063
 31
0
  0
LINE
  8
0
 62
7
 10
3.861625695285999
 20
4.348948372261482
 30
0
 11
3.881625695285999
 21
4.348948372261482
 31
0
  0
LINE
  8
0
 62
7
 10
3.861625695285999
 20
4.333948372261482
 30
0
 11
3.861625695285999
 21
4.348948372261482
 31
0
  0
LINE
  8
0
 62
7
 10
3.932425695285988
 20
4.333948372261482
 30
0
 11
3.861625695285999
 21
4.333948372261482
 31
0
  0
LINE
  8
0
 62
7
 10
3.861625695285999
 20
4.348948372261482
 30
0
 11
4.003225695286005
 21
4.348948372261482
 31
0
  0
LINE
  8
0
 62
7
 10
3.993225695286005
 20
4.390376943690063
 30
0
 11
3.871625695285999
 21
4.390376943690063
 31
0
  0
LINE
  8
0
 62
7
 10
3.861625695285999
 20
4.450376943690062
 30
0
 11
4.003225695286005
 21
4.450376943690062
 31
0
  0
LINE
  8
0
 62
7
 10
4.926181213886011
 20
4.333948372261482
 30
0
 11
4.003225695286005
 21
4.333948372261482
 31
0
  0
LINE
  8
0
 62
7
 10
4.003225695286005
 20
4.530376943690062
 30
0
 11
3.932425695285988
 21
4.530376943690062
 31
0
  0
LINE
  8
0
 62
7
 10
4.931674149686006
 20
4.465376943690063
 30
0
 11
4.931674149686006
 21
4.530376943690062
 31
0
  0
LINE
  8
0
 62
7
 10
3.822817303663092
 20
4.465376943690063
 30
0
 11
4.931674149686006
 21
4.465376943690063
 31
0
  0
LINE
  8
0
 62
7
 10
3.822817303663092
 20
4.530376943690062
 30
0
 11
3.822817303663092
 21
4.465376943690063
 31
0
  0
LINE
  8
0
 62
7
 10
3.861625695285999
 20
4.530376943690062
 30
0
 11
3.822817303663092
 21
4.530376943690062
 31
0
  0
LINE
  8
0
 62
7
 10
4.003225695286005
 20
4.545376943690062
 30
0
 11
4.003225695286005
 21
4.530376943690062
 31
0
  0
LINE
  8
0
 62
7
 10
3.983225695286006
 20
4.545376943690062
 30
0
 11
4.003225695286005
 21
4.545376943690062
 31
0
  0
LINE
  8
0
 62
7
 10
3.983225695286006
 20
4.586805515118642
 30
0
 11
3.983225695286006
 21
4.545376943690062
 31
0
  0
LINE
  8
0
 62
7
 10
3.993225695286005
 20
4.586805515118642
 30
0
 11
3.983225695286006
 21
4.586805515118642
 31
0
  0
LINE
  8
0
 62
7
 10
3.993225695286005
 20
4.646805515118642
 30
0
 11
3.993225695286005
 21
4.586805515118642
 31
0
  0
LINE
  8
0
 62
7
 10
4.003225695286005
 20
4.646805515118642
 30
0
 11
3.993225695286005
 21
4.646805515118642
 31
0
  0
LINE
  8
0
 62
7
 10
4.003225695286005
 20
4.661805515118642
 30
0
 11
4.003225695286005
 21
4.646805515118642
 31
0
  0
LINE
  8
0
 62
7
 10
3.861625695285999
 20
4.661805515118642
 30
0
 11
4.003225695286005
 21
4.661805515118642
 31
0
  0
LINE
  8
0
 62
7
 10
3.861625695285999
 20
4.646805515118642
 30
0
 11
3.861625695285999
 21
4.661805515118642
 31
0
  0
LINE
  8
0
 62
7
 10
3.871625695285999
 20
4.646805515118642
 30
0
 11
3.861625695285999
 21
4.646805515118642
 31
0
  0
LINE
  8
0
 62
7
 10
3.871625695285999
 20
4.586805515118642
 30
0
 11
3.871625695285999
 21
4.646805515118642
 31
0
  0
LINE
  8
0
 62
7
 10
3.881625695285999
 20
4.586805515118642
 30
0
 11
3.871625695285999
 21
4.586805515118642
 31
0
  0
LINE
  8
0
 62
7
 10
3.881625695285999
 20
4.545376943690062
 30
0
 11
3.881625695285999
 21
4.586805515118642
 31
0
  0
LINE
  8
0
 62
7
 10
3.861625695285999
 20
4.545376943690062
 30
0
 11
3.881625695285999
 21
4.545376943690062
 31
0
  0
LINE
  8
0
 62
7
 10
3.861625695285999
 20
4.530376943690062
 30
0
 11
3.861625695285999
 21
4.545376943690062
 31
0
  0
LINE
  8
0
 62
7
 10
3.932425695285988
 20
4.530376943690062
 30
0
 11
3.861625695285999
 21
4.530376943690062
 31
0
  0
LINE
  8
0
 62
7
 10
3.861625695285999
 20
4.545376943690062
 30
0
 11
4.003225695286005
 21
4.545376943690062
 31
0
  0
LINE
  8
0
 62
7
 10
3.993225695286005
 20
4.586805515118642
 30
0
 11
3.871625695285999
 21
4.586805515118642
 31
0
  0
LINE
  8
0
 62
7
 10
3.861625695285999
 20
4.646805515118642
 30
0
 11
3.932425695285988
 21
4.646805515118642
 31
0
  0
LINE
  8
0
 62
7
 10
4.931674149686006
 20
4.530376943690062
 30
0
 11
4.003225695286005
 21
4.530376943690062
 31
0
  0
LINE
  8
0
 62
7
 10
4.003225695286005
 20
4.726805515118642
 30
0
 11
3.932425695285988
 21
4.726805515118642
 31
0
  0
LINE
  8
0
 62
7
 10
4.836324545386016
 20
4.661805515118642
 30
0
 11
4.836324545386016
 21
4.726805515118642
 31
0
  0
LINE
  8
0
 62
7
 10
3.811609618751478
 20
4.661805515118642
 30
0
 11
4.836324545386016
 21
4.661805515118642
 31
0
  0
LINE
  8
0
 62
7
 10
3.811609618751478
 20
4.726805515118642
 30
0
 11
3.811609618751478
 21
4.661805515118642
 31
0
  0
LINE
  8
0
 62
7
 10
3.861625695285999
 20
4.726805515118642
 30
0
 11
3.811609618751478
 21
4.726805515118642
 31
0
  0
LINE
  8
0
 62
7
 10
4.003225695286005
 20
4.741805515118641
 30
0
 11
4.003225695286005
 21
4.726805515118642
 31
0
  0
LINE
  8
0
 62
7
 10
3.983225695286006
 20
4.741805515118641
 30
0
 11
4.003225695286005
 21
4.741805515118641
 31
0
  0
LINE
  8
0
 62
7
 10
3.983225695286006
 20
4.783234086547163
 30
0
 11
3.983225695286006
 21
4.741805515118641
 31
0
  0
LINE
  8
0
 62
7
 10
3.993225695286005
 20
4.783234086547163
 30
0
 11
3.983225695286006
 21
4.783234086547163
 31
0
  0
LINE
  8
0
 62
7
 10
3.993225695286005
 20
4.843234086547163
 30
0
 11
3.993225695286005
 21
4.783234086547163
 31
0
  0
LINE
  8
0
 62
7
 10
4.003225695286005
 20
4.843234086547163
 30
0
 11
3.993225695286005
 21
4.843234086547163
 31
0
  0
LINE
  8
0
 62
7
 10
4.003225695286005
 20
4.858234086547163
 30
0
 11
4.003225695286005
 21
4.843234086547163
 31
0
  0
LINE
  8
0
 62
7
 10
3.861625695285999
 20
4.858234086547163
 30
0
 11
4.003225695286005
 21
4.858234086547163
 31
0
  0
LINE
  8
0
 62
7
 10
3.861625695285999
 20
4.843234086547163
 30
0
 11
3.861625695285999
 21
4.858234086547163
 31
0
  0
LINE
  8
0
 62
7
 10
3.871625695285999
 20
4.843234086547163
 30
0
 11
3.861625695285999
 21
4.843234086547163
 31
0
  0
LINE
  8
0
 62
7
 10
3.871625695285999
 20
4.783234086547163
 30
0
 11
3.871625695285999
 21
4.843234086547163
 31
0
  0
LINE
  8
0
 62
7
 10
3.881625695285999
 20
4.783234086547163
 30
0
 11
3.871625695285999
 21
4.783234086547163
 31
0
  0
LINE
  8
0
 62
7
 10
3.881625695285999
 20
4.741805515118641
 30
0
 11
3.881625695285999
 21
4.783234086547163
 31
0
  0
LINE
  8
0
 62
7
 10
3.861625695285999
 20
4.741805515118641
 30
0
 11
3.881625695285999
 21
4.741805515118641
 31
0
  0
LINE
  8
0
 62
7
 10
3.861625695285999
 20
4.726805515118642
 30
0
 11
3.861625695285999
 21
4.741805515118641
 31
0
  0
LINE
  8
0
 62
7
 10
3.932425695285988
 20
4.726805515118642
 30
0
 11
3.861625695285999
 21
4.726805515118642
 31
0
  0
LINE
  8
0
 62
7
 10
3.861625695285999
 20
4.741805515118641
 30
0
 11
4.003225695286005
 21
4.741805515118641
 31
0
  0
LINE
  8
0
 62
7
 10
3.993225695286005
 20
4.783234086547163
 30
0
 11
3.871625695285999
 21
4.783234086547163
 31
0
  0
LINE
  8
0
 62
7
 10
3.861625695285999
 20
4.843234086547163
 30
0
 11
4.003225695286005
 21
4.843234086547163
 31
0
  0
LINE
  8
0
 62
7
 10
4.836324545386016
 20
4.726805515118642
 30
0
 11
4.003225695286005
 21
4.726805515118642
 31
0
  0
LINE
  8
0
 62
7
 10
4.003225695286005
 20
4.923234086547163
 30
0
 11
3.932425695285988
 21
4.923234086547163
 31
0
  0
LINE
  8
0
 62
7
 10
4.595989593986014
 20
4.858234086547163
 30
0
 11
4.595989593986014
 21
4.923234086547163
 31
0
  0
LINE
  8
0
 62
7
 10
3.819780828685792
 20
4.858234086547163
 30
0
 11
4.595989593986014
 21
4.858234086547163
 31
0
  0
LINE
  8
0
 62
7
 10
3.819780828685792
 20
4.923234086547163
 30
0
 11
3.819780828685792
 21
4.858234086547163
 31
0
  0
LINE
  8
0
 62
7
 10
3.861625695285999
 20
4.923234086547163
 30
0
 11
3.819780828685792
 21
4.923234086547163
 31
0
  0
LINE
  8
0
 62
7
 10
4.003225695286005
 20
4.938234086547163
 30
0
 11
4.003225695286005
 21
4.923234086547163
 31
0
  0
LINE
  8
0
 62
7
 10
3.983225695286006
 20
4.938234086547163
 30
0
 11
4.003225695286005
 21
4.938234086547163
 31
0
  0
LINE
  8
0
 62
7
 10
3.983225695286006
 20
4.979662657975918
 30
0
 11
3.983225695286006
 21
4.938234086547163
 31
0
  0
LINE
  8
0
 62
7
 10
3.993225695286005
 20
4.979662657975918
 30
0
 11
3.983225695286006
 21
4.979662657975918
 31
0
  0
LINE
  8
0
 62
7
 10
3.993225695286005
 20
5.039662657975918
 30
0
 11
3.993225695286005
 21
4.979662657975918
 31
0
  0
LINE
  8
0
 62
7
 10
4.003225695286005
 20
5.039662657975918
 30
0
 11
3.993225695286005
 21
5.039662657975918
 31
0
  0
LINE
  8
0
 62
7
 10
4.003225695286005
 20
5.054662657975918
 30
0
 11
4.003225695286005
 21
5.039662657975918
 31
0
  0
LINE
  8
0
 62
7
 10
3.861625695285999
 20
5.054662657975918
 30
0
 11
4.003225695286005
 21
5.054662657975918
 31
0
  0
LINE
  8
0
 62
7
 10
3.861625695285999
 20
5.039662657975918
 30
0
 11
3.861625695285999
 21
5.054662657975918
 31
0
  0
LINE
  8
0
 62
7
 10
3.871625695285999
 20
5.039662657975918
 30
0
 11
3.861625695285999
 21
5.039662657975918
 31
0
  0
LINE
  8
0
 62
7
 10
3.871625695285999
 20
4.979662657975918
 30
0
 11
3.871625695285999
 21
5.039662657975918
 31
0
  0
LINE
  8
0
 62
7
 10
3.881625695285999
 20
4.979662657975918
 30
0
 11
3.871625695285999
 21
4.979662657975918
 31
0
  0
LINE
  8
0
 62
7
 10
3.881625695285999
 20
4.938234086547163
 30
0
 11
3.881625695285999
 21
4.979662657975918
 31
0
  0
LINE
  8
0
 62
7
 10
3.861625695285999
 20
4.938234086547163
 30
0
 11
3.881625695285999
 21
4.938234086547163
 31
0
  0
LINE
  8
0
 62
7
 10
3.861625695285999
 20
4.923234086547163
 30
0
 11
3.861625695285999
 21
4.938234086547163
 31
0
  0
LINE
  8
0
 62
7
 10
3.932425695285988
 20
4.923234086547163
 30
0
 11
3.861625695285999
 21
4.923234086547163
 31
0
  0
LINE
  8
0
 62
7
 10
3.861625695285999
 20
4.938234086547163
 30
0
 11
4.003225695286005
 21
4.938234086547163
 31
0
  0
LINE
  8
0
 62
7
 10
3.993225695286005
 20
4.979662657975918
 30
0
 11
3.871625695285999
 21
4.979662657975918
 31
0
  0
LINE
  8
0
 62
7
 10
3.861625695285999
 20
5.039662657975918
 30
0
 11
4.003225695286005
 21
5.039662657975918
 31
0
  0
LINE
  8
0
 62
7
 10
4.595989593986014
 20
4.923234086547163
 30
0
 11
4.003225695286005
 21
4.923234086547163
 31
0
  0
LINE
  8
0
 62
7
 10
4.003225695286005
 20
5.119662657975918
 30
0
 11
3.932425695285988
 21
5.119662657975918
 31
0
  0
LINE
  8
0
 62
7
 10
4.249219014285918
 20
5.054662657975918
 30
0
 11
4.249219014285918
 21
5.119662657975918
 31
0
  0
LINE
  8
0
 62
7
 10
3.779113565586013
 20
5.054662657975918
 30
0
 11
4.249219014285918
 21
5.054662657975918
 31
0
  0
LINE
  8
0
 62
7
 10
3.779113565586013
 20
5.119662657975918
 30
0
 11
3.779113565586013
 21
5.054662657975918
 31
0
  0
LINE
  8
0
 62
7
 10
4.003225695286005
 20
5.134662657975918
 30
0
 11
4.003225695286005
 21
5.119662657975918
 31
0
  0
LINE
  8
0
 62
7
 10
4.249219014285918
 20
5.119662657975918
 30
0
 11
4.003225695286005
 21
5.119662657975918
 31
0
  0
LINE
  8
0
 62
7
 10
3.983225695286006
 20
5.134662657975918
 30
0
 11
4.003225695286005
 21
5.134662657975918
 31
0
  0
LINE
  8
0
 62
7
 10
3.983225695286006
 20
5.176091229404265
 30
0
 11
3.983225695286006
 21
5.134662657975918
 31
0
  0
LINE
  8
0
 62
7
 10
3.993225695286005
 20
5.176091229404265
 30
0
 11
3.983225695286006
 21
5.176091229404265
 31
0
  0
LINE
  8
0
 62
7
 10
3.993225695286005
 20
5.236091229404265
 30
0
 11
3.993225695286005
 21
5.176091229404265
 31
0
  0
LINE
  8
0
 62
7
 10
4.003225695286005
 20
5.236091229404265
 30
0
 11
3.993225695286005
 21
5.236091229404265
 31
0
  0
LINE
  8
0
 62
7
 10
4.003225695286005
 20
5.251091229404265
 30
0
 11
4.003225695286005
 21
5.236091229404265
 31
0
  0
LINE
  8
0
 62
7
 10
3.861625695285999
 20
5.251091229404265
 30
0
 11
4.003225695286005
 21
5.251091229404265
 31
0
  0
LINE
  8
0
 62
7
 10
3.861625695285999
 20
5.236091229404265
 30
0
 11
3.861625695285999
 21
5.251091229404265
 31
0
  0
LINE
  8
0
 62
7
 10
3.871625695285999
 20
5.236091229404265
 30
0
 11
3.861625695285999
 21
5.236091229404265
 31
0
  0
LINE
  8
0
 62
7
 10
3.871625695285999
 20
5.176091229404265
 30
0
 11
3.871625695285999
 21
5.236091229404265
 31
0
  0
LINE
  8
0
 62
7
 10
3.881625695285999
 20
5.176091229404265
 30
0
 11
3.871625695285999
 21
5.176091229404265
 31
0
  0
LINE
  8
0
 62
7
 10
3.881625695285999
 20
5.134662657975918
 30
0
 11
3.881625695285999
 21
5.176091229404265
 31
0
  0
LINE
  8
0
 62
7
 10
3.861625695285999
 20
5.134662657975918
 30
0
 11
3.881625695285999
 21
5.134662657975918
 31
0
  0
LINE
  8
0
 62
7
 10
3.861625695285999
 20
5.119662657975918
 30
0
 11
3.861625695285999
 21
5.134662657975918
 31
0
  0
LINE
  8
0
 62
7
 10
3.932425695285988
 20
5.119662657975918
 30
0
 11
3.861625695285999
 21
5.119662657975918
 31
0
  0
LINE
  8
0
 62
7
 10
3.861625695285999
 20
5.134662657975918
 30
0
 11
4.003225695286005
 21
5.134662657975918
 31
0
  0
LINE
  8
0
 62
7
 10
3.993225695286005
 20
5.176091229404265
 30
0
 11
3.871625695285999
 21
5.176091229404265
 31
0
  0
LINE
  8
0
 62
7
 10
3.861625695285999
 20
5.236091229404265
 30
0
 11
4.003225695286005
 21
5.236091229404265
 31
0
  0
LINE
  8
0
 62
7
 10
3.861625695285999
 20
5.119662657975918
 30
0
 11
3.779113565586013
 21
5.119662657975918
 31
0
  0
LINE
  8
0
 62
7
 10
4.003225695286005
 20
5.316091229404265
 30
0
 11
3.932425695285988
 21
5.316091229404265
 31
0
  0
LINE
  8
0
 62
7
 10
4.036126277118194
 20
5.251091229404265
 30
0
 11
4.036126277118194
 21
5.316091229404265
 31
0
  0
LINE
  8
0
 62
7
 10
3.403660598385992
 20
5.251091229404265
 30
0
 11
4.036126277118194
 21
5.251091229404265
 31
0
  0
LINE
  8
0
 62
7
 10
3.403660598385992
 20
5.316091229404265
 30
0
 11
3.403660598385992
 21
5.251091229404265
 31
0
  0
LINE
  8
0
 62
7
 10
4.003225695286005
 20
5.331091229404265
 30
0
 11
4.003225695286005
 21
5.316091229404265
 31
0
  0
LINE
  8
0
 62
7
 10
4.036126277118194
 20
5.316091229404265
 30
0
 11
4.003225695286005
 21
5.316091229404265
 31
0
  0
LINE
  8
0
 62
7
 10
3.983225695286006
 20
5.331091229404265
 30
0
 11
4.003225695286005
 21
5.331091229404265
 31
0
  0
LINE
  8
0
 62
7
 10
3.983225695286006
 20
5.372519800832845
 30
0
 11
3.983225695286006
 21
5.331091229404265
 31
0
  0
LINE
  8
0
 62
7
 10
3.993225695286005
 20
5.372519800832845
 30
0
 11
3.983225695286006
 21
5.372519800832845
 31
0
  0
LINE
  8
0
 62
7
 10
3.993225695286005
 20
5.432519800832845
 30
0
 11
3.993225695286005
 21
5.372519800832845
 31
0
  0
LINE
  8
0
 62
7
 10
4.003225695286005
 20
5.432519800832845
 30
0
 11
3.993225695286005
 21
5.432519800832845
 31
0
  0
LINE
  8
0
 62
7
 10
4.003225695286005
 20
5.447519800832845
 30
0
 11
4.003225695286005
 21
5.432519800832845
 31
0
  0
LINE
  8
0
 62
7
 10
3.861625695285999
 20
5.447519800832845
 30
0
 11
4.003225695286005
 21
5.447519800832845
 31
0
  0
LINE
  8
0
 62
7
 10
3.861625695285999
 20
5.432519800832845
 30
0
 11
3.861625695285999
 21
5.447519800832845
 31
0
  0
LINE
  8
0
 62
7
 10
3.871625695285999
 20
5.432519800832845
 30
0
 11
3.861625695285999
 21
5.432519800832845
 31
0
  0
LINE
  8
0
 62
7
 10
3.871625695285999
 20
5.372519800832845
 30
0
 11
3.871625695285999
 21
5.432519800832845
 31
0
  0
LINE
  8
0
 62
7
 10
3.881625695285999
 20
5.372519800832845
 30
0
 11
3.871625695285999
 21
5.372519800832845
 31
0
  0
LINE
  8
0
 62
7
 10
3.881625695285999
 20
5.331091229404265
 30
0
 11
3.881625695285999
 21
5.372519800832845
 31
0
  0
LINE
  8
0
 62
7
 10
3.861625695285999
 20
5.331091229404265
 30
0
 11
3.881625695285999
 21
5.331091229404265
 31
0
  0
LINE
  8
0
 62
7
 10
3.861625695285999
 20
5.316091229404265
 30
0
 11
3.861625695285999
 21
5.331091229404265
 31
0
  0
LINE
  8
0
 62
7
 10
3.932425695285988
 20
5.316091229404265
 30
0
 11
3.861625695285999
 21
5.316091229404265
 31
0
  0
LINE
  8
0
 62
7
 10
3.861625695285999
 20
5.331091229404265
 30
0
 11
4.003225695286005
 21
5.331091229404265
 31
0
  0
LINE
  8
0
 62
7
 10
3.993225695286005
 20
5.372519800832845
 30
0
 11
3.871625695285999
 21
5.372519800832845
 31
0
  0
LINE
  8
0
 62
7
 10
3.861625695285999
 20
5.432519800832845
 30
0
 11
4.003225695286005
 21
5.432519800832845
 31
0
  0
LINE
  8
0
 62
7
 10
3.861625695285999
 20
5.316091229404265
 30
0
 11
3.403660598385992
 21
5.316091229404265
 31
0
  0
LINE
  8
0
 62
7
 10
4.003225695286005
 20
5.512519800832845
 30
0
 11
3.932425695285988
 21
5.512519800832845
 31
0
  0
LINE
  8
0
 62
7
 10
4.052180780922907
 20
5.447519800832845
 30
0
 11
4.052180780922907
 21
5.512519800832845
 31
0
  0
LINE
  8
0
 62
7
 10
3.113021535986016
 20
5.447519800832845
 30
0
 11
4.052180780922907
 21
5.447519800832845
 31
0
  0
LINE
  8
0
 62
7
 10
3.113021535986016
 20
5.512519800832845
 30
0
 11
3.113021535986016
 21
5.447519800832845
 31
0
  0
LINE
  8
0
 62
7
 10
4.003225695286005
 20
5.527519800832845
 30
0
 11
4.003225695286005
 21
5.512519800832845
 31
0
  0
LINE
  8
0
 62
7
 10
4.052180780922907
 20
5.512519800832845
 30
0
 11
4.003225695286005
 21
5.512519800832845
 31
0
  0
LINE
  8
0
 62
7
 10
3.983225695286006
 20
5.527519800832845
 30
0
 11
4.003225695286005
 21
5.527519800832845
 31
0
  0
LINE
  8
0
 62
7
 10
3.983225695286006
 20
5.568948372261484
 30
0
 11
3.983225695286006
 21
5.527519800832845
 31
0
  0
LINE
  8
0
 62
7
 10
3.993225695286005
 20
5.568948372261484
 30
0
 11
3.983225695286006
 21
5.568948372261484
 31
0
  0
LINE
  8
0
 62
7
 10
3.993225695286005
 20
5.628948372261483
 30
0
 11
3.993225695286005
 21
5.568948372261484
 31
0
  0
LINE
  8
0
 62
7
 10
4.003225695286005
 20
5.628948372261483
 30
0
 11
3.993225695286005
 21
5.628948372261483
 31
0
  0
LINE
  8
0
 62
7
 10
4.003225695286005
 20
5.643948372261484
 30
0
 11
4.003225695286005
 21
5.628948372261483
 31
0
  0
LINE
  8
0
 62
7
 10
3.861625695285999
 20
5.643948372261484
 30
0
 11
4.003225695286005
 21
5.643948372261484
 31
0
  0
LINE
  8
0
 62
7
 10
3.861625695285999
 20
5.628948372261483
 30
0
 11
3.861625695285999
 21
5.643948372261484
 31
0
  0
LINE
  8
0
 62
7
 10
3.871625695285999
 20
5.628948372261483
 30
0
 11
3.861625695285999
 21
5.628948372261483
 31
0
  0
LINE
  8
0
 62
7
 10
3.871625695285999
 20
5.568948372261484
 30
0
 11
3.871625695285999
 21
5.628948372261483
 31
0
  0
LINE
  8
0
 62
7
 10
3.881625695285999
 20
5.568948372261484
 30
0
 11
3.871625695285999
 21
5.568948372261484
 31
0
  0
LINE
  8
0
 62
7
 10
3.881625695285999
 20
5.527519800832845
 30
0
 11
3.881625695285999
 21
5.568948372261484
 31
0
  0
LINE
  8
0
 62
7
 10
3.861625695285999
 20
5.527519800832845
 30
0
 11
3.881625695285999
 21
5.527519800832845
 31
0
  0
LINE
  8
0
 62
7
 10
3.861625695285999
 20
5.512519800832845
 30
0
 11
3.861625695285999
 21
5.527519800832845
 31
0
  0
LINE
  8
0
 62
7
 10
3.932425695285988
 20
5.512519800832845
 30
0
 11
3.861625695285999
 21
5.512519800832845
 31
0
  0
LINE
  8
0
 62
7
 10
3.861625695285999
 20
5.527519800832845
 30
0
 11
4.003225695286005
 21
5.527519800832845
 31
0
  0
LINE
  8
0
 62
7
 10
3.993225695286005
 20
5.568948372261484
 30
0
 11
3.871625695285999
 21
5.568948372261484
 31
0
  0
LINE
  8
0
 62
7
 10
3.861625695285999
 20
5.628948372261483
 30
0
 11
4.003225695286005
 21
5.628948372261483
 31
0
  0
LINE
  8
0
 62
7
 10
3.861625695285999
 20
5.512519800832845
 30
0
 11
3.113021535986016
 21
5.512519800832845
 31
0
  0
LINE
  8
0
 62
7
 10
4.003225695286005
 20
5.708948372261483
 30
0
 11
3.932425695285988
 21
5.708948372261483
 31
0
  0
LINE
  8
0
 62
7
 10
4.049026572774485
 20
5.643948372261484
 30
0
 11
4.049026572774485
 21
5.708948372261483
 31
0
  0
LINE
  8
0
 62
7
 10
2.953814874986012
 20
5.643948372261484
 30
0
 11
4.049026572774485
 21
5.643948372261484
 31
0
  0
LINE
  8
0
 62
7
 10
2.953814874986012
 20
5.708948372261483
 30
0
 11
2.953814874986012
 21
5.643948372261484
 31
0
  0
LINE
  8
0
 62
7
 10
4.003225695286005
 20
5.723948372261484
 30
0
 11
4.003225695286005
 21
5.708948372261483
 31
0
  0
LINE
  8
0
 62
7
 10
4.049026572774485
 20
5.708948372261483
 30
0
 11
4.003225695286005
 21
5.708948372261483
 31
0
  0
LINE
  8
0
 62
7
 10
3.983225695286006
 20
5.723948372261484
 30
0
 11
4.003225695286005
 21
5.723948372261484
 31
0
  0
LINE
  8
0
 62
7
 10
3.983225695286006
 20
5.765376943690063
 30
0
 11
3.983225695286006
 21
5.723948372261484
 31
0
  0
LINE
  8
0
 62
7
 10
3.993225695286005
 20
5.765376943690063
 30
0
 11
3.983225695286006
 21
5.765376943690063
 31
0
  0
LINE
  8
0
 62
7
 10
3.993225695286005
 20
5.825376943690062
 30
0
 11
3.993225695286005
 21
5.765376943690063
 31
0
  0
LINE
  8
0
 62
7
 10
4.003225695286005
 20
5.825376943690062
 30
0
 11
3.993225695286005
 21
5.825376943690062
 31
0
  0
LINE
  8
0
 62
7
 10
4.003225695286005
 20
5.840376943690063
 30
0
 11
4.003225695286005
 21
5.825376943690062
 31
0
  0
LINE
  8
0
 62
7
 10
3.861625695285999
 20
5.840376943690063
 30
0
 11
4.003225695286005
 21
5.840376943690063
 31
0
  0
LINE
  8
0
 62
7
 10
3.861625695285999
 20
5.825376943690062
 30
0
 11
3.861625695285999
 21
5.840376943690063
 31
0
  0
LINE
  8
0
 62
7
 10
3.871625695285999
 20
5.825376943690062
 30
0
 11
3.861625695285999
 21
5.825376943690062
 31
0
  0
LINE
  8
0
 62
7
 10
3.871625695285999
 20
5.765376943690063
 30
0
 11
3.871625695285999
 21
5.825376943690062
 31
0
  0
LINE
  8
0
 62
7
 10
3.881625695285999
 20
5.765376943690063
 30
0
 11
3.871625695285999
 21
5.765376943690063
 31
0
  0
LINE
  8
0
 62
7
 10
3.881625695285999
 20
5.723948372261484
 30
0
 11
3.881625695285999
 21
5.765376943690063
 31
0
  0
LINE
  8
0
 62
7
 10
3.861625695285999
 20
5.723948372261484
 30
0
 11
3.881625695285999
 21
5.723948372261484
 31
0
  0
LINE
  8
0
 62
7
 10
3.861625695285999
 20
5.708948372261483
 30
0
 11
3.861625695285999
 21
5.723948372261484
 31
0
  0
LINE
  8
0
 62
7
 10
3.932425695285988
 20
5.708948372261483
 30
0
 11
3.861625695285999
 21
5.708948372261483
 31
0
  0
LINE
  8
0
 62
7
 10
3.861625695285999
 20
5.723948372261484
 30
0
 11
4.003225695286005
 21
5.723948372261484
 31
0
  0
LINE
  8
0
 62
7
 10
3.993225695286005
 20
5.765376943690063
 30
0
 11
3.871625695285999
 21
5.765376943690063
 31
0
  0
LINE
  8
0
 62
7
 10
3.861625695285999
 20
5.825376943690062
 30
0
 11
4.003225695286005
 21
5.825376943690062
 31
0
  0
LINE
  8
0
 62
7
 10
3.861625695285999
 20
5.708948372261483
 30
0
 11
2.953814874986012
 21
5.708948372261483
 31
0
  0
LINE
  8
0
 62
7
 10
4.003225695286005
 20
5.905376943690062
 30
0
 11
3.932425695285988
 21
5.905376943690062
 31
0
  0
LINE
  8
0
 62
7
 10
4.027169587557786
 20
5.840376943690063
 30
0
 11
4.027169587557786
 21
5.905376943690062
 31
0
  0
LINE
  8
0
 62
7
 10
2.951577358585986
 20
5.840376943690063
 30
0
 11
4.027169587557786
 21
5.840376943690063
 31
0
  0
LINE
  8
0
 62
7
 10
2.951577358585986
 20
5.905376943690062
 30
0
 11
2.951577358585986
 21
5.840376943690063
 31
0
  0
LINE
  8
0
 62
7
 10
4.003225695286005
 20
5.920376943690062
 30
0
 11
4.003225695286005
 21
5.905376943690062
 31
0
  0
LINE
  8
0
 62
7
 10
4.027169587557786
 20
5.905376943690062
 30
0
 11
4.003225695286005
 21
5.905376943690062
 31
0
  0
LINE
  8
0
 62
7
 10
3.983225695286006
 20
5.920376943690062
 30
0
 11
4.003225695286005
 21
5.920376943690062
 31
0
  0
LINE
  8
0
 62
7
 10
3.983225695286006
 20
5.961805515118642
 30
0
 11
3.983225695286006
 21
5.920376943690062
 31
0
  0
LINE
  8
0
 62
7
 10
3.993225695286005
 20
5.961805515118642
 30
0
 11
3.983225695286006
 21
5.961805515118642
 31
0
  0
LINE
  8
0
 62
7
 10
3.993225695286005
 20
6.021805515118642
 30
0
 11
3.993225695286005
 21
5.961805515118642
 31
0
  0
LINE
  8
0
 62
7
 10
4.003225695286005
 20
6.021805515118642
 30
0
 11
3.993225695286005
 21
6.021805515118642
 31
0
  0
LINE
  8
0
 62
7
 10
4.003225695286005
 20
6.036805515118642
 30
0
 11
4.003225695286005
 21
6.021805515118642
 31
0
  0
LINE
  8
0
 62
7
 10
3.861625695285999
 20
6.036805515118642
 30
0
 11
4.003225695286005
 21
6.036805515118642
 31
0
  0
LINE
  8
0
 62
7
 10
3.861625695285999
 20
6.021805515118642
 30
0
 11
3.861625695285999
 21
6.036805515118642
 31
0
  0
LINE
  8
0
 62
7
 10
3.871625695285999
 20
6.021805515118642
 30
0
 11
3.861625695285999
 21
6.021805515118642
 31
0
  0
LINE
  8
0
 62
7
 10
3.871625695285999
 20
5.961805515118642
 30
0
 11
3.871625695285999
 21
6.021805515118642
 31
0
  0
LINE
  8
0
 62
7
 10
3.881625695285999
 20
5.961805515118642
 30
0
 11
3.871625695285999
 21
5.961805515118642
 31
0
  0
LINE
  8
0
 62
7
 10
3.881625695285999
 20
5.920376943690062
 30
0
 11
3.881625695285999
 21
5.961805515118642
 31
0
  0
LINE
  8
0
 62
7
 10
3.861625695285999
 20
5.920376943690062
 30
0
 11
3.881625695285999
 21
5.920376943690062
 31
0
  0
LINE
  8
0
 62
7
 10
3.861625695285999
 20
5.905376943690062
 30
0
 11
3.861625695285999
 21
5.920376943690062
 31
0
  0
LINE
  8
0
 62
7
 10
3.932425695285988
 20
5.905376943690062
 30
0
 11
3.861625695285999
 21
5.905376943690062
 31
0
  0
LINE
  8
0
 62
7
 10
3.861625695285999
 20
5.920376943690062
 30
0
 11
4.003225695286005
 21
5.920376943690062
 31
0
  0
LINE
  8
0
 62
7
 10
3.993225695286005
 20
5.961805515118642
 30
0
 11
3.871625695285999
 21
5.961805515118642
 31
0
  0
LINE
  8
0
 62
7
 10
3.861625695285999
 20
6.021805515118642
 30
0
 11
4.003225695286005
 21
6.021805515118642
 31
0
  0
LINE
  8
0
 62
7
 10
3.861625695285999
 20
5.905376943690062
 30
0
 11
2.951577358585986
 21
5.905376943690062
 31
0
  0
LINE
  8
0
 62
7
 10
4.003225695286005
 20
6.101805515118642
 30
0
 11
3.932425695285988
 21
6.101805515118642
 31
0
  0
LINE
  8
0
 62
7
 10
4.045932585402015
 20
6.036805515118642
 30
0
 11
4.045932585402015
 21
6.101805515118642
 31
0
  0
LINE
  8
0
 62
7
 10
2.939978939085995
 20
6.036805515118642
 30
0
 11
4.045932585402015
 21
6.036805515118642
 31
0
  0
LINE
  8
0
 62
7
 10
2.939978939085995
 20
6.101805515118642
 30
0
 11
2.939978939085995
 21
6.036805515118642
 31
0
  0
LINE
  8
0
 62
7
 10
4.003225695286005
 20
6.116805515118642
 30
0
 11
4.003225695286005
 21
6.101805515118642
 31
0
  0
LINE
  8
0
 62
7
 10
4.045932585402015
 20
6.101805515118642
 30
0
 11
4.003225695286005
 21
6.101805515118642
 31
0
  0
LINE
  8
0
 62
7
 10
3.983225695286006
 20
6.116805515118642
 30
0
 11
4.003225695286005
 21
6.116805515118642
 31
0
  0
LINE
  8
0
 62
7
 10
3.983225695286006
 20
6.158234086547164
 30
0
 11
3.983225695286006
 21
6.116805515118642
 31
0
  0
LINE
  8
0
 62
7
 10
3.993225695286005
 20
6.158234086547164
 30
0
 11
3.983225695286006
 21
6.158234086547164
 31
0
  0
LINE
  8
0
 62
7
 10
3.993225695286005
 20
6.218234086547164
 30
0
 11
3.993225695286005
 21
6.158234086547164
 31
0
  0
LINE
  8
0
 62
7
 10
4.003225695286005
 20
6.218234086547164
 30
0
 11
3.993225695286005
 21
6.218234086547164
 31
0
  0
LINE
  8
0
 62
7
 10
4.003225695286005
 20
6.233234086547164
 30
0
 11
4.003225695286005
 21
6.218234086547164
 31
0
  0
LINE
  8
0
 62
7
 10
3.861625695285999
 20
6.233234086547164
 30
0
 11
4.003225695286005
 21
6.233234086547164
 31
0
  0
LINE
  8
0
 62
7
 10
3.861625695285999
 20
6.218234086547164
 30
0
 11
3.861625695285999
 21
6.233234086547164
 31
0
  0
LINE
  8
0
 62
7
 10
3.871625695285999
 20
6.218234086547164
 30
0
 11
3.861625695285999
 21
6.218234086547164
 31
0
  0
LINE
  8
0
 62
7
 10
3.871625695285999
 20
6.158234086547164
 30
0
 11
3.871625695285999
 21
6.218234086547164
 31
0
  0
LINE
  8
0
 62
7
 10
3.881625695285999
 20
6.158234086547164
 30
0
 11
3.871625695285999
 21
6.158234086547164
 31
0
  0
LINE
  8
0
 62
7
 10
3.881625695285999
 20
6.116805515118642
 30
0
 11
3.881625695285999
 21
6.158234086547164
 31
0
  0
LINE
  8
0
 62
7
 10
3.861625695285999
 20
6.116805515118642
 30
0
 11
3.881625695285999
 21
6.116805515118642
 31
0
  0
LINE
  8
0
 62
7
 10
3.861625695285999
 20
6.101805515118642
 30
0
 11
3.861625695285999
 21
6.116805515118642
 31
0
  0
LINE
  8
0
 62
7
 10
3.932425695285988
 20
6.101805515118642
 30
0
 11
3.861625695285999
 21
6.101805515118642
 31
0
  0
LINE
  8
0
 62
7
 10
3.861625695285999
 20
6.116805515118642
 30
0
 11
4.003225695286005
 21
6.116805515118642
 31
0
  0
LINE
  8
0
 62
7
 10
3.993225695286005
 20
6.158234086547164
 30
0
 11
3.871625695285999
 21
6.158234086547164
 31
0
  0
LINE
  8
0
 62
7
 10
3.861625695285999
 20
6.218234086547164
 30
0
 11
4.003225695286005
 21
6.218234086547164
 31
0
  0
LINE
  8
0
 62
7
 10
3.861625695285999
 20
6.101805515118642
 30
0
 11
2.939978939085995
 21
6.101805515118642
 31
0
  0
LINE
  8
0
 62
7
 10
4.003225695286005
 20
6.298234086547164
 30
0
 11
3.932425695285988
 21
6.298234086547164
 31
0
  0
LINE
  8
0
 62
7
 10
4.053139070906794
 20
6.233234086547164
 30
0
 11
4.053139070906794
 21
6.298234086547164
 31
0
  0
LINE
  8
0
 62
7
 10
3.067709735185986
 20
6.233234086547164
 30
0
 11
4.053139070906794
 21
6.233234086547164
 31
0
  0
LINE
  8
0
 62
7
 10
3.067709735185986
 20
6.298234086547164
 30
0
 11
3.067709735185986
 21
6.233234086547164
 31
0
  0
LINE
  8
0
 62
7
 10
4.003225695286005
 20
6.313234086547164
 30
0
 11
4.003225695286005
 21
6.298234086547164
 31
0
  0
LINE
  8
0
 62
7
 10
4.053139070906794
 20
6.298234086547164
 30
0
 11
4.003225695286005
 21
6.298234086547164
 31
0
  0
LINE
  8
0
 62
7
 10
3.983225695286006
 20
6.313234086547164
 30
0
 11
4.003225695286005
 21
6.313234086547164
 31
0
  0
LINE
  8
0
 62
7
 10
3.983225695286006
 20
6.354662657975918
 30
0
 11
3.983225695286006
 21
6.313234086547164
 31
0
  0
LINE
  8
0
 62
7
 10
3.993225695286005
 20
6.354662657975918
 30
0
 11
3.983225695286006
 21
6.354662657975918
 31
0
  0
LINE
  8
0
 62
7
 10
3.993225695286005
 20
6.414662657975919
 30
0
 11
3.993225695286005
 21
6.354662657975918
 31
0
  0
LINE
  8
0
 62
7
 10
4.003225695286005
 20
6.414662657975919
 30
0
 11
3.993225695286005
 21
6.414662657975919
 31
0
  0
LINE
  8
0
 62
7
 10
4.003225695286005
 20
6.42966265797592
 30
0
 11
4.003225695286005
 21
6.414662657975919
 31
0
  0
LINE
  8
0
 62
7
 10
3.861625695285999
 20
6.42966265797592
 30
0
 11
4.003225695286005
 21
6.42966265797592
 31
0
  0
LINE
  8
0
 62
7
 10
3.861625695285999
 20
6.414662657975919
 30
0
 11
3.861625695285999
 21
6.42966265797592
 31
0
  0
LINE
  8
0
 62
7
 10
3.871625695285999
 20
6.414662657975919
 30
0
 11
3.861625695285999
 21
6.414662657975919
 31
0
  0
LINE
  8
0
 62
7
 10
3.871625695285999
 20
6.354662657975918
 30
0
 11
3.871625695285999
 21
6.414662657975919
 31
0
  0
LINE
  8
0
 62
7
 10
3.881625695285999
 20
6.354662657975918
 30
0
 11
3.871625695285999
 21
6.354662657975918
 31
0
  0
LINE
  8
0
 62
7
 10
3.881625695285999
 20
6.313234086547164
 30
0
 11
3.881625695285999
 21
6.354662657975918
 31
0
  0
LINE
  8
0
 62
7
 10
3.861625695285999
 20
6.313234086547164
 30
0
 11
3.881625695285999
 21
6.313234086547164
 31
0
  0
LINE
  8
0
 62
7
 10
3.861625695285999
 20
6.298234086547164
 30
0
 11
3.861625695285999
 21
6.313234086547164
 31
0
  0
LINE
  8
0
 62
7
 10
3.932425695285988
 20
6.298234086547164
 30
0
 11
3.861625695285999
 21
6.298234086547164
 31
0
  0
LINE
  8
0
 62
7
 10
3.861625695285999
 20
6.313234086547164
 30
0
 11
4.003225695286005
 21
6.313234086547164
 31
0
  0
LINE
  8
0
 62
7
 10
3.993225695286005
 20
6.354662657975918
 30
0
 11
3.871625695285999
 21
6.354662657975918
 31
0
  0
LINE
  8
0
 62
7
 10
3.861625695285999
 20
6.414662657975919
 30
0
 11
4.003225695286005
 21
6.414662657975919
 31
0
  0
LINE
  8
0
 62
7
 10
3.861625695285999
 20
6.298234086547164
 30
0
 11
3.067709735185986
 21
6.298234086547164
 31
0
  0
LINE
  8
0
 62
7
  6
DASHDOT
 10
3.932425695285988
 20
6.694662657975918
 30
0
 11
3.932425695285988
 21
3.544662657975918
 31
0
  0
LINE
  8
0
 62
7
 10
3.932425695285988
 20
4.646805515118642
 30
0
 11
4.003225695286005
 21
4.646805515118642
 31
0
  0
LINE
  8
0
 62
7
  6
DASHDOT
 10
3.932425695285988
 20
4.646805515118642
 30
0
 11
3.932425695285988
 21
4.628591229404265
 31
0
  0
LINE
  8
0
 62
7
 10
4.554315786294203
 20
6.42966265797592
 30
0
 11
4.554315786294203
 21
6.494662657975919
 31
0
  0
LINE
  8
0
 62
7
 10
4.554315786294203
 20
6.42966265797592
 30
0
 11
3.310535604277713
 21
6.42966265797592
 31
0
  0
LINE
  8
0
 62
7
 10
3.310535604277713
 20
6.42966265797592
 30
0
 11
3.310535604277713
 21
6.494662657975919
 31
0
  0
LINE
  8
0
 62
7
 10
3.310535604277713
 20
6.494662657975919
 30
0
 11
4.554315786294203
 21
6.494662657975919
 31
0
  0
LINE
  8
0
 62
7
  6
DASHDOT
 10
0.1574256952859869
 20
2.349662657975918
 30
0
 11
0.1574256952859869
 21
0.1996626579759177
 31
0
  0
LINE
  8
0
 62
7
  6
DASHDOT
 10
2.307425695285987
 20
2.349662657975918
 30
0
 11
0.1574256952859869
 21
2.349662657975918
 31
0
  0
LINE
  8
0
 62
7
  6
DASHDOT
 10
2.307425695285987
 20
0.1996626579759177
 30
0
 11
2.307425695285987
 21
2.349662657975918
 31
0
  0
LINE
  8
0
 62
7
  6
DASHDOT
 10
0.1574256952859869
 20
0.1996626579759177
 30
0
 11
2.307425695285987
 21
0.1996626579759177
 31
0
  0
LINE
  8
0
 62
7
  6
DASHDOT
 10
2.366353884080017
 20
1.274662657975918
 30
0
 11
2.232425695285987
 21
1.274662657975918
 31
0
  0
LINE
  8
0
 62
7
  6
DASHDOT
 10
0.3574256952859869
 20
1.274662657975918
 30
0
 11
0.1
 21
1.274662657975918
 31
0
  0
LINE
  8
0
 62
7
  6
DASHDOT
 10
2.232425695285987
 20
1.274662657975918
 30
0
 11
0.3574256952859869
 21
1.274662657975918
 31
0
  0
LINE
  8
0
 62
7
  6
DASHDOT
 10
1.232425695285987
 20
2.408410569862928
 30
0
 11
1.232425695285987
 21
2.349662657975918
 31
0
  0
LINE
  8
0
 62
7
  6
DASHDOT
 10
1.232425695285987
 20
2.349662657975918
 30
0
 11
1.232425695285987
 21
2.274662657975918
 31
0
  0
LINE
  8
0
 62
7
  6
DASHDOT
 10
1.232425695285987
 20
2.274662657975918
 30
0
 11
1.232425695285987
 21
0.1496593567331438
 31
0
  0
LINE
  8
0
 62
7
  6
DASHDOT
 10
3.932425695285988
 20
2.274662657975918
 30
0
 11
3.932425695285988
 21
0.2746626579759177
 31
0
  0
LINE
  8
0
 62
7
  6
DASHED
 10
4.059025575125183
 20
1.306143348756304
 30
0
 11
3.962866422529798
 21
1.362954018510412
 31
0
  0
LINE
  8
0
 62
7
  6
DASHED
 10
4.0840939839489
 20
1.347055691749905
 30
0
 11
3.92578065261271
 21
1.367817612906045
 31
0
  0
LINE
  8
0
 62
7
  6
DASHED
 10
4.132206062156388
 20
1.425575946449651
 30
0
 11
3.8897607473307
 21
1.357739155471558
 31
0
  0
LINE
  8
0
 62
7
  6
DASHED
 10
4.284808281931094
 20
1.674627029065508
 30
0
 11
3.860584298353904
 21
1.334335230461205
 31
0
  0
LINE
  8
0
 62
7
 10
3.342039711221791
 20
2.063055217600196
 30
0
 11
3.067709735214099
 21
1.776923853368033
 31
0
  0
LINE
  8
0
 62
7
 10
3.080033291616186
 20
1.768166080878466
 30
0
 11
2.939978939039312
 21
1.39733880078973
 31
0
  0
LINE
  8
0
 62
7
 10
2.954750586651207
 20
1.39411901070195
 30
0
 11
2.971436571237486
 21
0.9980764987765579
 31
0
  0
LINE
  8
0
 62
7
 10
2.98628693824829
 20
1.000911145319114
 30
0
 11
3.157036828596611
 21
0.643178607967915
 31
0
  0
LINE
  8
0
 62
7
 10
3.169583916606819
 20
0.6516130139246816
 30
0
 11
3.467009435695626
 21
0.3895707388458541
 31
0
  0
LINE
  8
0
 62
7
 10
3.475240692184308
 20
0.4022520257681026
 30
0
 11
3.851634796140715
 21
0.2779315856120084
 31
0
  0
LINE
  8
0
 62
7
 10
3.854229927826818
 20
0.292825675477041
 30
0
 11
4.249219014258299
 21
0.3261680649206973
 31
0
  0
LINE
  8
0
 62
7
 10
4.245761762101612
 20
0.3408859461848625
 30
0
 11
4.595989594013226
 21
0.5265430470137508
 31
0
  0
LINE
  8
0
 62
7
 10
4.58703450115028
 20
0.5387239719866194
 30
0
 11
4.836324545359414
 21
0.846916391088511
 31
0
  0
LINE
  8
0
 62
7
 10
4.823308008402819
 20
0.8546065397891216
 30
0
 11
4.931674149687898
 21
1.235900222869124
 31
0
  0
LINE
  8
0
 62
7
 10
4.916684020754619
 20
1.237866095688718
 30
0
 11
4.866744333474286
 21
1.631101548017177
 31
0
  0
LINE
  8
0
 62
7
 10
4.852185028772103
 20
1.627027819017298
 30
0
 11
4.651949837189604
 21
1.969130086454563
 31
0
  0
LINE
  8
0
 62
7
 10
4.640156668732817
 20
1.959670181638503
 30
0
 11
4.515911997394899
 21
2.051794744042098
 31
0
  0
LINE
  8
0
 62
7
 10
4.009823014368507
 20
1.225843396094861
 30
0
 11
4.554315786294203
 21
2.114470799580682
 31
0
  0
LINE
  8
0
 62
7
 10
3.467009435695626
 20
0.3895707388458541
 30
0
 11
4.009823014368507
 21
1.225843396094861
 31
0
  0
LINE
  8
0
 62
7
 10
3.542307677910314
 20
1.575291464025795
 30
0
 11
3.372871345896594
 21
1.771355867050646
 31
0
  0
LINE
  8
0
 62
7
 10
3.372871345896594
 20
1.771355867050646
 30
0
 11
3.534030097950193
 21
1.7497215469816
 31
0
  0
LINE
  8
0
 62
7
 10
3.534030097950193
 20
1.7497215469816
 30
0
 11
3.542307677910314
 21
1.575291464025795
 31
0
  0
LINE
  8
0
 62
7
 10
3.310535604277713
 20
2.114470799580682
 30
0
 11
3.86417764564199
 21
1.210911532966129
 31
0
  0
LINE
  8
0
 62
7
 10
3.067709735214099
 20
1.776923853368033
 30
0
 11
3.894666281151789
 21
1.18924469227501
 31
0
  0
LINE
  8
0
 62
7
 10
2.939978939039312
 20
1.39733880078973
 30
0
 11
3.93121152549691
 21
1.181278890585934
 31
0
  0
LINE
  8
0
 62
7
 10
2.971436571237486
 20
0.9980764987765579
 30
0
 11
3.967951522637712
 21
1.188291842238163
 31
0
  0
LINE
  8
0
 62
7
 10
3.157036828596611
 20
0.643178607967915
 30
0
 11
3.998993178192788
 21
1.209158670008299
 31
0
  0
LINE
  8
0
 62
7
 10
3.851634796140715
 20
0.2779315856120084
 30
0
 11
4.019569590218598
 21
1.241750079961203
 31
0
  0
LINE
  8
0
 62
7
 10
4.249219014258299
 20
0.3261680649206973
 30
0
 11
4.030107547563094
 21
1.258948320518131
 31
0
  0
LINE
  8
0
 62
7
 10
4.595989594013226
 20
0.5265430470137508
 30
0
 11
4.042579966182006
 21
1.27930365587608
 31
0
  0
LINE
  8
0
 62
7
 10
4.836324545359414
 20
0.846916391088511
 30
0
 11
4.059025575125183
 21
1.306143348756304
 31
0
  0
LINE
  8
0
 62
7
 10
4.931674149687898
 20
1.235900222869124
 30
0
 11
4.0840939839489
 21
1.347055691749905
 31
0
  0
LINE
  8
0
 62
7
 10
4.866744333474286
 20
1.631101548017177
 30
0
 11
4.132206062156388
 21
1.425575946449651
 31
0
  0
LINE
  8
0
 62
7
 10
4.651949837189604
 20
1.969130086454563
 30
0
 11
4.284808281931094
 21
1.674627029065508
 31
0
  0
LINE
  8
0
 62
7
  6
DASHED
 10
4.515911997394899
 20
2.051794744042098
 30
0
 11
4.321743691257318
 21
2.195766071286518
 31
0
  0
LINE
  8
0
 62
7
  6
DASHDOT
 10
3.932425695285988
 20
2.411510296965018
 30
0
 11
3.932425695285988
 21
2.349662657975918
 31
0
  0
LINE
  8
0
 62
7
  6
DASHDOT
 10
5.090869532434415
 20
1.274662657975918
 30
0
 11
4.932425695285987
 21
1.274662657975918
 31
0
  0
LINE
  8
0
 62
7
  6
DASHDOT
 10
3.932425695285988
 20
2.349662657975918
 30
0
 11
3.932425695285988
 21
2.274662657975918
 31
0
  0
LINE
  8
0
 62
7
  6
DASHDOT
 10
3.932425695285988
 20
0.2746626579759177
 30
0
 11
3.932425695285988
 21
0.1996626579759177
 31
0
  0
LINE
  8
0
 62
7
  6
DASHDOT
 10
3.932425695285988
 20
0.1996626579759177
 30
0
 11
3.932425695285988
 21
0.1
 31
0
  0
LINE
  8
0
 62
7
  6
DASHED
 10
4.042579966182006
 20
1.27930365587608
 30
0
 11
3.995069500757818
 21
1.34392849267216
 31
0
  0
LINE
  8
0
 62
7
  6
DASHED
 10
4.030107547563094
 20
1.258948320518131
 30
0
 11
4.01722451456581
 21
1.313792729135312
 31
0
  0
LINE
  8
0
 62
7
  6
DASHED
 10
4.019569590218598
 20
1.241750079961203
 30
0
 11
4.025777800438112
 21
1.277380503419437
 31
0
  0
LINE
  8
0
 62
7
  6
DASHED
 10
4.321743691257318
 20
2.195766071286518
 30
0
 11
3.826995897671209
 21
1.271593183595804
 31
0
  0
LINE
  8
0
 62
7
  6
DASHDOT
 10
2.932425695285987
 20
1.274662657975918
 30
0
 11
2.787316241655091
 21
1.274662657975918
 31
0
  0
LINE
  8
0
 62
7
  6
DASHDOT
 10
4.932425695285987
 20
1.274662657975918
 30
0
 11
2.932425695285987
 21
1.274662657975918
 31
0
  0
LINE
  8
0
 62
7
 10
1.283206934188696
 20
1.182405210244469
 30
0
 11
1.980043941104523
 21
2.319662657975918
 31
0
  0
LINE
  8
0
 62
7
 10
0.842307677910314
 20
1.575291464025795
 30
0
 11
0.672871345896594
 21
1.771355867050646
 31
0
  0
LINE
  8
0
 62
7
 10
0.672871345896594
 20
1.771355867050646
 30
0
 11
0.8340300979501918
 21
1.7497215469816
 31
0
  0
LINE
  8
0
 62
7
 10
0.8340300979501918
 20
1.7497215469816
 30
0
 11
0.842307677910314
 21
1.575291464025795
 31
0
  0
LINE
  8
0
 62
7
 10
0.484807449467393
 20
2.319662657975918
 30
0
 11
1.181644456383219
 21
1.182405210244469
 31
0
  0
LINE
  8
0
 62
7
  6
DASHDOT
 10
1.232425695285987
 20
2.349662657975918
 30
0
 11
1.232425695285987
 21
2.274662657975918
 31
0
  0
LINE
  8
0
 62
7
 10
0.6420397112217907
 20
2.063055217600196
 30
0
 11
0.3677097352140991
 21
1.776923853368033
 31
0
  0
LINE
  8
0
 62
7
 10
0.380033291616186
 20
1.768166080878466
 30
0
 11
0.2399789390393126
 21
1.39733880078973
 31
0
  0
LINE
  8
0
 62
7
 10
0.3677097352140991
 20
1.776923853368033
 30
0
 11
1.109556140932808
 21
1.249728469869064
 31
0
  0
LINE
  8
0
 62
7
 10
0.2399789390393126
 20
1.39733880078973
 30
0
 11
1.111799919163313
 21
1.207307152059802
 31
0
  0
LINE
  8
0
 62
7
 10
1.181644456383219
 20
1.182405210244469
 30
0
 11
1.283206934188696
 21
1.182405210244469
 31
0
  0
LINE
  8
0
 62
7
 10
1.980043941104523
 20
2.319662657975918
 30
0
 11
0.484807449467393
 21
2.319662657975918
 31
0
  0
LINE
  8
0
 62
7
 10
2.629925695285988
 20
6.194662657975919
 30
0
 11
2.857425695285988
 21
6.194662657975919
 31
0
  0
LINE
  8
0
 62
7
 10
2.857425695285988
 20
6.194662657975919
 30
0
 11
2.857425695285988
 21
6.394662657975919
 31
0
  0
LINE
  8
0
 62
7
 10
5.209925695285987
 20
6.494662657975919
 30
0
 11
2.629925695285988
 21
6.494662657975919
 31
0
  0
LINE
  8
0
 62
7
 10
2.629925695285988
 20
3.744662657975919
 30
0
 11
5.209925695285987
 21
3.744662657975919
 31
0
  0
LINE
  8
0
 62
7
  6
DASHDOT
 10
5.234925695285988
 20
6.394662657975919
 30
0
 11
5.234925695285988
 21
6.494662657975919
 31
0
  0
LINE
  8
0
 62
7
  6
DASHDOT
 10
5.234925695285988
 20
6.194662657975919
 30
0
 11
5.234925695285988
 21
6.394662657975919
 31
0
  0
LINE
  8
0
 62
7
  6
DASHDOT
 10
2.629925695285988
 20
6.394662657975919
 30
0
 11
2.629925695285988
 21
6.494662657975919
 31
0
  0
LINE
  8
0
 62
7
  6
DASHDOT
 10
2.629925695285988
 20
6.194662657975919
 30
0
 11
2.629925695285988
 21
6.394662657975919
 31
0
  0
LINE
  8
0
 62
7
  6
DASHDOT
 10
2.629925695285988
 20
3.644662657975918
 30
0
 11
2.629925695285988
 21
3.744662657975919
 31
0
  0
LINE
  8
0
 62
7
  6
DASHDOT
 10
2.629925695285988
 20
3.444662657975918
 30
0
 11
2.629925695285988
 21
3.644662657975918
 31
0
  0
LINE
  8
0
 62
7
  6
DASHDOT
 10
5.234925695285988
 20
3.644662657975918
 30
0
 11
5.234925695285988
 21
3.744662657975919
 31
0
  0
LINE
  8
0
 62
7
  6
DASHDOT
 10
5.234925695285988
 20
3.444662657975918
 30
0
 11
5.234925695285988
 21
3.644662657975918
 31
0
  0
LINE
  8
0
 62
7
  6
DASHDOT
 10
5.234925695285988
 20
6.494662657975919
 30
0
 11
5.234925695285988
 21
6.544662657975919
 31
0
  0
LINE
  8
0
 62
7
  6
DASHDOT
 10
2.629925695285988
 20
6.494662657975919
 30
0
 11
2.629925695285988
 21
6.544662657975919
 31
0
  0
LINE
  8
0
 62
7
  6
DASHDOT
 10
5.234925695285988
 20
3.744662657975919
 30
0
 11
5.234925695285988
 21
3.794662657975918
 31
0
  0
LINE
  8
0
 62
7
  6
DASHDOT
 10
2.629925695285988
 20
3.744662657975919
 30
0
 11
2.629925695285988
 21
3.794662657975918
 31
0
  0
LINE
  8
0
 62
7
  6
DASHDOT
 10
5.234925695285988
 20
6.144662657975919
 30
0
 11
5.234925695285988
 21
6.194662657975919
 31
0
  0
LINE
  8
0
 62
7
  6
DASHDOT
 10
5.234925695285988
 20
3.394662657975918
 30
0
 11
5.234925695285988
 21
3.444662657975918
 31
0
  0
LINE
  8
0
 62
7
  6
DASHDOT
 10
2.629925695285988
 20
6.144662657975919
 30
0
 11
2.629925695285988
 21
6.194662657975919
 31
0
  0
LINE
  8
0
 62
7
  6
DASHDOT
 10
2.629925695285988
 20
3.394662657975918
 30
0
 11
2.629925695285988
 21
3.444662657975918
 31
0
  0
LINE
  8
0
 62
7
 10
5.027425695285814
 20
6.394662657975919
 30
0
 11
5.007425695285987
 21
6.394662657975919
 31
0
  0
LINE
  8
0
 62
7
 10
5.027425695285814
 20
6.194662657975919
 30
0
 11
5.007425695285814
 21
6.194662657975919
 31
0
  0
LINE
  8
0
 62
7
 10
5.209925695285987
 20
6.194662657975919
 30
0
 11
5.027425695285814
 21
6.194662657975919
 31
0
  0
LINE
  8
0
 62
7
  6
DASHED
 10
2.857425695285988
 20
6.394662657975919
 30
0
 11
5.007425695285987
 21
6.394662657975919
 31
0
  0
LINE
  8
0
 62
7
  6
DASHED
 10
2.857425695285988
 20
6.194662657975919
 30
0
 11
5.007425695285814
 21
6.194662657975919
 31
0
  0
LINE
  8
0
 62
7
 10
2.629925695285988
 20
3.644662657975918
 30
0
 11
5.209925695285987
 21
3.644662657975918
 31
0
  0
LINE
  8
0
 62
7
 10
2.629925695285988
 20
6.394662657975919
 30
0
 11
2.857425695285988
 21
6.394662657975919
 31
0
  0
LINE
  8
0
 62
7
 10
2.629925695285988
 20
6.394662657975919
 30
0
 11
2.857425695285988
 21
6.394662657975919
 31
0
  0
LINE
  8
0
 62
7
 10
5.209925695285987
 20
3.644662657975918
 30
0
 11
5.234925695285988
 21
3.644662657975918
 31
0
  0
LINE
  8
0
 62
7
 10
5.209925695285987
 20
6.394662657975919
 30
0
 11
5.027425695285814
 21
6.394662657975919
 31
0
  0
LINE
  8
0
 62
7
 10
5.209925695285987
 20
6.494662657975919
 30
0
 11
5.234925695285988
 21
6.494662657975919
 31
0
  0
LINE
  8
0
 62
7
 10
5.209925695285987
 20
3.744662657975919
 30
0
 11
5.234925695285988
 21
3.744662657975919
 31
0
  0
LINE
  8
0
 62
7
 10
5.007425695285987
 20
6.394662657975919
 30
0
 11
5.007425695285814
 21
6.194662657975919
 31
0
  0
LINE
  8
0
 62
7
 10
5.007425695285987
 20
6.394662657975919
 30
0
 11
5.234925695285988
 21
6.394662657975919
 31
0
  0
LINE
  8
0
 62
7
 10
5.007425695285814
 20
6.194662657975919
 30
0
 11
5.234925695285988
 21
6.194662657975919
 31
0
  0
LINE
  8
0
 62
7
 10
2.629925695285988
 20
3.444662657975918
 30
0
 11
5.234925695285988
 21
3.444662657975918
 31
0
  0
LINE
  8
0
 62
7
  6
DASHED
 10
5.007425695285814
 20
6.194662657975919
 30
0
 11
5.209925695285987
 21
6.194662657975919
 31
0
  0
LINE
  8
0
 62
7
  6
DASHED
 10
5.007425695285987
 20
6.394662657975919
 30
0
 11
5.209925695285987
 21
6.394662657975919
 31
0
  0
LINE
  8
0
 62
7
 10
3.526997755109267
 20
0.5897648884454738
 30
0
 11
3.428191638797164
 21
0.5546190183503777
 31
0
  0
LINE
  8
0
 62
7
 10
3.526997755109267
 20
0.5897648884454738
 30
0
 11
3.502896968912762
 21
0.6917909852331524
 31
0
  0
LINE
  8
0
 62
7
 10
3.567213660939422
 20
0.6040699037099366
 30
0
 11
3.589346499060361
 21
0.6447096402996386
 31
0
  0
LINE
  8
0
 62
7
 10
3.567213660939422
 20
0.6040699037099366
 30
0
 11
3.526997755109267
 21
0.5897648884454738
 31
0
  0
LINE
  8
0
 62
7
 10
3.514641168944737
 20
0.5075376734168731
 30
0
 11
3.567213660939422
 21
0.6040699037099366
 31
0
  0
LINE
  8
0
 62
7
 10
3.354284241808923
 20
0.7172734222231867
 30
0
 11
3.416022361706846
 21
0.7767954704343074
 31
0
  0
LINE
  8
0
 62
7
 10
3.354284241808923
 20
0.7172734222231867
 30
0
 11
3.2956530042075
 21
0.778410422065391
 31
0
  0
LINE
  8
0
 62
7
 10
3.303575783971276
 20
0.6683851295911555
 30
0
 11
3.235295904151525
 21
0.7392071448547233
 31
0
  0
LINE
  8
0
 62
7
 10
3.416022361706846
 20
0.7767954704343074
 30
0
 11
3.34774248188706
 21
0.8476174856979187
 31
0
  0
LINE
  8
0
 62
7
 10
3.303575783971276
 20
0.6683851295911555
 30
0
 11
3.354284241808923
 21
0.7172734222231867
 31
0
  0
LINE
  8
0
 62
7
 10
3.290546504376334
 20
0.9544514095172828
 30
0
 11
3.15077761900295
 21
0.8847255640390259
 31
0
  0
LINE
  8
0
 62
7
 10
3.106843663757449
 20
0.9727933373673671
 30
0
 11
3.246612549130838
 21
1.042519182845641
 31
0
  0
LINE
  8
0
 62
7
 10
3.246612549130838
 20
1.042519182845641
 30
0
 11
3.15077761900295
 21
0.8847255640390259
 31
0
  0
LINE
  8
0
 62
7
 10
3.224083317422799
 20
1.161546721497643
 30
0
 11
3.069842105028301
 21
1.136915780685989
 31
0
  0
LINE
  8
0
 62
7
 10
3.054322255195705
 20
1.234102505004198
 30
0
 11
3.208563467590163
 21
1.258733445815869
 31
0
  0
LINE
  8
0
 62
7
 10
3.208563467590163
 20
1.258733445815869
 30
0
 11
3.069842105028301
 21
1.136915780685989
 31
0
  0
LINE
  8
0
 62
7
 10
3.215173015210234
 20
1.394633885287312
 30
0
 11
3.229557784358702
 21
1.416738972442267
 31
0
  0
LINE
  8
0
 62
7
 10
3.205967636709492
 20
1.388969045543661
 30
0
 11
3.215173015210234
 21
1.394633885287312
 31
0
  0
LINE
  8
0
 62
7
 10
3.178532620091016
 20
1.385544041129168
 30
0
 11
3.205967636709492
 21
1.388969045543661
 31
0
  0
LINE
  8
0
 62
7
 10
3.115391171409647
 20
1.394811759565519
 30
0
 11
3.178532620091016
 21
1.385544041129168
 31
0
  0
LINE
  8
0
 62
7
 10
3.09025405197791
 20
1.405500505636218
 30
0
 11
3.115391171409647
 21
1.394811759565519
 31
0
  0
LINE
  8
0
 62
7
 10
3.076969029545398
 20
1.426008837282488
 30
0
 11
3.09025405197791
 21
1.405500505636218
 31
0
  0
LINE
  8
0
 62
7
 10
3.075083112906311
 20
1.439864959801529
 30
0
 11
3.076969029545398
 21
1.426008837282488
 31
0
  0
LINE
  8
0
 62
7
 10
3.153624101951364
 20
1.488764885088964
 30
0
 11
3.148583763854411
 21
1.454424798963884
 31
0
  0
LINE
  8
0
 62
7
 10
3.238305209830178
 20
1.476335638039905
 30
0
 11
3.153624101951364
 21
1.488764885088964
 31
0
  0
LINE
  8
0
 62
7
 10
3.229557784358702
 20
1.416738972442267
 30
0
 11
3.238305209830178
 21
1.476335638039905
 31
0
  0
LINE
  8
0
 62
7
 10
3.083895574998365
 20
1.499904723284215
 30
0
 11
3.075083112906311
 21
1.439864959801529
 31
0
  0
LINE
  8
0
 62
7
 10
3.293912763123591
 20
1.611460399633482
 30
0
 11
3.302746288630042
 21
1.618426816503002
 31
0
  0
LINE
  8
0
 62
7
 10
3.278587575131859
 20
1.603383450745383
 30
0
 11
3.293912763123591
 21
1.611460399633482
 31
0
  0
LINE
  8
0
 62
7
 10
3.26025145927505
 20
1.602438589793144
 30
0
 11
3.278587575131859
 21
1.603383450745383
 31
0
  0
LINE
  8
0
 62
7
 10
3.244186069467229
 20
1.606612160958343
 30
0
 11
3.26025145927505
 21
1.602438589793144
 31
0
  0
LINE
  8
0
 62
7
 10
3.187817799967104
 20
1.63571420769082
 30
0
 11
3.244186069467229
 21
1.606612160958343
 31
0
  0
LINE
  8
0
 62
7
 10
3.175992639761651
 20
1.645940086731907
 30
0
 11
3.187817799967104
 21
1.63571420769082
 31
0
  0
LINE
  8
0
 62
7
 10
3.171390899801511
 20
1.655752683632648
 30
0
 11
3.175992639761651
 21
1.645940086731907
 31
0
  0
LINE
  8
0
 62
7
 10
3.167073182995336
 20
1.664674964740217
 30
0
 11
3.171390899801511
 21
1.655752683632648
 31
0
  0
LINE
  8
0
 62
7
 10
3.163419128327832
 20
1.679204040599058
 30
0
 11
3.167073182995336
 21
1.664674964740217
 31
0
  0
LINE
  8
0
 62
7
 10
3.16471438273884
 20
1.691549705961278
 30
0
 11
3.163419128327832
 21
1.679204040599058
 31
0
  0
LINE
  8
0
 62
7
 10
3.174263491823068
 20
1.71004554439129
 30
0
 11
3.16471438273884
 21
1.691549705961278
 31
0
  0
LINE
  8
0
 62
7
 10
3.183710808609963
 20
1.717066910086519
 30
0
 11
3.174263491823068
 21
1.71004554439129
 31
0
  0
LINE
  8
0
 62
7
 10
3.195474733426032
 20
1.724007766359219
 30
0
 11
3.183710808609963
 21
1.717066910086519
 31
0
  0
LINE
  8
0
 62
7
 10
3.216936516145526
 20
1.726685450983975
 30
0
 11
3.195474733426032
 21
1.724007766359219
 31
0
  0
LINE
  8
0
 62
7
 10
3.233302180921212
 20
1.723813710356014
 30
0
 11
3.216936516145526
 21
1.726685450983975
 31
0
  0
LINE
  8
0
 62
7
 10
3.290257619895492
 20
1.694408517303332
 30
0
 11
3.233302180921212
 21
1.723813710356014
 31
0
  0
LINE
  8
0
 62
7
 10
3.301943639875503
 20
1.683913135096474
 30
0
 11
3.290257619895492
 21
1.694408517303332
 31
0
  0
LINE
  8
0
 62
7
 10
3.307577707207081
 20
1.67393940345212
 30
0
 11
3.301943639875503
 21
1.683913135096474
 31
0
  0
LINE
  8
0
 62
7
 10
3.313050639795035
 20
1.662933344436265
 30
0
 11
3.307577707207081
 21
1.67393940345212
 31
0
  0
LINE
  8
0
 62
7
 10
3.314384701315669
 20
1.651833081759808
 30
0
 11
3.313050639795035
 21
1.662933344436265
 31
0
  0
LINE
  8
0
 62
7
 10
3.313053263514471
 20
1.638390578617638
 30
0
 11
3.314384701315669
 21
1.651833081759808
 31
0
  0
LINE
  8
0
 62
7
 10
3.302746288630042
 20
1.618426816503002
 30
0
 11
3.313053263514471
 21
1.638390578617638
 31
0
  0
LINE
  8
0
 62
7
 10
3.334489817623655
 20
1.908882758808434
 30
0
 11
3.368177260344158
 21
1.944697342786448
 31
0
  0
LINE
  8
0
 62
7
 10
3.448263720845784
 20
1.801866247036764
 30
0
 11
3.334489817623655
 21
1.908882758808434
 31
0
  0
LINE
  8
0
 62
7
 10
3.300146335976784
 20
1.87237071134473
 30
0
 11
3.334489817623655
 21
1.908882758808434
 31
0
  0
LINE
  8
0
 62
7
 10
3.499590474819786
 20
2.035051327440761
 30
0
 11
3.540857329384058
 21
2.061782861944625
 31
0
  0
LINE
  8
0
 62
7
 10
3.584509820008707
 20
1.903956935269077
 30
0
 11
3.499590474819786
 21
2.035051327440761
 31
0
  0
LINE
  8
0
 62
7
 10
3.457519977687854
 20
2.007799215363105
 30
0
 11
3.499590474819786
 21
2.035051327440761
 31
0
  0
LINE
  8
0
 62
7
 10
4.521028345319989
 20
1.920086218715567
 30
0
 11
4.557358003069348
 21
1.886954901349992
 31
0
  0
LINE
  8
0
 62
7
 10
4.415778503582678
 20
1.804676055989557
 30
0
 11
4.521028345319989
 21
1.920086218715567
 31
0
  0
LINE
  8
0
 62
7
 10
4.483991193390565
 20
1.953862744862804
 30
0
 11
4.521028345319989
 21
1.920086218715567
 31
0
  0
LINE
  8
0
 62
7
 10
4.648189361594077
 20
1.626318682940693
 30
0
 11
4.619255370465242
 21
1.674348182815574
 31
0
  0
LINE
  8
0
 62
7
 10
4.648189361594077
 20
1.626318682940693
 30
0
 11
4.602048152382305
 21
1.550145136760777
 31
0
  0
LINE
  8
0
 62
7
 10
4.619255370465242
 20
1.674348182815574
 30
0
 11
4.687408959706465
 21
1.714008675176333
 31
0
  0
LINE
  8
0
 62
7
 10
4.652967838591777
 20
1.618386563955002
 30
0
 11
4.648189361594077
 21
1.626318682940693
 31
0
  0
LINE
  8
0
 62
7
 10
4.66261116470745
 20
1.60641361268468
 30
0
 11
4.652967838591777
 21
1.618386563955002
 31
0
  0
LINE
  8
0
 62
7
 10
4.674092114899332
 20
1.600479608449374
 30
0
 11
4.66261116470745
 21
1.60641361268468
 31
0
  0
LINE
  8
0
 62
7
 10
4.684035456987277
 20
1.602443163885155
 30
0
 11
4.674092114899332
 21
1.600479608449374
 31
0
  0
LINE
  8
0
 62
7
 10
4.695380845169657
 20
1.603311231781611
 30
0
 11
4.684035456987277
 21
1.602443163885155
 31
0
  0
LINE
  8
0
 62
7
 10
4.710349873734012
 20
1.612404406465293
 30
0
 11
4.695380845169657
 21
1.603311231781611
 31
0
  0
LINE
  8
0
 62
7
 10
4.722259859324679
 20
1.630038877141914
 30
0
 11
4.710349873734012
 21
1.612404406465293
 31
0
  0
LINE
  8
0
 62
7
 10
4.723769936285582
 20
1.641239072663429
 30
0
 11
4.722259859324679
 21
1.630038877141914
 31
0
  0
LINE
  8
0
 62
7
 10
4.721261805168375
 20
1.655835092678354
 30
0
 11
4.723769936285582
 21
1.641239072663429
 31
0
  0
LINE
  8
0
 62
7
 10
4.687408959706465
 20
1.714008675176333
 30
0
 11
4.721261805168375
 21
1.655835092678354
 31
0
  0
LINE
  8
0
 62
7
 10
4.552408090971013
 20
1.635447868874162
 30
0
 11
4.619255370465242
 21
1.674348182815574
 31
0
  0
LINE
  8
0
 62
7
 10
4.715679656065526
 20
1.451985903166062
 30
0
 11
4.632038141259267
 21
1.433050046367692
 31
0
  0
LINE
  8
0
 62
7
 10
4.715679656065526
 20
1.451985903166062
 30
0
 11
4.734164885302254
 21
1.369320002865837
 31
0
  0
LINE
  8
0
 62
7
 10
4.784378415179702
 20
1.467538824078883
 30
0
 11
4.806100416779689
 21
1.371590637641129
 31
0
  0
LINE
  8
0
 62
7
 10
4.632038141259267
 20
1.433050046367692
 30
0
 11
4.653760142859226
 21
1.337101859929956
 31
0
  0
LINE
  8
0
 62
7
 10
4.784378415179702
 20
1.467538824078883
 30
0
 11
4.715679656065526
 21
1.451985903166062
 31
0
  0
LINE
  8
0
 62
7
 10
4.723768147730231
 20
1.128844351368414
 30
0
 11
4.718865944392827
 21
1.141843375721934
 31
0
  0
LINE
  8
0
 62
7
 10
4.727461066284674
 20
1.117270443071852
 30
0
 11
4.723768147730231
 21
1.128844351368414
 31
0
  0
LINE
  8
0
 62
7
 10
4.737728880549287
 20
1.113114116926857
 30
0
 11
4.727461066284674
 21
1.117270443071852
 31
0
  0
LINE
  8
0
 62
7
 10
4.748876679491725
 20
1.107559653634612
 30
0
 11
4.737728880549287
 21
1.113114116926857
 31
0
  0
LINE
  8
0
 62
7
 10
4.763446820835732
 20
1.107360481942616
 30
0
 11
4.748876679491725
 21
1.107559653634612
 31
0
  0
LINE
  8
0
 62
7
 10
4.783112784014896
 20
1.112711007409612
 30
0
 11
4.763446820835732
 21
1.107360481942616
 31
0
  0
LINE
  8
0
 62
7
 10
4.792948148671139
 20
1.123508080532371
 30
0
 11
4.783112784014896
 21
1.112711007409612
 31
0
  0
LINE
  8
0
 62
7
 10
4.797590972376195
 20
1.137051141348058
 30
0
 11
4.792948148671139
 21
1.123508080532371
 31
0
  0
LINE
  8
0
 62
7
 10
4.803021597192397
 20
1.203336449829078
 30
0
 11
4.797590972376195
 21
1.137051141348058
 31
0
  0
LINE
  8
0
 62
7
 10
4.724431463755237
 20
1.209775184727305
 30
0
 11
4.803021597192397
 21
1.203336449829078
 31
0
  0
LINE
  8
0
 62
7
 10
4.724431463755237
 20
1.209775184727305
 30
0
 11
4.718865944392827
 21
1.141843375721934
 31
0
  0
LINE
  8
0
 62
7
 10
4.647347678824036
 20
1.216090507458172
 30
0
 11
4.724431463755237
 21
1.209775184727305
 31
0
  0
LINE
  8
0
 62
7
 10
4.64368843128798
 20
0.8983766285283749
 30
0
 11
4.642907473090768
 21
0.9122473291595781
 31
0
  0
LINE
  8
0
 62
7
 10
4.643742811042347
 20
0.8862279642582399
 30
0
 11
4.64368843128798
 21
0.8983766285283749
 31
0
  0
LINE
  8
0
 62
7
 10
4.652292947857668
 20
0.8791853640824722
 30
0
 11
4.643742811042347
 21
0.8862279642582399
 31
0
  0
LINE
  8
0
 62
7
 10
4.661263586265313
 20
0.8705451597859839
 30
0
 11
4.652292947857668
 21
0.8791853640824722
 31
0
  0
LINE
  8
0
 62
7
 10
4.675104264402362
 20
0.8659883717885697
 30
0
 11
4.661263586265313
 21
0.8705451597859839
 31
0
  0
LINE
  8
0
 62
7
 10
4.695469798760363
 20
0.8651989157419904
 30
0
 11
4.675104264402362
 21
0.8659883717885697
 31
0
  0
LINE
  8
0
 62
7
 10
4.708089002112407
 20
0.8725519350334672
 30
0
 11
4.695469798760363
 21
0.8651989157419904
 31
0
  0
LINE
  8
0
 62
7
 10
4.716577350206639
 20
0.8840809529813725
 30
0
 11
4.708089002112407
 21
0.8725519350334672
 31
0
  0
LINE
  8
0
 62
7
 10
4.741624501037062
 20
0.9456916179802148
 30
0
 11
4.716577350206639
 21
0.8840809529813725
 31
0
  0
LINE
  8
0
 62
7
 10
4.668576785119812
 20
0.975388378410139
 30
0
 11
4.741624501037062
 21
0.9456916179802148
 31
0
  0
LINE
  8
0
 62
7
 10
4.668576785119812
 20
0.975388378410139
 30
0
 11
4.642907473090768
 21
0.9122473291595781
 31
0
  0
LINE
  8
0
 62
7
 10
4.596929185386654
 20
1.004515936718275
 30
0
 11
4.668576785119812
 21
0.975388378410139
 31
0
  0
LINE
  8
0
 62
7
 10
4.551530484216506
 20
0.7631555117063072
 30
0
 11
4.485418003510467
 21
0.8177779390294302
 31
0
  0
LINE
  8
0
 62
7
 10
4.551530484216506
 20
0.7631555117063072
 30
0
 11
4.497404747796675
 21
0.6979960194631213
 31
0
  0
LINE
  8
0
 62
7
 10
4.605831812892626
 20
0.718291511029217
 30
0
 11
4.543172464211294
 21
0.6424515093346437
 31
0
  0
LINE
  8
0
 62
7
 10
4.485418003510467
 20
0.8177779390294302
 30
0
 11
4.422758654829142
 21
0.7419379373348221
 31
0
  0
LINE
  8
0
 62
7
 10
4.605831812892626
 20
0.718291511029217
 30
0
 11
4.551530484216506
 21
0.7631555117063072
 31
0
  0
LINE
  8
0
 62
7
 10
0.3900256952859869
 20
0.4188107648299588
 30
0
 11
0.3900256952859869
 21
0.5388107648299588
 31
0
  0
LINE
  8
0
 62
7
 10
0.465625695285987
 20
0.5388107648299588
 30
0
 11
0.4116256952859869
 21
0.4788107648299588
 31
0
  0
LINE
  8
0
 62
7
 10
0.4116256952859869
 20
0.4788107648299588
 30
0
 11
0.465625695285987
 21
0.4188107648299588
 31
0
  0
LINE
  8
0
 62
7
 10
0.4116256952859869
 20
0.4788107648299588
 30
0
 11
0.3900256952859869
 21
0.4548107648299589
 31
0
  0
LINE
  8
0
 62
7
 10
0.5736256952859868
 20
0.5388107648299588
 30
0
 11
0.4980256952859868
 21
0.5388107648299588
 31
0
  0
LINE
  8
0
 62
7
 10
0.4980256952859868
 20
0.5388107648299588
 30
0
 11
0.4980256952859868
 21
0.4788107648299588
 31
0
  0
LINE
  8
0
 62
7
 10
0.4980256952859868
 20
0.4188107648299588
 30
0
 11
0.5736256952859868
 21
0.4188107648299588
 31
0
  0
LINE
  8
0
 62
7
 10
0.5628256952859868
 20
0.4788107648299588
 30
0
 11
0.4980256952859868
 21
0.4788107648299588
 31
0
  0
LINE
  8
0
 62
7
 10
0.4980256952859868
 20
0.4788107648299588
 30
0
 11
0.4980256952859868
 21
0.4188107648299588
 31
0
  0
LINE
  8
0
 62
7
 10
0.6060256952859868
 20
0.4188107648299588
 30
0
 11
0.6060256952859868
 21
0.5388107648299588
 31
0
  0
LINE
  8
0
 62
7
 10
0.6060256952859868
 20
0.5388107648299588
 30
0
 11
0.6816256952859869
 21
0.4188107648299588
 31
0
  0
LINE
  8
0
 62
7
 10
0.6816256952859869
 20
0.4188107648299588
 30
0
 11
0.6816256952859869
 21
0.5388107648299588
 31
0
  0
LINE
  8
0
 62
7
 10
0.7140256952859869
 20
0.4188107648299588
 30
0
 11
0.7140256952859869
 21
0.5388107648299588
 31
0
  0
LINE
  8
0
 62
7
 10
0.7140256952859869
 20
0.5388107648299588
 30
0
 11
0.789625695285987
 21
0.4188107648299588
 31
0
  0
LINE
  8
0
 62
7
 10
0.789625695285987
 20
0.4188107648299588
 30
0
 11
0.789625695285987
 21
0.5388107648299588
 31
0
  0
LINE
  8
0
 62
7
 10
0.8976256952859869
 20
0.5028107648299588
 30
0
 11
0.8949256952859868
 21
0.5148107648299588
 31
0
  0
LINE
  8
0
 62
7
 10
0.8949256952859868
 20
0.5148107648299588
 30
0
 11
0.8895256952859869
 21
0.5238107648299588
 31
0
  0
LINE
  8
0
 62
7
 10
0.8895256952859869
 20
0.5238107648299588
 30
0
 11
0.8841256952859869
 21
0.5298107648299588
 31
0
  0
LINE
  8
0
 62
7
 10
0.8841256952859869
 20
0.5298107648299588
 30
0
 11
0.8760256952859868
 21
0.5358107648299588
 31
0
  0
LINE
  8
0
 62
7
 10
0.8760256952859868
 20
0.5358107648299588
 30
0
 11
0.8679256952859868
 21
0.5388107648299588
 31
0
  0
LINE
  8
0
 62
7
 10
0.8679256952859868
 20
0.5388107648299588
 30
0
 11
0.851725695285987
 21
0.5388107648299588
 31
0
  0
LINE
  8
0
 62
7
 10
0.851725695285987
 20
0.5388107648299588
 30
0
 11
0.8436256952859869
 21
0.5358107648299588
 31
0
  0
LINE
  8
0
 62
7
 10
0.8436256952859869
 20
0.5358107648299588
 30
0
 11
0.8355256952859869
 21
0.5298107648299588
 31
0
  0
LINE
  8
0
 62
7
 10
0.8355256952859869
 20
0.5298107648299588
 30
0
 11
0.830125695285987
 21
0.5238107648299588
 31
0
  0
LINE
  8
0
 62
7
 10
0.830125695285987
 20
0.5238107648299588
 30
0
 11
0.8247256952859868
 21
0.5148107648299588
 31
0
  0
LINE
  8
0
 62
7
 10
0.8247256952859868
 20
0.5148107648299588
 30
0
 11
0.8220256952859869
 21
0.5028107648299588
 31
0
  0
LINE
  8
0
 62
7
 10
0.8220256952859869
 20
0.5028107648299588
 30
0
 11
0.8220256952859869
 21
0.4548107648299589
 31
0
  0
LINE
  8
0
 62
7
 10
0.8220256952859869
 20
0.4548107648299589
 30
0
 11
0.8247256952859868
 21
0.4428107648299588
 31
0
  0
LINE
  8
0
 62
7
 10
0.8247256952859868
 20
0.4428107648299588
 30
0
 11
0.830125695285987
 21
0.4338107648299588
 31
0
  0
LINE
  8
0
 62
7
 10
0.830125695285987
 20
0.4338107648299588
 30
0
 11
0.8355256952859869
 21
0.4278107648299588
 31
0
  0
LINE
  8
0
 62
7
 10
0.8355256952859869
 20
0.4278107648299588
 30
0
 11
0.8436256952859869
 21
0.4218107648299588
 31
0
  0
LINE
  8
0
 62
7
 10
0.8436256952859869
 20
0.4218107648299588
 30
0
 11
0.851725695285987
 21
0.4188107648299588
 31
0
  0
LINE
  8
0
 62
7
 10
0.851725695285987
 20
0.4188107648299588
 30
0
 11
0.8679256952859868
 21
0.4188107648299588
 31
0
  0
LINE
  8
0
 62
7
 10
0.8679256952859868
 20
0.4188107648299588
 30
0
 11
0.8760256952859868
 21
0.4218107648299588
 31
0
  0
LINE
  8
0
 62
7
 10
0.8760256952859868
 20
0.4218107648299588
 30
0
 11
0.8841256952859869
 21
0.4278107648299588
 31
0
  0
LINE
  8
0
 62
7
 10
0.8841256952859869
 20
0.4278107648299588
 30
0
 11
0.8895256952859869
 21
0.4338107648299588
 31
0
  0
LINE
  8
0
 62
7
 10
0.8895256952859869
 20
0.4338107648299588
 30
0
 11
0.8949256952859868
 21
0.4428107648299588
 31
0
  0
LINE
  8
0
 62
7
 10
0.8949256952859868
 20
0.4428107648299588
 30
0
 11
0.8976256952859869
 21
0.4548107648299589
 31
0
  0
LINE
  8
0
 62
7
 10
0.8976256952859869
 20
0.4548107648299589
 30
0
 11
0.8976256952859869
 21
0.4788107648299588
 31
0
  0
LINE
  8
0
 62
7
 10
0.8976256952859869
 20
0.4788107648299588
 30
0
 11
0.8652256952859871
 21
0.4788107648299588
 31
0
  0
LINE
  8
0
 62
7
 10
0.975925695285987
 20
0.5388107648299588
 30
0
 11
0.9597256952859869
 21
0.5388107648299588
 31
0
  0
LINE
  8
0
 62
7
 10
0.9597256952859869
 20
0.5388107648299588
 30
0
 11
0.9516256952859868
 21
0.5358107648299588
 31
0
  0
LINE
  8
0
 62
7
 10
0.9516256952859868
 20
0.5358107648299588
 30
0
 11
0.9435256952859868
 21
0.5298107648299588
 31
0
  0
LINE
  8
0
 62
7
 10
0.9435256952859868
 20
0.5298107648299588
 30
0
 11
0.938125695285987
 21
0.5238107648299588
 31
0
  0
LINE
  8
0
 62
7
 10
0.938125695285987
 20
0.5238107648299588
 30
0
 11
0.932725695285987
 21
0.5148107648299588
 31
0
  0
LINE
  8
0
 62
7
 10
0.932725695285987
 20
0.5148107648299588
 30
0
 11
0.9300256952859869
 21
0.5028107648299588
 31
0
  0
LINE
  8
0
 62
7
 10
0.9300256952859869
 20
0.5028107648299588
 30
0
 11
0.9300256952859869
 21
0.4548107648299589
 31
0
  0
LINE
  8
0
 62
7
 10
0.9300256952859869
 20
0.4548107648299589
 30
0
 11
0.932725695285987
 21
0.4428107648299588
 31
0
  0
LINE
  8
0
 62
7
 10
0.932725695285987
 20
0.4428107648299588
 30
0
 11
0.938125695285987
 21
0.4338107648299588
 31
0
  0
LINE
  8
0
 62
7
 10
0.938125695285987
 20
0.4338107648299588
 30
0
 11
0.9435256952859868
 21
0.4278107648299588
 31
0
  0
LINE
  8
0
 62
7
 10
0.9435256952859868
 20
0.4278107648299588
 30
0
 11
0.9516256952859868
 21
0.4218107648299588
 31
0
  0
LINE
  8
0
 62
7
 10
0.9516256952859868
 20
0.4218107648299588
 30
0
 11
0.9597256952859869
 21
0.4188107648299588
 31
0
  0
LINE
  8
0
 62
7
 10
0.9597256952859869
 20
0.4188107648299588
 30
0
 11
0.975925695285987
 21
0.4188107648299588
 31
0
  0
LINE
  8
0
 62
7
 10
0.975925695285987
 20
0.4188107648299588
 30
0
 11
0.9840256952859869
 21
0.4218107648299588
 31
0
  0
LINE
  8
0
 62
7
 10
0.9840256952859869
 20
0.4218107648299588
 30
0
 11
0.9921256952859869
 21
0.4278107648299588
 31
0
  0
LINE
  8
0
 62
7
 10
0.9921256952859869
 20
0.4278107648299588
 30
0
 11
0.9975256952859868
 21
0.4338107648299588
 31
0
  0
LINE
  8
0
 62
7
 10
0.9975256952859868
 20
0.4338107648299588
 30
0
 11
1.002925695285987
 21
0.4428107648299588
 31
0
  0
LINE
  8
0
 62
7
 10
1.002925695285987
 20
0.4428107648299588
 30
0
 11
1.005625695285987
 21
0.4548107648299589
 31
0
  0
LINE
  8
0
 62
7
 10
1.005625695285987
 20
0.4548107648299589
 30
0
 11
1.005625695285987
 21
0.5028107648299588
 31
0
  0
LINE
  8
0
 62
7
 10
1.005625695285987
 20
0.5028107648299588
 30
0
 11
1.002925695285987
 21
0.5148107648299588
 31
0
  0
LINE
  8
0
 62
7
 10
1.002925695285987
 20
0.5148107648299588
 30
0
 11
0.9975256952859868
 21
0.5238107648299588
 31
0
  0
LINE
  8
0
 62
7
 10
0.9975256952859868
 20
0.5238107648299588
 30
0
 11
0.9921256952859869
 21
0.5298107648299588
 31
0
  0
LINE
  8
0
 62
7
 10
0.9921256952859869
 20
0.5298107648299588
 30
0
 11
0.9840256952859869
 21
0.5358107648299588
 31
0
  0
LINE
  8
0
 62
7
 10
0.9840256952859869
 20
0.5358107648299588
 30
0
 11
0.975925695285987
 21
0.5388107648299588
 31
0
  0
LINE
  8
0
 62
7
 10
1.027225695285987
 20
0.5388107648299588
 30
0
 11
1.065025695285987
 21
0.5388107648299588
 31
0
  0
LINE
  8
0
 62
7
 10
1.065025695285987
 20
0.5388107648299588
 30
0
 11
1.065025695285987
 21
0.4188107648299588
 31
0
  0
LINE
  8
0
 62
7
 10
1.065025695285987
 20
0.5388107648299588
 30
0
 11
1.102825695285987
 21
0.5388107648299588
 31
0
  0
LINE
  8
0
 62
7
 10
1.135225695285987
 20
0.5388107648299588
 30
0
 11
1.173025695285987
 21
0.5388107648299588
 31
0
  0
LINE
  8
0
 62
7
 10
1.173025695285987
 20
0.5388107648299588
 30
0
 11
1.173025695285987
 21
0.4188107648299588
 31
0
  0
LINE
  8
0
 62
7
 10
1.173025695285987
 20
0.5388107648299588
 30
0
 11
1.210825695285987
 21
0.5388107648299588
 31
0
  0
LINE
  8
0
 62
7
 10
1.329625695285987
 20
0.4608107648299589
 30
0
 11
1.383625695285987
 21
0.4608107648299589
 31
0
  0
LINE
  8
0
 62
7
 10
1.491625695285987
 20
0.5388107648299588
 30
0
 11
1.529425695285987
 21
0.5388107648299588
 31
0
  0
LINE
  8
0
 62
7
 10
1.529425695285987
 20
0.5388107648299588
 30
0
 11
1.529425695285987
 21
0.4188107648299588
 31
0
  0
LINE
  8
0
 62
7
 10
1.529425695285987
 20
0.5388107648299588
 30
0
 11
1.567225695285987
 21
0.5388107648299588
 31
0
  0
LINE
  8
0
 62
7
 10
1.599625695285987
 20
0.4188107648299588
 30
0
 11
1.599625695285987
 21
0.5388107648299588
 31
0
  0
LINE
  8
0
 62
7
 10
1.599625695285987
 20
0.5388107648299588
 30
0
 11
1.650925695285987
 21
0.5388107648299588
 31
0
  0
LINE
  8
0
 62
7
 10
1.650925695285987
 20
0.5388107648299588
 30
0
 11
1.661725695285987
 21
0.5358107648299588
 31
0
  0
LINE
  8
0
 62
7
 10
1.661725695285987
 20
0.5358107648299588
 30
0
 11
1.669825695285987
 21
0.5298107648299588
 31
0
  0
LINE
  8
0
 62
7
 10
1.669825695285987
 20
0.5298107648299588
 30
0
 11
1.672525695285987
 21
0.5238107648299588
 31
0
  0
LINE
  8
0
 62
7
 10
1.672525695285987
 20
0.5238107648299588
 30
0
 11
1.675225695285987
 21
0.5148107648299588
 31
0
  0
LINE
  8
0
 62
7
 10
1.675225695285987
 20
0.5148107648299588
 30
0
 11
1.675225695285987
 21
0.5028107648299588
 31
0
  0
LINE
  8
0
 62
7
 10
1.675225695285987
 20
0.5028107648299588
 30
0
 11
1.672525695285987
 21
0.4938107648299588
 31
0
  0
LINE
  8
0
 62
7
 10
1.672525695285987
 20
0.4938107648299588
 30
0
 11
1.669825695285987
 21
0.4878107648299588
 31
0
  0
LINE
  8
0
 62
7
 10
1.669825695285987
 20
0.4878107648299588
 30
0
 11
1.661725695285987
 21
0.4818107648299588
 31
0
  0
LINE
  8
0
 62
7
 10
1.661725695285987
 20
0.4818107648299588
 30
0
 11
1.650925695285987
 21
0.4788107648299588
 31
0
  0
LINE
  8
0
 62
7
 10
1.650925695285987
 20
0.4788107648299588
 30
0
 11
1.642825695285987
 21
0.4788107648299588
 31
0
  0
LINE
  8
0
 62
7
 10
1.642825695285987
 20
0.4788107648299588
 30
0
 11
1.675225695285987
 21
0.4188107648299588
 31
0
  0
LINE
  8
0
 62
7
 10
1.642825695285987
 20
0.4788107648299588
 30
0
 11
1.599625695285987
 21
0.4788107648299588
 31
0
  0
LINE
  8
0
 62
7
 10
1.772425695285987
 20
0.5388107648299588
 30
0
 11
1.696825695285987
 21
0.5388107648299588
 31
0
  0
LINE
  8
0
 62
7
 10
1.696825695285987
 20
0.5388107648299588
 30
0
 11
1.696825695285987
 21
0.4788107648299588
 31
0
  0
LINE
  8
0
 62
7
 10
1.696825695285987
 20
0.4188107648299588
 30
0
 11
1.772425695285987
 21
0.4188107648299588
 31
0
  0
LINE
  8
0
 62
7
 10
1.761625695285987
 20
0.4788107648299588
 30
0
 11
1.696825695285987
 21
0.4788107648299588
 31
0
  0
LINE
  8
0
 62
7
 10
1.696825695285987
 20
0.4788107648299588
 30
0
 11
1.696825695285987
 21
0.4188107648299588
 31
0
  0
LINE
  8
0
 62
7
 10
1.804825695285987
 20
0.4188107648299588
 30
0
 11
1.804825695285987
 21
0.4788107648299588
 31
0
  0
LINE
  8
0
 62
7
 10
1.804825695285987
 20
0.5388107648299588
 30
0
 11
1.856125695285987
 21
0.5388107648299588
 31
0
  0
LINE
  8
0
 62
7
 10
1.856125695285987
 20
0.5388107648299588
 30
0
 11
1.866925695285987
 21
0.5358107648299588
 31
0
  0
LINE
  8
0
 62
7
 10
1.866925695285987
 20
0.5358107648299588
 30
0
 11
1.875025695285987
 21
0.5298107648299588
 31
0
  0
LINE
  8
0
 62
7
 10
1.875025695285987
 20
0.5298107648299588
 30
0
 11
1.877725695285987
 21
0.5238107648299588
 31
0
  0
LINE
  8
0
 62
7
 10
1.877725695285987
 20
0.5238107648299588
 30
0
 11
1.880425695285987
 21
0.5148107648299588
 31
0
  0
LINE
  8
0
 62
7
 10
1.880425695285987
 20
0.5148107648299588
 30
0
 11
1.880425695285987
 21
0.5028107648299588
 31
0
  0
LINE
  8
0
 62
7
 10
1.880425695285987
 20
0.5028107648299588
 30
0
 11
1.877725695285987
 21
0.4938107648299588
 31
0
  0
LINE
  8
0
 62
7
 10
1.877725695285987
 20
0.4938107648299588
 30
0
 11
1.875025695285987
 21
0.4878107648299588
 31
0
  0
LINE
  8
0
 62
7
 10
1.875025695285987
 20
0.4878107648299588
 30
0
 11
1.866925695285987
 21
0.4818107648299588
 31
0
  0
LINE
  8
0
 62
7
 10
1.866925695285987
 20
0.4818107648299588
 30
0
 11
1.856125695285987
 21
0.4788107648299588
 31
0
  0
LINE
  8
0
 62
7
 10
1.856125695285987
 20
0.4788107648299588
 30
0
 11
1.804825695285987
 21
0.4788107648299588
 31
0
  0
LINE
  8
0
 62
7
 10
1.804825695285987
 20
0.4788107648299588
 30
0
 11
1.804825695285987
 21
0.5388107648299588
 31
0
  0
LINE
  8
0
 62
7
 10
1.902025695285987
 20
0.4188107648299588
 30
0
 11
1.902025695285987
 21
0.4788107648299588
 31
0
  0
LINE
  8
0
 62
7
 10
1.902025695285987
 20
0.5388107648299588
 30
0
 11
1.953325695285987
 21
0.5388107648299588
 31
0
  0
LINE
  8
0
 62
7
 10
1.953325695285987
 20
0.5388107648299588
 30
0
 11
1.964125695285987
 21
0.5358107648299588
 31
0
  0
LINE
  8
0
 62
7
 10
1.964125695285987
 20
0.5358107648299588
 30
0
 11
1.972225695285987
 21
0.5298107648299588
 31
0
  0
LINE
  8
0
 62
7
 10
1.972225695285987
 20
0.5298107648299588
 30
0
 11
1.974925695285987
 21
0.5238107648299588
 31
0
  0
LINE
  8
0
 62
7
 10
1.974925695285987
 20
0.5238107648299588
 30
0
 11
1.977625695285987
 21
0.5148107648299588
 31
0
  0
LINE
  8
0
 62
7
 10
1.977625695285987
 20
0.5148107648299588
 30
0
 11
1.977625695285987
 21
0.5028107648299588
 31
0
  0
LINE
  8
0
 62
7
 10
1.977625695285987
 20
0.5028107648299588
 30
0
 11
1.974925695285987
 21
0.4938107648299588
 31
0
  0
LINE
  8
0
 62
7
 10
1.974925695285987
 20
0.4938107648299588
 30
0
 11
1.972225695285987
 21
0.4878107648299588
 31
0
  0
LINE
  8
0
 62
7
 10
1.972225695285987
 20
0.4878107648299588
 30
0
 11
1.964125695285987
 21
0.4818107648299588
 31
0
  0
LINE
  8
0
 62
7
 10
1.964125695285987
 20
0.4818107648299588
 30
0
 11
1.953325695285987
 21
0.4788107648299588
 31
0
  0
LINE
  8
0
 62
7
 10
1.953325695285987
 20
0.4788107648299588
 30
0
 11
1.902025695285987
 21
0.4788107648299588
 31
0
  0
LINE
  8
0
 62
7
 10
1.902025695285987
 20
0.4788107648299588
 30
0
 11
1.902025695285987
 21
0.5388107648299588
 31
0
  0
LINE
  8
0
 62
7
 10
2.074825695285987
 20
0.5388107648299588
 30
0
 11
1.999225695285987
 21
0.5388107648299588
 31
0
  0
LINE
  8
0
 62
7
 10
1.999225695285987
 20
0.5388107648299588
 30
0
 11
1.999225695285987
 21
0.4788107648299588
 31
0
  0
LINE
  8
0
 62
7
 10
1.999225695285987
 20
0.4188107648299588
 30
0
 11
2.074825695285987
 21
0.4188107648299588
 31
0
  0
LINE
  8
0
 62
7
 10
2.064025695285987
 20
0.4788107648299588
 30
0
 11
1.999225695285987
 21
0.4788107648299588
 31
0
  0
LINE
  8
0
 62
7
 10
1.999225695285987
 20
0.4788107648299588
 30
0
 11
1.999225695285987
 21
0.4188107648299588
 31
0
  0
LINE
  8
0
 62
7
 10
0.8012521715238985
 20
-0.08000000000000002
 30
0
 11
0.8768521715238985
 21
-0.08000000000000002
 31
0
  0
LINE
  8
0
 62
7
 10
0.8768521715238985
 20
-0.08000000000000002
 30
0
 11
0.8012521715238985
 21
-0.2
 31
0
  0
LINE
  8
0
 62
7
 10
0.8012521715238985
 20
-0.2
 30
0
 11
0.8768521715238985
 21
-0.2
 31
0
  0
LINE
  8
0
 62
7
 10
0.9821521715238986
 20
-0.09200000000000003
 30
0
 11
0.9740521715238984
 21
-0.08600000000000001
 31
0
  0
LINE
  8
0
 62
7
 10
0.9740521715238984
 20
-0.08600000000000001
 30
0
 11
0.9659521715238987
 21
-0.08300000000000002
 31
0
  0
LINE
  8
0
 62
7
 10
0.9659521715238987
 20
-0.08300000000000002
 30
0
 11
0.9524521715238985
 21
-0.08000000000000002
 31
0
  0
LINE
  8
0
 62
7
 10
0.9524521715238985
 20
-0.08000000000000002
 30
0
 11
0.9416521715238985
 21
-0.08000000000000002
 31
0
  0
LINE
  8
0
 62
7
 10
0.9416521715238985
 20
-0.08000000000000002
 30
0
 11
0.9308521715238985
 21
-0.08300000000000002
 31
0
  0
LINE
  8
0
 62
7
 10
0.9308521715238985
 20
-0.08300000000000002
 30
0
 11
0.9227521715238984
 21
-0.08600000000000001
 31
0
  0
LINE
  8
0
 62
7
 10
0.9227521715238984
 20
-0.08600000000000001
 30
0
 11
0.9146521715238984
 21
-0.09200000000000003
 31
0
  0
LINE
  8
0
 62
7
 10
0.9146521715238984
 20
-0.09200000000000003
 30
0
 11
0.9119521715238985
 21
-0.101
 31
0
  0
LINE
  8
0
 62
7
 10
0.9119521715238985
 20
-0.101
 30
0
 11
0.9119521715238985
 21
-0.107
 31
0
  0
LINE
  8
0
 62
7
 10
0.9119521715238985
 20
-0.107
 30
0
 11
0.9146521715238984
 21
-0.116
 31
0
  0
LINE
  8
0
 62
7
 10
0.9146521715238984
 20
-0.116
 30
0
 11
0.9227521715238984
 21
-0.122
 31
0
  0
LINE
  8
0
 62
7
 10
0.9227521715238984
 20
-0.122
 30
0
 11
0.9686521715238986
 21
-0.143
 31
0
  0
LINE
  8
0
 62
7
 10
0.9686521715238986
 20
-0.143
 30
0
 11
0.9767521715238985
 21
-0.149
 31
0
  0
LINE
  8
0
 62
7
 10
0.9767521715238985
 20
-0.149
 30
0
 11
0.9821521715238986
 21
-0.158
 31
0
  0
LINE
  8
0
 62
7
 10
0.9821521715238986
 20
-0.158
 30
0
 11
0.9848521715238987
 21
-0.167
 31
0
  0
LINE
  8
0
 62
7
 10
0.9848521715238987
 20
-0.167
 30
0
 11
0.9848521715238987
 21
-0.173
 31
0
  0
LINE
  8
0
 62
7
 10
0.9848521715238987
 20
-0.173
 30
0
 11
0.9821521715238986
 21
-0.182
 31
0
  0
LINE
  8
0
 62
7
 10
0.9821521715238986
 20
-0.182
 30
0
 11
0.9767521715238985
 21
-0.191
 31
0
  0
LINE
  8
0
 62
7
 10
0.9767521715238985
 20
-0.191
 30
0
 11
0.9686521715238986
 21
-0.197
 31
0
  0
LINE
  8
0
 62
7
 10
0.9686521715238986
 20
-0.197
 30
0
 11
0.9551521715238984
 21
-0.2
 31
0
  0
LINE
  8
0
 62
7
 10
0.9551521715238984
 20
-0.2
 30
0
 11
0.9389521715238985
 21
-0.2
 31
0
  0
LINE
  8
0
 62
7
 10
0.9389521715238985
 20
-0.2
 30
0
 11
0.9254521715238986
 21
-0.197
 31
0
  0
LINE
  8
0
 62
7
 10
0.9254521715238986
 20
-0.197
 30
0
 11
0.9146521715238984
 21
-0.191
 31
0
  0
LINE
  8
0
 62
7
 10
0.9146521715238984
 20
-0.191
 30
0
 11
0.9092521715238986
 21
-0.185
 31
0
  0
LINE
  8
0
 62
7
 10
1.052352171523899
 20
-0.2
 30
0
 11
1.036152171523898
 21
-0.2
 31
0
  0
LINE
  8
0
 62
7
 10
1.036152171523898
 20
-0.2
 30
0
 11
1.028052171523898
 21
-0.197
 31
0
  0
LINE
  8
0
 62
7
 10
1.028052171523898
 20
-0.197
 30
0
 11
1.019952171523898
 21
-0.191
 31
0
  0
LINE
  8
0
 62
7
 10
1.019952171523898
 20
-0.191
 30
0
 11
1.014552171523898
 21
-0.185
 31
0
  0
LINE
  8
0
 62
7
 10
1.014552171523898
 20
-0.185
 30
0
 11
1.009152171523899
 21
-0.176
 31
0
  0
LINE
  8
0
 62
7
 10
1.009152171523899
 20
-0.176
 30
0
 11
1.006452171523898
 21
-0.164
 31
0
  0
LINE
  8
0
 62
7
 10
1.006452171523898
 20
-0.164
 30
0
 11
1.006452171523898
 21
-0.116
 31
0
  0
LINE
  8
0
 62
7
 10
1.006452171523898
 20
-0.116
 30
0
 11
1.009152171523899
 21
-0.104
 31
0
  0
LINE
  8
0
 62
7
 10
1.009152171523899
 20
-0.104
 30
0
 11
1.014552171523898
 21
-0.09500000000000001
 31
0
  0
LINE
  8
0
 62
7
 10
1.014552171523898
 20
-0.09500000000000001
 30
0
 11
1.019952171523898
 21
-0.08900000000000001
 31
0
  0
LINE
  8
0
 62
7
 10
1.019952171523898
 20
-0.08900000000000001
 30
0
 11
1.028052171523898
 21
-0.08300000000000002
 31
0
  0
LINE
  8
0
 62
7
 10
1.028052171523898
 20
-0.08300000000000002
 30
0
 11
1.036152171523898
 21
-0.08000000000000002
 31
0
  0
LINE
  8
0
 62
7
 10
1.036152171523898
 20
-0.08000000000000002
 30
0
 11
1.052352171523899
 21
-0.08000000000000002
 31
0
  0
LINE
  8
0
 62
7
 10
1.052352171523899
 20
-0.08000000000000002
 30
0
 11
1.060452171523899
 21
-0.08300000000000002
 31
0
  0
LINE
  8
0
 62
7
 10
1.060452171523899
 20
-0.08300000000000002
 30
0
 11
1.068552171523898
 21
-0.08900000000000001
 31
0
  0
LINE
  8
0
 62
7
 10
1.068552171523898
 20
-0.08900000000000001
 30
0
 11
1.073952171523898
 21
-0.09500000000000001
 31
0
  0
LINE
  8
0
 62
7
 10
1.073952171523898
 20
-0.09500000000000001
 30
0
 11
1.079352171523899
 21
-0.104
 31
0
  0
LINE
  8
0
 62
7
 10
1.079352171523899
 20
-0.104
 30
0
 11
1.082052171523898
 21
-0.116
 31
0
  0
LINE
  8
0
 62
7
 10
1.082052171523898
 20
-0.116
 30
0
 11
1.082052171523898
 21
-0.164
 31
0
  0
LINE
  8
0
 62
7
 10
1.082052171523898
 20
-0.164
 30
0
 11
1.079352171523899
 21
-0.176
 31
0
  0
LINE
  8
0
 62
7
 10
1.079352171523899
 20
-0.176
 30
0
 11
1.073952171523898
 21
-0.185
 31
0
  0
LINE
  8
0
 62
7
 10
1.073952171523898
 20
-0.185
 30
0
 11
1.068552171523898
 21
-0.191
 31
0
  0
LINE
  8
0
 62
7
 10
1.068552171523898
 20
-0.191
 30
0
 11
1.060452171523899
 21
-0.197
 31
0
  0
LINE
  8
0
 62
7
 10
1.060452171523899
 20
-0.197
 30
0
 11
1.052352171523899
 21
-0.2
 31
0
  0
LINE
  8
0
 62
7
 10
1.060452171523899
 20
-0.176
 30
0
 11
1.082052171523898
 21
-0.2
 31
0
  0
LINE
  8
0
 62
7
 10
1.114452171523898
 20
-0.098
 30
0
 11
1.119852171523899
 21
-0.08900000000000001
 31
0
  0
LINE
  8
0
 62
7
 10
1.119852171523899
 20
-0.08900000000000001
 30
0
 11
1.127952171523899
 21
-0.08300000000000002
 31
0
  0
LINE
  8
0
 62
7
 10
1.127952171523899
 20
-0.08300000000000002
 30
0
 11
1.138752171523898
 21
-0.08000000000000002
 31
0
  0
LINE
  8
0
 62
7
 10
1.138752171523898
 20
-0.08000000000000002
 30
0
 11
1.154952171523898
 21
-0.08000000000000002
 31
0
  0
LINE
  8
0
 62
7
 10
1.154952171523898
 20
-0.08000000000000002
 30
0
 11
1.165752171523898
 21
-0.08300000000000002
 31
0
  0
LINE
  8
0
 62
7
 10
1.165752171523898
 20
-0.08300000000000002
 30
0
 11
1.173852171523899
 21
-0.08900000000000001
 31
0
  0
LINE
  8
0
 62
7
 10
1.173852171523899
 20
-0.08900000000000001
 30
0
 11
1.179252171523898
 21
-0.098
 31
0
  0
LINE
  8
0
 62
7
 10
1.179252171523898
 20
-0.098
 30
0
 11
1.179252171523898
 21
-0.11
 31
0
  0
LINE
  8
0
 62
7
 10
1.179252171523898
 20
-0.11
 30
0
 11
1.173852171523899
 21
-0.122
 31
0
  0
LINE
  8
0
 62
7
 10
1.173852171523899
 20
-0.122
 30
0
 11
1.114452171523898
 21
-0.2
 31
0
  0
LINE
  8
0
 62
7
 10
1.114452171523898
 20
-0.2
 30
0
 11
1.179252171523898
 21
-0.2
 31
0
  0
LINE
  8
0
 62
7
 10
1.211652171523898
 20
-0.11
 30
0
 11
1.214352171523898
 21
-0.098
 31
0
  0
LINE
  8
0
 62
7
 10
1.214352171523898
 20
-0.098
 30
0
 11
1.219752171523898
 21
-0.08900000000000001
 31
0
  0
LINE
  8
0
 62
7
 10
1.219752171523898
 20
-0.08900000000000001
 30
0
 11
1.227852171523898
 21
-0.08300000000000002
 31
0
  0
LINE
  8
0
 62
7
 10
1.227852171523898
 20
-0.08300000000000002
 30
0
 11
1.235952171523898
 21
-0.08000000000000002
 31
0
  0
LINE
  8
0
 62
7
 10
1.235952171523898
 20
-0.08000000000000002
 30
0
 11
1.252152171523898
 21
-0.08000000000000002
 31
0
  0
LINE
  8
0
 62
7
 10
1.252152171523898
 20
-0.08000000000000002
 30
0
 11
1.260252171523898
 21
-0.08300000000000002
 31
0
  0
LINE
  8
0
 62
7
 10
1.260252171523898
 20
-0.08300000000000002
 30
0
 11
1.268352171523898
 21
-0.08900000000000001
 31
0
  0
LINE
  8
0
 62
7
 10
1.268352171523898
 20
-0.08900000000000001
 30
0
 11
1.273752171523898
 21
-0.098
 31
0
  0
LINE
  8
0
 62
7
 10
1.273752171523898
 20
-0.098
 30
0
 11
1.276452171523898
 21
-0.11
 31
0
  0
LINE
  8
0
 62
7
 10
1.276452171523898
 20
-0.11
 30
0
 11
1.276452171523898
 21
-0.17
 31
0
  0
LINE
  8
0
 62
7
 10
1.276452171523898
 20
-0.17
 30
0
 11
1.273752171523898
 21
-0.182
 31
0
  0
LINE
  8
0
 62
7
 10
1.273752171523898
 20
-0.182
 30
0
 11
1.268352171523898
 21
-0.191
 31
0
  0
LINE
  8
0
 62
7
 10
1.268352171523898
 20
-0.191
 30
0
 11
1.260252171523898
 21
-0.197
 31
0
  0
LINE
  8
0
 62
7
 10
1.260252171523898
 20
-0.197
 30
0
 11
1.252152171523898
 21
-0.2
 31
0
  0
LINE
  8
0
 62
7
 10
1.252152171523898
 20
-0.2
 30
0
 11
1.235952171523898
 21
-0.2
 31
0
  0
LINE
  8
0
 62
7
 10
1.235952171523898
 20
-0.2
 30
0
 11
1.227852171523898
 21
-0.197
 31
0
  0
LINE
  8
0
 62
7
 10
1.227852171523898
 20
-0.197
 30
0
 11
1.219752171523898
 21
-0.191
 31
0
  0
LINE
  8
0
 62
7
 10
1.219752171523898
 20
-0.191
 30
0
 11
1.214352171523898
 21
-0.182
 31
0
  0
LINE
  8
0
 62
7
 10
1.214352171523898
 20
-0.182
 30
0
 11
1.211652171523898
 21
-0.17
 31
0
  0
LINE
  8
0
 62
7
 10
1.211652171523898
 20
-0.17
 30
0
 11
1.211652171523898
 21
-0.11
 31
0
  0
LINE
  8
0
 62
7
 10
1.308852171523898
 20
-0.11
 30
0
 11
1.311552171523898
 21
-0.098
 31
0
  0
LINE
  8
0
 62
7
 10
1.311552171523898
 20
-0.098
 30
0
 11
1.316952171523898
 21
-0.08900000000000001
 31
0
  0
LINE
  8
0
 62
7
 10
1.316952171523898
 20
-0.08900000000000001
 30
0
 11
1.325052171523898
 21
-0.08300000000000002
 31
0
  0
LINE
  8
0
 62
7
 10
1.325052171523898
 20
-0.08300000000000002
 30
0
 11
1.333152171523898
 21
-0.08000000000000002
 31
0
  0
LINE
  8
0
 62
7
 10
1.333152171523898
 20
-0.08000000000000002
 30
0
 11
1.349352171523898
 21
-0.08000000000000002
 31
0
  0
LINE
  8
0
 62
7
 10
1.349352171523898
 20
-0.08000000000000002
 30
0
 11
1.357452171523898
 21
-0.08300000000000002
 31
0
  0
LINE
  8
0
 62
7
 10
1.357452171523898
 20
-0.08300000000000002
 30
0
 11
1.365552171523898
 21
-0.08900000000000001
 31
0
  0
LINE
  8
0
 62
7
 10
1.365552171523898
 20
-0.08900000000000001
 30
0
 11
1.370952171523898
 21
-0.098
 31
0
  0
LINE
  8
0
 62
7
 10
1.370952171523898
 20
-0.098
 30
0
 11
1.373652171523898
 21
-0.11
 31
0
  0
LINE
  8
0
 62
7
 10
1.373652171523898
 20
-0.11
 30
0
 11
1.373652171523898
 21
-0.17
 31
0
  0
LINE
  8
0
 62
7
 10
1.373652171523898
 20
-0.17
 30
0
 11
1.370952171523898
 21
-0.182
 31
0
  0
LINE
  8
0
 62
7
 10
1.370952171523898
 20
-0.182
 30
0
 11
1.365552171523898
 21
-0.191
 31
0
  0
LINE
  8
0
 62
7
 10
1.365552171523898
 20
-0.191
 30
0
 11
1.357452171523898
 21
-0.197
 31
0
  0
LINE
  8
0
 62
7
 10
1.357452171523898
 20
-0.197
 30
0
 11
1.349352171523898
 21
-0.2
 31
0
  0
LINE
  8
0
 62
7
 10
1.349352171523898
 20
-0.2
 30
0
 11
1.333152171523898
 21
-0.2
 31
0
  0
LINE
  8
0
 62
7
 10
1.333152171523898
 20
-0.2
 30
0
 11
1.325052171523898
 21
-0.197
 31
0
  0
LINE
  8
0
 62
7
 10
1.325052171523898
 20
-0.197
 30
0
 11
1.316952171523898
 21
-0.191
 31
0
  0
LINE
  8
0
 62
7
 10
1.316952171523898
 20
-0.191
 30
0
 11
1.311552171523898
 21
-0.182
 31
0
  0
LINE
  8
0
 62
7
 10
1.311552171523898
 20
-0.182
 30
0
 11
1.308852171523898
 21
-0.17
 31
0
  0
LINE
  8
0
 62
7
 10
1.308852171523898
 20
-0.17
 30
0
 11
1.308852171523898
 21
-0.11
 31
0
  0
LINE
  8
0
 62
7
 10
1.406052171523898
 20
-0.2
 30
0
 11
1.406052171523898
 21
-0.08000000000000002
 31
0
  0
LINE
  8
0
 62
7
 10
1.406052171523898
 20
-0.08000000000000002
 30
0
 11
1.457352171523898
 21
-0.08000000000000002
 31
0
  0
LINE
  8
0
 62
7
 10
1.457352171523898
 20
-0.08000000000000002
 30
0
 11
1.468152171523898
 21
-0.08300000000000002
 31
0
  0
LINE
  8
0
 62
7
 10
1.468152171523898
 20
-0.08300000000000002
 30
0
 11
1.476252171523898
 21
-0.08900000000000001
 31
0
  0
LINE
  8
0
 62
7
 10
1.476252171523898
 20
-0.08900000000000001
 30
0
 11
1.478952171523898
 21
-0.09500000000000001
 31
0
  0
LINE
  8
0
 62
7
 10
1.478952171523898
 20
-0.09500000000000001
 30
0
 11
1.481652171523898
 21
-0.104
 31
0
  0
LINE
  8
0
 62
7
 10
1.481652171523898
 20
-0.104
 30
0
 11
1.481652171523898
 21
-0.116
 31
0
  0
LINE
  8
0
 62
7
 10
1.481652171523898
 20
-0.116
 30
0
 11
1.478952171523898
 21
-0.125
 31
0
  0
LINE
  8
0
 62
7
 10
1.478952171523898
 20
-0.125
 30
0
 11
1.476252171523898
 21
-0.131
 31
0
  0
LINE
  8
0
 62
7
 10
1.476252171523898
 20
-0.131
 30
0
 11
1.468152171523898
 21
-0.137
 31
0
  0
LINE
  8
0
 62
7
 10
1.468152171523898
 20
-0.137
 30
0
 11
1.457352171523898
 21
-0.14
 31
0
  0
LINE
  8
0
 62
7
 10
1.457352171523898
 20
-0.14
 30
0
 11
1.449252171523898
 21
-0.14
 31
0
  0
LINE
  8
0
 62
7
 10
1.449252171523898
 20
-0.14
 30
0
 11
1.481652171523898
 21
-0.2
 31
0
  0
LINE
  8
0
 62
7
 10
1.449252171523898
 20
-0.14
 30
0
 11
1.406052171523898
 21
-0.14
 31
0
  0
LINE
  8
0
 62
7
 10
1.562652171523899
 20
-0.08000000000000002
 30
0
 11
1.503252171523899
 21
-0.08000000000000002
 31
0
  0
LINE
  8
0
 62
7
 10
1.503252171523899
 20
-0.08000000000000002
 30
0
 11
1.503252171523899
 21
-0.14
 31
0
  0
LINE
  8
0
 62
7
 10
1.503252171523899
 20
-0.14
 30
0
 11
1.508652171523898
 21
-0.131
 31
0
  0
LINE
  8
0
 62
7
 10
1.508652171523898
 20
-0.131
 30
0
 11
1.516752171523898
 21
-0.125
 31
0
  0
LINE
  8
0
 62
7
 10
1.516752171523898
 20
-0.125
 30
0
 11
1.527552171523898
 21
-0.122
 31
0
  0
LINE
  8
0
 62
7
 10
1.527552171523898
 20
-0.122
 30
0
 11
1.543752171523898
 21
-0.122
 31
0
  0
LINE
  8
0
 62
7
 10
1.543752171523898
 20
-0.122
 30
0
 11
1.551852171523898
 21
-0.125
 31
0
  0
LINE
  8
0
 62
7
 10
1.551852171523898
 20
-0.125
 30
0
 11
1.559952171523898
 21
-0.131
 31
0
  0
LINE
  8
0
 62
7
 10
1.559952171523898
 20
-0.131
 30
0
 11
1.565352171523898
 21
-0.14
 31
0
  0
LINE
  8
0
 62
7
 10
1.565352171523898
 20
-0.14
 30
0
 11
1.568052171523898
 21
-0.152
 31
0
  0
LINE
  8
0
 62
7
 10
1.568052171523898
 20
-0.152
 30
0
 11
1.568052171523898
 21
-0.17
 31
0
  0
LINE
  8
0
 62
7
 10
1.568052171523898
 20
-0.17
 30
0
 11
1.565352171523898
 21
-0.182
 31
0
  0
LINE
  8
0
 62
7
 10
1.565352171523898
 20
-0.182
 30
0
 11
1.559952171523898
 21
-0.191
 31
0
  0
LINE
  8
0
 62
7
 10
1.559952171523898
 20
-0.191
 30
0
 11
1.551852171523898
 21
-0.197
 31
0
  0
LINE
  8
0
 62
7
 10
1.551852171523898
 20
-0.197
 30
0
 11
1.543752171523898
 21
-0.2
 31
0
  0
LINE
  8
0
 62
7
 10
1.543752171523898
 20
-0.2
 30
0
 11
1.527552171523898
 21
-0.2
 31
0
  0
LINE
  8
0
 62
7
 10
1.527552171523898
 20
-0.2
 30
0
 11
1.516752171523898
 21
-0.197
 31
0
  0
LINE
  8
0
 62
7
 10
1.516752171523898
 20
-0.197
 30
0
 11
1.508652171523898
 21
-0.191
 31
0
  0
LINE
  8
0
 62
7
 10
1.508652171523898
 20
-0.191
 30
0
 11
1.503252171523899
 21
-0.182
 31
0
  0
LINE
  8
0
 62
7
 10
3.001252171523898
 20
-0.2
 30
0
 11
3.001252171523898
 21
-0.1
 31
0
  0
LINE
  8
0
 62
7
 10
3.001252171523898
 20
-0.1
 30
0
 11
3.064252171523898
 21
-0.2
 31
0
  0
LINE
  8
0
 62
7
 10
3.064252171523898
 20
-0.2
 30
0
 11
3.064252171523898
 21
-0.1
 31
0
  0
LINE
  8
0
 62
7
 10
3.145252171523898
 20
-0.2
 30
0
 11
3.091252171523898
 21
-0.2
 31
0
  0
LINE
  8
0
 62
7
 10
3.091252171523898
 20
-0.2
 30
0
 11
3.091252171523898
 21
-0.1
 31
0
  0
LINE
  8
0
 62
7
 10
3.172252171523899
 20
-0.15
 30
0
 11
3.208252171523899
 21
-0.15
 31
0
  0
LINE
  8
0
 62
7
 10
3.208252171523899
 20
-0.15
 30
0
 11
3.212752171523899
 21
-0.15
 31
0
  0
LINE
  8
0
 62
7
 10
3.212752171523899
 20
-0.15
 30
0
 11
3.221752171523898
 21
-0.155
 31
0
  0
LINE
  8
0
 62
7
 10
3.221752171523898
 20
-0.155
 30
0
 11
3.226252171523898
 21
-0.16
 31
0
  0
LINE
  8
0
 62
7
 10
3.226252171523898
 20
-0.16
 30
0
 11
3.230752171523898
 21
-0.17
 31
0
  0
LINE
  8
0
 62
7
 10
3.230752171523898
 20
-0.17
 30
0
 11
3.230752171523898
 21
-0.18
 31
0
  0
LINE
  8
0
 62
7
 10
3.230752171523898
 20
-0.18
 30
0
 11
3.226252171523898
 21
-0.19
 31
0
  0
LINE
  8
0
 62
7
 10
3.226252171523898
 20
-0.19
 30
0
 11
3.221752171523898
 21
-0.195
 31
0
  0
LINE
  8
0
 62
7
 10
3.221752171523898
 20
-0.195
 30
0
 11
3.212752171523899
 21
-0.2
 31
0
  0
LINE
  8
0
 62
7
 10
3.212752171523899
 20
-0.2
 30
0
 11
3.172252171523899
 21
-0.2
 31
0
  0
LINE
  8
0
 62
7
 10
3.172252171523899
 20
-0.2
 30
0
 11
3.172252171523899
 21
-0.15
 31
0
  0
LINE
  8
0
 62
7
 10
3.172252171523899
 20
-0.1
 30
0
 11
3.206002171523899
 21
-0.1
 31
0
  0
LINE
  8
0
 62
7
 10
3.206002171523899
 20
-0.1
 30
0
 11
3.217252171523899
 21
-0.1025
 31
0
  0
LINE
  8
0
 62
7
 10
3.217252171523899
 20
-0.1025
 30
0
 11
3.224002171523898
 21
-0.11
 31
0
  0
LINE
  8
0
 62
7
 10
3.224002171523898
 20
-0.11
 30
0
 11
3.226252171523898
 21
-0.12
 31
0
  0
LINE
  8
0
 62
7
 10
3.226252171523898
 20
-0.12
 30
0
 11
3.226252171523898
 21
-0.13
 31
0
  0
LINE
  8
0
 62
7
 10
3.226252171523898
 20
-0.13
 30
0
 11
3.221752171523898
 21
-0.14
 31
0
  0
LINE
  8
0
 62
7
 10
3.221752171523898
 20
-0.14
 30
0
 11
3.215002171523898
 21
-0.1475
 31
0
  0
LINE
  8
0
 62
7
 10
3.215002171523898
 20
-0.1475
 30
0
 11
3.208252171523899
 21
-0.15
 31
0
  0
LINE
  8
0
 62
7
 10
3.172252171523899
 20
-0.15
 30
0
 11
3.172252171523899
 21
-0.1
 31
0
  0
LINE
  8
0
 62
7
 10
3.372502171523898
 20
-0.1475
 30
0
 11
3.365752171523899
 21
-0.1375
 31
0
  0
LINE
  8
0
 62
7
 10
3.365752171523899
 20
-0.1375
 30
0
 11
3.359002171523898
 21
-0.1325
 31
0
  0
LINE
  8
0
 62
7
 10
3.359002171523898
 20
-0.1325
 30
0
 11
3.3522521715239
 21
-0.13
 31
0
  0
LINE
  8
0
 62
7
 10
3.3522521715239
 20
-0.13
 30
0
 11
3.343252171523899
 21
-0.13
 31
0
  0
LINE
  8
0
 62
7
 10
3.343252171523899
 20
-0.13
 30
0
 11
3.336502171523898
 21
-0.1325
 31
0
  0
LINE
  8
0
 62
7
 10
3.336502171523898
 20
-0.1325
 30
0
 11
3.3297521715239
 21
-0.1375
 31
0
  0
LINE
  8
0
 62
7
 10
3.3297521715239
 20
-0.1375
 30
0
 11
3.323002171523898
 21
-0.1475
 31
0
  0
LINE
  8
0
 62
7
 10
3.323002171523898
 20
-0.1475
 30
0
 11
3.320752171523898
 21
-0.155
 31
0
  0
LINE
  8
0
 62
7
 10
3.320752171523898
 20
-0.155
 30
0
 11
3.320752171523898
 21
-0.175
 31
0
  0
LINE
  8
0
 62
7
 10
3.320752171523898
 20
-0.175
 30
0
 11
3.323002171523898
 21
-0.1825
 31
0
  0
LINE
  8
0
 62
7
 10
3.323002171523898
 20
-0.1825
 30
0
 11
3.3297521715239
 21
-0.1925
 31
0
  0
LINE
  8
0
 62
7
 10
3.3297521715239
 20
-0.1925
 30
0
 11
3.336502171523898
 21
-0.1975
 31
0
  0
LINE
  8
0
 62
7
 10
3.336502171523898
 20
-0.1975
 30
0
 11
3.343252171523899
 21
-0.2
 31
0
  0
LINE
  8
0
 62
7
 10
3.343252171523899
 20
-0.2
 30
0
 11
3.3522521715239
 21
-0.2
 31
0
  0
LINE
  8
0
 62
7
 10
3.3522521715239
 20
-0.2
 30
0
 11
3.359002171523898
 21
-0.1975
 31
0
  0
LINE
  8
0
 62
7
 10
3.359002171523898
 20
-0.1975
 30
0
 11
3.365752171523899
 21
-0.1925
 31
0
  0
LINE
  8
0
 62
7
 10
3.365752171523899
 20
-0.1925
 30
0
 11
3.372502171523898
 21
-0.1825
 31
0
  0
LINE
  8
0
 62
7
 10
3.444502171523898
 20
-0.155
 30
0
 11
3.442252171523899
 21
-0.1475
 31
0
  0
LINE
  8
0
 62
7
 10
3.442252171523899
 20
-0.1475
 30
0
 11
3.435502171523899
 21
-0.1375
 31
0
  0
LINE
  8
0
 62
7
 10
3.435502171523899
 20
-0.1375
 30
0
 11
3.428752171523898
 21
-0.1325
 31
0
  0
LINE
  8
0
 62
7
 10
3.428752171523898
 20
-0.1325
 30
0
 11
3.422002171523899
 21
-0.13
 31
0
  0
LINE
  8
0
 62
7
 10
3.422002171523899
 20
-0.13
 30
0
 11
3.413002171523898
 21
-0.13
 31
0
  0
LINE
  8
0
 62
7
 10
3.413002171523898
 20
-0.13
 30
0
 11
3.406252171523898
 21
-0.1325
 31
0
  0
LINE
  8
0
 62
7
 10
3.406252171523898
 20
-0.1325
 30
0
 11
3.399502171523899
 21
-0.1375
 31
0
  0
LINE
  8
0
 62
7
 10
3.399502171523899
 20
-0.1375
 30
0
 11
3.392752171523898
 21
-0.1475
 31
0
  0
LINE
  8
0
 62
7
 10
3.392752171523898
 20
-0.1475
 30
0
 11
3.390502171523898
 21
-0.155
 31
0
  0
LINE
  8
0
 62
7
 10
3.390502171523898
 20
-0.155
 30
0
 11
3.390502171523898
 21
-0.175
 31
0
  0
LINE
  8
0
 62
7
 10
3.390502171523898
 20
-0.175
 30
0
 11
3.392752171523898
 21
-0.1825
 31
0
  0
LINE
  8
0
 62
7
 10
3.392752171523898
 20
-0.1825
 30
0
 11
3.399502171523899
 21
-0.1925
 31
0
  0
LINE
  8
0
 62
7
 10
3.399502171523899
 20
-0.1925
 30
0
 11
3.406252171523898
 21
-0.1975
 31
0
  0
LINE
  8
0
 62
7
 10
3.406252171523898
 20
-0.1975
 30
0
 11
3.413002171523898
 21
-0.2
 31
0
  0
LINE
  8
0
 62
7
 10
3.413002171523898
 20
-0.2
 30
0
 11
3.422002171523899
 21
-0.2
 31
0
  0
LINE
  8
0
 62
7
 10
3.422002171523899
 20
-0.2
 30
0
 11
3.428752171523898
 21
-0.1975
 31
0
  0
LINE
  8
0
 62
7
 10
3.428752171523898
 20
-0.1975
 30
0
 11
3.435502171523899
 21
-0.1925
 31
0
  0
LINE
  8
0
 62
7
 10
3.435502171523899
 20
-0.1925
 30
0
 11
3.442252171523899
 21
-0.1825
 31
0
  0
LINE
  8
0
 62
7
 10
3.442252171523899
 20
-0.1825
 30
0
 11
3.444502171523898
 21
-0.175
 31
0
  0
LINE
  8
0
 62
7
 10
3.444502171523898
 20
-0.13
 30
0
 11
3.444502171523898
 21
-0.155
 31
0
  0
LINE
  8
0
 62
7
 10
3.444502171523898
 20
-0.1975
 30
0
 11
3.446752171523898
 21
-0.2
 31
0
  0
LINE
  8
0
 62
7
 10
3.446752171523898
 20
-0.2
 30
0
 11
3.449002171523898
 21
-0.2
 31
0
  0
LINE
  8
0
 62
7
 10
3.444502171523898
 20
-0.175
 30
0
 11
3.444502171523898
 21
-0.1975
 31
0
  0
LINE
  8
0
 62
7
 10
3.444502171523898
 20
-0.155
 30
0
 11
3.444502171523898
 21
-0.175
 31
0
  0
LINE
  8
0
 62
7
 10
3.467002171523898
 20
-0.2
 30
0
 11
3.467002171523898
 21
-0.1975
 31
0
  0
LINE
  8
0
 62
7
 10
3.467002171523898
 20
-0.1975
 30
0
 11
3.469252171523898
 21
-0.1975
 31
0
  0
LINE
  8
0
 62
7
 10
3.469252171523898
 20
-0.1975
 30
0
 11
3.469252171523898
 21
-0.2
 31
0
  0
LINE
  8
0
 62
7
 10
3.469252171523898
 20
-0.2
 30
0
 11
3.467002171523898
 21
-0.2
 31
0
  0
LINE
  8
0
 62
7
 10
3.593002171523898
 20
-0.1
 30
0
 11
3.602002171523898
 21
-0.1
 31
0
  0
LINE
  8
0
 62
7
 10
3.602002171523898
 20
-0.1
 30
0
 11
3.608752171523898
 21
-0.1025
 31
0
  0
LINE
  8
0
 62
7
 10
3.608752171523898
 20
-0.1025
 30
0
 11
3.613252171523898
 21
-0.1075
 31
0
  0
LINE
  8
0
 62
7
 10
3.613252171523898
 20
-0.1075
 30
0
 11
3.617752171523898
 21
-0.115
 31
0
  0
LINE
  8
0
 62
7
 10
3.617752171523898
 20
-0.115
 30
0
 11
3.617752171523898
 21
-0.125
 31
0
  0
LINE
  8
0
 62
7
 10
3.617752171523898
 20
-0.125
 30
0
 11
3.615502171523898
 21
-0.13
 31
0
  0
LINE
  8
0
 62
7
 10
3.615502171523898
 20
-0.13
 30
0
 11
3.608752171523898
 21
-0.1375
 31
0
  0
LINE
  8
0
 62
7
 10
3.608752171523898
 20
-0.1375
 30
0
 11
3.602002171523898
 21
-0.14
 31
0
  0
LINE
  8
0
 62
7
 10
3.602002171523898
 20
-0.14
 30
0
 11
3.593002171523898
 21
-0.14
 31
0
  0
LINE
  8
0
 62
7
 10
3.593002171523898
 20
-0.14
 30
0
 11
3.586252171523898
 21
-0.1375
 31
0
  0
LINE
  8
0
 62
7
 10
3.586252171523898
 20
-0.1375
 30
0
 11
3.579502171523898
 21
-0.13
 31
0
  0
LINE
  8
0
 62
7
 10
3.579502171523898
 20
-0.13
 30
0
 11
3.5772521715239
 21
-0.125
 31
0
  0
LINE
  8
0
 62
7
 10
3.5772521715239
 20
-0.125
 30
0
 11
3.5772521715239
 21
-0.115
 31
0
  0
LINE
  8
0
 62
7
 10
3.5772521715239
 20
-0.115
 30
0
 11
3.581752171523898
 21
-0.1075
 31
0
  0
LINE
  8
0
 62
7
 10
3.581752171523898
 20
-0.1075
 30
0
 11
3.586252171523898
 21
-0.1025
 31
0
  0
LINE
  8
0
 62
7
 10
3.586252171523898
 20
-0.1025
 30
0
 11
3.593002171523898
 21
-0.1
 31
0
  0
LINE
  8
0
 62
7
 10
3.593002171523898
 20
-0.14
 30
0
 11
3.581752171523898
 21
-0.145
 31
0
  0
LINE
  8
0
 62
7
 10
3.581752171523898
 20
-0.145
 30
0
 11
3.575002171523898
 21
-0.1525
 31
0
  0
LINE
  8
0
 62
7
 10
3.575002171523898
 20
-0.1525
 30
0
 11
3.570502171523898
 21
-0.1625
 31
0
  0
LINE
  8
0
 62
7
 10
3.570502171523898
 20
-0.1625
 30
0
 11
3.570502171523898
 21
-0.1775
 31
0
  0
LINE
  8
0
 62
7
 10
3.570502171523898
 20
-0.1775
 30
0
 11
3.575002171523898
 21
-0.1875
 31
0
  0
LINE
  8
0
 62
7
 10
3.575002171523898
 20
-0.1875
 30
0
 11
3.581752171523898
 21
-0.195
 31
0
  0
LINE
  8
0
 62
7
 10
3.581752171523898
 20
-0.195
 30
0
 11
3.590752171523899
 21
-0.2
 31
0
  0
LINE
  8
0
 62
7
 10
3.590752171523899
 20
-0.2
 30
0
 11
3.604252171523898
 21
-0.2
 31
0
  0
LINE
  8
0
 62
7
 10
3.604252171523898
 20
-0.2
 30
0
 11
3.613252171523898
 21
-0.195
 31
0
  0
LINE
  8
0
 62
7
 10
3.613252171523898
 20
-0.195
 30
0
 11
3.620002171523898
 21
-0.1875
 31
0
  0
LINE
  8
0
 62
7
 10
3.620002171523898
 20
-0.1875
 30
0
 11
3.624502171523899
 21
-0.1775
 31
0
  0
LINE
  8
0
 62
7
 10
3.624502171523899
 20
-0.1775
 30
0
 11
3.624502171523899
 21
-0.1625
 31
0
  0
LINE
  8
0
 62
7
 10
3.624502171523899
 20
-0.1625
 30
0
 11
3.620002171523898
 21
-0.1525
 31
0
  0
LINE
  8
0
 62
7
 10
3.620002171523898
 20
-0.1525
 30
0
 11
3.613252171523898
 21
-0.145
 31
0
  0
LINE
  8
0
 62
7
 10
3.613252171523898
 20
-0.145
 30
0
 11
3.602002171523898
 21
-0.14
 31
0
  0
LINE
  8
0
 62
7
 10
3.660502171523898
 20
-0.125
 30
0
 11
3.662752171523898
 21
-0.115
 31
0
  0
LINE
  8
0
 62
7
 10
3.662752171523898
 20
-0.115
 30
0
 11
3.667252171523899
 21
-0.1075
 31
0
  0
LINE
  8
0
 62
7
 10
3.667252171523899
 20
-0.1075
 30
0
 11
3.674002171523898
 21
-0.1025
 31
0
  0
LINE
  8
0
 62
7
 10
3.674002171523898
 20
-0.1025
 30
0
 11
3.680752171523899
 21
-0.1
 31
0
  0
LINE
  8
0
 62
7
 10
3.680752171523899
 20
-0.1
 30
0
 11
3.694252171523898
 21
-0.1
 31
0
  0
LINE
  8
0
 62
7
 10
3.694252171523898
 20
-0.1
 30
0
 11
3.701002171523899
 21
-0.1025
 31
0
  0
LINE
  8
0
 62
7
 10
3.701002171523899
 20
-0.1025
 30
0
 11
3.707752171523898
 21
-0.1075
 31
0
  0
LINE
  8
0
 62
7
 10
3.707752171523898
 20
-0.1075
 30
0
 11
3.712252171523899
 21
-0.115
 31
0
  0
LINE
  8
0
 62
7
 10
3.712252171523899
 20
-0.115
 30
0
 11
3.714502171523899
 21
-0.125
 31
0
  0
LINE
  8
0
 62
7
 10
3.714502171523899
 20
-0.125
 30
0
 11
3.714502171523899
 21
-0.175
 31
0
  0
LINE
  8
0
 62
7
 10
3.714502171523899
 20
-0.175
 30
0
 11
3.712252171523899
 21
-0.185
 31
0
  0
LINE
  8
0
 62
7
 10
3.712252171523899
 20
-0.185
 30
0
 11
3.707752171523898
 21
-0.1925
 31
0
  0
LINE
  8
0
 62
7
 10
3.707752171523898
 20
-0.1925
 30
0
 11
3.701002171523899
 21
-0.1975
 31
0
  0
LINE
  8
0
 62
7
 10
3.701002171523899
 20
-0.1975
 30
0
 11
3.694252171523898
 21
-0.2
 31
0
  0
LINE
  8
0
 62
7
 10
3.694252171523898
 20
-0.2
 30
0
 11
3.680752171523899
 21
-0.2
 31
0
  0
LINE
  8
0
 62
7
 10
3.680752171523899
 20
-0.2
 30
0
 11
3.674002171523898
 21
-0.1975
 31
0
  0
LINE
  8
0
 62
7
 10
3.674002171523898
 20
-0.1975
 30
0
 11
3.667252171523899
 21
-0.1925
 31
0
  0
LINE
  8
0
 62
7
 10
3.667252171523899
 20
-0.1925
 30
0
 11
3.662752171523898
 21
-0.185
 31
0
  0
LINE
  8
0
 62
7
 10
3.662752171523898
 20
-0.185
 30
0
 11
3.660502171523898
 21
-0.175
 31
0
  0
LINE
  8
0
 62
7
 10
3.660502171523898
 20
-0.175
 30
0
 11
3.660502171523898
 21
-0.125
 31
0
  0
LINE
  8
0
 62
7
 10
3.865252171523899
 20
-0.1475
 30
0
 11
3.8585021715239
 21
-0.1375
 31
0
  0
LINE
  8
0
 62
7
 10
3.8585021715239
 20
-0.1375
 30
0
 11
3.851752171523898
 21
-0.1325
 31
0
  0
LINE
  8
0
 62
7
 10
3.851752171523898
 20
-0.1325
 30
0
 11
3.845002171523898
 21
-0.13
 31
0
  0
LINE
  8
0
 62
7
 10
3.845002171523898
 20
-0.13
 30
0
 11
3.8360021715239
 21
-0.13
 31
0
  0
LINE
  8
0
 62
7
 10
3.8360021715239
 20
-0.13
 30
0
 11
3.829252171523899
 21
-0.1325
 31
0
  0
LINE
  8
0
 62
7
 10
3.829252171523899
 20
-0.1325
 30
0
 11
3.822502171523898
 21
-0.1375
 31
0
  0
LINE
  8
0
 62
7
 10
3.822502171523898
 20
-0.1375
 30
0
 11
3.815752171523899
 21
-0.1475
 31
0
  0
LINE
  8
0
 62
7
 10
3.815752171523899
 20
-0.1475
 30
0
 11
3.813502171523899
 21
-0.155
 31
0
  0
LINE
  8
0
 62
7
 10
3.813502171523899
 20
-0.155
 30
0
 11
3.813502171523899
 21
-0.175
 31
0
  0
LINE
  8
0
 62
7
 10
3.813502171523899
 20
-0.175
 30
0
 11
3.815752171523899
 21
-0.1825
 31
0
  0
LINE
  8
0
 62
7
 10
3.815752171523899
 20
-0.1825
 30
0
 11
3.822502171523898
 21
-0.1925
 31
0
  0
LINE
  8
0
 62
7
 10
3.822502171523898
 20
-0.1925
 30
0
 11
3.829252171523899
 21
-0.1975
 31
0
  0
LINE
  8
0
 62
7
 10
3.829252171523899
 20
-0.1975
 30
0
 11
3.8360021715239
 21
-0.2
 31
0
  0
LINE
  8
0
 62
7
 10
3.8360021715239
 20
-0.2
 30
0
 11
3.845002171523898
 21
-0.2
 31
0
  0
LINE
  8
0
 62
7
 10
3.845002171523898
 20
-0.2
 30
0
 11
3.851752171523898
 21
-0.1975
 31
0
  0
LINE
  8
0
 62
7
 10
3.851752171523898
 20
-0.1975
 30
0
 11
3.8585021715239
 21
-0.1925
 31
0
  0
LINE
  8
0
 62
7
 10
3.8585021715239
 20
-0.1925
 30
0
 11
3.865252171523899
 21
-0.1825
 31
0
  0
LINE
  8
0
 62
7
 10
3.923752171523898
 20
-0.155
 30
0
 11
3.923752171523898
 21
-0.2
 31
0
  0
LINE
  8
0
 62
7
 10
3.883252171523898
 20
-0.13
 30
0
 11
3.883252171523898
 21
-0.155
 31
0
  0
LINE
  8
0
 62
7
 10
3.883252171523898
 20
-0.2
 30
0
 11
3.883252171523898
 21
-0.155
 31
0
  0
LINE
  8
0
 62
7
 10
3.883252171523898
 20
-0.155
 30
0
 11
3.885502171523898
 21
-0.1425
 31
0
  0
LINE
  8
0
 62
7
 10
3.885502171523898
 20
-0.1425
 30
0
 11
3.887752171523899
 21
-0.1375
 31
0
  0
LINE
  8
0
 62
7
 10
3.887752171523899
 20
-0.1375
 30
0
 11
3.8922521715239
 21
-0.1325
 31
0
  0
LINE
  8
0
 62
7
 10
3.8922521715239
 20
-0.1325
 30
0
 11
3.899002171523898
 21
-0.13
 31
0
  0
LINE
  8
0
 62
7
 10
3.899002171523898
 20
-0.13
 30
0
 11
3.908002171523899
 21
-0.13
 31
0
  0
LINE
  8
0
 62
7
 10
3.908002171523899
 20
-0.13
 30
0
 11
3.9147521715239
 21
-0.1325
 31
0
  0
LINE
  8
0
 62
7
 10
3.9147521715239
 20
-0.1325
 30
0
 11
3.919252171523898
 21
-0.1375
 31
0
  0
LINE
  8
0
 62
7
 10
3.919252171523898
 20
-0.1375
 30
0
 11
3.921502171523898
 21
-0.1425
 31
0
  0
LINE
  8
0
 62
7
 10
3.921502171523898
 20
-0.1425
 30
0
 11
3.923752171523898
 21
-0.155
 31
0
  0
LINE
  8
0
 62
7
 10
3.923752171523898
 20
-0.155
 30
0
 11
3.9260021715239
 21
-0.1425
 31
0
  0
LINE
  8
0
 62
7
 10
3.9260021715239
 20
-0.1425
 30
0
 11
3.928252171523899
 21
-0.1375
 31
0
  0
LINE
  8
0
 62
7
 10
3.928252171523899
 20
-0.1375
 30
0
 11
3.932752171523898
 21
-0.1325
 31
0
  0
LINE
  8
0
 62
7
 10
3.932752171523898
 20
-0.1325
 30
0
 11
3.939502171523898
 21
-0.13
 31
0
  0
LINE
  8
0
 62
7
 10
3.939502171523898
 20
-0.13
 30
0
 11
3.948502171523899
 21
-0.13
 31
0
  0
LINE
  8
0
 62
7
 10
3.948502171523899
 20
-0.13
 30
0
 11
3.955252171523898
 21
-0.1325
 31
0
  0
LINE
  8
0
 62
7
 10
3.959752171523899
 20
-0.1375
 30
0
 11
3.955252171523898
 21
-0.1325
 31
0
  0
LINE
  8
0
 62
7
 10
3.955252171523898
 20
-0.1325
 30
0
 11
3.959752171523899
 21
-0.1375
 31
0
  0
LINE
  8
0
 62
7
 10
3.959752171523899
 20
-0.1375
 30
0
 11
3.962002171523899
 21
-0.1425
 31
0
  0
LINE
  8
0
 62
7
 10
3.962002171523899
 20
-0.1425
 30
0
 11
3.964252171523899
 21
-0.155
 31
0
  0
LINE
  8
0
 62
7
 10
3.964252171523899
 20
-0.155
 30
0
 11
3.964252171523899
 21
-0.2
 31
0
  0
LINE
  8
0
 62
7
 10
4.054252171523898
 20
-0.175
 30
0
 11
4.056502171523898
 21
-0.1825
 31
0
  0
LINE
  8
0
 62
7
 10
4.056502171523898
 20
-0.1825
 30
0
 11
4.063252171523899
 21
-0.1925
 31
0
  0
LINE
  8
0
 62
7
 10
4.063252171523899
 20
-0.1925
 30
0
 11
4.070002171523898
 21
-0.1975
 31
0
  0
LINE
  8
0
 62
7
 10
4.070002171523898
 20
-0.1975
 30
0
 11
4.076752171523899
 21
-0.2
 31
0
  0
LINE
  8
0
 62
7
 10
4.076752171523899
 20
-0.2
 30
0
 11
4.085752171523898
 21
-0.2
 31
0
  0
LINE
  8
0
 62
7
 10
4.085752171523898
 20
-0.2
 30
0
 11
4.092502171523898
 21
-0.1975
 31
0
  0
LINE
  8
0
 62
7
 10
4.092502171523898
 20
-0.1975
 30
0
 11
4.099252171523898
 21
-0.1925
 31
0
  0
LINE
  8
0
 62
7
 10
4.099252171523898
 20
-0.1925
 30
0
 11
4.106002171523899
 21
-0.1825
 31
0
  0
LINE
  8
0
 62
7
 10
4.106002171523899
 20
-0.1825
 30
0
 11
4.108252171523898
 21
-0.175
 31
0
  0
LINE
  8
0
 62
7
 10
4.108252171523898
 20
-0.175
 30
0
 11
4.108252171523898
 21
-0.155
 31
0
  0
LINE
  8
0
 62
7
 10
4.108252171523898
 20
-0.155
 30
0
 11
4.106002171523899
 21
-0.1475
 31
0
  0
LINE
  8
0
 62
7
 10
4.106002171523899
 20
-0.1475
 30
0
 11
4.099252171523898
 21
-0.1375
 31
0
  0
LINE
  8
0
 62
7
 10
4.099252171523898
 20
-0.1375
 30
0
 11
4.092502171523898
 21
-0.1325
 31
0
  0
LINE
  8
0
 62
7
 10
4.092502171523898
 20
-0.1325
 30
0
 11
4.085752171523898
 21
-0.13
 31
0
  0
LINE
  8
0
 62
7
 10
4.085752171523898
 20
-0.13
 30
0
 11
4.076752171523899
 21
-0.13
 31
0
  0
LINE
  8
0
 62
7
 10
4.076752171523899
 20
-0.13
 30
0
 11
4.070002171523898
 21
-0.1325
 31
0
  0
LINE
  8
0
 62
7
 10
4.070002171523898
 20
-0.1325
 30
0
 11
4.063252171523899
 21
-0.1375
 31
0
  0
LINE
  8
0
 62
7
 10
4.063252171523899
 20
-0.1375
 30
0
 11
4.056502171523898
 21
-0.1475
 31
0
  0
LINE
  8
0
 62
7
 10
4.056502171523898
 20
-0.1475
 30
0
 11
4.054252171523898
 21
-0.155
 31
0
  0
LINE
  8
0
 62
7
 10
4.054252171523898
 20
-0.1
 30
0
 11
4.054252171523898
 21
-0.155
 31
0
  0
LINE
  8
0
 62
7
 10
4.054252171523898
 20
-0.155
 30
0
 11
4.054252171523898
 21
-0.2
 31
0
  0
LINE
  8
0
 62
7
 10
4.180252171523898
 20
-0.1825
 30
0
 11
4.173502171523899
 21
-0.1925
 31
0
  0
LINE
  8
0
 62
7
 10
4.173502171523899
 20
-0.1925
 30
0
 11
4.166752171523899
 21
-0.1975
 31
0
  0
LINE
  8
0
 62
7
 10
4.166752171523899
 20
-0.1975
 30
0
 11
4.157752171523899
 21
-0.2
 31
0
  0
LINE
  8
0
 62
7
 10
4.157752171523899
 20
-0.2
 30
0
 11
4.148752171523898
 21
-0.2
 31
0
  0
LINE
  8
0
 62
7
 10
4.148752171523898
 20
-0.2
 30
0
 11
4.142002171523898
 21
-0.1975
 31
0
  0
LINE
  8
0
 62
7
 10
4.142002171523898
 20
-0.1975
 30
0
 11
4.135252171523899
 21
-0.1925
 31
0
  0
LINE
  8
0
 62
7
 10
4.135252171523899
 20
-0.1925
 30
0
 11
4.128502171523899
 21
-0.1825
 31
0
  0
LINE
  8
0
 62
7
 10
4.128502171523899
 20
-0.1825
 30
0
 11
4.126252171523898
 21
-0.175
 31
0
  0
LINE
  8
0
 62
7
 10
4.126252171523898
 20
-0.175
 30
0
 11
4.126252171523898
 21
-0.165
 31
0
  0
LINE
  8
0
 62
7
 10
4.126252171523898
 20
-0.155
 30
0
 11
4.128502171523899
 21
-0.1475
 31
0
  0
LINE
  8
0
 62
7
 10
4.128502171523899
 20
-0.1475
 30
0
 11
4.135252171523899
 21
-0.1375
 31
0
  0
LINE
  8
0
 62
7
 10
4.135252171523899
 20
-0.1375
 30
0
 11
4.142002171523898
 21
-0.1325
 31
0
  0
LINE
  8
0
 62
7
 10
4.142002171523898
 20
-0.1325
 30
0
 11
4.148752171523898
 21
-0.13
 31
0
  0
LINE
  8
0
 62
7
 10
4.148752171523898
 20
-0.13
 30
0
 11
4.157752171523899
 21
-0.13
 31
0
  0
LINE
  8
0
 62
7
 10
4.157752171523899
 20
-0.13
 30
0
 11
4.164502171523899
 21
-0.1325
 31
0
  0
LINE
  8
0
 62
7
 10
4.164502171523899
 20
-0.1325
 30
0
 11
4.171252171523899
 21
-0.1375
 31
0
  0
LINE
  8
0
 62
7
 10
4.171252171523899
 20
-0.1375
 30
0
 11
4.178002171523898
 21
-0.1475
 31
0
  0
LINE
  8
0
 62
7
 10
4.178002171523898
 20
-0.1475
 30
0
 11
4.180252171523898
 21
-0.155
 31
0
  0
LINE
  8
0
 62
7
 10
4.180252171523898
 20
-0.155
 30
0
 11
4.180252171523898
 21
-0.165
 31
0
  0
LINE
  8
0
 62
7
 10
4.180252171523898
 20
-0.165
 30
0
 11
4.126252171523898
 21
-0.165
 31
0
  0
LINE
  8
0
 62
7
 10
4.126252171523898
 20
-0.165
 30
0
 11
4.126252171523898
 21
-0.155
 31
0
  0
LINE
  8
0
 62
7
 10
4.198252171523898
 20
-0.1
 30
0
 11
4.198252171523898
 21
-0.105
 31
0
  0
LINE
  8
0
 62
7
 10
4.198252171523898
 20
-0.13
 30
0
 11
4.198252171523898
 21
-0.2
 31
0
  0
LINE
  8
0
 62
7
 10
4.288252171523898
 20
-0.1
 30
0
 11
4.288252171523898
 21
-0.15
 31
0
  0
LINE
  8
0
 62
7
 10
4.288252171523898
 20
-0.15
 30
0
 11
4.351252171523899
 21
-0.15
 31
0
  0
LINE
  8
0
 62
7
 10
4.351252171523899
 20
-0.1
 30
0
 11
4.351252171523899
 21
-0.15
 31
0
  0
LINE
  8
0
 62
7
 10
4.351252171523899
 20
-0.15
 30
0
 11
4.351252171523899
 21
-0.2
 31
0
  0
LINE
  8
0
 62
7
 10
4.288252171523898
 20
-0.15
 30
0
 11
4.288252171523898
 21
-0.2
 31
0
  0
LINE
  8
0
 62
7
 10
4.432252171523899
 20
-0.155
 30
0
 11
4.430002171523898
 21
-0.1475
 31
0
  0
LINE
  8
0
 62
7
 10
4.430002171523898
 20
-0.1475
 30
0
 11
4.423252171523898
 21
-0.1375
 31
0
  0
LINE
  8
0
 62
7
 10
4.423252171523898
 20
-0.1375
 30
0
 11
4.416502171523899
 21
-0.1325
 31
0
  0
LINE
  8
0
 62
7
 10
4.416502171523899
 20
-0.1325
 30
0
 11
4.409752171523899
 21
-0.13
 31
0
  0
LINE
  8
0
 62
7
 10
4.409752171523899
 20
-0.13
 30
0
 11
4.400752171523898
 21
-0.13
 31
0
  0
LINE
  8
0
 62
7
 10
4.400752171523898
 20
-0.13
 30
0
 11
4.394002171523899
 21
-0.1325
 31
0
  0
LINE
  8
0
 62
7
 10
4.394002171523899
 20
-0.1325
 30
0
 11
4.387252171523899
 21
-0.1375
 31
0
  0
LINE
  8
0
 62
7
 10
4.387252171523899
 20
-0.1375
 30
0
 11
4.380502171523898
 21
-0.1475
 31
0
  0
LINE
  8
0
 62
7
 10
4.380502171523898
 20
-0.1475
 30
0
 11
4.378252171523899
 21
-0.155
 31
0
  0
LINE
  8
0
 62
7
 10
4.378252171523899
 20
-0.155
 30
0
 11
4.378252171523899
 21
-0.175
 31
0
  0
LINE
  8
0
 62
7
 10
4.378252171523899
 20
-0.175
 30
0
 11
4.380502171523898
 21
-0.1825
 31
0
  0
LINE
  8
0
 62
7
 10
4.380502171523898
 20
-0.1825
 30
0
 11
4.387252171523899
 21
-0.1925
 31
0
  0
LINE
  8
0
 62
7
 10
4.387252171523899
 20
-0.1925
 30
0
 11
4.394002171523899
 21
-0.1975
 31
0
  0
LINE
  8
0
 62
7
 10
4.394002171523899
 20
-0.1975
 30
0
 11
4.400752171523898
 21
-0.2
 31
0
  0
LINE
  8
0
 62
7
 10
4.400752171523898
 20
-0.2
 30
0
 11
4.409752171523899
 21
-0.2
 31
0
  0
LINE
  8
0
 62
7
 10
4.409752171523899
 20
-0.2
 30
0
 11
4.416502171523899
 21
-0.1975
 31
0
  0
LINE
  8
0
 62
7
 10
4.416502171523899
 20
-0.1975
 30
0
 11
4.423252171523898
 21
-0.1925
 31
0
  0
LINE
  8
0
 62
7
 10
4.423252171523898
 20
-0.1925
 30
0
 11
4.430002171523898
 21
-0.1825
 31
0
  0
LINE
  8
0
 62
7
 10
4.430002171523898
 20
-0.1825
 30
0
 11
4.432252171523899
 21
-0.175
 31
0
  0
LINE
  8
0
 62
7
 10
4.432252171523899
 20
-0.175
 30
0
 11
4.432252171523899
 21
-0.155
 31
0
  0
LINE
  8
0
 62
7
 10
4.450252171523899
 20
-0.1
 30
0
 11
4.450252171523899
 21
-0.185
 31
0
  0
LINE
  8
0
 62
7
 10
4.450252171523899
 20
-0.185
 30
0
 11
4.452502171523899
 21
-0.1975
 31
0
  0
LINE
  8
0
 62
7
 10
4.452502171523899
 20
-0.1975
 30
0
 11
4.457002171523898
 21
-0.2
 31
0
  0
LINE
  8
0
 62
7
 10
4.457002171523898
 20
-0.2
 30
0
 11
4.459252171523898
 21
-0.2
 31
0
  0
LINE
  8
0
 62
7
 10
4.4772521715239
 20
-0.13
 30
0
 11
4.531252171523898
 21
-0.13
 31
0
  0
LINE
  8
0
 62
7
 10
4.531252171523898
 20
-0.13
 30
0
 11
4.4772521715239
 21
-0.2
 31
0
  0
LINE
  8
0
 62
7
 10
4.4772521715239
 20
-0.2
 30
0
 11
4.531252171523898
 21
-0.2
 31
0
  0
LINE
  8
0
 62
7
 10
4.612252171523899
 20
-0.145
 30
0
 11
4.607752171523898
 21
-0.1375
 31
0
  0
LINE
  8
0
 62
7
 10
4.607752171523898
 20
-0.1375
 30
0
 11
4.601002171523899
 21
-0.1325
 31
0
  0
LINE
  8
0
 62
7
 10
4.601002171523899
 20
-0.1325
 30
0
 11
4.5897521715239
 21
-0.13
 31
0
  0
LINE
  8
0
 62
7
 10
4.5897521715239
 20
-0.13
 30
0
 11
4.580752171523899
 21
-0.13
 31
0
  0
LINE
  8
0
 62
7
 10
4.580752171523899
 20
-0.13
 30
0
 11
4.571752171523898
 21
-0.1325
 31
0
  0
LINE
  8
0
 62
7
 10
4.571752171523898
 20
-0.1325
 30
0
 11
4.565002171523899
 21
-0.1375
 31
0
  0
LINE
  8
0
 62
7
 10
4.565002171523899
 20
-0.1375
 30
0
 11
4.560502171523899
 21
-0.1425
 31
0
  0
LINE
  8
0
 62
7
 10
4.560502171523899
 20
-0.1425
 30
0
 11
4.558252171523899
 21
-0.1475
 31
0
  0
LINE
  8
0
 62
7
 10
4.558252171523899
 20
-0.1475
 30
0
 11
4.558252171523899
 21
-0.1525
 31
0
  0
LINE
  8
0
 62
7
 10
4.558252171523899
 20
-0.1525
 30
0
 11
4.560502171523899
 21
-0.1575
 31
0
  0
LINE
  8
0
 62
7
 10
4.560502171523899
 20
-0.1575
 30
0
 11
4.565002171523899
 21
-0.16
 31
0
  0
LINE
  8
0
 62
7
 10
4.565002171523899
 20
-0.16
 30
0
 11
4.605502171523898
 21
-0.17
 31
0
  0
LINE
  8
0
 62
7
 10
4.605502171523898
 20
-0.17
 30
0
 11
4.610002171523898
 21
-0.1725
 31
0
  0
LINE
  8
0
 62
7
 10
4.610002171523898
 20
-0.1725
 30
0
 11
4.612252171523899
 21
-0.1775
 31
0
  0
LINE
  8
0
 62
7
 10
4.612252171523899
 20
-0.1775
 30
0
 11
4.612252171523899
 21
-0.1825
 31
0
  0
LINE
  8
0
 62
7
 10
4.612252171523899
 20
-0.1825
 30
0
 11
4.610002171523898
 21
-0.1875
 31
0
  0
LINE
  8
0
 62
7
 10
4.610002171523898
 20
-0.1875
 30
0
 11
4.605502171523898
 21
-0.1925
 31
0
  0
LINE
  8
0
 62
7
 10
4.605502171523898
 20
-0.1925
 30
0
 11
4.598752171523898
 21
-0.1975
 31
0
  0
LINE
  8
0
 62
7
 10
4.598752171523898
 20
-0.1975
 30
0
 11
4.5897521715239
 21
-0.2
 31
0
  0
LINE
  8
0
 62
7
 10
4.5897521715239
 20
-0.2
 30
0
 11
4.580752171523899
 21
-0.2
 31
0
  0
LINE
  8
0
 62
7
 10
4.580752171523899
 20
-0.2
 30
0
 11
4.569502171523898
 21
-0.1975
 31
0
  0
LINE
  8
0
 62
7
 10
4.569502171523898
 20
-0.1975
 30
0
 11
4.562752171523899
 21
-0.1925
 31
0
  0
LINE
  8
0
 62
7
 10
4.562752171523899
 20
-0.1925
 30
0
 11
4.558252171523899
 21
-0.185
 31
0
  0
LINE
  8
0
 62
7
 10
4.639252171523899
 20
-0.1
 30
0
 11
4.639252171523899
 21
-0.185
 31
0
  0
LINE
  8
0
 62
7
 10
4.639252171523899
 20
-0.185
 30
0
 11
4.641502171523899
 21
-0.1975
 31
0
  0
LINE
  8
0
 62
7
 10
4.641502171523899
 20
-0.1975
 30
0
 11
4.646002171523899
 21
-0.2
 31
0
  0
LINE
  8
0
 62
7
 10
4.646002171523899
 20
-0.2
 30
0
 11
4.648252171523898
 21
-0.2
 31
0
  0
LINE
  8
0
 62
7
 10
4.630252171523899
 20
-0.13
 30
0
 11
4.648252171523898
 21
-0.13
 31
0
  0
LINE
  8
0
 62
7
 10
4.720252171523899
 20
-0.13
 30
0
 11
4.720252171523899
 21
-0.175
 31
0
  0
LINE
  8
0
 62
7
 10
4.666252171523898
 20
-0.13
 30
0
 11
4.666252171523898
 21
-0.175
 31
0
  0
LINE
  8
0
 62
7
 10
4.666252171523898
 20
-0.175
 30
0
 11
4.668502171523899
 21
-0.1825
 31
0
  0
LINE
  8
0
 62
7
 10
4.668502171523899
 20
-0.1825
 30
0
 11
4.675252171523899
 21
-0.1925
 31
0
  0
LINE
  8
0
 62
7
 10
4.675252171523899
 20
-0.1925
 30
0
 11
4.682002171523898
 21
-0.1975
 31
0
  0
LINE
  8
0
 62
7
 10
4.682002171523898
 20
-0.1975
 30
0
 11
4.688752171523898
 21
-0.2
 31
0
  0
LINE
  8
0
 62
7
 10
4.688752171523898
 20
-0.2
 30
0
 11
4.697752171523899
 21
-0.2
 31
0
  0
LINE
  8
0
 62
7
 10
4.697752171523899
 20
-0.2
 30
0
 11
4.704502171523898
 21
-0.1975
 31
0
  0
LINE
  8
0
 62
7
 10
4.704502171523898
 20
-0.1975
 30
0
 11
4.711252171523898
 21
-0.1925
 31
0
  0
LINE
  8
0
 62
7
 10
4.711252171523898
 20
-0.1925
 30
0
 11
4.718002171523898
 21
-0.1825
 31
0
  0
LINE
  8
0
 62
7
 10
4.718002171523898
 20
-0.1825
 30
0
 11
4.720252171523899
 21
-0.175
 31
0
  0
LINE
  8
0
 62
7
 10
4.720252171523899
 20
-0.175
 30
0
 11
4.720252171523899
 21
-0.2
 31
0
  0
LINE
  8
0
 62
7
 10
4.738252171523898
 20
-0.135
 30
0
 11
4.765252171523898
 21
-0.135
 31
0
  0
LINE
  8
0
 62
7
 10
4.7472521715239
 20
-0.2
 30
0
 11
4.7472521715239
 21
-0.1175
 31
0
  0
LINE
  8
0
 62
7
 10
4.7472521715239
 20
-0.1175
 30
0
 11
4.749502171523899
 21
-0.1075
 31
0
  0
LINE
  8
0
 62
7
 10
4.749502171523899
 20
-0.1075
 30
0
 11
4.754002171523899
 21
-0.1025
 31
0
  0
LINE
  8
0
 62
7
 10
4.754002171523899
 20
-0.1025
 30
0
 11
4.760752171523898
 21
-0.1
 31
0
  0
LINE
  8
0
 62
7
 10
4.760752171523898
 20
-0.1
 30
0
 11
4.765252171523898
 21
-0.1
 31
0
  0
LINE
  8
0
 62
7
 10
4.837252171523899
 20
-0.1825
 30
0
 11
4.830502171523898
 21
-0.1925
 31
0
  0
LINE
  8
0
 62
7
 10
4.830502171523898
 20
-0.1925
 30
0
 11
4.823752171523899
 21
-0.1975
 31
0
  0
LINE
  8
0
 62
7
 10
4.823752171523899
 20
-0.1975
 30
0
 11
4.814752171523899
 21
-0.2
 31
0
  0
LINE
  8
0
 62
7
 10
4.814752171523899
 20
-0.2
 30
0
 11
4.805752171523899
 21
-0.2
 31
0
  0
LINE
  8
0
 62
7
 10
4.805752171523899
 20
-0.2
 30
0
 11
4.799002171523898
 21
-0.1975
 31
0
  0
LINE
  8
0
 62
7
 10
4.799002171523898
 20
-0.1975
 30
0
 11
4.792252171523899
 21
-0.1925
 31
0
  0
LINE
  8
0
 62
7
 10
4.792252171523899
 20
-0.1925
 30
0
 11
4.785502171523898
 21
-0.1825
 31
0
  0
LINE
  8
0
 62
7
 10
4.785502171523898
 20
-0.1825
 30
0
 11
4.783252171523898
 21
-0.175
 31
0
  0
LINE
  8
0
 62
7
 10
4.783252171523898
 20
-0.175
 30
0
 11
4.783252171523898
 21
-0.165
 31
0
  0
LINE
  8
0
 62
7
 10
4.783252171523898
 20
-0.155
 30
0
 11
4.785502171523898
 21
-0.1475
 31
0
  0
LINE
  8
0
 62
7
 10
4.785502171523898
 20
-0.1475
 30
0
 11
4.792252171523899
 21
-0.1375
 31
0
  0
LINE
  8
0
 62
7
 10
4.792252171523899
 20
-0.1375
 30
0
 11
4.799002171523898
 21
-0.1325
 31
0
  0
LINE
  8
0
 62
7
 10
4.799002171523898
 20
-0.1325
 30
0
 11
4.805752171523899
 21
-0.13
 31
0
  0
LINE
  8
0
 62
7
 10
4.805752171523899
 20
-0.13
 30
0
 11
4.814752171523899
 21
-0.13
 31
0
  0
LINE
  8
0
 62
7
 10
4.814752171523899
 20
-0.13
 30
0
 11
4.821502171523899
 21
-0.1325
 31
0
  0
LINE
  8
0
 62
7
 10
4.821502171523899
 20
-0.1325
 30
0
 11
4.828252171523899
 21
-0.1375
 31
0
  0
LINE
  8
0
 62
7
 10
4.828252171523899
 20
-0.1375
 30
0
 11
4.835002171523898
 21
-0.1475
 31
0
  0
LINE
  8
0
 62
7
 10
4.835002171523898
 20
-0.1475
 30
0
 11
4.837252171523899
 21
-0.155
 31
0
  0
LINE
  8
0
 62
7
 10
4.837252171523899
 20
-0.155
 30
0
 11
4.837252171523899
 21
-0.165
 31
0
  0
LINE
  8
0
 62
7
 10
4.837252171523899
 20
-0.165
 30
0
 11
4.783252171523898
 21
-0.165
 31
0
  0
LINE
  8
0
 62
7
 10
4.783252171523898
 20
-0.165
 30
0
 11
4.783252171523898
 21
-0.155
 31
0
  0
LINE
  8
0
 62
7
 10
4.855252171523898
 20
-0.155
 30
0
 11
4.857502171523898
 21
-0.1475
 31
0
  0
LINE
  8
0
 62
7
 10
4.857502171523898
 20
-0.1475
 30
0
 11
4.864252171523899
 21
-0.1375
 31
0
  0
LINE
  8
0
 62
7
 10
4.864252171523899
 20
-0.1375
 30
0
 11
4.8710021715239
 21
-0.1325
 31
0
  0
LINE
  8
0
 62
7
 10
4.8710021715239
 20
-0.1325
 30
0
 11
4.877752171523898
 21
-0.13
 31
0
  0
LINE
  8
0
 62
7
 10
4.877752171523898
 20
-0.13
 30
0
 11
4.886752171523899
 21
-0.13
 31
0
  0
LINE
  8
0
 62
7
 10
4.886752171523899
 20
-0.13
 30
0
 11
4.893502171523899
 21
-0.1325
 31
0
  0
LINE
  8
0
 62
7
 10
4.893502171523899
 20
-0.1325
 30
0
 11
4.900252171523899
 21
-0.1375
 31
0
  0
LINE
  8
0
 62
7
 10
4.900252171523899
 20
-0.1375
 30
0
 11
4.907002171523899
 21
-0.1475
 31
0
  0
LINE
  8
0
 62
7
 10
4.907002171523899
 20
-0.1475
 30
0
 11
4.909252171523899
 21
-0.155
 31
0
  0
LINE
  8
0
 62
7
 10
4.909252171523899
 20
-0.155
 30
0
 11
4.909252171523899
 21
-0.2
 31
0
  0
LINE
  8
0
 62
7
 10
4.855252171523898
 20
-0.13
 30
0
 11
4.855252171523898
 21
-0.155
 31
0
  0
LINE
  8
0
 62
7
 10
4.855252171523898
 20
-0.155
 30
0
 11
4.855252171523898
 21
-0.2
 31
0
  0
LINE
  8
0
 62
7
 10
3.001252171523898
 20
-0.35
 30
0
 11
3.001252171523898
 21
-0.25
 31
0
  0
LINE
  8
0
 62
7
 10
3.001252171523898
 20
-0.25
 30
0
 11
3.064252171523898
 21
-0.35
 31
0
  0
LINE
  8
0
 62
7
 10
3.064252171523898
 20
-0.35
 30
0
 11
3.064252171523898
 21
-0.25
 31
0
  0
LINE
  8
0
 62
7
 10
3.145252171523898
 20
-0.35
 30
0
 11
3.091252171523898
 21
-0.35
 31
0
  0
LINE
  8
0
 62
7
 10
3.091252171523898
 20
-0.35
 30
0
 11
3.091252171523898
 21
-0.25
 31
0
  0
LINE
  8
0
 62
7
 10
3.172252171523899
 20
-0.3
 30
0
 11
3.208252171523899
 21
-0.3
 31
0
  0
LINE
  8
0
 62
7
 10
3.208252171523899
 20
-0.3
 30
0
 11
3.212752171523899
 21
-0.3
 31
0
  0
LINE
  8
0
 62
7
 10
3.212752171523899
 20
-0.3
 30
0
 11
3.221752171523898
 21
-0.305
 31
0
  0
LINE
  8
0
 62
7
 10
3.221752171523898
 20
-0.305
 30
0
 11
3.226252171523898
 21
-0.3100000000000001
 31
0
  0
LINE
  8
0
 62
7
 10
3.226252171523898
 20
-0.3100000000000001
 30
0
 11
3.230752171523898
 21
-0.3200000000000001
 31
0
  0
LINE
  8
0
 62
7
 10
3.230752171523898
 20
-0.3200000000000001
 30
0
 11
3.230752171523898
 21
-0.3300000000000001
 31
0
  0
LINE
  8
0
 62
7
 10
3.230752171523898
 20
-0.3300000000000001
 30
0
 11
3.226252171523898
 21
-0.34
 31
0
  0
LINE
  8
0
 62
7
 10
3.226252171523898
 20
-0.34
 30
0
 11
3.221752171523898
 21
-0.345
 31
0
  0
LINE
  8
0
 62
7
 10
3.221752171523898
 20
-0.345
 30
0
 11
3.212752171523899
 21
-0.35
 31
0
  0
LINE
  8
0
 62
7
 10
3.212752171523899
 20
-0.35
 30
0
 11
3.172252171523899
 21
-0.35
 31
0
  0
LINE
  8
0
 62
7
 10
3.172252171523899
 20
-0.35
 30
0
 11
3.172252171523899
 21
-0.3
 31
0
  0
LINE
  8
0
 62
7
 10
3.172252171523899
 20
-0.25
 30
0
 11
3.206002171523899
 21
-0.25
 31
0
  0
LINE
  8
0
 62
7
 10
3.206002171523899
 20
-0.25
 30
0
 11
3.217252171523899
 21
-0.2525
 31
0
  0
LINE
  8
0
 62
7
 10
3.217252171523899
 20
-0.2525
 30
0
 11
3.224002171523898
 21
-0.26
 31
0
  0
LINE
  8
0
 62
7
 10
3.224002171523898
 20
-0.26
 30
0
 11
3.226252171523898
 21
-0.27
 31
0
  0
LINE
  8
0
 62
7
 10
3.226252171523898
 20
-0.27
 30
0
 11
3.226252171523898
 21
-0.28
 31
0
  0
LINE
  8
0
 62
7
 10
3.226252171523898
 20
-0.28
 30
0
 11
3.221752171523898
 21
-0.29
 31
0
  0
LINE
  8
0
 62
7
 10
3.221752171523898
 20
-0.29
 30
0
 11
3.215002171523898
 21
-0.2975
 31
0
  0
LINE
  8
0
 62
7
 10
3.215002171523898
 20
-0.2975
 30
0
 11
3.208252171523899
 21
-0.3
 31
0
  0
LINE
  8
0
 62
7
 10
3.172252171523899
 20
-0.3
 30
0
 11
3.172252171523899
 21
-0.25
 31
0
  0
LINE
  8
0
 62
7
 10
3.372502171523898
 20
-0.2975
 30
0
 11
3.365752171523899
 21
-0.2875
 31
0
  0
LINE
  8
0
 62
7
 10
3.365752171523899
 20
-0.2875
 30
0
 11
3.359002171523898
 21
-0.2825
 31
0
  0
LINE
  8
0
 62
7
 10
3.359002171523898
 20
-0.2825
 30
0
 11
3.3522521715239
 21
-0.28
 31
0
  0
LINE
  8
0
 62
7
 10
3.3522521715239
 20
-0.28
 30
0
 11
3.343252171523899
 21
-0.28
 31
0
  0
LINE
  8
0
 62
7
 10
3.343252171523899
 20
-0.28
 30
0
 11
3.336502171523898
 21
-0.2825
 31
0
  0
LINE
  8
0
 62
7
 10
3.336502171523898
 20
-0.2825
 30
0
 11
3.3297521715239
 21
-0.2875
 31
0
  0
LINE
  8
0
 62
7
 10
3.3297521715239
 20
-0.2875
 30
0
 11
3.323002171523898
 21
-0.2975
 31
0
  0
LINE
  8
0
 62
7
 10
3.323002171523898
 20
-0.2975
 30
0
 11
3.320752171523898
 21
-0.305
 31
0
  0
LINE
  8
0
 62
7
 10
3.320752171523898
 20
-0.305
 30
0
 11
3.320752171523898
 21
-0.325
 31
0
  0
LINE
  8
0
 62
7
 10
3.320752171523898
 20
-0.325
 30
0
 11
3.323002171523898
 21
-0.3325
 31
0
  0
LINE
  8
0
 62
7
 10
3.323002171523898
 20
-0.3325
 30
0
 11
3.3297521715239
 21
-0.3425
 31
0
  0
LINE
  8
0
 62
7
 10
3.3297521715239
 20
-0.3425
 30
0
 11
3.336502171523898
 21
-0.3475
 31
0
  0
LINE
  8
0
 62
7
 10
3.336502171523898
 20
-0.3475
 30
0
 11
3.343252171523899
 21
-0.35
 31
0
  0
LINE
  8
0
 62
7
 10
3.343252171523899
 20
-0.35
 30
0
 11
3.3522521715239
 21
-0.35
 31
0
  0
LINE
  8
0
 62
7
 10
3.3522521715239
 20
-0.35
 30
0
 11
3.359002171523898
 21
-0.3475
 31
0
  0
LINE
  8
0
 62
7
 10
3.359002171523898
 20
-0.3475
 30
0
 11
3.365752171523899
 21
-0.3425
 31
0
  0
LINE
  8
0
 62
7
 10
3.365752171523899
 20
-0.3425
 30
0
 11
3.372502171523898
 21
-0.3325
 31
0
  0
LINE
  8
0
 62
7
 10
3.444502171523898
 20
-0.305
 30
0
 11
3.442252171523899
 21
-0.2975
 31
0
  0
LINE
  8
0
 62
7
 10
3.442252171523899
 20
-0.2975
 30
0
 11
3.435502171523899
 21
-0.2875
 31
0
  0
LINE
  8
0
 62
7
 10
3.435502171523899
 20
-0.2875
 30
0
 11
3.428752171523898
 21
-0.2825
 31
0
  0
LINE
  8
0
 62
7
 10
3.428752171523898
 20
-0.2825
 30
0
 11
3.422002171523899
 21
-0.28
 31
0
  0
LINE
  8
0
 62
7
 10
3.422002171523899
 20
-0.28
 30
0
 11
3.413002171523898
 21
-0.28
 31
0
  0
LINE
  8
0
 62
7
 10
3.413002171523898
 20
-0.28
 30
0
 11
3.406252171523898
 21
-0.2825
 31
0
  0
LINE
  8
0
 62
7
 10
3.406252171523898
 20
-0.2825
 30
0
 11
3.399502171523899
 21
-0.2875
 31
0
  0
LINE
  8
0
 62
7
 10
3.399502171523899
 20
-0.2875
 30
0
 11
3.392752171523898
 21
-0.2975
 31
0
  0
LINE
  8
0
 62
7
 10
3.392752171523898
 20
-0.2975
 30
0
 11
3.390502171523898
 21
-0.305
 31
0
  0
LINE
  8
0
 62
7
 10
3.390502171523898
 20
-0.305
 30
0
 11
3.390502171523898
 21
-0.325
 31
0
  0
LINE
  8
0
 62
7
 10
3.390502171523898
 20
-0.325
 30
0
 11
3.392752171523898
 21
-0.3325
 31
0
  0
LINE
  8
0
 62
7
 10
3.392752171523898
 20
-0.3325
 30
0
 11
3.399502171523899
 21
-0.3425
 31
0
  0
LINE
  8
0
 62
7
 10
3.399502171523899
 20
-0.3425
 30
0
 11
3.406252171523898
 21
-0.3475
 31
0
  0
LINE
  8
0
 62
7
 10
3.406252171523898
 20
-0.3475
 30
0
 11
3.413002171523898
 21
-0.35
 31
0
  0
LINE
  8
0
 62
7
 10
3.413002171523898
 20
-0.35
 30
0
 11
3.422002171523899
 21
-0.35
 31
0
  0
LINE
  8
0
 62
7
 10
3.422002171523899
 20
-0.35
 30
0
 11
3.428752171523898
 21
-0.3475
 31
0
  0
LINE
  8
0
 62
7
 10
3.428752171523898
 20
-0.3475
 30
0
 11
3.435502171523899
 21
-0.3425
 31
0
  0
LINE
  8
0
 62
7
 10
3.435502171523899
 20
-0.3425
 30
0
 11
3.442252171523899
 21
-0.3325
 31
0
  0
LINE
  8
0
 62
7
 10
3.442252171523899
 20
-0.3325
 30
0
 11
3.444502171523898
 21
-0.325
 31
0
  0
LINE
  8
0
 62
7
 10
3.444502171523898
 20
-0.28
 30
0
 11
3.444502171523898
 21
-0.305
 31
0
  0
LINE
  8
0
 62
7
 10
3.444502171523898
 20
-0.3475
 30
0
 11
3.446752171523898
 21
-0.35
 31
0
  0
LINE
  8
0
 62
7
 10
3.446752171523898
 20
-0.35
 30
0
 11
3.449002171523898
 21
-0.35
 31
0
  0
LINE
  8
0
 62
7
 10
3.444502171523898
 20
-0.325
 30
0
 11
3.444502171523898
 21
-0.3475
 31
0
  0
LINE
  8
0
 62
7
 10
3.444502171523898
 20
-0.305
 30
0
 11
3.444502171523898
 21
-0.325
 31
0
  0
LINE
  8
0
 62
7
 10
3.467002171523898
 20
-0.35
 30
0
 11
3.467002171523898
 21
-0.3475
 31
0
  0
LINE
  8
0
 62
7
 10
3.467002171523898
 20
-0.3475
 30
0
 11
3.469252171523898
 21
-0.3475
 31
0
  0
LINE
  8
0
 62
7
 10
3.469252171523898
 20
-0.3475
 30
0
 11
3.469252171523898
 21
-0.35
 31
0
  0
LINE
  8
0
 62
7
 10
3.469252171523898
 20
-0.35
 30
0
 11
3.467002171523898
 21
-0.35
 31
0
  0
LINE
  8
0
 62
7
 10
3.570502171523898
 20
-0.26
 30
0
 11
3.570502171523898
 21
-0.25
 31
0
  0
LINE
  8
0
 62
7
 10
3.570502171523898
 20
-0.25
 30
0
 11
3.624502171523899
 21
-0.25
 31
0
  0
LINE
  8
0
 62
7
 10
3.624502171523899
 20
-0.25
 30
0
 11
3.579502171523898
 21
-0.35
 31
0
  0
LINE
  8
0
 62
7
 10
3.674002171523898
 20
-0.25
 30
0
 11
3.683002171523899
 21
-0.25
 31
0
  0
LINE
  8
0
 62
7
 10
3.683002171523899
 20
-0.25
 30
0
 11
3.689752171523899
 21
-0.2525
 31
0
  0
LINE
  8
0
 62
7
 10
3.689752171523899
 20
-0.2525
 30
0
 11
3.694252171523898
 21
-0.2575
 31
0
  0
LINE
  8
0
 62
7
 10
3.694252171523898
 20
-0.2575
 30
0
 11
3.698752171523898
 21
-0.265
 31
0
  0
LINE
  8
0
 62
7
 10
3.698752171523898
 20
-0.265
 30
0
 11
3.698752171523898
 21
-0.275
 31
0
  0
LINE
  8
0
 62
7
 10
3.698752171523898
 20
-0.275
 30
0
 11
3.696502171523898
 21
-0.28
 31
0
  0
LINE
  8
0
 62
7
 10
3.696502171523898
 20
-0.28
 30
0
 11
3.689752171523899
 21
-0.2875
 31
0
  0
LINE
  8
0
 62
7
 10
3.689752171523899
 20
-0.2875
 30
0
 11
3.683002171523899
 21
-0.29
 31
0
  0
LINE
  8
0
 62
7
 10
3.683002171523899
 20
-0.29
 30
0
 11
3.674002171523898
 21
-0.29
 31
0
  0
LINE
  8
0
 62
7
 10
3.674002171523898
 20
-0.29
 30
0
 11
3.667252171523899
 21
-0.2875
 31
0
  0
LINE
  8
0
 62
7
 10
3.667252171523899
 20
-0.2875
 30
0
 11
3.660502171523898
 21
-0.28
 31
0
  0
LINE
  8
0
 62
7
 10
3.660502171523898
 20
-0.28
 30
0
 11
3.658252171523898
 21
-0.275
 31
0
  0
LINE
  8
0
 62
7
 10
3.658252171523898
 20
-0.275
 30
0
 11
3.658252171523898
 21
-0.265
 31
0
  0
LINE
  8
0
 62
7
 10
3.658252171523898
 20
-0.265
 30
0
 11
3.662752171523898
 21
-0.2575
 31
0
  0
LINE
  8
0
 62
7
 10
3.662752171523898
 20
-0.2575
 30
0
 11
3.667252171523899
 21
-0.2525
 31
0
  0
LINE
  8
0
 62
7
 10
3.667252171523899
 20
-0.2525
 30
0
 11
3.674002171523898
 21
-0.25
 31
0
  0
LINE
  8
0
 62
7
 10
3.674002171523898
 20
-0.29
 30
0
 11
3.662752171523898
 21
-0.295
 31
0
  0
LINE
  8
0
 62
7
 10
3.662752171523898
 20
-0.295
 30
0
 11
3.656002171523899
 21
-0.3025
 31
0
  0
LINE
  8
0
 62
7
 10
3.656002171523899
 20
-0.3025
 30
0
 11
3.651502171523898
 21
-0.3125
 31
0
  0
LINE
  8
0
 62
7
 10
3.651502171523898
 20
-0.3125
 30
0
 11
3.651502171523898
 21
-0.3275
 31
0
  0
LINE
  8
0
 62
7
 10
3.651502171523898
 20
-0.3275
 30
0
 11
3.656002171523899
 21
-0.3375
 31
0
  0
LINE
  8
0
 62
7
 10
3.656002171523899
 20
-0.3375
 30
0
 11
3.662752171523898
 21
-0.345
 31
0
  0
LINE
  8
0
 62
7
 10
3.662752171523898
 20
-0.345
 30
0
 11
3.671752171523898
 21
-0.35
 31
0
  0
LINE
  8
0
 62
7
 10
3.671752171523898
 20
-0.35
 30
0
 11
3.685252171523899
 21
-0.35
 31
0
  0
LINE
  8
0
 62
7
 10
3.685252171523899
 20
-0.35
 30
0
 11
3.694252171523898
 21
-0.345
 31
0
  0
LINE
  8
0
 62
7
 10
3.694252171523898
 20
-0.345
 30
0
 11
3.701002171523899
 21
-0.3375
 31
0
  0
LINE
  8
0
 62
7
 10
3.701002171523899
 20
-0.3375
 30
0
 11
3.705502171523898
 21
-0.3275
 31
0
  0
LINE
  8
0
 62
7
 10
3.705502171523898
 20
-0.3275
 30
0
 11
3.705502171523898
 21
-0.3125
 31
0
  0
LINE
  8
0
 62
7
 10
3.705502171523898
 20
-0.3125
 30
0
 11
3.701002171523899
 21
-0.3025
 31
0
  0
LINE
  8
0
 62
7
 10
3.701002171523899
 20
-0.3025
 30
0
 11
3.694252171523898
 21
-0.295
 31
0
  0
LINE
  8
0
 62
7
 10
3.694252171523898
 20
-0.295
 30
0
 11
3.683002171523899
 21
-0.29
 31
0
  0
LINE
  8
0
 62
7
 10
3.865252171523899
 20
-0.2975
 30
0
 11
3.8585021715239
 21
-0.2875
 31
0
  0
LINE
  8
0
 62
7
 10
3.8585021715239
 20
-0.2875
 30
0
 11
3.851752171523898
 21
-0.2825
 31
0
  0
LINE
  8
0
 62
7
 10
3.851752171523898
 20
-0.2825
 30
0
 11
3.845002171523898
 21
-0.28
 31
0
  0
LINE
  8
0
 62
7
 10
3.845002171523898
 20
-0.28
 30
0
 11
3.8360021715239
 21
-0.28
 31
0
  0
LINE
  8
0
 62
7
 10
3.8360021715239
 20
-0.28
 30
0
 11
3.829252171523899
 21
-0.2825
 31
0
  0
LINE
  8
0
 62
7
 10
3.829252171523899
 20
-0.2825
 30
0
 11
3.822502171523898
 21
-0.2875
 31
0
  0
LINE
  8
0
 62
7
 10
3.822502171523898
 20
-0.2875
 30
0
 11
3.815752171523899
 21
-0.2975
 31
0
  0
LINE
  8
0
 62
7
 10
3.815752171523899
 20
-0.2975
 30
0
 11
3.813502171523899
 21
-0.305
 31
0
  0
LINE
  8
0
 62
7
 10
3.813502171523899
 20
-0.305
 30
0
 11
3.813502171523899
 21
-0.325
 31
0
  0
LINE
  8
0
 62
7
 10
3.813502171523899
 20
-0.325
 30
0
 11
3.815752171523899
 21
-0.3325
 31
0
  0
LINE
  8
0
 62
7
 10
3.815752171523899
 20
-0.3325
 30
0
 11
3.822502171523898
 21
-0.3425
 31
0
  0
LINE
  8
0
 62
7
 10
3.822502171523898
 20
-0.3425
 30
0
 11
3.829252171523899
 21
-0.3475
 31
0
  0
LINE
  8
0
 62
7
 10
3.829252171523899
 20
-0.3475
 30
0
 11
3.8360021715239
 21
-0.35
 31
0
  0
LINE
  8
0
 62
7
 10
3.8360021715239
 20
-0.35
 30
0
 11
3.845002171523898
 21
-0.35
 31
0
  0
LINE
  8
0
 62
7
 10
3.845002171523898
 20
-0.35
 30
0
 11
3.851752171523898
 21
-0.3475
 31
0
  0
LINE
  8
0
 62
7
 10
3.851752171523898
 20
-0.3475
 30
0
 11
3.8585021715239
 21
-0.3425
 31
0
  0
LINE
  8
0
 62
7
 10
3.8585021715239
 20
-0.3425
 30
0
 11
3.865252171523899
 21
-0.3325
 31
0
  0
LINE
  8
0
 62
7
 10
3.923752171523898
 20
-0.305
 30
0
 11
3.923752171523898
 21
-0.35
 31
0
  0
LINE
  8
0
 62
7
 10
3.883252171523898
 20
-0.28
 30
0
 11
3.883252171523898
 21
-0.305
 31
0
  0
LINE
  8
0
 62
7
 10
3.883252171523898
 20
-0.35
 30
0
 11
3.883252171523898
 21
-0.305
 31
0
  0
LINE
  8
0
 62
7
 10
3.883252171523898
 20
-0.305
 30
0
 11
3.885502171523898
 21
-0.2925
 31
0
  0
LINE
  8
0
 62
7
 10
3.885502171523898
 20
-0.2925
 30
0
 11
3.887752171523899
 21
-0.2875
 31
0
  0
LINE
  8
0
 62
7
 10
3.887752171523899
 20
-0.2875
 30
0
 11
3.8922521715239
 21
-0.2825
 31
0
  0
LINE
  8
0
 62
7
 10
3.8922521715239
 20
-0.2825
 30
0
 11
3.899002171523898
 21
-0.28
 31
0
  0
LINE
  8
0
 62
7
 10
3.899002171523898
 20
-0.28
 30
0
 11
3.908002171523899
 21
-0.28
 31
0
  0
LINE
  8
0
 62
7
 10
3.908002171523899
 20
-0.28
 30
0
 11
3.9147521715239
 21
-0.2825
 31
0
  0
LINE
  8
0
 62
7
 10
3.9147521715239
 20
-0.2825
 30
0
 11
3.919252171523898
 21
-0.2875
 31
0
  0
LINE
  8
0
 62
7
 10
3.919252171523898
 20
-0.2875
 30
0
 11
3.921502171523898
 21
-0.2925
 31
0
  0
LINE
  8
0
 62
7
 10
3.921502171523898
 20
-0.2925
 30
0
 11
3.923752171523898
 21
-0.305
 31
0
  0
LINE
  8
0
 62
7
 10
3.923752171523898
 20
-0.305
 30
0
 11
3.9260021715239
 21
-0.2925
 31
0
  0
LINE
  8
0
 62
7
 10
3.9260021715239
 20
-0.2925
 30
0
 11
3.928252171523899
 21
-0.2875
 31
0
  0
LINE
  8
0
 62
7
 10
3.928252171523899
 20
-0.2875
 30
0
 11
3.932752171523898
 21
-0.2825
 31
0
  0
LINE
  8
0
 62
7
 10
3.932752171523898
 20
-0.2825
 30
0
 11
3.939502171523898
 21
-0.28
 31
0
  0
LINE
  8
0
 62
7
 10
3.939502171523898
 20
-0.28
 30
0
 11
3.948502171523899
 21
-0.28
 31
0
  0
LINE
  8
0
 62
7
 10
3.948502171523899
 20
-0.28
 30
0
 11
3.955252171523898
 21
-0.2825
 31
0
  0
LINE
  8
0
 62
7
 10
3.959752171523899
 20
-0.2875
 30
0
 11
3.955252171523898
 21
-0.2825
 31
0
  0
LINE
  8
0
 62
7
 10
3.955252171523898
 20
-0.2825
 30
0
 11
3.959752171523899
 21
-0.2875
 31
0
  0
LINE
  8
0
 62
7
 10
3.959752171523899
 20
-0.2875
 30
0
 11
3.962002171523899
 21
-0.2925
 31
0
  0
LINE
  8
0
 62
7
 10
3.962002171523899
 20
-0.2925
 30
0
 11
3.964252171523899
 21
-0.305
 31
0
  0
LINE
  8
0
 62
7
 10
3.964252171523899
 20
-0.305
 30
0
 11
3.964252171523899
 21
-0.35
 31
0
  0
LINE
  8
0
 62
7
 10
4.054252171523898
 20
-0.325
 30
0
 11
4.056502171523898
 21
-0.3325
 31
0
  0
LINE
  8
0
 62
7
 10
4.056502171523898
 20
-0.3325
 30
0
 11
4.063252171523899
 21
-0.3425
 31
0
  0
LINE
  8
0
 62
7
 10
4.063252171523899
 20
-0.3425
 30
0
 11
4.070002171523898
 21
-0.3475
 31
0
  0
LINE
  8
0
 62
7
 10
4.070002171523898
 20
-0.3475
 30
0
 11
4.076752171523899
 21
-0.35
 31
0
  0
LINE
  8
0
 62
7
 10
4.076752171523899
 20
-0.35
 30
0
 11
4.085752171523898
 21
-0.35
 31
0
  0
LINE
  8
0
 62
7
 10
4.085752171523898
 20
-0.35
 30
0
 11
4.092502171523898
 21
-0.3475
 31
0
  0
LINE
  8
0
 62
7
 10
4.092502171523898
 20
-0.3475
 30
0
 11
4.099252171523898
 21
-0.3425
 31
0
  0
LINE
  8
0
 62
7
 10
4.099252171523898
 20
-0.3425
 30
0
 11
4.106002171523899
 21
-0.3325
 31
0
  0
LINE
  8
0
 62
7
 10
4.106002171523899
 20
-0.3325
 30
0
 11
4.108252171523898
 21
-0.325
 31
0
  0
LINE
  8
0
 62
7
 10
4.108252171523898
 20
-0.325
 30
0
 11
4.108252171523898
 21
-0.305
 31
0
  0
LINE
  8
0
 62
7
 10
4.108252171523898
 20
-0.305
 30
0
 11
4.106002171523899
 21
-0.2975
 31
0
  0
LINE
  8
0
 62
7
 10
4.106002171523899
 20
-0.2975
 30
0
 11
4.099252171523898
 21
-0.2875
 31
0
  0
LINE
  8
0
 62
7
 10
4.099252171523898
 20
-0.2875
 30
0
 11
4.092502171523898
 21
-0.2825
 31
0
  0
LINE
  8
0
 62
7
 10
4.092502171523898
 20
-0.2825
 30
0
 11
4.085752171523898
 21
-0.28
 31
0
  0
LINE
  8
0
 62
7
 10
4.085752171523898
 20
-0.28
 30
0
 11
4.076752171523899
 21
-0.28
 31
0
  0
LINE
  8
0
 62
7
 10
4.076752171523899
 20
-0.28
 30
0
 11
4.070002171523898
 21
-0.2825
 31
0
  0
LINE
  8
0
 62
7
 10
4.070002171523898
 20
-0.2825
 30
0
 11
4.063252171523899
 21
-0.2875
 31
0
  0
LINE
  8
0
 62
7
 10
4.063252171523899
 20
-0.2875
 30
0
 11
4.056502171523898
 21
-0.2975
 31
0
  0
LINE
  8
0
 62
7
 10
4.056502171523898
 20
-0.2975
 30
0
 11
4.054252171523898
 21
-0.305
 31
0
  0
LINE
  8
0
 62
7
 10
4.054252171523898
 20
-0.25
 30
0
 11
4.054252171523898
 21
-0.305
 31
0
  0
LINE
  8
0
 62
7
 10
4.054252171523898
 20
-0.305
 30
0
 11
4.054252171523898
 21
-0.35
 31
0
  0
LINE
  8
0
 62
7
 10
4.180252171523898
 20
-0.3325
 30
0
 11
4.173502171523899
 21
-0.3425
 31
0
  0
LINE
  8
0
 62
7
 10
4.173502171523899
 20
-0.3425
 30
0
 11
4.166752171523899
 21
-0.3475
 31
0
  0
LINE
  8
0
 62
7
 10
4.166752171523899
 20
-0.3475
 30
0
 11
4.157752171523899
 21
-0.35
 31
0
  0
LINE
  8
0
 62
7
 10
4.157752171523899
 20
-0.35
 30
0
 11
4.148752171523898
 21
-0.35
 31
0
  0
LINE
  8
0
 62
7
 10
4.148752171523898
 20
-0.35
 30
0
 11
4.142002171523898
 21
-0.3475
 31
0
  0
LINE
  8
0
 62
7
 10
4.142002171523898
 20
-0.3475
 30
0
 11
4.135252171523899
 21
-0.3425
 31
0
  0
LINE
  8
0
 62
7
 10
4.135252171523899
 20
-0.3425
 30
0
 11
4.128502171523899
 21
-0.3325
 31
0
  0
LINE
  8
0
 62
7
 10
4.128502171523899
 20
-0.3325
 30
0
 11
4.126252171523898
 21
-0.325
 31
0
  0
LINE
  8
0
 62
7
 10
4.126252171523898
 20
-0.325
 30
0
 11
4.126252171523898
 21
-0.315
 31
0
  0
LINE
  8
0
 62
7
 10
4.126252171523898
 20
-0.305
 30
0
 11
4.128502171523899
 21
-0.2975
 31
0
  0
LINE
  8
0
 62
7
 10
4.128502171523899
 20
-0.2975
 30
0
 11
4.135252171523899
 21
-0.2875
 31
0
  0
LINE
  8
0
 62
7
 10
4.135252171523899
 20
-0.2875
 30
0
 11
4.142002171523898
 21
-0.2825
 31
0
  0
LINE
  8
0
 62
7
 10
4.142002171523898
 20
-0.2825
 30
0
 11
4.148752171523898
 21
-0.28
 31
0
  0
LINE
  8
0
 62
7
 10
4.148752171523898
 20
-0.28
 30
0
 11
4.157752171523899
 21
-0.28
 31
0
  0
LINE
  8
0
 62
7
 10
4.157752171523899
 20
-0.28
 30
0
 11
4.164502171523899
 21
-0.2825
 31
0
  0
LINE
  8
0
 62
7
 10
4.164502171523899
 20
-0.2825
 30
0
 11
4.171252171523899
 21
-0.2875
 31
0
  0
LINE
  8
0
 62
7
 10
4.171252171523899
 20
-0.2875
 30
0
 11
4.178002171523898
 21
-0.2975
 31
0
  0
LINE
  8
0
 62
7
 10
4.178002171523898
 20
-0.2975
 30
0
 11
4.180252171523898
 21
-0.305
 31
0
  0
LINE
  8
0
 62
7
 10
4.180252171523898
 20
-0.305
 30
0
 11
4.180252171523898
 21
-0.315
 31
0
  0
LINE
  8
0
 62
7
 10
4.180252171523898
 20
-0.315
 30
0
 11
4.126252171523898
 21
-0.315
 31
0
  0
LINE
  8
0
 62
7
 10
4.126252171523898
 20
-0.315
 30
0
 11
4.126252171523898
 21
-0.305
 31
0
  0
LINE
  8
0
 62
7
 10
4.198252171523898
 20
-0.25
 30
0
 11
4.198252171523898
 21
-0.2550000000000001
 31
0
  0
LINE
  8
0
 62
7
 10
4.198252171523898
 20
-0.28
 30
0
 11
4.198252171523898
 21
-0.35
 31
0
  0
LINE
  8
0
 62
7
 10
4.349002171523899
 20
-0.26
 30
0
 11
4.342252171523899
 21
-0.2550000000000001
 31
0
  0
LINE
  8
0
 62
7
 10
4.342252171523899
 20
-0.2550000000000001
 30
0
 11
4.335502171523898
 21
-0.2525
 31
0
  0
LINE
  8
0
 62
7
 10
4.335502171523898
 20
-0.2525
 30
0
 11
4.324252171523898
 21
-0.25
 31
0
  0
LINE
  8
0
 62
7
 10
4.324252171523898
 20
-0.25
 30
0
 11
4.315252171523898
 21
-0.25
 31
0
  0
LINE
  8
0
 62
7
 10
4.315252171523898
 20
-0.25
 30
0
 11
4.306252171523898
 21
-0.2525
 31
0
  0
LINE
  8
0
 62
7
 10
4.306252171523898
 20
-0.2525
 30
0
 11
4.299502171523899
 21
-0.2550000000000001
 31
0
  0
LINE
  8
0
 62
7
 10
4.299502171523899
 20
-0.2550000000000001
 30
0
 11
4.292752171523898
 21
-0.26
 31
0
  0
LINE
  8
0
 62
7
 10
4.292752171523898
 20
-0.26
 30
0
 11
4.290502171523898
 21
-0.2675
 31
0
  0
LINE
  8
0
 62
7
 10
4.290502171523898
 20
-0.2675
 30
0
 11
4.290502171523898
 21
-0.2725
 31
0
  0
LINE
  8
0
 62
7
 10
4.290502171523898
 20
-0.2725
 30
0
 11
4.292752171523898
 21
-0.28
 31
0
  0
LINE
  8
0
 62
7
 10
4.292752171523898
 20
-0.28
 30
0
 11
4.299502171523899
 21
-0.285
 31
0
  0
LINE
  8
0
 62
7
 10
4.299502171523899
 20
-0.285
 30
0
 11
4.337752171523898
 21
-0.3025
 31
0
  0
LINE
  8
0
 62
7
 10
4.337752171523898
 20
-0.3025
 30
0
 11
4.344502171523899
 21
-0.3075000000000001
 31
0
  0
LINE
  8
0
 62
7
 10
4.344502171523899
 20
-0.3075000000000001
 30
0
 11
4.349002171523899
 21
-0.315
 31
0
  0
LINE
  8
0
 62
7
 10
4.349002171523899
 20
-0.315
 30
0
 11
4.351252171523899
 21
-0.3225
 31
0
  0
LINE
  8
0
 62
7
 10
4.351252171523899
 20
-0.3225
 30
0
 11
4.351252171523899
 21
-0.3275
 31
0
  0
LINE
  8
0
 62
7
 10
4.351252171523899
 20
-0.3275
 30
0
 11
4.349002171523899
 21
-0.335
 31
0
  0
LINE
  8
0
 62
7
 10
4.349002171523899
 20
-0.335
 30
0
 11
4.344502171523899
 21
-0.3425
 31
0
  0
LINE
  8
0
 62
7
 10
4.344502171523899
 20
-0.3425
 30
0
 11
4.337752171523898
 21
-0.3475
 31
0
  0
LINE
  8
0
 62
7
 10
4.337752171523898
 20
-0.3475
 30
0
 11
4.326502171523898
 21
-0.35
 31
0
  0
LINE
  8
0
 62
7
 10
4.326502171523898
 20
-0.35
 30
0
 11
4.313002171523898
 21
-0.35
 31
0
  0
LINE
  8
0
 62
7
 10
4.313002171523898
 20
-0.35
 30
0
 11
4.301752171523899
 21
-0.3475
 31
0
  0
LINE
  8
0
 62
7
 10
4.301752171523899
 20
-0.3475
 30
0
 11
4.292752171523898
 21
-0.3425
 31
0
  0
LINE
  8
0
 62
7
 10
4.292752171523898
 20
-0.3425
 30
0
 11
4.288252171523898
 21
-0.3375
 31
0
  0
LINE
  8
0
 62
7
 10
4.378252171523899
 20
-0.25
 30
0
 11
4.378252171523899
 21
-0.335
 31
0
  0
LINE
  8
0
 62
7
 10
4.378252171523899
 20
-0.335
 30
0
 11
4.380502171523898
 21
-0.3475
 31
0
  0
LINE
  8
0
 62
7
 10
4.380502171523898
 20
-0.3475
 30
0
 11
4.385002171523898
 21
-0.35
 31
0
  0
LINE
  8
0
 62
7
 10
4.385002171523898
 20
-0.35
 30
0
 11
4.387252171523899
 21
-0.35
 31
0
  0
LINE
  8
0
 62
7
 10
4.369252171523899
 20
-0.28
 30
0
 11
4.387252171523899
 21
-0.28
 31
0
  0
LINE
  8
0
 62
7
 10
4.459252171523898
 20
-0.3325
 30
0
 11
4.452502171523899
 21
-0.3425
 31
0
  0
LINE
  8
0
 62
7
 10
4.452502171523899
 20
-0.3425
 30
0
 11
4.445752171523899
 21
-0.3475
 31
0
  0
LINE
  8
0
 62
7
 10
4.445752171523899
 20
-0.3475
 30
0
 11
4.436752171523898
 21
-0.35
 31
0
  0
LINE
  8
0
 62
7
 10
4.436752171523898
 20
-0.35
 30
0
 11
4.427752171523898
 21
-0.35
 31
0
  0
LINE
  8
0
 62
7
 10
4.427752171523898
 20
-0.35
 30
0
 11
4.4210021715239
 21
-0.3475
 31
0
  0
LINE
  8
0
 62
7
 10
4.4210021715239
 20
-0.3475
 30
0
 11
4.414252171523898
 21
-0.3425
 31
0
  0
LINE
  8
0
 62
7
 10
4.414252171523898
 20
-0.3425
 30
0
 11
4.407502171523898
 21
-0.3325
 31
0
  0
LINE
  8
0
 62
7
 10
4.407502171523898
 20
-0.3325
 30
0
 11
4.405252171523898
 21
-0.325
 31
0
  0
LINE
  8
0
 62
7
 10
4.405252171523898
 20
-0.325
 30
0
 11
4.405252171523898
 21
-0.315
 31
0
  0
LINE
  8
0
 62
7
 10
4.405252171523898
 20
-0.305
 30
0
 11
4.407502171523898
 21
-0.2975
 31
0
  0
LINE
  8
0
 62
7
 10
4.407502171523898
 20
-0.2975
 30
0
 11
4.414252171523898
 21
-0.2875
 31
0
  0
LINE
  8
0
 62
7
 10
4.414252171523898
 20
-0.2875
 30
0
 11
4.4210021715239
 21
-0.2825
 31
0
  0
LINE
  8
0
 62
7
 10
4.4210021715239
 20
-0.2825
 30
0
 11
4.427752171523898
 21
-0.28
 31
0
  0
LINE
  8
0
 62
7
 10
4.427752171523898
 20
-0.28
 30
0
 11
4.436752171523898
 21
-0.28
 31
0
  0
LINE
  8
0
 62
7
 10
4.436752171523898
 20
-0.28
 30
0
 11
4.443502171523899
 21
-0.2825
 31
0
  0
LINE
  8
0
 62
7
 10
4.443502171523899
 20
-0.2825
 30
0
 11
4.450252171523899
 21
-0.2875
 31
0
  0
LINE
  8
0
 62
7
 10
4.450252171523899
 20
-0.2875
 30
0
 11
4.457002171523898
 21
-0.2975
 31
0
  0
LINE
  8
0
 62
7
 10
4.457002171523898
 20
-0.2975
 30
0
 11
4.459252171523898
 21
-0.305
 31
0
  0
LINE
  8
0
 62
7
 10
4.459252171523898
 20
-0.305
 30
0
 11
4.459252171523898
 21
-0.315
 31
0
  0
LINE
  8
0
 62
7
 10
4.459252171523898
 20
-0.315
 30
0
 11
4.405252171523898
 21
-0.315
 31
0
  0
LINE
  8
0
 62
7
 10
4.405252171523898
 20
-0.315
 30
0
 11
4.405252171523898
 21
-0.305
 31
0
  0
LINE
  8
0
 62
7
 10
4.4772521715239
 20
-0.25
 30
0
 11
4.4772521715239
 21
-0.2550000000000001
 31
0
  0
LINE
  8
0
 62
7
 10
4.4772521715239
 20
-0.28
 30
0
 11
4.4772521715239
 21
-0.35
 31
0
  0
LINE
  8
0
 62
7
 10
4.495252171523898
 20
-0.305
 30
0
 11
4.497502171523898
 21
-0.2975
 31
0
  0
LINE
  8
0
 62
7
 10
4.497502171523898
 20
-0.2975
 30
0
 11
4.504252171523898
 21
-0.2875
 31
0
  0
LINE
  8
0
 62
7
 10
4.504252171523898
 20
-0.2875
 30
0
 11
4.511002171523899
 21
-0.2825
 31
0
  0
LINE
  8
0
 62
7
 10
4.511002171523899
 20
-0.2825
 30
0
 11
4.517752171523898
 21
-0.28
 31
0
  0
LINE
  8
0
 62
7
 10
4.517752171523898
 20
-0.28
 30
0
 11
4.526752171523898
 21
-0.28
 31
0
  0
LINE
  8
0
 62
7
 10
4.526752171523898
 20
-0.28
 30
0
 11
4.533502171523899
 21
-0.2825
 31
0
  0
LINE
  8
0
 62
7
 10
4.533502171523899
 20
-0.2825
 30
0
 11
4.540252171523899
 21
-0.2875
 31
0
  0
LINE
  8
0
 62
7
 10
4.540252171523899
 20
-0.2875
 30
0
 11
4.547002171523899
 21
-0.2975
 31
0
  0
LINE
  8
0
 62
7
 10
4.547002171523899
 20
-0.2975
 30
0
 11
4.549252171523898
 21
-0.305
 31
0
  0
LINE
  8
0
 62
7
 10
4.549252171523898
 20
-0.305
 30
0
 11
4.549252171523898
 21
-0.35
 31
0
  0
LINE
  8
0
 62
7
 10
4.495252171523898
 20
-0.28
 30
0
 11
4.495252171523898
 21
-0.305
 31
0
  0
LINE
  8
0
 62
7
 10
4.495252171523898
 20
-0.305
 30
0
 11
4.495252171523898
 21
-0.35
 31
0
  0
LINE
  8
0
 62
7
 10
4.621252171523898
 20
-0.295
 30
0
 11
4.616752171523898
 21
-0.2875
 31
0
  0
LINE
  8
0
 62
7
 10
4.616752171523898
 20
-0.2875
 30
0
 11
4.610002171523898
 21
-0.2825
 31
0
  0
LINE
  8
0
 62
7
 10
4.610002171523898
 20
-0.2825
 30
0
 11
4.598752171523898
 21
-0.28
 31
0
  0
LINE
  8
0
 62
7
 10
4.598752171523898
 20
-0.28
 30
0
 11
4.5897521715239
 21
-0.28
 31
0
  0
LINE
  8
0
 62
7
 10
4.5897521715239
 20
-0.28
 30
0
 11
4.580752171523899
 21
-0.2825
 31
0
  0
LINE
  8
0
 62
7
 10
4.580752171523899
 20
-0.2825
 30
0
 11
4.574002171523898
 21
-0.2875
 31
0
  0
LINE
  8
0
 62
7
 10
4.574002171523898
 20
-0.2875
 30
0
 11
4.569502171523898
 21
-0.2925
 31
0
  0
LINE
  8
0
 62
7
 10
4.569502171523898
 20
-0.2925
 30
0
 11
4.5672521715239
 21
-0.2975
 31
0
  0
LINE
  8
0
 62
7
 10
4.5672521715239
 20
-0.2975
 30
0
 11
4.5672521715239
 21
-0.3025
 31
0
  0
LINE
  8
0
 62
7
 10
4.5672521715239
 20
-0.3025
 30
0
 11
4.569502171523898
 21
-0.3075000000000001
 31
0
  0
LINE
  8
0
 62
7
 10
4.569502171523898
 20
-0.3075000000000001
 30
0
 11
4.574002171523898
 21
-0.3100000000000001
 31
0
  0
LINE
  8
0
 62
7
 10
4.574002171523898
 20
-0.3100000000000001
 30
0
 11
4.614502171523898
 21
-0.3200000000000001
 31
0
  0
LINE
  8
0
 62
7
 10
4.614502171523898
 20
-0.3200000000000001
 30
0
 11
4.619002171523898
 21
-0.3225
 31
0
  0
LINE
  8
0
 62
7
 10
4.619002171523898
 20
-0.3225
 30
0
 11
4.621252171523898
 21
-0.3275
 31
0
  0
LINE
  8
0
 62
7
 10
4.621252171523898
 20
-0.3275
 30
0
 11
4.621252171523898
 21
-0.3325
 31
0
  0
LINE
  8
0
 62
7
 10
4.621252171523898
 20
-0.3325
 30
0
 11
4.619002171523898
 21
-0.3375
 31
0
  0
LINE
  8
0
 62
7
 10
4.619002171523898
 20
-0.3375
 30
0
 11
4.614502171523898
 21
-0.3425
 31
0
  0
LINE
  8
0
 62
7
 10
4.614502171523898
 20
-0.3425
 30
0
 11
4.607752171523898
 21
-0.3475
 31
0
  0
LINE
  8
0
 62
7
 10
4.607752171523898
 20
-0.3475
 30
0
 11
4.598752171523898
 21
-0.35
 31
0
  0
LINE
  8
0
 62
7
 10
4.598752171523898
 20
-0.35
 30
0
 11
4.5897521715239
 21
-0.35
 31
0
  0
LINE
  8
0
 62
7
 10
4.5897521715239
 20
-0.35
 30
0
 11
4.578502171523899
 21
-0.3475
 31
0
  0
LINE
  8
0
 62
7
 10
4.578502171523899
 20
-0.3475
 30
0
 11
4.571752171523898
 21
-0.3425
 31
0
  0
LINE
  8
0
 62
7
 10
4.571752171523898
 20
-0.3425
 30
0
 11
4.5672521715239
 21
-0.335
 31
0
  0
LINE
  8
0
 62
7
 10
4.648252171523898
 20
-0.25
 30
0
 11
4.648252171523898
 21
-0.335
 31
0
  0
LINE
  8
0
 62
7
 10
4.648252171523898
 20
-0.335
 30
0
 11
4.650502171523899
 21
-0.3475
 31
0
  0
LINE
  8
0
 62
7
 10
4.650502171523899
 20
-0.3475
 30
0
 11
4.655002171523899
 21
-0.35
 31
0
  0
LINE
  8
0
 62
7
 10
4.655002171523899
 20
-0.35
 30
0
 11
4.6572521715239
 21
-0.35
 31
0
  0
LINE
  8
0
 62
7
 10
4.639252171523899
 20
-0.28
 30
0
 11
4.6572521715239
 21
-0.28
 31
0
  0
LINE
  8
0
 62
7
 10
4.729252171523899
 20
-0.28
 30
0
 11
4.729252171523899
 21
-0.325
 31
0
  0
LINE
  8
0
 62
7
 10
4.675252171523899
 20
-0.28
 30
0
 11
4.675252171523899
 21
-0.325
 31
0
  0
LINE
  8
0
 62
7
 10
4.675252171523899
 20
-0.325
 30
0
 11
4.677502171523899
 21
-0.3325
 31
0
  0
LINE
  8
0
 62
7
 10
4.677502171523899
 20
-0.3325
 30
0
 11
4.684252171523898
 21
-0.3425
 31
0
  0
LINE
  8
0
 62
7
 10
4.684252171523898
 20
-0.3425
 30
0
 11
4.691002171523899
 21
-0.3475
 31
0
  0
LINE
  8
0
 62
7
 10
4.691002171523899
 20
-0.3475
 30
0
 11
4.697752171523899
 21
-0.35
 31
0
  0
LINE
  8
0
 62
7
 10
4.697752171523899
 20
-0.35
 30
0
 11
4.706752171523898
 21
-0.35
 31
0
  0
LINE
  8
0
 62
7
 10
4.706752171523898
 20
-0.35
 30
0
 11
4.713502171523899
 21
-0.3475
 31
0
  0
LINE
  8
0
 62
7
 10
4.713502171523899
 20
-0.3475
 30
0
 11
4.720252171523899
 21
-0.3425
 31
0
  0
LINE
  8
0
 62
7
 10
4.720252171523899
 20
-0.3425
 30
0
 11
4.727002171523899
 21
-0.3325
 31
0
  0
LINE
  8
0
 62
7
 10
4.727002171523899
 20
-0.3325
 30
0
 11
4.729252171523899
 21
-0.325
 31
0
  0
LINE
  8
0
 62
7
 10
4.729252171523899
 20
-0.325
 30
0
 11
4.729252171523899
 21
-0.35
 31
0
  0
LINE
  8
0
 62
7
 10
4.7472521715239
 20
-0.285
 30
0
 11
4.774252171523898
 21
-0.285
 31
0
  0
LINE
  8
0
 62
7
 10
4.756252171523898
 20
-0.35
 30
0
 11
4.756252171523898
 21
-0.2675
 31
0
  0
LINE
  8
0
 62
7
 10
4.756252171523898
 20
-0.2675
 30
0
 11
4.7585021715239
 21
-0.2575
 31
0
  0
LINE
  8
0
 62
7
 10
4.7585021715239
 20
-0.2575
 30
0
 11
4.763002171523898
 21
-0.2525
 31
0
  0
LINE
  8
0
 62
7
 10
4.763002171523898
 20
-0.2525
 30
0
 11
4.7697521715239
 21
-0.25
 31
0
  0
LINE
  8
0
 62
7
 10
4.7697521715239
 20
-0.25
 30
0
 11
4.774252171523898
 21
-0.25
 31
0
  0
LINE
  8
0
 62
7
 10
4.846252171523899
 20
-0.3325
 30
0
 11
4.839502171523899
 21
-0.3425
 31
0
  0
LINE
  8
0
 62
7
 10
4.839502171523899
 20
-0.3425
 30
0
 11
4.832752171523898
 21
-0.3475
 31
0
  0
LINE
  8
0
 62
7
 10
4.832752171523898
 20
-0.3475
 30
0
 11
4.823752171523899
 21
-0.35
 31
0
  0
LINE
  8
0
 62
7
 10
4.823752171523899
 20
-0.35
 30
0
 11
4.814752171523899
 21
-0.35
 31
0
  0
LINE
  8
0
 62
7
 10
4.814752171523899
 20
-0.35
 30
0
 11
4.808002171523899
 21
-0.3475
 31
0
  0
LINE
  8
0
 62
7
 10
4.808002171523899
 20
-0.3475
 30
0
 11
4.801252171523899
 21
-0.3425
 31
0
  0
LINE
  8
0
 62
7
 10
4.801252171523899
 20
-0.3425
 30
0
 11
4.794502171523898
 21
-0.3325
 31
0
  0
LINE
  8
0
 62
7
 10
4.794502171523898
 20
-0.3325
 30
0
 11
4.792252171523899
 21
-0.325
 31
0
  0
LINE
  8
0
 62
7
 10
4.792252171523899
 20
-0.325
 30
0
 11
4.792252171523899
 21
-0.315
 31
0
  0
LINE
  8
0
 62
7
 10
4.792252171523899
 20
-0.305
 30
0
 11
4.794502171523898
 21
-0.2975
 31
0
  0
LINE
  8
0
 62
7
 10
4.794502171523898
 20
-0.2975
 30
0
 11
4.801252171523899
 21
-0.2875
 31
0
  0
LINE
  8
0
 62
7
 10
4.801252171523899
 20
-0.2875
 30
0
 11
4.808002171523899
 21
-0.2825
 31
0
  0
LINE
  8
0
 62
7
 10
4.808002171523899
 20
-0.2825
 30
0
 11
4.814752171523899
 21
-0.28
 31
0
  0
LINE
  8
0
 62
7
 10
4.814752171523899
 20
-0.28
 30
0
 11
4.823752171523899
 21
-0.28
 31
0
  0
LINE
  8
0
 62
7
 10
4.823752171523899
 20
-0.28
 30
0
 11
4.830502171523898
 21
-0.2825
 31
0
  0
LINE
  8
0
 62
7
 10
4.830502171523898
 20
-0.2825
 30
0
 11
4.837252171523899
 21
-0.2875
 31
0
  0
LINE
  8
0
 62
7
 10
4.837252171523899
 20
-0.2875
 30
0
 11
4.844002171523899
 21
-0.2975
 31
0
  0
LINE
  8
0
 62
7
 10
4.844002171523899
 20
-0.2975
 30
0
 11
4.846252171523899
 21
-0.305
 31
0
  0
LINE
  8
0
 62
7
 10
4.846252171523899
 20
-0.305
 30
0
 11
4.846252171523899
 21
-0.315
 31
0
  0
LINE
  8
0
 62
7
 10
4.846252171523899
 20
-0.315
 30
0
 11
4.792252171523899
 21
-0.315
 31
0
  0
LINE
  8
0
 62
7
 10
4.792252171523899
 20
-0.315
 30
0
 11
4.792252171523899
 21
-0.305
 31
0
  0
LINE
  8
0
 62
7
 10
4.864252171523899
 20
-0.305
 30
0
 11
4.866502171523899
 21
-0.2975
 31
0
  0
LINE
  8
0
 62
7
 10
4.866502171523899
 20
-0.2975
 30
0
 11
4.873252171523898
 21
-0.2875
 31
0
  0
LINE
  8
0
 62
7
 10
4.873252171523898
 20
-0.2875
 30
0
 11
4.880002171523898
 21
-0.2825
 31
0
  0
LINE
  8
0
 62
7
 10
4.880002171523898
 20
-0.2825
 30
0
 11
4.886752171523899
 21
-0.28
 31
0
  0
LINE
  8
0
 62
7
 10
4.886752171523899
 20
-0.28
 30
0
 11
4.895752171523899
 21
-0.28
 31
0
  0
LINE
  8
0
 62
7
 10
4.895752171523899
 20
-0.28
 30
0
 11
4.902502171523899
 21
-0.2825
 31
0
  0
LINE
  8
0
 62
7
 10
4.902502171523899
 20
-0.2825
 30
0
 11
4.909252171523899
 21
-0.2875
 31
0
  0
LINE
  8
0
 62
7
 10
4.909252171523899
 20
-0.2875
 30
0
 11
4.9160021715239
 21
-0.2975
 31
0
  0
LINE
  8
0
 62
7
 10
4.9160021715239
 20
-0.2975
 30
0
 11
4.918252171523899
 21
-0.305
 31
0
  0
LINE
  8
0
 62
7
 10
4.918252171523899
 20
-0.305
 30
0
 11
4.918252171523899
 21
-0.35
 31
0
  0
LINE
  8
0
 62
7
 10
4.864252171523899
 20
-0.28
 30
0
 11
4.864252171523899
 21
-0.305
 31
0
  0
LINE
  8
0
 62
7
 10
4.864252171523899
 20
-0.305
 30
0
 11
4.864252171523899
 21
-0.35
 31
0
  0
ARC
  8
0
 62
7
  6
DASHDOT
 10
3.932425695285988
 20
1.274662657975918
 30
0
 40
1.075
 50
90
 51
270
  0
ARC
  8
0
 62
7
  6
DASHDOT
 10
3.932425695285988
 20
1.274662657975918
 30
0
 40
1.075
 50
270
 51
0
  0
ARC
  8
0
 62
7
  6
DASHDOT
 10
3.932425695285988
 20
1.274662657975918
 30
0
 40
1.074999999999998
 50
0
 51
90
  0
ARC
  8
0
 62
7
 10
3.932425695285988
 20
1.274662657975918
 30
0
 40
0.6199999999998856
 50
129.9839909839907
 51
153.0871278844324
  0
ARC
  8
0
 62
7
 10
3.932425695285988
 20
1.274662657975918
 30
0
 40
0.6199999999998682
 50
153.0871278844324
 51
176.1902647848607
  0
ARC
  8
0
 62
7
 10
3.932425695285988
 20
1.274662657975918
 30
0
 40
0.6200000000000307
 50
176.1902647848607
 51
199.2934016852968
  0
ARC
  8
0
 62
7
 10
3.932425695285988
 20
1.274662657975918
 30
0
 40
0.6200000000000437
 50
199.2934016852968
 51
222.3965385857346
  0
ARC
  8
0
 62
7
 10
3.932425695285988
 20
1.274662657975918
 30
0
 40
0.6200000000001449
 50
222.3965385857346
 51
245.4996754861685
  0
ARC
  8
0
 62
7
 10
3.932425695285988
 20
1.274662657975918
 30
0
 40
0.6200000000001186
 50
245.4996754861685
 51
268.6028123865951
  0
ARC
  8
0
 62
7
 10
3.932425695285988
 20
1.274662657975918
 30
0
 40
0.6200000000001845
 50
268.6028123865951
 51
291.7059492870267
  0
ARC
  8
0
 62
7
 10
3.932425695285988
 20
1.274662657975918
 30
0
 40
0.6200000000000216
 50
291.7059492870267
 51
314.8090861874611
  0
ARC
  8
0
 62
7
 10
3.932425695285988
 20
1.274662657975918
 30
0
 40
0.6200000000000193
 50
314.8090861874611
 51
337.9122230878909
  0
ARC
  8
0
 62
7
 10
3.932425695285988
 20
1.274662657975918
 30
0
 40
0.6200000000000736
 50
337.9122230878909
 51
1.01535998833139
  0
ARC
  8
0
 62
7
 10
3.932425695285988
 20
1.274662657975918
 30
0
 40
0.6199999999999822
 50
1.01535998833139
 51
24.1184968887578
  0
ARC
  8
0
 62
7
 10
3.932425695285988
 20
1.274662657975918
 30
0
 40
0.619999999999911
 50
24.1184968887578
 51
47.22163378920303
  0
ARC
  8
0
 62
7
 10
3.932425695285988
 20
1.274662657975918
 30
0
 40
0.6199999999999031
 50
50.0160090160074
 51
70.3247706896445
  0
ARC
  8
0
 62
7
 10
3.932425695285988
 20
1.274662657975918
 30
0
 40
0.6199999999999104
 50
47.22163378920303
 51
50.0160090160074
  0
ARC
  8
0
 62
7
 10
3.932425695285988
 20
1.274662657975918
 30
0
 40
1.04499999999993
 50
53.47951623307544
 51
126.5204837669272
  0
ARC
  8
0
 62
7
 10
1.232425695285987
 20
1.274662657975918
 30
0
 40
0.6199999999998856
 50
129.9839909839907
 51
153.0871278844323
  0
ARC
  8
0
 62
7
 10
1.232425695285987
 20
1.274662657975918
 30
0
 40
0.6199999999998672
 50
153.0871278844323
 51
176.1902647848607
  0
ARC
  8
0
 62
7
 10
1.232425695285987
 20
1.274662657975918
 30
0
 40
0.6200000000000299
 50
176.1902647848607
 51
199.2934016852968
  0
CIRCLE
  8
0
 62
7
  6
DASHED
 10
4.141172379834724
 20
1.858464697788877
 30
0
 40
0.0600000000000005
  0
DIMENSION
  8
0
  6
CONTINUOUS
 62
7
  2
*D1
  3
DMST_1
 10
5.007425695285988
 20
6.990003755054001
 30
0
 11
3.932932535141731
 21
6.990003755054001
 31
0
 12
0
 22
0
 32
0
 70
0
 13
2.857425695285988
 23
6.394662657975919
 33
0
 14
5.007425695285987
 24
6.394662657975919
 34
0
 53
0
  0
DIMENSION
  8
0
  6
CONTINUOUS
 62
7
  2
*D2
  3
DMST_2
 10
5.364516838079471
 20
0.199662657975918
 30
0
 11
5.364516838079471
 21
1.25053274235866
 31
0
 12
0
 22
0
 32
0
 70
0
 13
3.932425695285988
 23
2.349662657975918
 33
0
 14
3.932425695285988
 24
0.1996626579759177
 34
0
 50
90
 53
0
  0
DIMENSION
  8
0
  6
CONTINUOUS
 62
7
  2
*D3
  3
DMST_2
 10
2.307425695285987
 20
2.72151844812955
 30
0
 11
1.27990474437638
 21
2.72151844812955
 31
0
 12
0
 22
0
 32
0
 70
0
 13
0.1574256952859869
 23
2.349662657975918
 33
0
 14
2.307425695285987
 24
2.349662657975918
 34
0
 53
0
  0
DIMENSION
  8
0
  6
CONTINUOUS
 62
7
  2
*D4
  3
DMST_2
 10
4.932425695285987
 20
2.760919850962701
 30
0
 11
3.9592001370305
 21
2.760919850962701
 31
0
 12
0
 22
0
 32
0
 70
0
 13
2.932425695285987
 23
1.274662657975918
 33
0
 14
4.932425695285987
 24
1.274662657975918
 34
0
 53
0
  0
INSERT
  8
0
  2
*D0
 10
0
 20
0
 30
0
  0
ENDSEC
  0
EOF
