  0
SECTION
  2
HEADER
  9
$ACADVER
  1
AC1009
  9
$INSBASE
 10
0
 20
0
  9
$EXTMIN
 10
0.6663264762379697
 20
-0.35
  9
$EXTMAX
 10
5.808000000000002
 20
6.66761596817733
  9
$LIMMIN
 10
0.6663264762379697
 20
-0.35
  9
$LIMMAX
 10
5.808000000000002
 20
6.66761596817733
  9
$VIEWCTR
 10
10
 20
10
  9
$VIEWSIZE
 40
10
  9
$SNAPMODE
 70
0
  9
$SNAPUNIT
 10
1
 20
1
  9
$SNAPBASE
 10
0
 20
0
  9
$SNAPANG
 50
0
  9
$SNAPSTYLE
 70
0
  9
$SNAPISOPAIR
 70
0
  9
$GRIDMODE
 70
0
  9
$GRIDUNIT
 10
0
 20
0
  9
$ORTHOMODE
 70
0
  9
$REGENMODE
 70
1
  9
$FILLMODE
 70
1
  9
$QTEXTMODE
 70
0
  9
$DRAGMODE
 70
2
  9
$LTSCALE
 40
1
  9
$OSMODE
 70
0
  9
$ATTMODE
 70
1
  9
$TEXTSIZE
 40
3.5
  9
$TRACEWID
 40
0.5
  9
$TEXTSTYLE
  7
STANDARD
  9
$CLAYER
  8
0
  9
$CELTYPE
  6
BYLAYER
  9
$CECOLOR
 62
256
  9
$DIMSCALE
 40
1
  9
$DIMASZ
 40
0.18
  9
$DIMEXO
 40
0.0625
  9
$DIMDLI
 40
0.38
  9
$DIMRND
 40
0
  9
$DIMDLE
 40
0
  9
$DIMEXE
 40
0.18
  9
$DIMTP
 40
0
  9
$DIMTM
 40
0
  9
$DIMTXT
 40
0.18
  9
$DIMCEN
 40
0.09
  9
$DIMTSZ
 40
0
  9
$DIMTOL
 70
0
  9
$DIMLIM
 70
0
  9
$DIMTIH
 70
1
  9
$DIMTOH
 70
1
  9
$DIMSE1
 70
0
  9
$DIMSE2
 70
0
  9
$DIMTAD
 70
0
  9
$DIMZIN
 70
0
  9
$DIMBLK
  1

  9
$DIMASO
 70
1
  9
$DIMSHO
 70
1
  9
$DIMPOST
  1

  9
$DIMAPOST
  1

  9
$DIMALT
 70
0
  9
$DIMALTD
 70
2
  9
$DIMALTF
 40
25.4
  9
$DIMLFAC
 40
1
  9
$DIMTOFL
 70
0
  9
$DIMTVP
 40
0
  9
$DIMTIX
 70
0
  9
$DIMSOXD
 70
0
  9
$DIMSAH
 70
0
  9
$DIMBLK1
  1

  9
$DIMBLK2
  1

  9
$DIMSTYLE
  2
*UNNAMED
  9
$DIMCLRD
 70
0
  9
$DIMCLRE
 70
0
  9
$DIMCLRT
 70
0
  9
$DIMTFAC
 40
1
  9
$DIMGAP
 40
0.09
  9
$LUNITS
 70
2
  9
$LUPREC
 70
4
  9
$AXISMODE
 70
0
  9
$AXISUNIT
 10
0
 20
0
  9
$SKETCHINC
 40
0.1
  9
$FILLETRAD
 40
2
  9
$AUNITS
 70
0
  9
$AUPREC
 70
0
  9
$MENU
  1
ACAD
  9
$ELEVATION
 40
0
  9
$THICKNESS
 40
0
  9
$VIEWDIR
 10
0
 20
0
 30
1
  9
$LIMCHECK
 70
0
  9
$BLIPMODE
 70
1
  9
$CHAMFERA
 40
0
  9
$CHAMFERB
 40
0
  9
$FASTZOOM
 70
1
  9
$SKPOLY
 70
0
  9
$ANGBASE
 50
0
  9
$ANGDIR
 70
0
  9
$PDMODE
 70
0
  9
$PDSIZE
 40
0
  9
$PLINEWID
 40
0
  9
$COORDS
 70
2
  0
ENDSEC
  0
SECTION
  2
TABLES
  0
TABLE
  2
DIMSTYLE
 70
1
  0
DIMSTYLE
  2
DMST_1
 70
0
  3

  4

  5

  6

  7

 40
1
 41
0.1
 42
0
 43
0.7
 44
0.2
 45
0
 46
0
 47
0
 48
0
140
0.1
141
0
142
0.1
143
25.4
144
1
145
0
146
1
147
0.25
 71
0
 72
0
 73
0
 74
0
 75
0
 76
0
 77
0
 78
9
170
0
171
2
172
0
173
0
174
0
175
0
176
7
177
7
178
7
  0
ENDTAB
  0
TABLE
  2
LTYPE
 70
9
  0
LTYPE
  2
CONTINUOUS
 70
64
  3
Solid line
 72
65
 73
0
 40
0
  0
LTYPE
  2
BORDER
 70
64
  3
__ __ . __ __ .
 72
65
 73
6
 40
0.3231796827450086
 49
0.09233705221285959
 49
-0.0461685261064298
 49
0.09233705221285959
 49
-0.0461685261064298
 49
0
 49
-0.0461685261064298
  0
LTYPE
  2
CENTER
 70
64
  3
____ _ ____ _
 72
65
 73
4
 40
0.3693482088514384
 49
0.230842630532149
 49
-0.0461685261064298
 49
0.0461685261064298
 49
-0.0461685261064298
  0
LTYPE
  2
DASHDOT
 70
64
  3
__ . __ . __ .
 72
65
 73
4
 40
0.1846741044257192
 49
0.09233705221285959
 49
-0.0461685261064298
 49
0
 49
-0.0461685261064298
  0
LTYPE
  2
DASHED
 70
64
  3
__ __ __ __ __
 72
65
 73
2
 40
0.1385055783192894
 49
0.09233705221285959
 49
-0.0461685261064298
  0
LTYPE
  2
DIVIDE
 70
64
  3
__ . . __ . . 
 72
65
 73
6
 40
0.230842630532149
 49
0.09233705221285959
 49
-0.0461685261064298
 49
0
 49
-0.0461685261064298
 49
0
 49
-0.0461685261064298
  0
LTYPE
  2
DOT
 70
64
  3
..............
 72
65
 73
4
 40
0.09233705221285959
 49
0
 49
-0.0461685261064298
 49
0
 49
-0.0461685261064298
  0
LTYPE
  2
HIDDEN
 70
64
  3
_ _ _ _ _ _ _
 72
65
 73
2
 40
0.0692527891596447
 49
0.0461685261064298
 49
-0.0230842630532149
  0
LTYPE
  2
PHANTOM
 70
64
  3
_____ _ _ _____ _ _ 
 72
65
 73
6
 40
0.461685261064298
 49
0.230842630532149
 49
-0.0461685261064298
 49
0.0461685261064298
 49
-0.0461685261064298
 49
0.0461685261064298
 49
-0.0461685261064298
  0
ENDTAB
  0
TABLE
  2
LAYER
 70
2
  0
LAYER
  2
0
 70
0
 62
7
  6
CONTINUOUS
  0
ENDTAB
  0
TABLE
  2
STYLE
 70
4
  0
STYLE
  2
STANDARD
 70
0
 40
0
 41
1
 50
0
 71
0
 42
3.5
  3
txt
  4

  0
STYLE
  2
SIMPLEX
 70
0
 40
0
 41
1
 50
0
 71
0
 42
3.5
  3
simplex
  4

  0
STYLE
  2
COMPLEX
 70
0
 40
0
 41
1
 50
0
 71
0
 42
3.5
  3
complex
  4

  0
STYLE
  2
ITALIC
 70
0
 40
0
 41
1
 50
0
 71
0
 42
3.5
  3
italic
  4

  0
ENDTAB
  0
TABLE
  2
VIEW
 70
0
  0
ENDTAB
  0
ENDSEC
  0
SECTION
  2
BLOCKS
  0
BLOCK
  8
0
  2
*X0
 70
1
 10
0
 20
0
 30
0
  0
LINE
  8
0
 62
7
  6
DASHED
 10
0.6663264762379699
 20
3.317976905687523
 30
0
 11
0.6933528717930479
 21
3.345003301242601
 31
0
  0
LINE
  8
0
 62
7
  6
DASHED
 10
0.7054849061490112
 20
3.1450033012426
 30
0
 11
0.9054849061490122
 21
3.345003301242601
 31
0
  0
LINE
  8
0
 62
7
  6
DASHED
 10
0.9176169405049754
 20
3.1450033012426
 30
0
 11
1.117616940504977
 21
3.345003301242601
 31
0
  0
LINE
  8
0
 62
7
  6
DASHED
 10
1.12974897486094
 20
3.1450033012426
 30
0
 11
1.329748974860941
 21
3.345003301242601
 31
0
  0
LINE
  8
0
 62
7
  6
DASHED
 10
1.341881009216904
 20
3.1450033012426
 30
0
 11
1.541881009216905
 21
3.345003301242601
 31
0
  0
LINE
  8
0
 62
7
  6
DASHED
 10
1.554013043572868
 20
3.1450033012426
 30
0
 11
1.754013043572869
 21
3.345003301242601
 31
0
  0
LINE
  8
0
 62
7
  6
DASHED
 10
1.766145077928833
 20
3.1450033012426
 30
0
 11
1.966145077928834
 21
3.345003301242601
 31
0
  0
LINE
  8
0
 62
7
  6
DASHED
 10
1.978277112284797
 20
3.1450033012426
 30
0
 11
2.178277112284798
 21
3.345003301242601
 31
0
  0
LINE
  8
0
 62
7
  6
DASHED
 10
2.190409146640761
 20
3.1450033012426
 30
0
 11
2.390409146640762
 21
3.345003301242601
 31
0
  0
LINE
  8
0
 62
7
  6
DASHED
 10
2.402541180996725
 20
3.1450033012426
 30
0
 11
2.602541180996726
 21
3.345003301242601
 31
0
  0
LINE
  8
0
 62
7
  6
DASHED
 10
2.61467321535269
 20
3.1450033012426
 30
0
 11
2.814673215352691
 21
3.345003301242601
 31
0
  0
LINE
  8
0
 62
7
  6
DASHED
 10
2.826805249708654
 20
3.1450033012426
 30
0
 11
3.026805249708655
 21
3.345003301242601
 31
0
  0
LINE
  8
0
 62
7
  6
DASHED
 10
3.038937284064618
 20
3.1450033012426
 30
0
 11
3.238937284064619
 21
3.345003301242601
 31
0
  0
LINE
  8
0
 62
7
  6
DASHED
 10
3.251069318420583
 20
3.1450033012426
 30
0
 11
3.271326476237999
 21
3.165260459060017
 31
0
  0
LINE
  8
0
 62
7
 10
0.6663264762379699
 20
3.211910888509541
 30
0
 11
0.7994188889710307
 21
3.345003301242601
 31
0
  0
LINE
  8
0
 62
7
 10
0.8115509233269935
 20
3.1450033012426
 30
0
 11
1.011550923326995
 21
3.345003301242601
 31
0
  0
LINE
  8
0
 62
7
 10
1.023682957682958
 20
3.1450033012426
 30
0
 11
1.223682957682959
 21
3.345003301242601
 31
0
  0
LINE
  8
0
 62
7
 10
1.235814992038922
 20
3.1450033012426
 30
0
 11
1.435814992038924
 21
3.345003301242601
 31
0
  0
LINE
  8
0
 62
7
 10
1.447947026394886
 20
3.1450033012426
 30
0
 11
1.647947026394888
 21
3.345003301242601
 31
0
  0
LINE
  8
0
 62
7
 10
1.660079060750851
 20
3.1450033012426
 30
0
 11
1.860079060750852
 21
3.345003301242601
 31
0
  0
LINE
  8
0
 62
7
 10
1.872211095106815
 20
3.1450033012426
 30
0
 11
2.072211095106816
 21
3.345003301242601
 31
0
  0
LINE
  8
0
 62
7
 10
2.084343129462779
 20
3.1450033012426
 30
0
 11
2.284343129462781
 21
3.345003301242601
 31
0
  0
LINE
  8
0
 62
7
 10
2.296475163818744
 20
3.1450033012426
 30
0
 11
2.496475163818745
 21
3.345003301242601
 31
0
  0
LINE
  8
0
 62
7
 10
2.508607198174708
 20
3.1450033012426
 30
0
 11
2.708607198174709
 21
3.345003301242601
 31
0
  0
LINE
  8
0
 62
7
 10
2.720739232530672
 20
3.1450033012426
 30
0
 11
2.920739232530674
 21
3.345003301242601
 31
0
  0
LINE
  8
0
 62
7
 10
2.932871266886636
 20
3.1450033012426
 30
0
 11
3.132871266886638
 21
3.345003301242601
 31
0
  0
LINE
  8
0
 62
7
 10
3.145003301242601
 20
3.1450033012426
 30
0
 11
3.271326476237999
 21
3.271326476237999
 31
0
  0
ENDBLK
  8
0
  0
BLOCK
  8
0
  2
*X1
 70
1
 10
0
 20
0
 30
0
  0
LINE
  8
0
 62
7
  6
DASHED
 10
0.6663264762379697
 20
6.075693352315058
 30
0
 11
0.6856364251655109
 21
6.095003301242599
 31
0
  0
LINE
  8
0
 62
7
  6
DASHED
 10
0.6977684595214768
 20
5.8950033012426
 30
0
 11
0.8977684595214752
 21
6.095003301242599
 31
0
  0
LINE
  8
0
 62
7
  6
DASHED
 10
0.9099004938774411
 20
5.8950033012426
 30
0
 11
1.109900493877439
 21
6.095003301242599
 31
0
  0
LINE
  8
0
 62
7
  6
DASHED
 10
1.122032528233405
 20
5.8950033012426
 30
0
 11
1.138826476238026
 21
5.91179724924722
 31
0
  0
LINE
  8
0
 62
7
 10
0.6663264762379701
 20
5.969627335137075
 30
0
 11
0.7917024423434933
 21
6.095003301242599
 31
0
  0
LINE
  8
0
 62
7
 10
0.8038344766994587
 20
5.8950033012426
 30
0
 11
1.003834476699458
 21
6.095003301242599
 31
0
  0
LINE
  8
0
 62
7
 10
1.015966511055423
 20
5.8950033012426
 30
0
 11
1.138826476238011
 21
6.017863266425187
 31
0
  0
ENDBLK
  8
0
  0
BLOCK
  8
0
  2
*X2
 70
1
 10
0
 20
0
 30
0
  0
LINE
  8
0
 62
7
  6
DASHED
 10
2.798826476238
 20
6.086873008755445
 30
0
 11
2.806956768725154
 21
6.095003301242599
 31
0
  0
LINE
  8
0
 62
7
  6
DASHED
 10
2.819088803081119
 20
5.895003301242601
 30
0
 11
3.019088803081118
 21
6.095003301242599
 31
0
  0
LINE
  8
0
 62
7
  6
DASHED
 10
3.031220837437083
 20
5.895003301242601
 30
0
 11
3.231220837437083
 21
6.095003301242599
 31
0
  0
LINE
  8
0
 62
7
  6
DASHED
 10
3.243352871793047
 20
5.895003301242601
 30
0
 11
3.271326476237999
 21
5.922976905687552
 31
0
  0
LINE
  8
0
 62
7
 10
2.798826476238
 20
5.980806991577463
 30
0
 11
2.913022785903137
 21
6.095003301242599
 31
0
  0
LINE
  8
0
 62
7
 10
2.925154820259101
 20
5.8950033012426
 30
0
 11
3.125154820259101
 21
6.095003301242599
 31
0
  0
LINE
  8
0
 62
7
 10
3.137286854615065
 20
5.8950033012426
 30
0
 11
3.271326476237999
 21
6.029042922865534
 31
0
  0
ENDBLK
  8
0
  0
BLOCK
  8
0
  2
*D0
 70
1
 10
0
 20
0
 30
0
  0
LINE
  8
0
 62
7
 10
3.70059735789756
 20
5.21896022124136
 30
0
 11
3.70059735789756
 21
6.095003301242599
 31
0
  0
LINE
  8
0
 62
7
 10
3.70059735789756
 20
3.345003301242601
 30
0
 11
3.70059735789756
 21
4.038960221241359
 31
0
  0
LINE
  8
0
 62
7
 10
0.6663264762379701
 20
6.095003301242599
 30
0
 11
3.75059735789756
 21
6.095003301242599
 31
0
  0
LINE
  8
0
 62
7
 10
0.6663264762379701
 20
3.345003301242601
 30
0
 11
3.75059735789756
 21
3.345003301242601
 31
0
  0
LINE
  8
0
 62
7
 10
3.735952696956887
 20
6.059647962183272
 30
0
 11
3.665242018838233
 21
6.130358640301926
 31
0
  0
LINE
  8
0
 62
7
 10
3.665242018838233
 20
3.380358640301928
 30
0
 11
3.735952696956887
 21
3.309647962183274
 31
0
  0
TEXT
  8
0
 62
7
 10
3.67559735789756
 20
4.50896022124136
 30
0
 40
0.1
  1
275
 50
90
 41
0.9
  0
TEXT
  8
0
 62
7
 10
3.82559735789756
 20
4.28896022124136
 30
0
 40
0.1
  1
(260-280)
 50
90
 41
0.9
  0
ENDBLK
  8
0
  0
BLOCK
  8
0
  2
*D1
 70
1
 10
0
 20
0
 30
0
  0
LINE
  8
0
 62
7
 10
2.35481163237971
 20
6.61261596817733
 30
0
 11
2.798826476237999
 21
6.61261596817733
 31
0
  0
LINE
  8
0
 62
7
 10
1.138826476237999
 20
6.61261596817733
 30
0
 11
1.60981163237971
 21
6.61261596817733
 31
0
  0
LINE
  8
0
 62
7
 10
2.798826476237999
 20
6.095003301242599
 30
0
 11
2.798826476237999
 21
6.66261596817733
 31
0
  0
LINE
  8
0
 62
7
 10
1.138826476237999
 20
6.095003301242599
 30
0
 11
1.138826476237999
 21
6.66261596817733
 31
0
  0
LINE
  8
0
 62
7
 10
1.174181815297326
 20
6.647971307236658
 30
0
 11
1.103471137178671
 21
6.577260629118003
 31
0
  0
LINE
  8
0
 62
7
 10
2.763471137178672
 20
6.577260629118003
 30
0
 11
2.834181815297327
 21
6.647971307236658
 31
0
  0
TEXT
  8
0
 62
7
 10
1.85981163237971
 20
6.56761596817733
 30
0
 40
0.1
  1
1,66
 41
0.9
  0
ENDBLK
  8
0
  0
BLOCK
  8
0
  2
*D2
 70
1
 10
0
 20
0
 30
0
  0
LINE
  8
0
 62
7
 10
5.044391183247511
 20
2.14996964332979
 30
0
 11
5.493826476238
 21
2.14996964332979
 31
0
  0
LINE
  8
0
 62
7
 10
3.843826476237999
 20
2.14996964332979
 30
0
 11
4.29939118324751
 21
2.14996964332979
 31
0
  0
LINE
  8
0
 62
7
 10
5.493826476238
 20
1.800003301242599
 30
0
 11
5.493826476238
 21
2.19996964332979
 31
0
  0
LINE
  8
0
 62
7
 10
3.843826476237999
 20
1.800003301242599
 30
0
 11
3.843826476237999
 21
2.19996964332979
 31
0
  0
LINE
  8
0
 62
7
 10
3.879181815297327
 20
2.185324982389117
 30
0
 11
3.808471137178672
 21
2.114614304270463
 31
0
  0
LINE
  8
0
 62
7
 10
5.458471137178672
 20
2.114614304270463
 30
0
 11
5.529181815297327
 21
2.185324982389117
 31
0
  0
TEXT
  8
0
 62
7
 10
4.54939118324751
 20
2.10496964332979
 30
0
 40
0.1
  1
1,65
 41
0.9
  0
ENDBLK
  8
0
  0
BLOCK
  8
0
  2
*D3
 70
1
 10
0
 20
0
 30
0
  0
LINE
  8
0
 62
7
 10
2.26698393252512
 20
2.17566626324254
 30
0
 11
2.718826476237999
 21
2.17566626324254
 31
0
  0
LINE
  8
0
 62
7
 10
1.218826476237999
 20
2.17566626324254
 30
0
 11
1.61198393252512
 21
2.17566626324254
 31
0
  0
LINE
  8
0
 62
7
 10
2.718826476237999
 20
0.9750033012425989
 30
0
 11
2.718826476237999
 21
2.22566626324254
 31
0
  0
LINE
  8
0
 62
7
 10
1.218826476237999
 20
0.9750033012425989
 30
0
 11
1.218826476237999
 21
2.22566626324254
 31
0
  0
LINE
  8
0
 62
7
 10
2.683471137178672
 20
2.140310924183213
 30
0
 11
2.754181815297327
 21
2.211021602301867
 31
0
  0
LINE
  8
0
 62
7
 10
1.254181815297326
 20
2.211021602301867
 30
0
 11
1.183471137178672
 21
2.140310924183213
 31
0
  0
TEXT
  8
0
 62
7
 10
1.86198393252512
 20
2.13066626324254
 30
0
 40
0.1
  1
1,5
 41
0.9
  0
ENDBLK
  8
0
  0
BLOCK
  8
0
  2
*D4
 70
1
 10
0
 20
0
 30
0
  0
LINE
  8
0
 62
7
 10
3.17103277174347
 20
1.327605904797364
 30
0
 11
3.17103277174347
 21
1.800003301242599
 31
0
  0
LINE
  8
0
 62
7
 10
3.17103277174347
 20
0.1500033012425993
 30
0
 11
3.17103277174347
 21
0.582605904797364
 31
0
  0
LINE
  8
0
 62
7
 10
1.968826476237999
 20
1.800003301242599
 30
0
 11
3.22103277174347
 21
1.800003301242599
 31
0
  0
LINE
  8
0
 62
7
 10
1.968826476237999
 20
0.1500033012425993
 30
0
 11
3.22103277174347
 21
0.1500033012425993
 31
0
  0
LINE
  8
0
 62
7
 10
3.206388110802797
 20
1.764647962183272
 30
0
 11
3.135677432684143
 21
1.835358640301926
 31
0
  0
LINE
  8
0
 62
7
 10
3.135677432684143
 20
0.1853586403019267
 30
0
 11
3.206388110802797
 21
0.1146479621832719
 31
0
  0
TEXT
  8
0
 62
7
 10
3.21603277174347
 20
0.832605904797364
 30
0
 40
0.1
  1
1,65
 50
90
 41
0.9
  0
ENDBLK
  8
0
  0
ENDSEC
  0
SECTION
  2
ENTITIES
  0
INSERT
  8
0
  2
*X0
 10
0
 20
0
 30
0
  0
INSERT
  8
0
  2
*X1
 10
0
 20
0
 30
0
  0
INSERT
  8
0
  2
*X2
 10
0
 20
0
 30
0
  0
POINT
  8
0
 62
7
  6
DASHED
 10
1.968826476237999
 20
0.9750033012425994
 30
0
  0
LINE
  8
0
 62
7
  6
DASHDOT
 10
5.493826476238
 20
0.1500033012425993
 30
0
 11
5.493826476238
 21
1.800003301242599
 31
0
  0
LINE
  8
0
 62
7
  6
DASHDOT
 10
5.493826476238
 20
1.800003301242599
 30
0
 11
3.843826476238
 21
1.800003301242599
 31
0
  0
LINE
  8
0
 62
7
  6
DASHDOT
 10
3.843826476238
 20
1.800003301242599
 30
0
 11
3.843826476238
 21
0.1500033012425993
 31
0
  0
LINE
  8
0
 62
7
  6
DASHDOT
 10
3.843826476238
 20
0.1500033012425993
 30
0
 11
5.493826476238
 21
0.1500033012425993
 31
0
  0
LINE
  8
0
 62
7
  6
DASHDOT
 10
3.918826476237999
 20
0.9750033012425994
 30
0
 11
3.784898287443911
 21
0.9750033012425994
 31
0
  0
LINE
  8
0
 62
7
  6
DASHDOT
 10
5.551252171523899
 20
0.9750033012425994
 30
0
 11
5.418826476237999
 21
0.9750033012425994
 31
0
  0
LINE
  8
0
 62
7
  6
DASHDOT
 10
5.418826476237999
 20
0.9750033012425994
 30
0
 11
3.918826476237999
 21
0.9750033012425994
 31
0
  0
LINE
  8
0
 62
7
  6
DASHDOT
 10
4.668826476237999
 20
1.800003301242599
 30
0
 11
4.668826476237999
 21
1.858751213129916
 31
0
  0
LINE
  8
0
 62
7
  6
DASHDOT
 10
4.668826476237999
 20
1.725003301242599
 30
0
 11
4.668826476237999
 21
1.800003301242599
 31
0
  0
LINE
  8
0
 62
7
  6
DASHDOT
 10
4.668826476237999
 20
0.1
 30
0
 11
4.668826476237999
 21
1.725003301242599
 31
0
  0
LINE
  8
0
 62
7
 10
4.157357588002823
 20
1.770003301242599
 30
0
 11
5.180295364473132
 21
1.770003301242599
 31
0
  0
LINE
  8
0
 62
7
 10
5.180295364473132
 20
1.770003301242599
 30
0
 11
5.111197222135788
 21
1.635558464097223
 31
0
  0
LINE
  8
0
 62
7
 10
4.157357588002823
 20
1.770003301242599
 30
0
 11
4.623637709709991
 21
0.8627581437539193
 31
0
  0
LINE
  8
0
 62
7
 10
4.78089288891734
 20
0.9059212823828132
 30
0
 11
5.168570294956794
 21
0.9910069149713092
 31
0
  0
LINE
  8
0
 62
7
 10
4.623637709709991
 20
0.8627581437539193
 30
0
 11
4.71401524276611
 21
0.8627581437539193
 31
0
  0
LINE
  8
0
 62
7
 10
5.314507278321194
 20
1.35657413584771
 30
0
 11
5.083125033472083
 21
1.580938170330425
 31
0
  0
LINE
  8
0
 62
7
 10
5.415533333008411
 20
1.04520921304512
 30
0
 11
5.301755358969299
 21
1.346757776006911
 31
0
  0
LINE
  8
0
 62
7
 10
4.974904214837297
 20
1.37037201261711
 30
0
 11
4.974904214837297
 21
1.370372012617212
 31
0
  0
LINE
  8
0
 62
7
 10
5.1017556649381
 20
1.396758098116101
 30
0
 11
4.976062860005303
 21
1.225673165825021
 31
0
  0
LINE
  8
0
 62
7
 10
4.974904214837297
 20
1.37037201261711
 30
0
 11
5.1017556649381
 21
1.396758098116101
 31
0
  0
LINE
  8
0
 62
7
 10
4.976062860005303
 20
1.225673165825021
 30
0
 11
4.974904214837297
 21
1.37037201261711
 31
0
  0
LINE
  8
0
 62
7
 10
4.974904214837297
 20
1.370372012617212
 30
0
 11
4.974904214837297
 21
1.37037201261711
 31
0
  0
LINE
  8
0
 62
7
 10
5.168570294956794
 20
0.9910069149713092
 30
0
 11
5.415533333008411
 21
1.04520921304512
 31
0
  0
LINE
  8
0
 62
7
 10
4.776195199612019
 20
0.9421843545576268
 30
0
 11
5.314507278321194
 21
1.35657413584771
 31
0
  0
LINE
  8
0
 62
7
 10
4.974904214837297
 20
1.37037201261711
 30
0
 11
5.111197222135788
 21
1.635558464097223
 31
0
  0
LINE
  8
0
 62
7
 10
4.71401524276611
 20
0.8627581437539193
 30
0
 11
4.974904214837297
 21
1.37037201261711
 31
0
  0
LINE
  8
0
 62
7
  6
DASHED
 10
1.672530823643698
 20
1.663994510369215
 30
0
 11
1.558554407556294
 21
1.573103797663018
 31
0
  0
LINE
  8
0
 62
7
  6
DASHED
 10
1.963424919228899
 20
1.068607430152217
 30
0
 11
1.83644142920649
 21
1.032416680661103
 31
0
  0
LINE
  8
0
 62
7
  6
DASHED
 10
2.003809101145787
 20
1.061992528860821
 30
0
 11
1.804458564346613
 21
1.094646010019104
 31
0
  0
LINE
  8
0
 62
7
  6
DASHED
 10
2.037529209385291
 20
1.038806469072617
 30
0
 11
1.721460234668193
 21
1.256136558671904
 31
0
  0
LINE
  8
0
 62
7
 10
2.614507278321196
 20
1.35657413584771
 30
0
 11
2.383125033472083
 21
1.580938170330425
 31
0
  0
LINE
  8
0
 62
7
 10
2.715533333008411
 20
1.04520921304512
 30
0
 11
2.601755358969298
 21
1.346757776006911
 31
0
  0
LINE
  8
0
 62
7
 10
2.674314215356397
 20
0.7204702975797992
 30
0
 11
2.699814837706115
 21
1.041759390859617
 31
0
  0
LINE
  8
0
 62
7
 10
2.498702030164903
 20
0.444219072623615
 30
0
 11
2.658623465172104
 21
0.7240441927005159
 31
0
  0
LINE
  8
0
 62
7
 10
2.222150314549596
 20
0.2690804775975121
 30
0
 11
2.48602806081438
 21
0.4541358699182165
 31
0
  0
LINE
  8
0
 62
7
 10
1.8973412504023
 20
0.2284178322658992
 30
0
 11
2.214907475034794
 21
0.2834510601690127
 31
0
  0
LINE
  8
0
 62
7
 10
1.58614988398549
 20
0.3299772353026056
 30
0
 11
1.896909277558196
 21
0.2445046519372991
 31
0
  0
LINE
  8
0
 62
7
 10
1.347857135442086
 20
0.5544119582605054
 30
0
 11
1.592611067201782
 21
0.344715806438515
 31
0
  0
LINE
  8
0
 62
7
 10
1.227856980703073
 20
0.8589679329846114
 30
0
 11
1.359980640808921
 21
0.5649946320863091
 31
0
  0
LINE
  8
0
 62
7
 10
1.249009050072986
 20
1.185628259377219
 30
0
 11
1.243333320776117
 21
0.8633787453391998
 31
0
  0
LINE
  8
0
 62
7
 10
1.407283944697905
 20
1.47216523187641
 30
0
 11
1.264890033549426
 21
1.183026965179306
 31
0
  0
LINE
  8
0
 62
7
 10
1.558554407556294
 20
1.573103797663018
 30
0
 11
1.420544297052606
 21
1.463047369017702
 31
0
  0
LINE
  8
0
 62
7
  6
DASHED
 10
1.994221038799005
 20
1.724573255411204
 30
0
 11
1.680644491862913
 21
1.650097001394213
 31
0
  0
LINE
  8
0
 62
7
 10
1.887280366572712
 20
0.9334989323161138
 30
0
 11
1.887280366572712
 21
0.9334989323161138
 31
0
  0
LINE
  8
0
 62
7
 10
1.887280366572712
 20
0.9334989323161138
 30
0
 11
1.526455730340211
 21
1.635558464097223
 31
0
  0
LINE
  8
0
 62
7
 10
2.274904214837297
 20
1.37037201261711
 30
0
 11
2.274904214837297
 21
1.370372012617212
 31
0
  0
LINE
  8
0
 62
7
 10
2.4017556649381
 20
1.396758098116101
 30
0
 11
2.276062860005302
 21
1.225673165825021
 31
0
  0
LINE
  8
0
 62
7
 10
2.274904214837297
 20
1.37037201261711
 30
0
 11
2.4017556649381
 21
1.396758098116101
 31
0
  0
LINE
  8
0
 62
7
 10
2.276062860005302
 20
1.225673165825021
 30
0
 11
2.274904214837297
 21
1.37037201261711
 31
0
  0
LINE
  8
0
 62
7
 10
2.274904214837297
 20
1.370372012617212
 30
0
 11
2.274904214837297
 21
1.37037201261711
 31
0
  0
LINE
  8
0
 62
7
  6
DASHED
 10
2.062306721860514
 20
0.9567192810977141
 30
0
 11
1.994221038799005
 21
1.724573255411204
 31
0
  0
LINE
  8
0
 62
7
 10
1.721460234668193
 20
1.256136558671904
 30
0
 11
1.407283944697905
 21
1.47216523187641
 31
0
  0
LINE
  8
0
 62
7
 10
1.804458564346613
 20
1.094646010019104
 30
0
 11
1.249009050072986
 21
1.185628259377219
 31
0
  0
LINE
  8
0
 62
7
 10
1.83644142920649
 20
1.032416680661103
 30
0
 11
1.227856980703073
 21
0.8589679329846114
 31
0
  0
LINE
  8
0
 62
7
 10
1.854718793700129
 20
0.996854258725318
 30
0
 11
1.347857135442086
 21
0.5544119582605054
 31
0
  0
LINE
  8
0
 62
7
 10
1.867552580924137
 20
0.9718834509014125
 30
0
 11
1.58614988398549
 21
0.3299772353026056
 31
0
  0
LINE
  8
0
 62
7
 10
1.877918881070218
 20
0.9517136534540187
 30
0
 11
1.8973412504023
 21
0.2284178322658992
 31
0
  0
LINE
  8
0
 62
7
 10
1.887280366572712
 20
0.9334989323161138
 30
0
 11
2.222150314549596
 21
0.2690804775975121
 31
0
  0
LINE
  8
0
 62
7
 10
1.896625327877191
 20
0.9153163624492153
 30
0
 11
2.498702030164903
 21
0.444219072623615
 31
0
  0
LINE
  8
0
 62
7
 10
1.928555676023491
 20
0.8903323356338224
 30
0
 11
2.674314215356397
 21
0.7204702975797992
 31
0
  0
LINE
  8
0
 62
7
 10
1.968456108562794
 20
0.8812441811804167
 30
0
 11
2.715533333008411
 21
1.04520921304512
 31
0
  0
LINE
  8
0
 62
7
 10
2.008427094912229
 20
0.8900168272148149
 30
0
 11
2.614507278321196
 21
1.35657413584771
 31
0
  0
LINE
  8
0
 62
7
 10
2.274904214837297
 20
1.37037201261711
 30
0
 11
2.411197222135788
 21
1.635558464097223
 31
0
  0
LINE
  8
0
 62
7
  6
DASHED
 10
2.058161675495794
 20
1.003466118050215
 30
0
 11
1.672530823643698
 21
1.663994510369215
 31
0
  0
LINE
  8
0
 62
7
  6
DASHDOT
 10
1.968826476237999
 20
1.800003301242599
 30
0
 11
1.968826476237999
 21
1.858751213129916
 31
0
  0
LINE
  8
0
 62
7
  6
DASHDOT
 10
1.218826476237999
 20
0.9750033012425994
 30
0
 11
1.08489828744391
 21
0.9750033012425994
 31
0
  0
LINE
  8
0
 62
7
  6
DASHDOT
 10
1.968826476237999
 20
0.1
 30
0
 11
1.968826476237999
 21
1.725003301242599
 31
0
  0
LINE
  8
0
 62
7
  6
DASHDOT
 10
1.968826476237999
 20
1.725003301242599
 30
0
 11
1.968826476237999
 21
1.800003301242599
 31
0
  0
LINE
  8
0
 62
7
  6
DASHED
 10
1.924069715954291
 20
1.057391056254914
 30
0
 11
1.854718793700129
 21
0.996854258725318
 31
0
  0
LINE
  8
0
 62
7
  6
DASHED
 10
1.89324052663309
 20
1.030480089085599
 30
0
 11
1.867552580924137
 21
0.9718834509014125
 31
0
  0
LINE
  8
0
 62
7
  6
DASHED
 10
1.876810209279502
 20
0.9930009783724092
 30
0
 11
1.877918881070218
 21
0.9517136534540187
 31
0
  0
LINE
  8
0
 62
7
 10
2.040854295133293
 20
0.9149791138492147
 30
0
 11
2.274904214837297
 21
1.37037201261711
 31
0
  0
LINE
  8
0
 62
7
  6
DASHDOT
 10
2.851252171523898
 20
0.9750033012425994
 30
0
 11
2.718826476238
 21
0.9750033012425994
 31
0
  0
LINE
  8
0
 62
7
  6
DASHDOT
 10
2.718826476238
 20
0.9750033012425994
 30
0
 11
1.218826476237999
 21
0.9750033012425994
 31
0
  0
LINE
  8
0
 62
7
 10
2.798826476238
 20
5.8950033012426
 30
0
 11
3.271326476237999
 21
5.8950033012426
 31
0
  0
LINE
  8
0
 62
7
 10
2.798826476238
 20
6.095003301242599
 30
0
 11
2.798826476238
 21
5.8950033012426
 31
0
  0
LINE
  8
0
 62
7
 10
3.271326476237999
 20
6.1950033012426
 30
0
 11
0.6913264762379696
 21
6.1950033012426
 31
0
  0
LINE
  8
0
 62
7
 10
0.6913264762379696
 20
3.4450033012426
 30
0
 11
3.271326476237999
 21
3.4450033012426
 31
0
  0
LINE
  8
0
 62
7
  6
DASHDOT
 10
0.6663264762379697
 20
6.1950033012426
 30
0
 11
0.6663264762379697
 21
6.095003301242599
 31
0
  0
LINE
  8
0
 62
7
  6
DASHDOT
 10
0.6663264762379697
 20
6.095003301242599
 30
0
 11
0.6663264762379697
 21
5.8950033012426
 31
0
  0
LINE
  8
0
 62
7
  6
DASHDOT
 10
3.271326476237999
 20
6.1950033012426
 30
0
 11
3.271326476237999
 21
6.095003301242599
 31
0
  0
LINE
  8
0
 62
7
  6
DASHDOT
 10
3.271326476237999
 20
6.095003301242599
 30
0
 11
3.271326476237999
 21
5.8950033012426
 31
0
  0
LINE
  8
0
 62
7
  6
DASHDOT
 10
3.271326476237999
 20
3.4450033012426
 30
0
 11
3.271326476237999
 21
3.345003301242601
 31
0
  0
LINE
  8
0
 62
7
  6
DASHDOT
 10
3.271326476237999
 20
3.345003301242601
 30
0
 11
3.271326476237999
 21
3.1450033012426
 31
0
  0
LINE
  8
0
 62
7
  6
DASHDOT
 10
0.6663264762379697
 20
3.4450033012426
 30
0
 11
0.6663264762379697
 21
3.345003301242601
 31
0
  0
LINE
  8
0
 62
7
  6
DASHDOT
 10
0.6663264762379697
 20
3.345003301242601
 30
0
 11
0.6663264762379697
 21
3.1450033012426
 31
0
  0
LINE
  8
0
 62
7
  6
DASHDOT
 10
0.6663264762379697
 20
6.245003301242601
 30
0
 11
0.6663264762379697
 21
6.1950033012426
 31
0
  0
LINE
  8
0
 62
7
  6
DASHDOT
 10
3.271326476237999
 20
6.245003301242601
 30
0
 11
3.271326476237999
 21
6.1950033012426
 31
0
  0
LINE
  8
0
 62
7
  6
DASHDOT
 10
0.6663264762379697
 20
3.495003301242601
 30
0
 11
0.6663264762379697
 21
3.4450033012426
 31
0
  0
LINE
  8
0
 62
7
  6
DASHDOT
 10
3.271326476237999
 20
3.495003301242601
 30
0
 11
3.271326476237999
 21
3.4450033012426
 31
0
  0
LINE
  8
0
 62
7
  6
DASHDOT
 10
0.6663264762379697
 20
5.8950033012426
 30
0
 11
0.6663264762379697
 21
5.845003301242599
 31
0
  0
LINE
  8
0
 62
7
  6
DASHDOT
 10
0.6663264762379697
 20
3.1450033012426
 30
0
 11
0.6663264762379697
 21
3.0950033012426
 31
0
  0
LINE
  8
0
 62
7
  6
DASHDOT
 10
3.271326476237999
 20
5.8950033012426
 30
0
 11
3.271326476237999
 21
5.845003301242599
 31
0
  0
LINE
  8
0
 62
7
  6
DASHDOT
 10
3.271326476237999
 20
3.1450033012426
 30
0
 11
3.271326476237999
 21
3.0950033012426
 31
0
  0
LINE
  8
0
 62
7
 10
1.138826476237999
 20
6.095003301242599
 30
0
 11
1.118826476238042
 21
6.095003301242599
 31
0
  0
LINE
  8
0
 62
7
 10
1.138826476238028
 20
5.8950033012426
 30
0
 11
1.118826476238042
 21
5.8950033012426
 31
0
  0
LINE
  8
0
 62
7
 10
1.118826476238042
 20
5.8950033012426
 30
0
 11
0.6913264762379696
 21
5.8950033012426
 31
0
  0
LINE
  8
0
 62
7
  6
DASHED
 10
1.138826476237999
 20
6.095003301242599
 30
0
 11
2.798826476238
 21
6.095003301242599
 31
0
  0
LINE
  8
0
 62
7
  6
DASHED
 10
1.138826476238028
 20
5.8950033012426
 30
0
 11
2.798826476238
 21
5.8950033012426
 31
0
  0
LINE
  8
0
 62
7
 10
0.6913264762379696
 20
3.345003301242601
 30
0
 11
3.271326476237999
 21
3.345003301242601
 31
0
  0
LINE
  8
0
 62
7
 10
2.798826476238
 20
6.095003301242599
 30
0
 11
3.271326476237999
 21
6.095003301242599
 31
0
  0
LINE
  8
0
 62
7
 10
2.798826476238
 20
6.095003301242599
 30
0
 11
3.271326476237999
 21
6.095003301242599
 31
0
  0
LINE
  8
0
 62
7
 10
0.6663264762379697
 20
3.345003301242601
 30
0
 11
0.6913264762379696
 21
3.345003301242601
 31
0
  0
LINE
  8
0
 62
7
 10
1.118826476238042
 20
6.095003301242599
 30
0
 11
0.6913264762379696
 21
6.095003301242599
 31
0
  0
LINE
  8
0
 62
7
 10
0.6663264762379697
 20
6.1950033012426
 30
0
 11
0.6913264762379696
 21
6.1950033012426
 31
0
  0
LINE
  8
0
 62
7
 10
0.6663264762379697
 20
3.4450033012426
 30
0
 11
0.6913264762379696
 21
3.4450033012426
 31
0
  0
LINE
  8
0
 62
7
 10
1.138826476238028
 20
5.8950033012426
 30
0
 11
1.138826476237999
 21
6.095003301242599
 31
0
  0
LINE
  8
0
 62
7
 10
0.6663264762379697
 20
6.095003301242599
 30
0
 11
1.138826476237999
 21
6.095003301242599
 31
0
  0
LINE
  8
0
 62
7
 10
0.6663264762379697
 20
5.8950033012426
 30
0
 11
1.138826476238028
 21
5.8950033012426
 31
0
  0
LINE
  8
0
 62
7
 10
0.6663264762379697
 20
3.1450033012426
 30
0
 11
3.271326476237999
 21
3.1450033012426
 31
0
  0
LINE
  8
0
 62
7
  6
DASHED
 10
0.6913264762379696
 20
5.8950033012426
 30
0
 11
1.138826476238028
 21
5.8950033012426
 31
0
  0
LINE
  8
0
 62
7
  6
DASHED
 10
0.6913264762379696
 20
6.095003301242599
 30
0
 11
1.138826476237999
 21
6.095003301242599
 31
0
  0
LINE
  8
0
 62
7
 10
1.89802647623801
 20
3.4450033012426
 30
0
 11
1.89802647623801
 21
3.460003301242601
 31
0
  0
LINE
  8
0
 62
7
 10
1.89802647623801
 20
3.460003301242601
 30
0
 11
1.91802647623801
 21
3.460003301242601
 31
0
  0
LINE
  8
0
 62
7
 10
1.91802647623801
 20
3.460003301242601
 30
0
 11
1.91802647623801
 21
3.501431872671208
 31
0
  0
LINE
  8
0
 62
7
 10
1.91802647623801
 20
3.501431872671208
 30
0
 11
1.90802647623801
 21
3.501431872671208
 31
0
  0
LINE
  8
0
 62
7
 10
1.90802647623801
 20
3.501431872671208
 30
0
 11
1.90802647623801
 21
3.561431872671209
 31
0
  0
LINE
  8
0
 62
7
 10
1.90802647623801
 20
3.561431872671209
 30
0
 11
1.89802647623801
 21
3.561431872671209
 31
0
  0
LINE
  8
0
 62
7
 10
1.89802647623801
 20
3.561431872671209
 30
0
 11
1.89802647623801
 21
3.576431872671209
 31
0
  0
LINE
  8
0
 62
7
 10
1.89802647623801
 20
3.576431872671209
 30
0
 11
1.924794802544493
 21
3.576431872671209
 31
0
  0
LINE
  8
0
 62
7
 10
2.039626476237987
 20
3.576431872671209
 30
0
 11
2.039626476237987
 21
3.561431872671209
 31
0
  0
LINE
  8
0
 62
7
 10
2.039626476237987
 20
3.561431872671209
 30
0
 11
2.029626476237987
 21
3.561431872671209
 31
0
  0
LINE
  8
0
 62
7
 10
2.029626476237987
 20
3.561431872671209
 30
0
 11
2.029626476237987
 21
3.501431872671208
 31
0
  0
LINE
  8
0
 62
7
 10
2.029626476237987
 20
3.501431872671208
 30
0
 11
2.019626476237987
 21
3.501431872671208
 31
0
  0
LINE
  8
0
 62
7
 10
2.019626476237987
 20
3.501431872671208
 30
0
 11
2.019626476237987
 21
3.460003301242601
 31
0
  0
LINE
  8
0
 62
7
 10
2.019626476237987
 20
3.460003301242601
 30
0
 11
2.039626476237987
 21
3.460003301242601
 31
0
  0
LINE
  8
0
 62
7
 10
2.039626476237987
 20
3.460003301242601
 30
0
 11
2.039626476237987
 21
3.4450033012426
 31
0
  0
LINE
  8
0
 62
7
 10
1.89802647623801
 20
3.460003301242601
 30
0
 11
2.039626476237987
 21
3.460003301242601
 31
0
  0
LINE
  8
0
 62
7
 10
2.029626476237987
 20
3.501431872671208
 30
0
 11
1.994794802544493
 21
3.501431872671208
 31
0
  0
LINE
  8
0
 62
7
 10
1.89802647623801
 20
3.561431872671209
 30
0
 11
2.039626476237987
 21
3.561431872671209
 31
0
  0
LINE
  8
0
 62
7
 10
1.934794802544493
 20
3.501431872671208
 30
0
 11
1.924794802544493
 21
3.501431872671208
 31
0
  0
LINE
  8
0
 62
7
 10
1.934794802544493
 20
3.501431872671208
 30
0
 11
1.924794802544493
 21
3.501431872671208
 31
0
  0
LINE
  8
0
 62
7
 10
1.924794802544493
 20
3.501431872671208
 30
0
 11
1.90802647623801
 21
3.501431872671208
 31
0
  0
LINE
  8
0
 62
7
 10
1.924794802544493
 20
3.576431872671209
 30
0
 11
1.994794802544493
 21
3.576431872671209
 31
0
  0
LINE
  8
0
 62
7
 10
1.924794802544493
 20
3.576431872671209
 30
0
 11
1.994794802544493
 21
3.576431872671209
 31
0
  0
LINE
  8
0
 62
7
 10
1.994794802544493
 20
3.576431872671209
 30
0
 11
2.039626476237987
 21
3.576431872671209
 31
0
  0
LINE
  8
0
 62
7
 10
1.994794802544493
 20
3.501431872671208
 30
0
 11
1.984794802544493
 21
3.501431872671208
 31
0
  0
LINE
  8
0
 62
7
 10
1.994794802544493
 20
3.501431872671208
 30
0
 11
1.984794802544493
 21
3.501431872671208
 31
0
  0
LINE
  8
0
 62
7
 10
1.984794802544493
 20
3.501431872671208
 30
0
 11
1.934794802544493
 21
3.501431872671208
 31
0
  0
LINE
  8
0
 62
7
 10
1.924794802544493
 20
3.501431872671208
 30
0
 11
1.994794802544493
 21
3.501431872671208
 31
0
  0
LINE
  8
0
 62
7
 10
1.968826476237999
 20
3.641431872671208
 30
0
 11
1.89802647623801
 21
3.641431872671208
 31
0
  0
LINE
  8
0
 62
7
 10
1.609101668413001
 20
3.641431872671208
 30
0
 11
1.609101668413001
 21
3.576431872671209
 31
0
  0
LINE
  8
0
 62
7
 10
1.609101668413001
 20
3.576431872671209
 30
0
 11
2.066957868436119
 21
3.576431872671209
 31
0
  0
LINE
  8
0
 62
7
 10
2.066957868436119
 20
3.576431872671209
 30
0
 11
2.066957868436119
 21
3.641431872671208
 31
0
  0
LINE
  8
0
 62
7
 10
2.066957868436119
 20
3.641431872671208
 30
0
 11
2.039626476237987
 21
3.641431872671208
 31
0
  0
LINE
  8
0
 62
7
 10
1.89802647623801
 20
3.641431872671208
 30
0
 11
1.89802647623801
 21
3.656431872671208
 31
0
  0
LINE
  8
0
 62
7
 10
1.89802647623801
 20
3.656431872671208
 30
0
 11
1.91802647623801
 21
3.656431872671208
 31
0
  0
LINE
  8
0
 62
7
 10
1.91802647623801
 20
3.656431872671208
 30
0
 11
1.91802647623801
 21
3.697860444099701
 31
0
  0
LINE
  8
0
 62
7
 10
1.91802647623801
 20
3.697860444099701
 30
0
 11
1.90802647623801
 21
3.697860444099701
 31
0
  0
LINE
  8
0
 62
7
 10
1.90802647623801
 20
3.697860444099701
 30
0
 11
1.90802647623801
 21
3.757860444099701
 31
0
  0
LINE
  8
0
 62
7
 10
1.90802647623801
 20
3.757860444099701
 30
0
 11
1.89802647623801
 21
3.757860444099701
 31
0
  0
LINE
  8
0
 62
7
 10
1.89802647623801
 20
3.757860444099701
 30
0
 11
1.89802647623801
 21
3.772860444099701
 31
0
  0
LINE
  8
0
 62
7
 10
1.89802647623801
 20
3.772860444099701
 30
0
 11
2.039626476237987
 21
3.772860444099701
 31
0
  0
LINE
  8
0
 62
7
 10
2.039626476237987
 20
3.772860444099701
 30
0
 11
2.039626476237987
 21
3.757860444099701
 31
0
  0
LINE
  8
0
 62
7
 10
2.039626476237987
 20
3.757860444099701
 30
0
 11
2.029626476237987
 21
3.757860444099701
 31
0
  0
LINE
  8
0
 62
7
 10
2.029626476237987
 20
3.757860444099701
 30
0
 11
2.029626476237987
 21
3.697860444099701
 31
0
  0
LINE
  8
0
 62
7
 10
2.029626476237987
 20
3.697860444099701
 30
0
 11
2.019626476237987
 21
3.697860444099701
 31
0
  0
LINE
  8
0
 62
7
 10
2.019626476237987
 20
3.697860444099701
 30
0
 11
2.019626476237987
 21
3.656431872671208
 31
0
  0
LINE
  8
0
 62
7
 10
2.019626476237987
 20
3.656431872671208
 30
0
 11
2.039626476237987
 21
3.656431872671208
 31
0
  0
LINE
  8
0
 62
7
 10
2.039626476237987
 20
3.656431872671208
 30
0
 11
2.039626476237987
 21
3.641431872671208
 31
0
  0
LINE
  8
0
 62
7
 10
2.039626476237987
 20
3.641431872671208
 30
0
 11
1.968826476237999
 21
3.641431872671208
 31
0
  0
LINE
  8
0
 62
7
 10
1.89802647623801
 20
3.656431872671208
 30
0
 11
2.039626476237987
 21
3.656431872671208
 31
0
  0
LINE
  8
0
 62
7
 10
2.029626476237987
 20
3.697860444099701
 30
0
 11
1.90802647623801
 21
3.697860444099701
 31
0
  0
LINE
  8
0
 62
7
 10
1.89802647623801
 20
3.757860444099701
 30
0
 11
2.039626476237987
 21
3.757860444099701
 31
0
  0
LINE
  8
0
 62
7
 10
1.89802647623801
 20
3.641431872671208
 30
0
 11
1.609101668413001
 21
3.641431872671208
 31
0
  0
LINE
  8
0
 62
7
 10
1.968826476237999
 20
3.837860444099701
 30
0
 11
1.89802647623801
 21
3.837860444099701
 31
0
  0
LINE
  8
0
 62
7
 10
1.363053302337998
 20
3.837860444099701
 30
0
 11
1.363053302337998
 21
3.772860444099701
 31
0
  0
LINE
  8
0
 62
7
 10
1.363053302337998
 20
3.772860444099701
 30
0
 11
2.087741349727003
 21
3.772860444099701
 31
0
  0
LINE
  8
0
 62
7
 10
2.087741349727003
 20
3.772860444099701
 30
0
 11
2.087741349727003
 21
3.837860444099701
 31
0
  0
LINE
  8
0
 62
7
 10
2.087741349727003
 20
3.837860444099701
 30
0
 11
2.039626476237987
 21
3.837860444099701
 31
0
  0
LINE
  8
0
 62
7
 10
1.89802647623801
 20
3.837860444099701
 30
0
 11
1.89802647623801
 21
3.852860444099701
 31
0
  0
LINE
  8
0
 62
7
 10
1.89802647623801
 20
3.852860444099701
 30
0
 11
1.91802647623801
 21
3.852860444099701
 31
0
  0
LINE
  8
0
 62
7
 10
1.91802647623801
 20
3.852860444099701
 30
0
 11
1.91802647623801
 21
3.89428901552831
 31
0
  0
LINE
  8
0
 62
7
 10
1.91802647623801
 20
3.89428901552831
 30
0
 11
1.90802647623801
 21
3.89428901552831
 31
0
  0
LINE
  8
0
 62
7
 10
1.90802647623801
 20
3.89428901552831
 30
0
 11
1.90802647623801
 21
3.95428901552831
 31
0
  0
LINE
  8
0
 62
7
 10
1.90802647623801
 20
3.95428901552831
 30
0
 11
1.89802647623801
 21
3.95428901552831
 31
0
  0
LINE
  8
0
 62
7
 10
1.89802647623801
 20
3.95428901552831
 30
0
 11
1.89802647623801
 21
3.96928901552831
 31
0
  0
LINE
  8
0
 62
7
 10
1.89802647623801
 20
3.96928901552831
 30
0
 11
2.039626476237987
 21
3.96928901552831
 31
0
  0
LINE
  8
0
 62
7
 10
2.039626476237987
 20
3.96928901552831
 30
0
 11
2.039626476237987
 21
3.95428901552831
 31
0
  0
LINE
  8
0
 62
7
 10
2.039626476237987
 20
3.95428901552831
 30
0
 11
2.029626476237987
 21
3.95428901552831
 31
0
  0
LINE
  8
0
 62
7
 10
2.029626476237987
 20
3.95428901552831
 30
0
 11
2.029626476237987
 21
3.89428901552831
 31
0
  0
LINE
  8
0
 62
7
 10
2.029626476237987
 20
3.89428901552831
 30
0
 11
2.019626476237987
 21
3.89428901552831
 31
0
  0
LINE
  8
0
 62
7
 10
2.019626476237987
 20
3.89428901552831
 30
0
 11
2.019626476237987
 21
3.852860444099701
 31
0
  0
LINE
  8
0
 62
7
 10
2.019626476237987
 20
3.852860444099701
 30
0
 11
2.039626476237987
 21
3.852860444099701
 31
0
  0
LINE
  8
0
 62
7
 10
2.039626476237987
 20
3.852860444099701
 30
0
 11
2.039626476237987
 21
3.837860444099701
 31
0
  0
LINE
  8
0
 62
7
 10
2.039626476237987
 20
3.837860444099701
 30
0
 11
1.968826476237999
 21
3.837860444099701
 31
0
  0
LINE
  8
0
 62
7
 10
1.89802647623801
 20
3.852860444099701
 30
0
 11
2.039626476237987
 21
3.852860444099701
 31
0
  0
LINE
  8
0
 62
7
 10
2.029626476237987
 20
3.89428901552831
 30
0
 11
1.90802647623801
 21
3.89428901552831
 31
0
  0
LINE
  8
0
 62
7
 10
1.89802647623801
 20
3.95428901552831
 30
0
 11
2.039626476237987
 21
3.95428901552831
 31
0
  0
LINE
  8
0
 62
7
 10
1.89802647623801
 20
3.837860444099701
 30
0
 11
1.363053302337998
 21
3.837860444099701
 31
0
  0
LINE
  8
0
 62
7
 10
1.968826476237999
 20
4.03428901552831
 30
0
 11
1.89802647623801
 21
4.03428901552831
 31
0
  0
LINE
  8
0
 62
7
 10
1.232402710887996
 20
4.03428901552831
 30
0
 11
1.232402710887996
 21
3.96928901552831
 31
0
  0
LINE
  8
0
 62
7
 10
1.232402710887996
 20
3.96928901552831
 30
0
 11
2.085871943179081
 21
3.96928901552831
 31
0
  0
LINE
  8
0
 62
7
 10
2.085871943179081
 20
3.96928901552831
 30
0
 11
2.085871943179081
 21
4.03428901552831
 31
0
  0
LINE
  8
0
 62
7
 10
2.085871943179081
 20
4.03428901552831
 30
0
 11
2.039626476237987
 21
4.03428901552831
 31
0
  0
LINE
  8
0
 62
7
 10
1.89802647623801
 20
4.03428901552831
 30
0
 11
1.89802647623801
 21
4.049289015528311
 31
0
  0
LINE
  8
0
 62
7
 10
1.89802647623801
 20
4.049289015528311
 30
0
 11
1.91802647623801
 21
4.049289015528311
 31
0
  0
LINE
  8
0
 62
7
 10
1.91802647623801
 20
4.049289015528311
 30
0
 11
1.91802647623801
 21
4.090717586956919
 31
0
  0
LINE
  8
0
 62
7
 10
1.91802647623801
 20
4.090717586956919
 30
0
 11
1.90802647623801
 21
4.090717586956919
 31
0
  0
LINE
  8
0
 62
7
 10
1.90802647623801
 20
4.090717586956919
 30
0
 11
1.90802647623801
 21
4.15071758695692
 31
0
  0
LINE
  8
0
 62
7
 10
1.90802647623801
 20
4.15071758695692
 30
0
 11
1.89802647623801
 21
4.15071758695692
 31
0
  0
LINE
  8
0
 62
7
 10
1.89802647623801
 20
4.15071758695692
 30
0
 11
1.89802647623801
 21
4.165717586956919
 31
0
  0
LINE
  8
0
 62
7
 10
1.89802647623801
 20
4.165717586956919
 30
0
 11
2.039626476237987
 21
4.165717586956919
 31
0
  0
LINE
  8
0
 62
7
 10
2.039626476237987
 20
4.165717586956919
 30
0
 11
2.039626476237987
 21
4.15071758695692
 31
0
  0
LINE
  8
0
 62
7
 10
2.039626476237987
 20
4.15071758695692
 30
0
 11
2.029626476237987
 21
4.15071758695692
 31
0
  0
LINE
  8
0
 62
7
 10
2.029626476237987
 20
4.15071758695692
 30
0
 11
2.029626476237987
 21
4.090717586956919
 31
0
  0
LINE
  8
0
 62
7
 10
2.029626476237987
 20
4.090717586956919
 30
0
 11
2.019626476237987
 21
4.090717586956919
 31
0
  0
LINE
  8
0
 62
7
 10
2.019626476237987
 20
4.090717586956919
 30
0
 11
2.019626476237987
 21
4.049289015528311
 31
0
  0
LINE
  8
0
 62
7
 10
2.019626476237987
 20
4.049289015528311
 30
0
 11
2.039626476237987
 21
4.049289015528311
 31
0
  0
LINE
  8
0
 62
7
 10
2.039626476237987
 20
4.049289015528311
 30
0
 11
2.039626476237987
 21
4.03428901552831
 31
0
  0
LINE
  8
0
 62
7
 10
2.039626476237987
 20
4.03428901552831
 30
0
 11
1.968826476237999
 21
4.03428901552831
 31
0
  0
LINE
  8
0
 62
7
 10
1.89802647623801
 20
4.049289015528311
 30
0
 11
2.039626476237987
 21
4.049289015528311
 31
0
  0
LINE
  8
0
 62
7
 10
2.029626476237987
 20
4.090717586956919
 30
0
 11
1.90802647623801
 21
4.090717586956919
 31
0
  0
LINE
  8
0
 62
7
 10
1.89802647623801
 20
4.15071758695692
 30
0
 11
2.039626476237987
 21
4.15071758695692
 31
0
  0
LINE
  8
0
 62
7
 10
1.89802647623801
 20
4.03428901552831
 30
0
 11
1.232402710887996
 21
4.03428901552831
 31
0
  0
LINE
  8
0
 62
7
 10
1.968826476237999
 20
4.23071758695692
 30
0
 11
1.89802647623801
 21
4.23071758695692
 31
0
  0
LINE
  8
0
 62
7
 10
1.242038397087978
 20
4.23071758695692
 30
0
 11
1.242038397087978
 21
4.165717586956919
 31
0
  0
LINE
  8
0
 62
7
 10
1.242038397087978
 20
4.165717586956919
 30
0
 11
2.061705764526793
 21
4.165717586956919
 31
0
  0
LINE
  8
0
 62
7
 10
2.061705764526793
 20
4.165717586956919
 30
0
 11
2.061705764526793
 21
4.23071758695692
 31
0
  0
LINE
  8
0
 62
7
 10
2.061705764526793
 20
4.23071758695692
 30
0
 11
2.039626476237987
 21
4.23071758695692
 31
0
  0
LINE
  8
0
 62
7
 10
1.89802647623801
 20
4.23071758695692
 30
0
 11
1.89802647623801
 21
4.245717586956919
 31
0
  0
LINE
  8
0
 62
7
 10
1.89802647623801
 20
4.245717586956919
 30
0
 11
1.91802647623801
 21
4.245717586956919
 31
0
  0
LINE
  8
0
 62
7
 10
1.91802647623801
 20
4.245717586956919
 30
0
 11
1.91802647623801
 21
4.287146158385498
 31
0
  0
LINE
  8
0
 62
7
 10
1.91802647623801
 20
4.287146158385498
 30
0
 11
1.90802647623801
 21
4.287146158385498
 31
0
  0
LINE
  8
0
 62
7
 10
1.90802647623801
 20
4.287146158385498
 30
0
 11
1.90802647623801
 21
4.347146158385498
 31
0
  0
LINE
  8
0
 62
7
 10
1.90802647623801
 20
4.347146158385498
 30
0
 11
1.89802647623801
 21
4.347146158385498
 31
0
  0
LINE
  8
0
 62
7
 10
1.89802647623801
 20
4.347146158385498
 30
0
 11
1.89802647623801
 21
4.362146158385499
 31
0
  0
LINE
  8
0
 62
7
 10
1.89802647623801
 20
4.362146158385499
 30
0
 11
2.039626476237987
 21
4.362146158385499
 31
0
  0
LINE
  8
0
 62
7
 10
2.039626476237987
 20
4.362146158385499
 30
0
 11
2.039626476237987
 21
4.347146158385498
 31
0
  0
LINE
  8
0
 62
7
 10
2.039626476237987
 20
4.347146158385498
 30
0
 11
2.029626476237987
 21
4.347146158385498
 31
0
  0
LINE
  8
0
 62
7
 10
2.029626476237987
 20
4.347146158385498
 30
0
 11
2.029626476237987
 21
4.287146158385498
 31
0
  0
LINE
  8
0
 62
7
 10
2.029626476237987
 20
4.287146158385498
 30
0
 11
2.019626476237987
 21
4.287146158385498
 31
0
  0
LINE
  8
0
 62
7
 10
2.019626476237987
 20
4.287146158385498
 30
0
 11
2.019626476237987
 21
4.245717586956919
 31
0
  0
LINE
  8
0
 62
7
 10
2.019626476237987
 20
4.245717586956919
 30
0
 11
2.039626476237987
 21
4.245717586956919
 31
0
  0
LINE
  8
0
 62
7
 10
2.039626476237987
 20
4.245717586956919
 30
0
 11
2.039626476237987
 21
4.23071758695692
 31
0
  0
LINE
  8
0
 62
7
 10
2.039626476237987
 20
4.23071758695692
 30
0
 11
1.968826476237999
 21
4.23071758695692
 31
0
  0
LINE
  8
0
 62
7
 10
1.89802647623801
 20
4.245717586956919
 30
0
 11
2.039626476237987
 21
4.245717586956919
 31
0
  0
LINE
  8
0
 62
7
 10
2.029626476237987
 20
4.287146158385498
 30
0
 11
1.90802647623801
 21
4.287146158385498
 31
0
  0
LINE
  8
0
 62
7
 10
1.89802647623801
 20
4.347146158385498
 30
0
 11
2.039626476237987
 21
4.347146158385498
 31
0
  0
LINE
  8
0
 62
7
 10
1.89802647623801
 20
4.23071758695692
 30
0
 11
1.242038397087978
 21
4.23071758695692
 31
0
  0
LINE
  8
0
 62
7
 10
1.968826476237999
 20
4.427146158385498
 30
0
 11
1.89802647623801
 21
4.427146158385498
 31
0
  0
LINE
  8
0
 62
7
 10
1.227856980687997
 20
4.427146158385498
 30
0
 11
1.227856980687997
 21
4.362146158385499
 31
0
  0
LINE
  8
0
 62
7
 10
1.227856980687997
 20
4.362146158385499
 30
0
 11
2.084723095375826
 21
4.362146158385499
 31
0
  0
LINE
  8
0
 62
7
 10
2.084723095375826
 20
4.362146158385499
 30
0
 11
2.084723095375826
 21
4.427146158385498
 31
0
  0
LINE
  8
0
 62
7
 10
2.084723095375826
 20
4.427146158385498
 30
0
 11
2.039626476237987
 21
4.427146158385498
 31
0
  0
LINE
  8
0
 62
7
 10
1.89802647623801
 20
4.427146158385498
 30
0
 11
1.89802647623801
 21
4.442146158385498
 31
0
  0
LINE
  8
0
 62
7
 10
1.89802647623801
 20
4.442146158385498
 30
0
 11
1.91802647623801
 21
4.442146158385498
 31
0
  0
LINE
  8
0
 62
7
 10
1.91802647623801
 20
4.442146158385498
 30
0
 11
1.91802647623801
 21
4.48357472981402
 31
0
  0
LINE
  8
0
 62
7
 10
1.91802647623801
 20
4.48357472981402
 30
0
 11
1.90802647623801
 21
4.48357472981402
 31
0
  0
LINE
  8
0
 62
7
 10
1.90802647623801
 20
4.48357472981402
 30
0
 11
1.90802647623801
 21
4.543574729814019
 31
0
  0
LINE
  8
0
 62
7
 10
1.90802647623801
 20
4.543574729814019
 30
0
 11
1.89802647623801
 21
4.543574729814019
 31
0
  0
LINE
  8
0
 62
7
 10
1.89802647623801
 20
4.543574729814019
 30
0
 11
1.89802647623801
 21
4.55857472981402
 31
0
  0
LINE
  8
0
 62
7
 10
1.89802647623801
 20
4.55857472981402
 30
0
 11
2.039626476237987
 21
4.55857472981402
 31
0
  0
LINE
  8
0
 62
7
 10
2.039626476237987
 20
4.55857472981402
 30
0
 11
2.039626476237987
 21
4.543574729814019
 31
0
  0
LINE
  8
0
 62
7
 10
2.039626476237987
 20
4.543574729814019
 30
0
 11
2.029626476237987
 21
4.543574729814019
 31
0
  0
LINE
  8
0
 62
7
 10
2.029626476237987
 20
4.543574729814019
 30
0
 11
2.029626476237987
 21
4.48357472981402
 31
0
  0
LINE
  8
0
 62
7
 10
2.029626476237987
 20
4.48357472981402
 30
0
 11
2.019626476237987
 21
4.48357472981402
 31
0
  0
LINE
  8
0
 62
7
 10
2.019626476237987
 20
4.48357472981402
 30
0
 11
2.019626476237987
 21
4.442146158385498
 31
0
  0
LINE
  8
0
 62
7
 10
2.019626476237987
 20
4.442146158385498
 30
0
 11
2.039626476237987
 21
4.442146158385498
 31
0
  0
LINE
  8
0
 62
7
 10
2.039626476237987
 20
4.442146158385498
 30
0
 11
2.039626476237987
 21
4.427146158385498
 31
0
  0
LINE
  8
0
 62
7
 10
2.039626476237987
 20
4.427146158385498
 30
0
 11
1.968826476237999
 21
4.427146158385498
 31
0
  0
LINE
  8
0
 62
7
 10
1.89802647623801
 20
4.442146158385498
 30
0
 11
2.039626476237987
 21
4.442146158385498
 31
0
  0
LINE
  8
0
 62
7
 10
2.029626476237987
 20
4.48357472981402
 30
0
 11
1.90802647623801
 21
4.48357472981402
 31
0
  0
LINE
  8
0
 62
7
 10
1.89802647623801
 20
4.543574729814019
 30
0
 11
2.039626476237987
 21
4.543574729814019
 31
0
  0
LINE
  8
0
 62
7
 10
1.89802647623801
 20
4.427146158385498
 30
0
 11
1.227856980687997
 21
4.427146158385498
 31
0
  0
LINE
  8
0
 62
7
 10
1.968826476237999
 20
4.62357472981402
 30
0
 11
1.89802647623801
 21
4.62357472981402
 31
0
  0
LINE
  8
0
 62
7
 10
1.347857135412996
 20
4.62357472981402
 30
0
 11
1.347857135412996
 21
4.55857472981402
 31
0
  0
LINE
  8
0
 62
7
 10
1.347857135412996
 20
4.55857472981402
 30
0
 11
2.088449460199932
 21
4.55857472981402
 31
0
  0
LINE
  8
0
 62
7
 10
2.088449460199932
 20
4.55857472981402
 30
0
 11
2.088449460199932
 21
4.62357472981402
 31
0
  0
LINE
  8
0
 62
7
 10
2.088449460199932
 20
4.62357472981402
 30
0
 11
2.039626476237987
 21
4.62357472981402
 31
0
  0
LINE
  8
0
 62
7
 10
1.89802647623801
 20
4.62357472981402
 30
0
 11
1.89802647623801
 21
4.63857472981402
 31
0
  0
LINE
  8
0
 62
7
 10
1.89802647623801
 20
4.63857472981402
 30
0
 11
1.91802647623801
 21
4.63857472981402
 31
0
  0
LINE
  8
0
 62
7
 10
1.91802647623801
 20
4.63857472981402
 30
0
 11
1.91802647623801
 21
4.680003301242601
 31
0
  0
LINE
  8
0
 62
7
 10
1.91802647623801
 20
4.680003301242601
 30
0
 11
1.90802647623801
 21
4.680003301242601
 31
0
  0
LINE
  8
0
 62
7
 10
1.90802647623801
 20
4.680003301242601
 30
0
 11
1.90802647623801
 21
4.7400033012426
 31
0
  0
LINE
  8
0
 62
7
 10
1.90802647623801
 20
4.7400033012426
 30
0
 11
1.89802647623801
 21
4.7400033012426
 31
0
  0
LINE
  8
0
 62
7
 10
1.89802647623801
 20
4.7400033012426
 30
0
 11
1.89802647623801
 21
4.755003301242601
 31
0
  0
LINE
  8
0
 62
7
 10
1.89802647623801
 20
4.755003301242601
 30
0
 11
2.039626476237987
 21
4.755003301242601
 31
0
  0
LINE
  8
0
 62
7
 10
2.039626476237987
 20
4.755003301242601
 30
0
 11
2.039626476237987
 21
4.7400033012426
 31
0
  0
LINE
  8
0
 62
7
 10
2.039626476237987
 20
4.7400033012426
 30
0
 11
2.029626476237987
 21
4.7400033012426
 31
0
  0
LINE
  8
0
 62
7
 10
2.029626476237987
 20
4.7400033012426
 30
0
 11
2.029626476237987
 21
4.680003301242601
 31
0
  0
LINE
  8
0
 62
7
 10
2.029626476237987
 20
4.680003301242601
 30
0
 11
2.019626476237987
 21
4.680003301242601
 31
0
  0
LINE
  8
0
 62
7
 10
2.019626476237987
 20
4.680003301242601
 30
0
 11
2.019626476237987
 21
4.63857472981402
 31
0
  0
LINE
  8
0
 62
7
 10
2.019626476237987
 20
4.63857472981402
 30
0
 11
2.039626476237987
 21
4.63857472981402
 31
0
  0
LINE
  8
0
 62
7
 10
2.039626476237987
 20
4.63857472981402
 30
0
 11
2.039626476237987
 21
4.62357472981402
 31
0
  0
LINE
  8
0
 62
7
 10
2.039626476237987
 20
4.62357472981402
 30
0
 11
1.968826476237999
 21
4.62357472981402
 31
0
  0
LINE
  8
0
 62
7
 10
1.89802647623801
 20
4.63857472981402
 30
0
 11
2.039626476237987
 21
4.63857472981402
 31
0
  0
LINE
  8
0
 62
7
 10
2.029626476237987
 20
4.680003301242601
 30
0
 11
1.90802647623801
 21
4.680003301242601
 31
0
  0
LINE
  8
0
 62
7
 10
1.89802647623801
 20
4.7400033012426
 30
0
 11
2.039626476237987
 21
4.7400033012426
 31
0
  0
LINE
  8
0
 62
7
 10
1.89802647623801
 20
4.62357472981402
 30
0
 11
1.347857135412996
 21
4.62357472981402
 31
0
  0
LINE
  8
0
 62
7
 10
1.968826476237999
 20
4.8200033012426
 30
0
 11
1.89802647623801
 21
4.8200033012426
 31
0
  0
LINE
  8
0
 62
7
 10
1.586149884012993
 20
4.8200033012426
 30
0
 11
1.586149884012993
 21
4.755003301242601
 31
0
  0
LINE
  8
0
 62
7
 10
1.586149884012993
 20
4.755003301242601
 30
0
 11
2.069388044489839
 21
4.755003301242601
 31
0
  0
LINE
  8
0
 62
7
 10
2.069388044489839
 20
4.755003301242601
 30
0
 11
2.069388044489839
 21
4.8200033012426
 31
0
  0
LINE
  8
0
 62
7
 10
2.069388044489839
 20
4.8200033012426
 30
0
 11
2.039626476237987
 21
4.8200033012426
 31
0
  0
LINE
  8
0
 62
7
 10
1.89802647623801
 20
4.8200033012426
 30
0
 11
1.89802647623801
 21
4.835003301242601
 31
0
  0
LINE
  8
0
 62
7
 10
1.89802647623801
 20
4.8200033012426
 30
0
 11
1.586149884012993
 21
4.8200033012426
 31
0
  0
LINE
  8
0
 62
7
 10
1.89802647623801
 20
4.835003301242601
 30
0
 11
1.91802647623801
 21
4.835003301242601
 31
0
  0
LINE
  8
0
 62
7
 10
1.91802647623801
 20
4.835003301242601
 30
0
 11
1.91802647623801
 21
4.876431872671208
 31
0
  0
LINE
  8
0
 62
7
 10
1.91802647623801
 20
4.876431872671208
 30
0
 11
1.90802647623801
 21
4.876431872671208
 31
0
  0
LINE
  8
0
 62
7
 10
1.90802647623801
 20
4.876431872671208
 30
0
 11
1.90802647623801
 21
4.936431872671209
 31
0
  0
LINE
  8
0
 62
7
 10
1.90802647623801
 20
4.936431872671209
 30
0
 11
1.89802647623801
 21
4.936431872671209
 31
0
  0
LINE
  8
0
 62
7
 10
1.89802647623801
 20
4.936431872671209
 30
0
 11
1.89802647623801
 21
4.951431872671209
 31
0
  0
LINE
  8
0
 62
7
 10
1.89802647623801
 20
4.951431872671209
 30
0
 11
2.039626476237987
 21
4.951431872671209
 31
0
  0
LINE
  8
0
 62
7
 10
2.039626476237987
 20
4.951431872671209
 30
0
 11
2.039626476237987
 21
4.936431872671209
 31
0
  0
LINE
  8
0
 62
7
 10
2.039626476237987
 20
4.936431872671209
 30
0
 11
2.029626476237987
 21
4.936431872671209
 31
0
  0
LINE
  8
0
 62
7
 10
2.029626476237987
 20
4.936431872671209
 30
0
 11
2.029626476237987
 21
4.876431872671208
 31
0
  0
LINE
  8
0
 62
7
 10
2.029626476237987
 20
4.876431872671208
 30
0
 11
2.019626476237987
 21
4.876431872671208
 31
0
  0
LINE
  8
0
 62
7
 10
2.019626476237987
 20
4.876431872671208
 30
0
 11
2.019626476237987
 21
4.835003301242601
 31
0
  0
LINE
  8
0
 62
7
 10
2.019626476237987
 20
4.835003301242601
 30
0
 11
2.039626476237987
 21
4.835003301242601
 31
0
  0
LINE
  8
0
 62
7
 10
2.039626476237987
 20
4.835003301242601
 30
0
 11
2.039626476237987
 21
4.8200033012426
 31
0
  0
LINE
  8
0
 62
7
 10
2.039626476237987
 20
4.8200033012426
 30
0
 11
1.968826476237999
 21
4.8200033012426
 31
0
  0
LINE
  8
0
 62
7
 10
1.89802647623801
 20
4.835003301242601
 30
0
 11
2.039626476237987
 21
4.835003301242601
 31
0
  0
LINE
  8
0
 62
7
 10
2.029626476237987
 20
4.876431872671208
 30
0
 11
1.90802647623801
 21
4.876431872671208
 31
0
  0
LINE
  8
0
 62
7
 10
1.89802647623801
 20
4.936431872671209
 30
0
 11
2.039626476237987
 21
4.936431872671209
 31
0
  0
LINE
  8
0
 62
7
 10
1.968826476237999
 20
5.016431872671209
 30
0
 11
1.89802647623801
 21
5.016431872671209
 31
0
  0
LINE
  8
0
 62
7
 10
1.875235383237814
 20
5.016431872671209
 30
0
 11
1.875235383237814
 21
4.951431872671209
 31
0
  0
LINE
  8
0
 62
7
 10
1.875235383237814
 20
4.951431872671209
 30
0
 11
2.287360547713004
 21
4.951431872671209
 31
0
  0
LINE
  8
0
 62
7
 10
2.287360547713004
 20
4.951431872671209
 30
0
 11
2.287360547713004
 21
5.016431872671209
 31
0
  0
LINE
  8
0
 62
7
 10
1.89802647623801
 20
5.016431872671209
 30
0
 11
1.89802647623801
 21
5.031431872671209
 31
0
  0
LINE
  8
0
 62
7
 10
1.89802647623801
 20
5.016431872671209
 30
0
 11
1.875235383237814
 21
5.016431872671209
 31
0
  0
LINE
  8
0
 62
7
 10
1.89802647623801
 20
5.031431872671209
 30
0
 11
1.91802647623801
 21
5.031431872671209
 31
0
  0
LINE
  8
0
 62
7
 10
1.91802647623801
 20
5.031431872671209
 30
0
 11
1.91802647623801
 21
5.0728604440997
 31
0
  0
LINE
  8
0
 62
7
 10
1.91802647623801
 20
5.0728604440997
 30
0
 11
1.90802647623801
 21
5.0728604440997
 31
0
  0
LINE
  8
0
 62
7
 10
1.90802647623801
 20
5.0728604440997
 30
0
 11
1.90802647623801
 21
5.132860444099701
 31
0
  0
LINE
  8
0
 62
7
 10
1.90802647623801
 20
5.132860444099701
 30
0
 11
1.89802647623801
 21
5.132860444099701
 31
0
  0
LINE
  8
0
 62
7
 10
1.89802647623801
 20
5.132860444099701
 30
0
 11
1.89802647623801
 21
5.147860444099701
 31
0
  0
LINE
  8
0
 62
7
 10
1.89802647623801
 20
5.147860444099701
 30
0
 11
2.039626476237987
 21
5.147860444099701
 31
0
  0
LINE
  8
0
 62
7
 10
2.039626476237987
 20
5.147860444099701
 30
0
 11
2.039626476237987
 21
5.132860444099701
 31
0
  0
LINE
  8
0
 62
7
 10
2.039626476237987
 20
5.132860444099701
 30
0
 11
2.029626476237987
 21
5.132860444099701
 31
0
  0
LINE
  8
0
 62
7
 10
2.029626476237987
 20
5.132860444099701
 30
0
 11
2.029626476237987
 21
5.0728604440997
 31
0
  0
LINE
  8
0
 62
7
 10
2.029626476237987
 20
5.0728604440997
 30
0
 11
2.019626476237987
 21
5.0728604440997
 31
0
  0
LINE
  8
0
 62
7
 10
2.019626476237987
 20
5.0728604440997
 30
0
 11
2.019626476237987
 21
5.031431872671209
 31
0
  0
LINE
  8
0
 62
7
 10
2.019626476237987
 20
5.031431872671209
 30
0
 11
2.039626476237987
 21
5.031431872671209
 31
0
  0
LINE
  8
0
 62
7
 10
2.039626476237987
 20
5.031431872671209
 30
0
 11
2.039626476237987
 21
5.016431872671209
 31
0
  0
LINE
  8
0
 62
7
 10
2.039626476237987
 20
5.016431872671209
 30
0
 11
1.968826476237999
 21
5.016431872671209
 31
0
  0
LINE
  8
0
 62
7
 10
1.89802647623801
 20
5.031431872671209
 30
0
 11
2.039626476237987
 21
5.031431872671209
 31
0
  0
LINE
  8
0
 62
7
 10
2.029626476237987
 20
5.0728604440997
 30
0
 11
1.90802647623801
 21
5.0728604440997
 31
0
  0
LINE
  8
0
 62
7
 10
1.89802647623801
 20
5.132860444099701
 30
0
 11
2.039626476237987
 21
5.132860444099701
 31
0
  0
LINE
  8
0
 62
7
 10
2.287360547713004
 20
5.016431872671209
 30
0
 11
2.039626476237987
 21
5.016431872671209
 31
0
  0
LINE
  8
0
 62
7
 10
1.968826476237999
 20
5.212860444099701
 30
0
 11
1.89802647623801
 21
5.212860444099701
 31
0
  0
LINE
  8
0
 62
7
 10
1.851503755685874
 20
5.212860444099701
 30
0
 11
1.851503755685874
 21
5.147860444099701
 31
0
  0
LINE
  8
0
 62
7
 10
1.851503755685874
 20
5.147860444099701
 30
0
 11
2.546232049963
 21
5.147860444099701
 31
0
  0
LINE
  8
0
 62
7
 10
2.546232049963
 20
5.147860444099701
 30
0
 11
2.546232049963
 21
5.212860444099701
 31
0
  0
LINE
  8
0
 62
7
 10
1.89802647623801
 20
5.212860444099701
 30
0
 11
1.89802647623801
 21
5.227860444099701
 31
0
  0
LINE
  8
0
 62
7
 10
1.89802647623801
 20
5.212860444099701
 30
0
 11
1.851503755685874
 21
5.212860444099701
 31
0
  0
LINE
  8
0
 62
7
 10
1.89802647623801
 20
5.227860444099701
 30
0
 11
1.91802647623801
 21
5.227860444099701
 31
0
  0
LINE
  8
0
 62
7
 10
1.91802647623801
 20
5.227860444099701
 30
0
 11
1.91802647623801
 21
5.269289015528311
 31
0
  0
LINE
  8
0
 62
7
 10
1.91802647623801
 20
5.269289015528311
 30
0
 11
1.90802647623801
 21
5.269289015528311
 31
0
  0
LINE
  8
0
 62
7
 10
1.90802647623801
 20
5.269289015528311
 30
0
 11
1.90802647623801
 21
5.32928901552831
 31
0
  0
LINE
  8
0
 62
7
 10
1.90802647623801
 20
5.32928901552831
 30
0
 11
1.89802647623801
 21
5.32928901552831
 31
0
  0
LINE
  8
0
 62
7
 10
1.89802647623801
 20
5.32928901552831
 30
0
 11
1.89802647623801
 21
5.344289015528311
 31
0
  0
LINE
  8
0
 62
7
 10
1.89802647623801
 20
5.344289015528311
 30
0
 11
2.039626476237987
 21
5.344289015528311
 31
0
  0
LINE
  8
0
 62
7
 10
2.039626476237987
 20
5.344289015528311
 30
0
 11
2.039626476237987
 21
5.32928901552831
 31
0
  0
LINE
  8
0
 62
7
 10
2.039626476237987
 20
5.32928901552831
 30
0
 11
2.029626476237987
 21
5.32928901552831
 31
0
  0
LINE
  8
0
 62
7
 10
2.029626476237987
 20
5.32928901552831
 30
0
 11
2.029626476237987
 21
5.269289015528311
 31
0
  0
LINE
  8
0
 62
7
 10
2.029626476237987
 20
5.269289015528311
 30
0
 11
2.019626476237987
 21
5.269289015528311
 31
0
  0
LINE
  8
0
 62
7
 10
2.019626476237987
 20
5.269289015528311
 30
0
 11
2.019626476237987
 21
5.227860444099701
 31
0
  0
LINE
  8
0
 62
7
 10
2.019626476237987
 20
5.227860444099701
 30
0
 11
2.039626476237987
 21
5.227860444099701
 31
0
  0
LINE
  8
0
 62
7
 10
2.039626476237987
 20
5.227860444099701
 30
0
 11
2.039626476237987
 21
5.212860444099701
 31
0
  0
LINE
  8
0
 62
7
 10
2.039626476237987
 20
5.212860444099701
 30
0
 11
1.968826476237999
 21
5.212860444099701
 31
0
  0
LINE
  8
0
 62
7
 10
1.89802647623801
 20
5.227860444099701
 30
0
 11
2.039626476237987
 21
5.227860444099701
 31
0
  0
LINE
  8
0
 62
7
 10
2.029626476237987
 20
5.269289015528311
 30
0
 11
1.90802647623801
 21
5.269289015528311
 31
0
  0
LINE
  8
0
 62
7
 10
1.89802647623801
 20
5.32928901552831
 30
0
 11
2.039626476237987
 21
5.32928901552831
 31
0
  0
LINE
  8
0
 62
7
 10
2.546232049963
 20
5.212860444099701
 30
0
 11
2.039626476237987
 21
5.212860444099701
 31
0
  0
LINE
  8
0
 62
7
 10
1.968826476237999
 20
5.40928901552831
 30
0
 11
1.89802647623801
 21
5.40928901552831
 31
0
  0
LINE
  8
0
 62
7
 10
1.850121716132635
 20
5.40928901552831
 30
0
 11
1.850121716132635
 21
5.344289015528311
 31
0
  0
LINE
  8
0
 62
7
 10
1.850121716132635
 20
5.344289015528311
 30
0
 11
2.695109711037992
 21
5.344289015528311
 31
0
  0
LINE
  8
0
 62
7
 10
2.695109711037992
 20
5.344289015528311
 30
0
 11
2.695109711037992
 21
5.40928901552831
 31
0
  0
LINE
  8
0
 62
7
 10
1.89802647623801
 20
5.40928901552831
 30
0
 11
1.89802647623801
 21
5.424289015528311
 31
0
  0
LINE
  8
0
 62
7
 10
1.89802647623801
 20
5.40928901552831
 30
0
 11
1.850121716132635
 21
5.40928901552831
 31
0
  0
LINE
  8
0
 62
7
 10
1.89802647623801
 20
5.424289015528311
 30
0
 11
1.91802647623801
 21
5.424289015528311
 31
0
  0
LINE
  8
0
 62
7
 10
1.91802647623801
 20
5.424289015528311
 30
0
 11
1.91802647623801
 21
5.465717586956919
 31
0
  0
LINE
  8
0
 62
7
 10
1.91802647623801
 20
5.465717586956919
 30
0
 11
1.90802647623801
 21
5.465717586956919
 31
0
  0
LINE
  8
0
 62
7
 10
1.90802647623801
 20
5.465717586956919
 30
0
 11
1.90802647623801
 21
5.525717586956919
 31
0
  0
LINE
  8
0
 62
7
 10
1.90802647623801
 20
5.525717586956919
 30
0
 11
1.89802647623801
 21
5.525717586956919
 31
0
  0
LINE
  8
0
 62
7
 10
1.89802647623801
 20
5.525717586956919
 30
0
 11
1.89802647623801
 21
5.540717586956919
 31
0
  0
LINE
  8
0
 62
7
 10
1.89802647623801
 20
5.540717586956919
 30
0
 11
2.039626476237987
 21
5.540717586956919
 31
0
  0
LINE
  8
0
 62
7
 10
2.039626476237987
 20
5.540717586956919
 30
0
 11
2.039626476237987
 21
5.525717586956919
 31
0
  0
LINE
  8
0
 62
7
 10
2.039626476237987
 20
5.525717586956919
 30
0
 11
2.029626476237987
 21
5.525717586956919
 31
0
  0
LINE
  8
0
 62
7
 10
2.029626476237987
 20
5.525717586956919
 30
0
 11
2.029626476237987
 21
5.465717586956919
 31
0
  0
LINE
  8
0
 62
7
 10
2.029626476237987
 20
5.465717586956919
 30
0
 11
2.019626476237987
 21
5.465717586956919
 31
0
  0
LINE
  8
0
 62
7
 10
2.019626476237987
 20
5.465717586956919
 30
0
 11
2.019626476237987
 21
5.424289015528311
 31
0
  0
LINE
  8
0
 62
7
 10
2.019626476237987
 20
5.424289015528311
 30
0
 11
2.039626476237987
 21
5.424289015528311
 31
0
  0
LINE
  8
0
 62
7
 10
2.039626476237987
 20
5.424289015528311
 30
0
 11
2.039626476237987
 21
5.40928901552831
 31
0
  0
LINE
  8
0
 62
7
 10
2.039626476237987
 20
5.40928901552831
 30
0
 11
1.968826476237999
 21
5.40928901552831
 31
0
  0
LINE
  8
0
 62
7
 10
1.89802647623801
 20
5.424289015528311
 30
0
 11
2.039626476237987
 21
5.424289015528311
 31
0
  0
LINE
  8
0
 62
7
 10
2.029626476237987
 20
5.465717586956919
 30
0
 11
1.90802647623801
 21
5.465717586956919
 31
0
  0
LINE
  8
0
 62
7
 10
1.89802647623801
 20
5.525717586956919
 30
0
 11
2.039626476237987
 21
5.525717586956919
 31
0
  0
LINE
  8
0
 62
7
 10
2.695109711037992
 20
5.40928901552831
 30
0
 11
2.039626476237987
 21
5.40928901552831
 31
0
  0
LINE
  8
0
 62
7
 10
1.968826476237999
 20
5.605717586956919
 30
0
 11
1.89802647623801
 21
5.605717586956919
 31
0
  0
LINE
  8
0
 62
7
 10
1.871352538511361
 20
5.605717586956919
 30
0
 11
1.871352538511361
 21
5.540717586956919
 31
0
  0
LINE
  8
0
 62
7
 10
1.871352538511361
 20
5.540717586956919
 30
0
 11
2.705632831887983
 21
5.540717586956919
 31
0
  0
LINE
  8
0
 62
7
 10
2.705632831887983
 20
5.540717586956919
 30
0
 11
2.705632831887983
 21
5.605717586956919
 31
0
  0
LINE
  8
0
 62
7
 10
1.89802647623801
 20
5.605717586956919
 30
0
 11
1.89802647623801
 21
5.620717586956919
 31
0
  0
LINE
  8
0
 62
7
 10
1.89802647623801
 20
5.605717586956919
 30
0
 11
1.871352538511361
 21
5.605717586956919
 31
0
  0
LINE
  8
0
 62
7
 10
1.89802647623801
 20
5.620717586956919
 30
0
 11
1.91802647623801
 21
5.620717586956919
 31
0
  0
LINE
  8
0
 62
7
 10
1.91802647623801
 20
5.620717586956919
 30
0
 11
1.91802647623801
 21
5.662146158385498
 31
0
  0
LINE
  8
0
 62
7
 10
1.91802647623801
 20
5.662146158385498
 30
0
 11
1.90802647623801
 21
5.662146158385498
 31
0
  0
LINE
  8
0
 62
7
 10
1.90802647623801
 20
5.662146158385498
 30
0
 11
1.90802647623801
 21
5.722146158385499
 31
0
  0
LINE
  8
0
 62
7
 10
1.90802647623801
 20
5.722146158385499
 30
0
 11
1.89802647623801
 21
5.722146158385499
 31
0
  0
LINE
  8
0
 62
7
 10
1.89802647623801
 20
5.722146158385499
 30
0
 11
1.89802647623801
 21
5.737146158385499
 31
0
  0
LINE
  8
0
 62
7
 10
1.89802647623801
 20
5.737146158385499
 30
0
 11
2.039626476237987
 21
5.737146158385499
 31
0
  0
LINE
  8
0
 62
7
 10
2.039626476237987
 20
5.737146158385499
 30
0
 11
2.039626476237987
 21
5.722146158385499
 31
0
  0
LINE
  8
0
 62
7
 10
2.039626476237987
 20
5.722146158385499
 30
0
 11
2.029626476237987
 21
5.722146158385499
 31
0
  0
LINE
  8
0
 62
7
 10
2.029626476237987
 20
5.722146158385499
 30
0
 11
2.029626476237987
 21
5.662146158385498
 31
0
  0
LINE
  8
0
 62
7
 10
2.029626476237987
 20
5.662146158385498
 30
0
 11
2.019626476237987
 21
5.662146158385498
 31
0
  0
LINE
  8
0
 62
7
 10
2.019626476237987
 20
5.662146158385498
 30
0
 11
2.019626476237987
 21
5.620717586956919
 31
0
  0
LINE
  8
0
 62
7
 10
2.019626476237987
 20
5.620717586956919
 30
0
 11
2.039626476237987
 21
5.620717586956919
 31
0
  0
LINE
  8
0
 62
7
 10
2.039626476237987
 20
5.620717586956919
 30
0
 11
2.039626476237987
 21
5.605717586956919
 31
0
  0
LINE
  8
0
 62
7
 10
2.039626476237987
 20
5.605717586956919
 30
0
 11
1.968826476237999
 21
5.605717586956919
 31
0
  0
LINE
  8
0
 62
7
 10
1.89802647623801
 20
5.620717586956919
 30
0
 11
2.039626476237987
 21
5.620717586956919
 31
0
  0
LINE
  8
0
 62
7
 10
2.029626476237987
 20
5.662146158385498
 30
0
 11
1.90802647623801
 21
5.662146158385498
 31
0
  0
LINE
  8
0
 62
7
 10
1.89802647623801
 20
5.722146158385499
 30
0
 11
2.039626476237987
 21
5.722146158385499
 31
0
  0
LINE
  8
0
 62
7
 10
2.705632831887983
 20
5.605717586956919
 30
0
 11
2.039626476237987
 21
5.605717586956919
 31
0
  0
LINE
  8
0
 62
7
 10
1.968826476237999
 20
5.802146158385498
 30
0
 11
1.89802647623801
 21
5.802146158385498
 31
0
  0
LINE
  8
0
 62
7
 10
1.855283402404442
 20
5.802146158385498
 30
0
 11
1.855283402404442
 21
5.737146158385499
 31
0
  0
LINE
  8
0
 62
7
 10
1.855283402404442
 20
5.737146158385499
 30
0
 11
2.71553333303798
 21
5.737146158385499
 31
0
  0
LINE
  8
0
 62
7
 10
2.71553333303798
 20
5.737146158385499
 30
0
 11
2.71553333303798
 21
5.802146158385498
 31
0
  0
LINE
  8
0
 62
7
 10
1.89802647623801
 20
5.802146158385498
 30
0
 11
1.89802647623801
 21
5.817146158385498
 31
0
  0
LINE
  8
0
 62
7
 10
1.89802647623801
 20
5.802146158385498
 30
0
 11
1.855283402404442
 21
5.802146158385498
 31
0
  0
LINE
  8
0
 62
7
 10
1.89802647623801
 20
5.817146158385498
 30
0
 11
1.91802647623801
 21
5.817146158385498
 31
0
  0
LINE
  8
0
 62
7
 10
1.91802647623801
 20
5.817146158385498
 30
0
 11
1.91802647623801
 21
5.85857472981402
 31
0
  0
LINE
  8
0
 62
7
 10
1.91802647623801
 20
5.85857472981402
 30
0
 11
1.90802647623801
 21
5.85857472981402
 31
0
  0
LINE
  8
0
 62
7
 10
1.90802647623801
 20
5.85857472981402
 30
0
 11
1.90802647623801
 21
5.91857472981402
 31
0
  0
LINE
  8
0
 62
7
 10
1.90802647623801
 20
5.91857472981402
 30
0
 11
1.89802647623801
 21
5.91857472981402
 31
0
  0
LINE
  8
0
 62
7
 10
1.89802647623801
 20
5.91857472981402
 30
0
 11
1.89802647623801
 21
5.93357472981402
 31
0
  0
LINE
  8
0
 62
7
 10
1.89802647623801
 20
5.93357472981402
 30
0
 11
2.039626476237987
 21
5.93357472981402
 31
0
  0
LINE
  8
0
 62
7
 10
2.039626476237987
 20
5.93357472981402
 30
0
 11
2.039626476237987
 21
5.91857472981402
 31
0
  0
LINE
  8
0
 62
7
 10
2.039626476237987
 20
5.91857472981402
 30
0
 11
2.029626476237987
 21
5.91857472981402
 31
0
  0
LINE
  8
0
 62
7
 10
2.029626476237987
 20
5.91857472981402
 30
0
 11
2.029626476237987
 21
5.85857472981402
 31
0
  0
LINE
  8
0
 62
7
 10
2.029626476237987
 20
5.85857472981402
 30
0
 11
2.019626476237987
 21
5.85857472981402
 31
0
  0
LINE
  8
0
 62
7
 10
2.019626476237987
 20
5.85857472981402
 30
0
 11
2.019626476237987
 21
5.817146158385498
 31
0
  0
LINE
  8
0
 62
7
 10
2.019626476237987
 20
5.817146158385498
 30
0
 11
2.039626476237987
 21
5.817146158385498
 31
0
  0
LINE
  8
0
 62
7
 10
2.039626476237987
 20
5.817146158385498
 30
0
 11
2.039626476237987
 21
5.802146158385498
 31
0
  0
LINE
  8
0
 62
7
 10
2.039626476237987
 20
5.802146158385498
 30
0
 11
1.968826476237999
 21
5.802146158385498
 31
0
  0
LINE
  8
0
 62
7
 10
1.89802647623801
 20
5.817146158385498
 30
0
 11
2.039626476237987
 21
5.817146158385498
 31
0
  0
LINE
  8
0
 62
7
 10
2.029626476237987
 20
5.85857472981402
 30
0
 11
1.90802647623801
 21
5.85857472981402
 31
0
  0
LINE
  8
0
 62
7
 10
1.89802647623801
 20
5.91857472981402
 30
0
 11
2.039626476237987
 21
5.91857472981402
 31
0
  0
LINE
  8
0
 62
7
 10
2.71553333303798
 20
5.802146158385498
 30
0
 11
2.039626476237987
 21
5.802146158385498
 31
0
  0
LINE
  8
0
 62
7
 10
1.968826476237999
 20
5.99857472981402
 30
0
 11
1.89802647623801
 21
5.99857472981402
 31
0
  0
LINE
  8
0
 62
7
 10
1.8483222689182
 20
5.99857472981402
 30
0
 11
1.8483222689182
 21
5.93357472981402
 31
0
  0
LINE
  8
0
 62
7
 10
1.8483222689182
 20
5.93357472981402
 30
0
 11
2.614507278312987
 21
5.93357472981402
 31
0
  0
LINE
  8
0
 62
7
 10
2.614507278312987
 20
5.93357472981402
 30
0
 11
2.614507278312987
 21
5.99857472981402
 31
0
  0
LINE
  8
0
 62
7
 10
1.89802647623801
 20
5.99857472981402
 30
0
 11
1.89802647623801
 21
6.01357472981402
 31
0
  0
LINE
  8
0
 62
7
 10
1.89802647623801
 20
5.99857472981402
 30
0
 11
1.8483222689182
 21
5.99857472981402
 31
0
  0
LINE
  8
0
 62
7
 10
1.89802647623801
 20
6.01357472981402
 30
0
 11
1.91802647623801
 21
6.01357472981402
 31
0
  0
LINE
  8
0
 62
7
 10
1.91802647623801
 20
6.01357472981402
 30
0
 11
1.91802647623801
 21
6.0550033012426
 31
0
  0
LINE
  8
0
 62
7
 10
1.91802647623801
 20
6.0550033012426
 30
0
 11
1.90802647623801
 21
6.0550033012426
 31
0
  0
LINE
  8
0
 62
7
 10
1.90802647623801
 20
6.0550033012426
 30
0
 11
1.90802647623801
 21
6.115003301242599
 31
0
  0
LINE
  8
0
 62
7
 10
1.90802647623801
 20
6.115003301242599
 30
0
 11
1.89802647623801
 21
6.115003301242599
 31
0
  0
LINE
  8
0
 62
7
 10
1.89802647623801
 20
6.115003301242599
 30
0
 11
1.89802647623801
 21
6.130003301242599
 31
0
  0
LINE
  8
0
 62
7
 10
1.89802647623801
 20
6.130003301242599
 30
0
 11
2.039626476237987
 21
6.130003301242599
 31
0
  0
LINE
  8
0
 62
7
 10
2.039626476237987
 20
6.130003301242599
 30
0
 11
2.039626476237987
 21
6.115003301242599
 31
0
  0
LINE
  8
0
 62
7
 10
2.039626476237987
 20
6.115003301242599
 30
0
 11
2.029626476237987
 21
6.115003301242599
 31
0
  0
LINE
  8
0
 62
7
 10
2.029626476237987
 20
6.115003301242599
 30
0
 11
2.029626476237987
 21
6.0550033012426
 31
0
  0
LINE
  8
0
 62
7
 10
2.029626476237987
 20
6.0550033012426
 30
0
 11
2.019626476237987
 21
6.0550033012426
 31
0
  0
LINE
  8
0
 62
7
 10
2.019626476237987
 20
6.0550033012426
 30
0
 11
2.019626476237987
 21
6.01357472981402
 31
0
  0
LINE
  8
0
 62
7
 10
2.019626476237987
 20
6.01357472981402
 30
0
 11
2.039626476237987
 21
6.01357472981402
 31
0
  0
LINE
  8
0
 62
7
 10
2.039626476237987
 20
6.01357472981402
 30
0
 11
2.039626476237987
 21
5.99857472981402
 31
0
  0
LINE
  8
0
 62
7
 10
2.039626476237987
 20
5.99857472981402
 30
0
 11
1.968826476237999
 21
5.99857472981402
 31
0
  0
LINE
  8
0
 62
7
 10
1.89802647623801
 20
6.01357472981402
 30
0
 11
2.039626476237987
 21
6.01357472981402
 31
0
  0
LINE
  8
0
 62
7
 10
2.029626476237987
 20
6.0550033012426
 30
0
 11
1.90802647623801
 21
6.0550033012426
 31
0
  0
LINE
  8
0
 62
7
 10
1.89802647623801
 20
6.115003301242599
 30
0
 11
2.039626476237987
 21
6.115003301242599
 31
0
  0
LINE
  8
0
 62
7
 10
2.614507278312987
 20
5.99857472981402
 30
0
 11
2.039626476237987
 21
5.99857472981402
 31
0
  0
LINE
  8
0
 62
7
  6
DASHDOT
 10
1.968826476237999
 20
3.245003301242601
 30
0
 11
1.968826476237999
 21
6.395003301242601
 31
0
  0
LINE
  8
0
 62
7
 10
1.526455730340182
 20
6.1950033012426
 30
0
 11
1.526455730340182
 21
6.130003301242599
 31
0
  0
LINE
  8
0
 62
7
 10
2.411197222135788
 20
6.130003301242599
 30
0
 11
2.411197222135788
 21
6.1950033012426
 31
0
  0
LINE
  8
0
 62
7
 10
1.526455730340182
 20
6.1950033012426
 30
0
 11
2.411197222135788
 21
6.1950033012426
 31
0
  0
LINE
  8
0
 62
7
 10
1.526455730340182
 20
6.130003301242599
 30
0
 11
2.411197222135788
 21
6.130003301242599
 31
0
  0
LINE
  8
0
 62
7
 10
2.432604794148915
 20
0.5918275802049321
 30
0
 11
2.395207184867834
 21
0.6227256522965909
 31
0
  0
LINE
  8
0
 62
7
 10
2.349675173362294
 20
0.6603444038965318
 30
0
 11
2.306521351956434
 21
0.6081129977707824
 31
0
  0
LINE
  8
0
 62
7
 10
2.432604794148915
 20
0.5918275802049321
 30
0
 11
2.389450972743033
 21
0.5395961740791827
 31
0
  0
LINE
  8
0
 62
7
 10
2.395207184867834
 20
0.6227256522965909
 30
0
 11
2.357930506892745
 21
0.5778499689335149
 31
0
  0
LINE
  8
0
 62
7
 10
2.395207184867834
 20
0.6227256522965909
 30
0
 11
2.349675173362294
 21
0.6603444038965318
 31
0
  0
LINE
  8
0
 62
7
 10
2.426473507987776
 20
0.7889518403213662
 30
0
 11
2.475817584938995
 21
0.7688915384562498
 31
0
  0
LINE
  8
0
 62
7
 10
2.475817584938995
 20
0.7688915384562498
 30
0
 11
2.458138995387303
 21
0.7254059673470548
 31
0
  0
LINE
  8
0
 62
7
 10
2.475817584938995
 20
0.7688915384562498
 30
0
 11
2.526125929234614
 21
0.7484392241105816
 31
0
  0
LINE
  8
0
 62
7
 10
2.526125929234614
 20
0.7484392241105816
 30
0
 11
2.508875825356913
 21
0.7060076366458089
 31
0
  0
LINE
  8
0
 62
7
 10
2.508875825356913
 20
0.7060076366458089
 30
0
 11
2.503029855595047
 21
0.698067541640361
 31
0
  0
LINE
  8
0
 62
7
 10
2.503029855595047
 20
0.698067541640361
 30
0
 11
2.494338944195565
 21
0.6930034787674523
 31
0
  0
LINE
  8
0
 62
7
 10
2.494338944195565
 20
0.6930034787674523
 30
0
 11
2.480313094086744
 21
0.6935471812788674
 31
0
  0
LINE
  8
0
 62
7
 10
2.480313094086744
 20
0.6935471812788674
 30
0
 11
2.470780946609436
 21
0.6966854650236419
 31
0
  0
LINE
  8
0
 62
7
 10
2.470780946609436
 20
0.6966854650236419
 30
0
 11
2.464602820984346
 21
0.7026360189468397
 31
0
  0
LINE
  8
0
 62
7
 10
2.464602820984346
 20
0.7026360189468397
 30
0
 11
2.458714297006845
 21
0.7074862945499918
 31
0
  0
LINE
  8
0
 62
7
 10
2.458714297006845
 20
0.7074862945499918
 30
0
 11
2.458676845385383
 21
0.7158531432208839
 31
0
  0
LINE
  8
0
 62
7
 10
2.458676845385383
 20
0.7158531432208839
 30
0
 11
2.458138995387303
 21
0.7254059673470548
 31
0
  0
LINE
  8
0
 62
7
 10
2.461196988316547
 20
0.93466435460504
 30
0
 11
2.514284994467517
 21
0.9303149587848749
 31
0
  0
LINE
  8
0
 62
7
 10
2.514284994467517
 20
0.9303149587848749
 30
0
 11
2.510451992151808
 21
0.8835299663569386
 31
0
  0
LINE
  8
0
 62
7
 10
2.514284994467517
 20
0.9303149587848749
 30
0
 11
2.568410430719005
 21
0.9258805683591128
 31
0
  0
LINE
  8
0
 62
7
 10
2.568410430719005
 20
0.9258805683591128
 30
0
 11
2.564670330983329
 21
0.8802295294603319
 31
0
  0
LINE
  8
0
 62
7
 10
2.564670330983329
 20
0.8802295294603319
 30
0
 11
2.561472793996377
 21
0.8709023525900194
 31
0
  0
LINE
  8
0
 62
7
 10
2.561472793996377
 20
0.8709023525900194
 30
0
 11
2.554699126877745
 21
0.8634663518167728
 31
0
  0
LINE
  8
0
 62
7
 10
2.554699126877745
 20
0.8634663518167728
 30
0
 11
2.541155075101465
 21
0.8597814169221529
 31
0
  0
LINE
  8
0
 62
7
 10
2.541155075101465
 20
0.8597814169221529
 30
0
 11
2.531120542495398
 21
0.8599185875089245
 31
0
  0
LINE
  8
0
 62
7
 10
2.531120542495398
 20
0.8599185875089245
 30
0
 11
2.523442995014385
 21
0.863743975451238
 31
0
  0
LINE
  8
0
 62
7
 10
2.523442995014385
 20
0.863743975451238
 30
0
 11
2.516371497586965
 21
0.8666064590221723
 31
0
  0
LINE
  8
0
 62
7
 10
2.516371497586965
 20
0.8666064590221723
 30
0
 11
2.513828165249196
 21
0.8745774702456984
 31
0
  0
LINE
  8
0
 62
7
 10
2.513828165249196
 20
0.8745774702456984
 30
0
 11
2.510451992151808
 21
0.8835299663569386
 31
0
  0
LINE
  8
0
 62
7
 10
2.555570773685463
 20
1.10783812638239
 30
0
 11
2.508257578703248
 21
1.097126748343253
 31
0
  0
LINE
  8
0
 62
7
 10
2.450653229663127
 20
1.084085524652917
 30
0
 11
2.465613285861454
 21
1.018005506445101
 31
0
  0
LINE
  8
0
 62
7
 10
2.555570773685463
 20
1.10783812638239
 30
0
 11
2.570530829883805
 21
1.041758108174567
 31
0
  0
LINE
  8
0
 62
7
 10
2.508257578703248
 20
1.097126748343253
 30
0
 11
2.520988452833225
 21
1.040194310119965
 31
0
  0
LINE
  8
0
 62
7
 10
2.508257578703248
 20
1.097126748343253
 30
0
 11
2.450653229663127
 21
1.084085524652917
 31
0
  0
LINE
  8
0
 62
7
 10
2.395811597233205
 20
1.223477964395672
 30
0
 11
2.441849668510217
 21
1.250268814217583
 31
0
  0
LINE
  8
0
 62
7
 10
2.488787402147427
 20
1.277583202895781
 30
0
 11
2.512102034008243
 21
1.2375187521396
 31
0
  0
LINE
  8
0
 62
7
 10
2.512102034008243
 20
1.2375187521396
 30
0
 11
2.513829397036624
 21
1.227466396757423
 31
0
  0
LINE
  8
0
 62
7
 10
2.513829397036624
 20
1.227466396757423
 30
0
 11
2.512789399129665
 21
1.219752763478144
 31
0
  0
LINE
  8
0
 62
7
 10
2.512789399129665
 20
1.219752763478144
 30
0
 11
2.504586929714606
 21
1.207607811221511
 31
0
  0
LINE
  8
0
 62
7
 10
2.504586929714606
 20
1.207607811221511
 30
0
 11
2.494277681392045
 21
1.201345294221734
 31
0
  0
LINE
  8
0
 62
7
 10
2.494277681392045
 20
1.201345294221734
 30
0
 11
2.486464053167266
 21
1.200747451317831
 31
0
  0
LINE
  8
0
 62
7
 10
2.486464053167266
 20
1.200747451317831
 30
0
 11
2.479616021426256
 21
1.199395140411652
 31
0
  0
LINE
  8
0
 62
7
 10
2.479616021426256
 20
1.199395140411652
 30
0
 11
2.471709030935976
 21
1.203481920188038
 31
0
  0
LINE
  8
0
 62
7
 10
2.471709030935976
 20
1.203481920188038
 30
0
 11
2.465067621765406
 21
1.211727754396248
 31
0
  0
LINE
  8
0
 62
7
 10
2.465067621765406
 20
1.211727754396248
 30
0
 11
2.461776659645784
 21
1.217190646259674
 31
0
  0
LINE
  8
0
 62
7
 10
2.441849668510217
 20
1.250268814217583
 30
0
 11
2.488787402147427
 21
1.277583202895781
 31
0
  0
LINE
  8
0
 62
7
 10
2.461776659645784
 20
1.217190646259674
 30
0
 11
2.429998967351166
 21
1.164729526301053
 31
0
  0
LINE
  8
0
 62
7
 10
2.461776659645784
 20
1.217190646259674
 30
0
 11
2.441849668510217
 21
1.250268814217583
 31
0
  0
LINE
  8
0
 62
7
 10
2.348692521764572
 20
1.442771956123375
 30
0
 11
2.374200202156734
 21
1.419509885774038
 31
0
  0
LINE
  8
0
 62
7
 10
2.301714085257764
 20
1.340026302629412
 30
0
 11
2.374200202156734
 21
1.419509885774038
 31
0
  0
LINE
  8
0
 62
7
 10
2.374200202156734
 20
1.419509885774038
 30
0
 11
2.399220627603953
 21
1.396692174089752
 31
0
  0
LINE
  8
0
 62
7
 10
1.641756422795766
 20
1.479918285669039
 30
0
 11
1.670730594374228
 21
1.498686957898834
 31
0
  0
LINE
  8
0
 62
7
 10
1.729214991887256
 20
1.408401563841202
 30
0
 11
1.670730594374228
 21
1.498686957898834
 31
0
  0
LINE
  8
0
 62
7
 10
1.670730594374228
 20
1.498686957898834
 30
0
 11
1.699151293109952
 21
1.517097105628767
 31
0
  0
LINE
  8
0
 62
7
 10
1.533372372030567
 20
1.38664796609716
 30
0
 11
1.557024907600036
 21
1.411794004295305
 31
0
  0
LINE
  8
0
 62
7
 10
1.635381590259905
 20
1.338091172496628
 30
0
 11
1.557024907600036
 21
1.411794004295305
 31
0
  0
LINE
  8
0
 62
7
 10
1.557024907600036
 20
1.411794004295305
 30
0
 11
1.580225625727096
 21
1.43645969574021
 31
0
  0
LINE
  8
0
 62
7
 10
1.535162973031433
 20
1.211755476536739
 30
0
 11
1.542261440582685
 21
1.225504623998611
 31
0
  0
LINE
  8
0
 62
7
 10
1.542261440582685
 20
1.225504623998611
 30
0
 11
1.543178408765335
 21
1.234762546272832
 31
0
  0
LINE
  8
0
 62
7
 10
1.543178408765335
 20
1.234762546272832
 30
0
 11
1.542259633613386
 21
1.242407355278665
 31
0
  0
LINE
  8
0
 62
7
 10
1.542259633613386
 20
1.242407355278665
 30
0
 11
1.538490396293854
 21
1.249987285730349
 31
0
  0
LINE
  8
0
 62
7
 10
1.538490396293854
 20
1.249987285730349
 30
0
 11
1.534610184632983
 21
1.256856246917923
 31
0
  0
LINE
  8
0
 62
7
 10
1.534610184632983
 20
1.256856246917923
 30
0
 11
1.526561961506263
 21
1.264084471578295
 31
0
  0
LINE
  8
0
 62
7
 10
1.526561961506263
 20
1.264084471578295
 30
0
 11
1.487336452570805
 21
1.284335981945151
 31
0
  0
LINE
  8
0
 62
7
 10
1.487336452570805
 20
1.284335981945151
 30
0
 11
1.476065333579284
 21
1.286313764746781
 31
0
  0
LINE
  8
0
 62
7
 10
1.476065333579284
 20
1.286313764746781
 30
0
 11
1.461284491485966
 21
1.284469629330277
 31
0
  0
LINE
  8
0
 62
7
 10
1.461284491485966
 20
1.284469629330277
 30
0
 11
1.453182614890883
 21
1.279689425285724
 31
0
  0
LINE
  8
0
 62
7
 10
1.453182614890883
 20
1.279689425285724
 30
0
 11
1.446676198370976
 21
1.27485377398046
 31
0
  0
LINE
  8
0
 62
7
 10
1.446676198370976
 20
1.27485377398046
 30
0
 11
1.440099676963105
 21
1.262115593243551
 31
0
  0
LINE
  8
0
 62
7
 10
1.440099676963105
 20
1.262115593243551
 30
0
 11
1.439207628470677
 21
1.253613068889397
 31
0
  0
LINE
  8
0
 62
7
 10
1.439207628470677
 20
1.253613068889397
 30
0
 11
1.441724195046095
 21
1.243606818297907
 31
0
  0
LINE
  8
0
 62
7
 10
1.441724195046095
 20
1.243606818297907
 30
0
 11
1.444697829210126
 21
1.237461996598482
 31
0
  0
LINE
  8
0
 62
7
 10
1.444697829210126
 20
1.237461996598482
 30
0
 11
1.447867071606916
 21
1.23070400975224
 31
0
  0
LINE
  8
0
 62
7
 10
1.447867071606916
 20
1.23070400975224
 30
0
 11
1.456011121335195
 21
1.223661393332761
 31
0
  0
LINE
  8
0
 62
7
 10
1.456011121335195
 20
1.223661393332761
 30
0
 11
1.494832243580454
 21
1.203618661423338
 31
0
  0
LINE
  8
0
 62
7
 10
1.494832243580454
 20
1.203618661423338
 30
0
 11
1.505896561629916
 21
1.200744301116727
 31
0
  0
LINE
  8
0
 62
7
 10
1.505896561629916
 20
1.200744301116727
 30
0
 11
1.518524740594667
 21
1.201395031800093
 31
0
  0
LINE
  8
0
 62
7
 10
1.518524740594667
 20
1.201395031800093
 30
0
 11
1.529079277779047
 21
1.206957668775358
 31
0
  0
LINE
  8
0
 62
7
 10
1.529079277779047
 20
1.206957668775358
 30
0
 11
1.535162973031433
 21
1.211755476536739
 31
0
  0
LINE
  8
0
 62
7
 10
1.384439341053686
 20
1.130128690573387
 30
0
 11
1.378370152285056
 21
1.088778991205152
 31
0
  0
LINE
  8
0
 62
7
 10
1.484757667059434
 20
1.072852002665713
 30
0
 11
1.490782064767062
 21
1.113896538201276
 31
0
  0
LINE
  8
0
 62
7
 10
1.490782064767062
 20
1.113896538201276
 30
0
 11
1.432461742536473
 21
1.12245662570063
 31
0
  0
LINE
  8
0
 62
7
 10
1.432461742536473
 20
1.12245662570063
 30
0
 11
1.428990435307164
 21
1.098806428644792
 31
0
  0
LINE
  8
0
 62
7
 10
1.378370152285056
 20
1.088778991205152
 30
0
 11
1.379668992945593
 21
1.079236207101116
 31
0
  0
LINE
  8
0
 62
7
 10
1.379668992945593
 20
1.079236207101116
 30
0
 11
1.388818457430792
 21
1.065112011752448
 31
0
  0
LINE
  8
0
 62
7
 10
1.388818457430792
 20
1.065112011752448
 30
0
 11
1.406130523155126
 21
1.057750616386962
 31
0
  0
LINE
  8
0
 62
7
 10
1.406130523155126
 20
1.057750616386962
 30
0
 11
1.449616369354418
 21
1.051367890191126
 31
0
  0
LINE
  8
0
 62
7
 10
1.449616369354418
 20
1.051367890191126
 30
0
 11
1.468511008898814
 21
1.053726708658411
 31
0
  0
LINE
  8
0
 62
7
 10
1.468511008898814
 20
1.053726708658411
 30
0
 11
1.474850801254705
 21
1.057628113440536
 31
0
  0
LINE
  8
0
 62
7
 10
1.474850801254705
 20
1.057628113440536
 30
0
 11
1.484757667059434
 21
1.072852002665713
 31
0
  0
LINE
  8
0
 62
7
 10
1.470298771213336
 20
0.9640327694519366
 30
0
 11
1.374760642727207
 21
0.88013630586386
 31
0
  0
LINE
  8
0
 62
7
 10
1.364072040914124
 20
0.9470693115926624
 30
0
 11
1.470298771213336
 21
0.9640327694519366
 31
0
  0
LINE
  8
0
 62
7
 10
1.480987373026436
 20
0.8970997637231268
 30
0
 11
1.374760642727207
 21
0.88013630586386
 31
0
  0
LINE
  8
0
 62
7
 10
1.496503372825365
 20
0.8151248748443397
 30
0
 11
1.430501354830953
 21
0.7064515836552091
 31
0
  0
LINE
  8
0
 62
7
 10
1.400243809896033
 20
0.7671043201072389
 30
0
 11
1.496503372825365
 21
0.8151248748443397
 31
0
  0
LINE
  8
0
 62
7
 10
1.526760917760285
 20
0.7544721383923025
 30
0
 11
1.430501354830953
 21
0.7064515836552091
 31
0
  0
LINE
  8
0
 62
7
 10
1.535734250814653
 20
0.5574567940905618
 30
0
 11
1.570657431143604
 21
0.5911264171153817
 31
0
  0
LINE
  8
0
 62
7
 10
1.613176797464486
 20
0.632119563266293
 30
0
 11
1.566152086844805
 21
0.6808950558720827
 31
0
  0
LINE
  8
0
 62
7
 10
1.535734250814653
 20
0.5574567940905618
 30
0
 11
1.488709540194987
 21
0.6062322866963297
 31
0
  0
LINE
  8
0
 62
7
 10
1.570657431143604
 20
0.5911264171153817
 30
0
 11
1.530277790922245
 21
0.6332317889075276
 31
0
  0
LINE
  8
0
 62
7
 10
1.570657431143604
 20
0.5911264171153817
 30
0
 11
1.613176797464486
 21
0.632119563266293
 31
0
  0
LINE
  8
0
 62
7
 10
1.681096086195826
 20
0.4466803091220499
 30
0
 11
1.717303036605385
 21
0.5131625613900033
 31
0
  0
LINE
  8
0
 62
7
 10
1.717303036605385
 20
0.5131625613900033
 30
0
 11
1.689606131763684
 21
0.5033106225026205
 31
0
  0
LINE
  8
0
 62
7
 10
1.717303036605385
 20
0.5131625613900033
 30
0
 11
1.732546038066083
 21
0.5411513606942026
 31
0
  0
LINE
  8
0
 62
7
 10
1.689606131763684
 20
0.5033106225026205
 30
0
 11
1.673007794162778
 21
0.5735765293812002
 31
0
  0
LINE
  8
0
 62
7
 10
1.689606131763684
 20
0.5033106225026205
 30
0
 11
1.621557842292527
 21
0.4791054778090402
 31
0
  0
LINE
  8
0
 62
7
 10
3.966826476237999
 20
0.3170187410693481
 30
0
 11
3.966826476237999
 21
0.4170187410693482
 31
0
  0
LINE
  8
0
 62
7
 10
4.029826476237999
 20
0.4170187410693482
 30
0
 11
3.984826476237999
 21
0.3670187410693481
 31
0
  0
LINE
  8
0
 62
7
 10
3.984826476237999
 20
0.3670187410693481
 30
0
 11
4.029826476237999
 21
0.3170187410693481
 31
0
  0
LINE
  8
0
 62
7
 10
3.984826476237999
 20
0.3670187410693481
 30
0
 11
3.966826476237999
 21
0.347018741069348
 31
0
  0
LINE
  8
0
 62
7
 10
4.119826476237999
 20
0.4170187410693482
 30
0
 11
4.056826476237999
 21
0.4170187410693482
 31
0
  0
LINE
  8
0
 62
7
 10
4.056826476237999
 20
0.4170187410693482
 30
0
 11
4.056826476237999
 21
0.3670187410693481
 31
0
  0
LINE
  8
0
 62
7
 10
4.056826476237999
 20
0.3170187410693481
 30
0
 11
4.119826476237999
 21
0.3170187410693481
 31
0
  0
LINE
  8
0
 62
7
 10
4.110826476238
 20
0.3670187410693481
 30
0
 11
4.056826476237999
 21
0.3670187410693481
 31
0
  0
LINE
  8
0
 62
7
 10
4.056826476237999
 20
0.3670187410693481
 30
0
 11
4.056826476237999
 21
0.3170187410693481
 31
0
  0
LINE
  8
0
 62
7
 10
4.146826476237999
 20
0.3170187410693481
 30
0
 11
4.146826476237999
 21
0.4170187410693482
 31
0
  0
LINE
  8
0
 62
7
 10
4.146826476237999
 20
0.4170187410693482
 30
0
 11
4.209826476237999
 21
0.3170187410693481
 31
0
  0
LINE
  8
0
 62
7
 10
4.209826476237999
 20
0.3170187410693481
 30
0
 11
4.209826476237999
 21
0.4170187410693482
 31
0
  0
LINE
  8
0
 62
7
 10
4.236826476237999
 20
0.3170187410693481
 30
0
 11
4.236826476237999
 21
0.4170187410693482
 31
0
  0
LINE
  8
0
 62
7
 10
4.236826476237999
 20
0.4170187410693482
 30
0
 11
4.299826476237999
 21
0.3170187410693481
 31
0
  0
LINE
  8
0
 62
7
 10
4.299826476237999
 20
0.3170187410693481
 30
0
 11
4.299826476237999
 21
0.4170187410693482
 31
0
  0
LINE
  8
0
 62
7
 10
4.389826476237999
 20
0.3870187410693481
 30
0
 11
4.387576476237999
 21
0.3970187410693481
 31
0
  0
LINE
  8
0
 62
7
 10
4.387576476237999
 20
0.3970187410693481
 30
0
 11
4.383076476237998
 21
0.4045187410693482
 31
0
  0
LINE
  8
0
 62
7
 10
4.383076476237998
 20
0.4045187410693482
 30
0
 11
4.378576476237998
 21
0.4095187410693482
 31
0
  0
LINE
  8
0
 62
7
 10
4.378576476237998
 20
0.4095187410693482
 30
0
 11
4.371826476237999
 21
0.4145187410693481
 31
0
  0
LINE
  8
0
 62
7
 10
4.371826476237999
 20
0.4145187410693481
 30
0
 11
4.365076476237999
 21
0.4170187410693482
 31
0
  0
LINE
  8
0
 62
7
 10
4.365076476237999
 20
0.4170187410693482
 30
0
 11
4.351576476237999
 21
0.4170187410693482
 31
0
  0
LINE
  8
0
 62
7
 10
4.351576476237999
 20
0.4170187410693482
 30
0
 11
4.344826476237999
 21
0.4145187410693481
 31
0
  0
LINE
  8
0
 62
7
 10
4.344826476237999
 20
0.4145187410693481
 30
0
 11
4.338076476237999
 21
0.4095187410693482
 31
0
  0
LINE
  8
0
 62
7
 10
4.338076476237999
 20
0.4095187410693482
 30
0
 11
4.333576476237999
 21
0.4045187410693482
 31
0
  0
LINE
  8
0
 62
7
 10
4.333576476237999
 20
0.4045187410693482
 30
0
 11
4.329076476237999
 21
0.3970187410693481
 31
0
  0
LINE
  8
0
 62
7
 10
4.329076476237999
 20
0.3970187410693481
 30
0
 11
4.326826476237999
 21
0.3870187410693481
 31
0
  0
LINE
  8
0
 62
7
 10
4.326826476237999
 20
0.3870187410693481
 30
0
 11
4.326826476237999
 21
0.347018741069348
 31
0
  0
LINE
  8
0
 62
7
 10
4.326826476237999
 20
0.347018741069348
 30
0
 11
4.329076476237999
 21
0.3370187410693481
 31
0
  0
LINE
  8
0
 62
7
 10
4.329076476237999
 20
0.3370187410693481
 30
0
 11
4.333576476237999
 21
0.3295187410693481
 31
0
  0
LINE
  8
0
 62
7
 10
4.333576476237999
 20
0.3295187410693481
 30
0
 11
4.338076476237999
 21
0.3245187410693481
 31
0
  0
LINE
  8
0
 62
7
 10
4.338076476237999
 20
0.3245187410693481
 30
0
 11
4.344826476237999
 21
0.3195187410693481
 31
0
  0
LINE
  8
0
 62
7
 10
4.344826476237999
 20
0.3195187410693481
 30
0
 11
4.351576476237999
 21
0.3170187410693481
 31
0
  0
LINE
  8
0
 62
7
 10
4.351576476237999
 20
0.3170187410693481
 30
0
 11
4.365076476237999
 21
0.3170187410693481
 31
0
  0
LINE
  8
0
 62
7
 10
4.365076476237999
 20
0.3170187410693481
 30
0
 11
4.371826476237999
 21
0.3195187410693481
 31
0
  0
LINE
  8
0
 62
7
 10
4.371826476237999
 20
0.3195187410693481
 30
0
 11
4.378576476237998
 21
0.3245187410693481
 31
0
  0
LINE
  8
0
 62
7
 10
4.378576476237998
 20
0.3245187410693481
 30
0
 11
4.383076476237998
 21
0.3295187410693481
 31
0
  0
LINE
  8
0
 62
7
 10
4.383076476237998
 20
0.3295187410693481
 30
0
 11
4.387576476237999
 21
0.3370187410693481
 31
0
  0
LINE
  8
0
 62
7
 10
4.387576476237999
 20
0.3370187410693481
 30
0
 11
4.389826476237999
 21
0.347018741069348
 31
0
  0
LINE
  8
0
 62
7
 10
4.389826476237999
 20
0.347018741069348
 30
0
 11
4.389826476237999
 21
0.3670187410693481
 31
0
  0
LINE
  8
0
 62
7
 10
4.389826476237999
 20
0.3670187410693481
 30
0
 11
4.362826476237998
 21
0.3670187410693481
 31
0
  0
LINE
  8
0
 62
7
 10
4.455076476238
 20
0.4170187410693482
 30
0
 11
4.441576476237999
 21
0.4170187410693482
 31
0
  0
LINE
  8
0
 62
7
 10
4.441576476237999
 20
0.4170187410693482
 30
0
 11
4.434826476237999
 21
0.4145187410693481
 31
0
  0
LINE
  8
0
 62
7
 10
4.434826476237999
 20
0.4145187410693481
 30
0
 11
4.428076476237999
 21
0.4095187410693482
 31
0
  0
LINE
  8
0
 62
7
 10
4.428076476237999
 20
0.4095187410693482
 30
0
 11
4.423576476237999
 21
0.4045187410693482
 31
0
  0
LINE
  8
0
 62
7
 10
4.423576476237999
 20
0.4045187410693482
 30
0
 11
4.419076476237999
 21
0.3970187410693481
 31
0
  0
LINE
  8
0
 62
7
 10
4.419076476237999
 20
0.3970187410693481
 30
0
 11
4.416826476237999
 21
0.3870187410693481
 31
0
  0
LINE
  8
0
 62
7
 10
4.416826476237999
 20
0.3870187410693481
 30
0
 11
4.416826476237999
 21
0.347018741069348
 31
0
  0
LINE
  8
0
 62
7
 10
4.416826476237999
 20
0.347018741069348
 30
0
 11
4.419076476237999
 21
0.3370187410693481
 31
0
  0
LINE
  8
0
 62
7
 10
4.419076476237999
 20
0.3370187410693481
 30
0
 11
4.423576476237999
 21
0.3295187410693481
 31
0
  0
LINE
  8
0
 62
7
 10
4.423576476237999
 20
0.3295187410693481
 30
0
 11
4.428076476237999
 21
0.3245187410693481
 31
0
  0
LINE
  8
0
 62
7
 10
4.428076476237999
 20
0.3245187410693481
 30
0
 11
4.434826476237999
 21
0.3195187410693481
 31
0
  0
LINE
  8
0
 62
7
 10
4.434826476237999
 20
0.3195187410693481
 30
0
 11
4.441576476237999
 21
0.3170187410693481
 31
0
  0
LINE
  8
0
 62
7
 10
4.441576476237999
 20
0.3170187410693481
 30
0
 11
4.455076476238
 21
0.3170187410693481
 31
0
  0
LINE
  8
0
 62
7
 10
4.455076476238
 20
0.3170187410693481
 30
0
 11
4.461826476237999
 21
0.3195187410693481
 31
0
  0
LINE
  8
0
 62
7
 10
4.461826476237999
 20
0.3195187410693481
 30
0
 11
4.468576476237999
 21
0.3245187410693481
 31
0
  0
LINE
  8
0
 62
7
 10
4.468576476237999
 20
0.3245187410693481
 30
0
 11
4.473076476237998
 21
0.3295187410693481
 31
0
  0
LINE
  8
0
 62
7
 10
4.473076476237998
 20
0.3295187410693481
 30
0
 11
4.477576476237999
 21
0.3370187410693481
 31
0
  0
LINE
  8
0
 62
7
 10
4.477576476237999
 20
0.3370187410693481
 30
0
 11
4.479826476237998
 21
0.347018741069348
 31
0
  0
LINE
  8
0
 62
7
 10
4.479826476237998
 20
0.347018741069348
 30
0
 11
4.479826476237998
 21
0.3870187410693481
 31
0
  0
LINE
  8
0
 62
7
 10
4.479826476237998
 20
0.3870187410693481
 30
0
 11
4.477576476237999
 21
0.3970187410693481
 31
0
  0
LINE
  8
0
 62
7
 10
4.477576476237999
 20
0.3970187410693481
 30
0
 11
4.473076476237998
 21
0.4045187410693482
 31
0
  0
LINE
  8
0
 62
7
 10
4.473076476237998
 20
0.4045187410693482
 30
0
 11
4.468576476237999
 21
0.4095187410693482
 31
0
  0
LINE
  8
0
 62
7
 10
4.468576476237999
 20
0.4095187410693482
 30
0
 11
4.461826476237999
 21
0.4145187410693481
 31
0
  0
LINE
  8
0
 62
7
 10
4.461826476237999
 20
0.4145187410693481
 30
0
 11
4.455076476238
 21
0.4170187410693482
 31
0
  0
LINE
  8
0
 62
7
 10
4.497826476237999
 20
0.4170187410693482
 30
0
 11
4.529326476237999
 21
0.4170187410693482
 31
0
  0
LINE
  8
0
 62
7
 10
4.529326476237999
 20
0.4170187410693482
 30
0
 11
4.529326476237999
 21
0.3170187410693481
 31
0
  0
LINE
  8
0
 62
7
 10
4.529326476237999
 20
0.4170187410693482
 30
0
 11
4.560826476238
 21
0.4170187410693482
 31
0
  0
LINE
  8
0
 62
7
 10
4.587826476237999
 20
0.4170187410693482
 30
0
 11
4.619326476237999
 21
0.4170187410693482
 31
0
  0
LINE
  8
0
 62
7
 10
4.619326476237999
 20
0.4170187410693482
 30
0
 11
4.619326476237999
 21
0.3170187410693481
 31
0
  0
LINE
  8
0
 62
7
 10
4.619326476237999
 20
0.4170187410693482
 30
0
 11
4.650826476238
 21
0.4170187410693482
 31
0
  0
LINE
  8
0
 62
7
 10
4.749826476237999
 20
0.3520187410693481
 30
0
 11
4.794826476237999
 21
0.3520187410693481
 31
0
  0
LINE
  8
0
 62
7
 10
4.884826476237999
 20
0.4170187410693482
 30
0
 11
4.916326476238
 21
0.4170187410693482
 31
0
  0
LINE
  8
0
 62
7
 10
4.916326476238
 20
0.4170187410693482
 30
0
 11
4.916326476238
 21
0.3170187410693481
 31
0
  0
LINE
  8
0
 62
7
 10
4.916326476238
 20
0.4170187410693482
 30
0
 11
4.947826476237999
 21
0.4170187410693482
 31
0
  0
LINE
  8
0
 62
7
 10
4.974826476237999
 20
0.3170187410693481
 30
0
 11
4.974826476237999
 21
0.4170187410693482
 31
0
  0
LINE
  8
0
 62
7
 10
4.974826476237999
 20
0.4170187410693482
 30
0
 11
5.017576476238
 21
0.4170187410693482
 31
0
  0
LINE
  8
0
 62
7
 10
5.017576476238
 20
0.4170187410693482
 30
0
 11
5.026576476237999
 21
0.4145187410693481
 31
0
  0
LINE
  8
0
 62
7
 10
5.026576476237999
 20
0.4145187410693481
 30
0
 11
5.033326476238
 21
0.4095187410693482
 31
0
  0
LINE
  8
0
 62
7
 10
5.033326476238
 20
0.4095187410693482
 30
0
 11
5.035576476237999
 21
0.4045187410693482
 31
0
  0
LINE
  8
0
 62
7
 10
5.035576476237999
 20
0.4045187410693482
 30
0
 11
5.037826476237999
 21
0.3970187410693481
 31
0
  0
LINE
  8
0
 62
7
 10
5.037826476237999
 20
0.3970187410693481
 30
0
 11
5.037826476237999
 21
0.3870187410693481
 31
0
  0
LINE
  8
0
 62
7
 10
5.037826476237999
 20
0.3870187410693481
 30
0
 11
5.035576476237999
 21
0.3795187410693481
 31
0
  0
LINE
  8
0
 62
7
 10
5.035576476237999
 20
0.3795187410693481
 30
0
 11
5.033326476238
 21
0.3745187410693481
 31
0
  0
LINE
  8
0
 62
7
 10
5.033326476238
 20
0.3745187410693481
 30
0
 11
5.026576476237999
 21
0.3695187410693481
 31
0
  0
LINE
  8
0
 62
7
 10
5.026576476237999
 20
0.3695187410693481
 30
0
 11
5.017576476238
 21
0.3670187410693481
 31
0
  0
LINE
  8
0
 62
7
 10
5.017576476238
 20
0.3670187410693481
 30
0
 11
5.010826476238
 21
0.3670187410693481
 31
0
  0
LINE
  8
0
 62
7
 10
5.010826476238
 20
0.3670187410693481
 30
0
 11
5.037826476237999
 21
0.3170187410693481
 31
0
  0
LINE
  8
0
 62
7
 10
5.010826476238
 20
0.3670187410693481
 30
0
 11
4.974826476237999
 21
0.3670187410693481
 31
0
  0
LINE
  8
0
 62
7
 10
5.118826476238
 20
0.4170187410693482
 30
0
 11
5.055826476238
 21
0.4170187410693482
 31
0
  0
LINE
  8
0
 62
7
 10
5.055826476238
 20
0.4170187410693482
 30
0
 11
5.055826476238
 21
0.3670187410693481
 31
0
  0
LINE
  8
0
 62
7
 10
5.055826476238
 20
0.3170187410693481
 30
0
 11
5.118826476238
 21
0.3170187410693481
 31
0
  0
LINE
  8
0
 62
7
 10
5.109826476237998
 20
0.3670187410693481
 30
0
 11
5.055826476238
 21
0.3670187410693481
 31
0
  0
LINE
  8
0
 62
7
 10
5.055826476238
 20
0.3670187410693481
 30
0
 11
5.055826476238
 21
0.3170187410693481
 31
0
  0
LINE
  8
0
 62
7
 10
5.145826476238
 20
0.3170187410693481
 30
0
 11
5.145826476238
 21
0.3670187410693481
 31
0
  0
LINE
  8
0
 62
7
 10
5.145826476238
 20
0.4170187410693482
 30
0
 11
5.188576476237999
 21
0.4170187410693482
 31
0
  0
LINE
  8
0
 62
7
 10
5.188576476237999
 20
0.4170187410693482
 30
0
 11
5.197576476238
 21
0.4145187410693481
 31
0
  0
LINE
  8
0
 62
7
 10
5.197576476238
 20
0.4145187410693481
 30
0
 11
5.204326476237998
 21
0.4095187410693482
 31
0
  0
LINE
  8
0
 62
7
 10
5.204326476237998
 20
0.4095187410693482
 30
0
 11
5.206576476237998
 21
0.4045187410693482
 31
0
  0
LINE
  8
0
 62
7
 10
5.206576476237998
 20
0.4045187410693482
 30
0
 11
5.208826476237999
 21
0.3970187410693481
 31
0
  0
LINE
  8
0
 62
7
 10
5.208826476237999
 20
0.3970187410693481
 30
0
 11
5.208826476237999
 21
0.3870187410693481
 31
0
  0
LINE
  8
0
 62
7
 10
5.208826476237999
 20
0.3870187410693481
 30
0
 11
5.206576476237998
 21
0.3795187410693481
 31
0
  0
LINE
  8
0
 62
7
 10
5.206576476237998
 20
0.3795187410693481
 30
0
 11
5.204326476237998
 21
0.3745187410693481
 31
0
  0
LINE
  8
0
 62
7
 10
5.204326476237998
 20
0.3745187410693481
 30
0
 11
5.197576476238
 21
0.3695187410693481
 31
0
  0
LINE
  8
0
 62
7
 10
5.197576476238
 20
0.3695187410693481
 30
0
 11
5.188576476237999
 21
0.3670187410693481
 31
0
  0
LINE
  8
0
 62
7
 10
5.188576476237999
 20
0.3670187410693481
 30
0
 11
5.145826476238
 21
0.3670187410693481
 31
0
  0
LINE
  8
0
 62
7
 10
5.145826476238
 20
0.3670187410693481
 30
0
 11
5.145826476238
 21
0.4170187410693482
 31
0
  0
LINE
  8
0
 62
7
 10
5.226826476237999
 20
0.3170187410693481
 30
0
 11
5.226826476237999
 21
0.3670187410693481
 31
0
  0
LINE
  8
0
 62
7
 10
5.226826476237999
 20
0.4170187410693482
 30
0
 11
5.269576476237999
 21
0.4170187410693482
 31
0
  0
LINE
  8
0
 62
7
 10
5.269576476237999
 20
0.4170187410693482
 30
0
 11
5.278576476237999
 21
0.4145187410693481
 31
0
  0
LINE
  8
0
 62
7
 10
5.278576476237999
 20
0.4145187410693481
 30
0
 11
5.285326476237999
 21
0.4095187410693482
 31
0
  0
LINE
  8
0
 62
7
 10
5.285326476237999
 20
0.4095187410693482
 30
0
 11
5.287576476238
 21
0.4045187410693482
 31
0
  0
LINE
  8
0
 62
7
 10
5.287576476238
 20
0.4045187410693482
 30
0
 11
5.289826476237999
 21
0.3970187410693481
 31
0
  0
LINE
  8
0
 62
7
 10
5.289826476237999
 20
0.3970187410693481
 30
0
 11
5.289826476237999
 21
0.3870187410693481
 31
0
  0
LINE
  8
0
 62
7
 10
5.289826476237999
 20
0.3870187410693481
 30
0
 11
5.287576476238
 21
0.3795187410693481
 31
0
  0
LINE
  8
0
 62
7
 10
5.287576476238
 20
0.3795187410693481
 30
0
 11
5.285326476237999
 21
0.3745187410693481
 31
0
  0
LINE
  8
0
 62
7
 10
5.285326476237999
 20
0.3745187410693481
 30
0
 11
5.278576476237999
 21
0.3695187410693481
 31
0
  0
LINE
  8
0
 62
7
 10
5.278576476237999
 20
0.3695187410693481
 30
0
 11
5.269576476237999
 21
0.3670187410693481
 31
0
  0
LINE
  8
0
 62
7
 10
5.269576476237999
 20
0.3670187410693481
 30
0
 11
5.226826476237999
 21
0.3670187410693481
 31
0
  0
LINE
  8
0
 62
7
 10
5.226826476237999
 20
0.3670187410693481
 30
0
 11
5.226826476237999
 21
0.4170187410693482
 31
0
  0
LINE
  8
0
 62
7
 10
5.370826476237999
 20
0.4170187410693482
 30
0
 11
5.307826476237999
 21
0.4170187410693482
 31
0
  0
LINE
  8
0
 62
7
 10
5.307826476237999
 20
0.4170187410693482
 30
0
 11
5.307826476237999
 21
0.3670187410693481
 31
0
  0
LINE
  8
0
 62
7
 10
5.307826476237999
 20
0.3170187410693481
 30
0
 11
5.370826476237999
 21
0.3170187410693481
 31
0
  0
LINE
  8
0
 62
7
 10
5.361826476237999
 20
0.3670187410693481
 30
0
 11
5.307826476237999
 21
0.3670187410693481
 31
0
  0
LINE
  8
0
 62
7
 10
5.307826476237999
 20
0.3670187410693481
 30
0
 11
5.307826476237999
 21
0.3170187410693481
 31
0
  0
LINE
  8
0
 62
7
 10
1.7
 20
-0.1
 30
0
 11
1.763
 21
-0.1
 31
0
  0
LINE
  8
0
 62
7
 10
1.763
 20
-0.1
 30
0
 11
1.7
 21
-0.2
 31
0
  0
LINE
  8
0
 62
7
 10
1.7
 20
-0.2
 30
0
 11
1.763
 21
-0.2
 31
0
  0
LINE
  8
0
 62
7
 10
1.85075
 20
-0.11
 30
0
 11
1.844
 21
-0.105
 31
0
  0
LINE
  8
0
 62
7
 10
1.844
 20
-0.105
 30
0
 11
1.83725
 21
-0.1025
 31
0
  0
LINE
  8
0
 62
7
 10
1.83725
 20
-0.1025
 30
0
 11
1.826
 21
-0.1
 31
0
  0
LINE
  8
0
 62
7
 10
1.826
 20
-0.1
 30
0
 11
1.817
 21
-0.1
 31
0
  0
LINE
  8
0
 62
7
 10
1.817
 20
-0.1
 30
0
 11
1.808
 21
-0.1025
 31
0
  0
LINE
  8
0
 62
7
 10
1.808
 20
-0.1025
 30
0
 11
1.80125
 21
-0.105
 31
0
  0
LINE
  8
0
 62
7
 10
1.80125
 20
-0.105
 30
0
 11
1.7945
 21
-0.11
 31
0
  0
LINE
  8
0
 62
7
 10
1.7945
 20
-0.11
 30
0
 11
1.79225
 21
-0.1175
 31
0
  0
LINE
  8
0
 62
7
 10
1.79225
 20
-0.1175
 30
0
 11
1.79225
 21
-0.1225
 31
0
  0
LINE
  8
0
 62
7
 10
1.79225
 20
-0.1225
 30
0
 11
1.7945
 21
-0.13
 31
0
  0
LINE
  8
0
 62
7
 10
1.7945
 20
-0.13
 30
0
 11
1.80125
 21
-0.135
 31
0
  0
LINE
  8
0
 62
7
 10
1.80125
 20
-0.135
 30
0
 11
1.8395
 21
-0.1525
 31
0
  0
LINE
  8
0
 62
7
 10
1.8395
 20
-0.1525
 30
0
 11
1.84625
 21
-0.1575
 31
0
  0
LINE
  8
0
 62
7
 10
1.84625
 20
-0.1575
 30
0
 11
1.85075
 21
-0.165
 31
0
  0
LINE
  8
0
 62
7
 10
1.85075
 20
-0.165
 30
0
 11
1.853
 21
-0.1725
 31
0
  0
LINE
  8
0
 62
7
 10
1.853
 20
-0.1725
 30
0
 11
1.853
 21
-0.1775
 31
0
  0
LINE
  8
0
 62
7
 10
1.853
 20
-0.1775
 30
0
 11
1.85075
 21
-0.185
 31
0
  0
LINE
  8
0
 62
7
 10
1.85075
 20
-0.185
 30
0
 11
1.84625
 21
-0.1925
 31
0
  0
LINE
  8
0
 62
7
 10
1.84625
 20
-0.1925
 30
0
 11
1.8395
 21
-0.1975
 31
0
  0
LINE
  8
0
 62
7
 10
1.8395
 20
-0.1975
 30
0
 11
1.82825
 21
-0.2
 31
0
  0
LINE
  8
0
 62
7
 10
1.82825
 20
-0.2
 30
0
 11
1.81475
 21
-0.2
 31
0
  0
LINE
  8
0
 62
7
 10
1.81475
 20
-0.2
 30
0
 11
1.8035
 21
-0.1975
 31
0
  0
LINE
  8
0
 62
7
 10
1.8035
 20
-0.1975
 30
0
 11
1.7945
 21
-0.1925
 31
0
  0
LINE
  8
0
 62
7
 10
1.7945
 20
-0.1925
 30
0
 11
1.79
 21
-0.1875
 31
0
  0
LINE
  8
0
 62
7
 10
1.871
 20
-0.2
 30
0
 11
1.871
 21
-0.1
 31
0
  0
LINE
  8
0
 62
7
 10
1.871
 20
-0.1
 30
0
 11
1.91375
 21
-0.1
 31
0
  0
LINE
  8
0
 62
7
 10
1.91375
 20
-0.1
 30
0
 11
1.92275
 21
-0.1025
 31
0
  0
LINE
  8
0
 62
7
 10
1.92275
 20
-0.1025
 30
0
 11
1.9295
 21
-0.1075
 31
0
  0
LINE
  8
0
 62
7
 10
1.9295
 20
-0.1075
 30
0
 11
1.93175
 21
-0.1125
 31
0
  0
LINE
  8
0
 62
7
 10
1.93175
 20
-0.1125
 30
0
 11
1.934
 21
-0.12
 31
0
  0
LINE
  8
0
 62
7
 10
1.934
 20
-0.12
 30
0
 11
1.934
 21
-0.13
 31
0
  0
LINE
  8
0
 62
7
 10
1.934
 20
-0.13
 30
0
 11
1.93175
 21
-0.1375
 31
0
  0
LINE
  8
0
 62
7
 10
1.93175
 20
-0.1375
 30
0
 11
1.9295
 21
-0.1425
 31
0
  0
LINE
  8
0
 62
7
 10
1.9295
 20
-0.1425
 30
0
 11
1.92275
 21
-0.1475
 31
0
  0
LINE
  8
0
 62
7
 10
1.92275
 20
-0.1475
 30
0
 11
1.91375
 21
-0.15
 31
0
  0
LINE
  8
0
 62
7
 10
1.91375
 20
-0.15
 30
0
 11
1.907
 21
-0.15
 31
0
  0
LINE
  8
0
 62
7
 10
1.907
 20
-0.15
 30
0
 11
1.934
 21
-0.2
 31
0
  0
LINE
  8
0
 62
7
 10
1.907
 20
-0.15
 30
0
 11
1.871
 21
-0.15
 31
0
  0
LINE
  8
0
 62
7
 10
1.952
 20
-0.13
 30
0
 11
1.979
 21
-0.1
 31
0
  0
LINE
  8
0
 62
7
 10
1.979
 20
-0.1
 30
0
 11
1.979
 21
-0.2
 31
0
  0
LINE
  8
0
 62
7
 10
2.0555
 20
-0.1
 30
0
 11
2.006
 21
-0.1
 31
0
  0
LINE
  8
0
 62
7
 10
2.006
 20
-0.1
 30
0
 11
2.006
 21
-0.15
 31
0
  0
LINE
  8
0
 62
7
 10
2.006
 20
-0.15
 30
0
 11
2.0105
 21
-0.1425
 31
0
  0
LINE
  8
0
 62
7
 10
2.0105
 20
-0.1425
 30
0
 11
2.01725
 21
-0.1375
 31
0
  0
LINE
  8
0
 62
7
 10
2.01725
 20
-0.1375
 30
0
 11
2.02625
 21
-0.135
 31
0
  0
LINE
  8
0
 62
7
 10
2.02625
 20
-0.135
 30
0
 11
2.03975
 21
-0.135
 31
0
  0
LINE
  8
0
 62
7
 10
2.03975
 20
-0.135
 30
0
 11
2.0465
 21
-0.1375
 31
0
  0
LINE
  8
0
 62
7
 10
2.0465
 20
-0.1375
 30
0
 11
2.05325
 21
-0.1425
 31
0
  0
LINE
  8
0
 62
7
 10
2.05325
 20
-0.1425
 30
0
 11
2.05775
 21
-0.15
 31
0
  0
LINE
  8
0
 62
7
 10
2.05775
 20
-0.15
 30
0
 11
2.06
 21
-0.16
 31
0
  0
LINE
  8
0
 62
7
 10
2.06
 20
-0.16
 30
0
 11
2.06
 21
-0.175
 31
0
  0
LINE
  8
0
 62
7
 10
2.06
 20
-0.175
 30
0
 11
2.05775
 21
-0.185
 31
0
  0
LINE
  8
0
 62
7
 10
2.05775
 20
-0.185
 30
0
 11
2.05325
 21
-0.1925
 31
0
  0
LINE
  8
0
 62
7
 10
2.05325
 20
-0.1925
 30
0
 11
2.0465
 21
-0.1975
 31
0
  0
LINE
  8
0
 62
7
 10
2.0465
 20
-0.1975
 30
0
 11
2.03975
 21
-0.2
 31
0
  0
LINE
  8
0
 62
7
 10
2.03975
 20
-0.2
 30
0
 11
2.02625
 21
-0.2
 31
0
  0
LINE
  8
0
 62
7
 10
2.02625
 20
-0.2
 30
0
 11
2.01725
 21
-0.1975
 31
0
  0
LINE
  8
0
 62
7
 10
2.01725
 20
-0.1975
 30
0
 11
2.0105
 21
-0.1925
 31
0
  0
LINE
  8
0
 62
7
 10
2.0105
 20
-0.1925
 30
0
 11
2.006
 21
-0.185
 31
0
  0
LINE
  8
0
 62
7
 10
2.087
 20
-0.125
 30
0
 11
2.08925
 21
-0.115
 31
0
  0
LINE
  8
0
 62
7
 10
2.08925
 20
-0.115
 30
0
 11
2.09375
 21
-0.1075
 31
0
  0
LINE
  8
0
 62
7
 10
2.09375
 20
-0.1075
 30
0
 11
2.1005
 21
-0.1025
 31
0
  0
LINE
  8
0
 62
7
 10
2.1005
 20
-0.1025
 30
0
 11
2.10725
 21
-0.1
 31
0
  0
LINE
  8
0
 62
7
 10
2.10725
 20
-0.1
 30
0
 11
2.12075
 21
-0.1
 31
0
  0
LINE
  8
0
 62
7
 10
2.12075
 20
-0.1
 30
0
 11
2.1275
 21
-0.1025
 31
0
  0
LINE
  8
0
 62
7
 10
2.1275
 20
-0.1025
 30
0
 11
2.13425
 21
-0.1075
 31
0
  0
LINE
  8
0
 62
7
 10
2.13425
 20
-0.1075
 30
0
 11
2.13875
 21
-0.115
 31
0
  0
LINE
  8
0
 62
7
 10
2.13875
 20
-0.115
 30
0
 11
2.141
 21
-0.125
 31
0
  0
LINE
  8
0
 62
7
 10
2.141
 20
-0.125
 30
0
 11
2.141
 21
-0.175
 31
0
  0
LINE
  8
0
 62
7
 10
2.141
 20
-0.175
 30
0
 11
2.13875
 21
-0.185
 31
0
  0
LINE
  8
0
 62
7
 10
2.13875
 20
-0.185
 30
0
 11
2.13425
 21
-0.1925
 31
0
  0
LINE
  8
0
 62
7
 10
2.13425
 20
-0.1925
 30
0
 11
2.1275
 21
-0.1975
 31
0
  0
LINE
  8
0
 62
7
 10
2.1275
 20
-0.1975
 30
0
 11
2.12075
 21
-0.2
 31
0
  0
LINE
  8
0
 62
7
 10
2.12075
 20
-0.2
 30
0
 11
2.10725
 21
-0.2
 31
0
  0
LINE
  8
0
 62
7
 10
2.10725
 20
-0.2
 30
0
 11
2.1005
 21
-0.1975
 31
0
  0
LINE
  8
0
 62
7
 10
2.1005
 20
-0.1975
 30
0
 11
2.09375
 21
-0.1925
 31
0
  0
LINE
  8
0
 62
7
 10
2.09375
 20
-0.1925
 30
0
 11
2.08925
 21
-0.185
 31
0
  0
LINE
  8
0
 62
7
 10
2.08925
 20
-0.185
 30
0
 11
2.087
 21
-0.175
 31
0
  0
LINE
  8
0
 62
7
 10
2.087
 20
-0.175
 30
0
 11
2.087
 21
-0.125
 31
0
  0
LINE
  8
0
 62
7
 10
2.222
 20
-0.2
 30
0
 11
2.168
 21
-0.2
 31
0
  0
LINE
  8
0
 62
7
 10
2.168
 20
-0.2
 30
0
 11
2.168
 21
-0.1
 31
0
  0
LINE
  8
0
 62
7
 10
2.249
 20
-0.115
 30
0
 11
2.2535
 21
-0.1075
 31
0
  0
LINE
  8
0
 62
7
 10
2.2535
 20
-0.1075
 30
0
 11
2.26025
 21
-0.1025
 31
0
  0
LINE
  8
0
 62
7
 10
2.26025
 20
-0.1025
 30
0
 11
2.26925
 21
-0.1
 31
0
  0
LINE
  8
0
 62
7
 10
2.26925
 20
-0.1
 30
0
 11
2.28275
 21
-0.1
 31
0
  0
LINE
  8
0
 62
7
 10
2.28275
 20
-0.1
 30
0
 11
2.29175
 21
-0.1025
 31
0
  0
LINE
  8
0
 62
7
 10
2.29175
 20
-0.1025
 30
0
 11
2.2985
 21
-0.1075
 31
0
  0
LINE
  8
0
 62
7
 10
2.2985
 20
-0.1075
 30
0
 11
2.303
 21
-0.115
 31
0
  0
LINE
  8
0
 62
7
 10
2.303
 20
-0.115
 30
0
 11
2.303
 21
-0.125
 31
0
  0
LINE
  8
0
 62
7
 10
2.303
 20
-0.125
 30
0
 11
2.2985
 21
-0.135
 31
0
  0
LINE
  8
0
 62
7
 10
2.2985
 20
-0.135
 30
0
 11
2.249
 21
-0.2
 31
0
  0
LINE
  8
0
 62
7
 10
2.249
 20
-0.2
 30
0
 11
2.303
 21
-0.2
 31
0
  0
LINE
  8
0
 62
7
 10
3.9
 20
-0.2
 30
0
 11
3.9
 21
-0.1
 31
0
  0
LINE
  8
0
 62
7
 10
3.9
 20
-0.1
 30
0
 11
3.963000000000001
 21
-0.2
 31
0
  0
LINE
  8
0
 62
7
 10
3.963000000000001
 20
-0.2
 30
0
 11
3.963000000000001
 21
-0.1
 31
0
  0
LINE
  8
0
 62
7
 10
4.044
 20
-0.2
 30
0
 11
3.99
 21
-0.2
 31
0
  0
LINE
  8
0
 62
7
 10
3.99
 20
-0.2
 30
0
 11
3.99
 21
-0.1
 31
0
  0
LINE
  8
0
 62
7
 10
4.071000000000001
 20
-0.15
 30
0
 11
4.107
 21
-0.15
 31
0
  0
LINE
  8
0
 62
7
 10
4.107
 20
-0.15
 30
0
 11
4.1115
 21
-0.15
 31
0
  0
LINE
  8
0
 62
7
 10
4.1115
 20
-0.15
 30
0
 11
4.1205
 21
-0.155
 31
0
  0
LINE
  8
0
 62
7
 10
4.1205
 20
-0.155
 30
0
 11
4.125
 21
-0.16
 31
0
  0
LINE
  8
0
 62
7
 10
4.125
 20
-0.16
 30
0
 11
4.1295
 21
-0.17
 31
0
  0
LINE
  8
0
 62
7
 10
4.1295
 20
-0.17
 30
0
 11
4.1295
 21
-0.18
 31
0
  0
LINE
  8
0
 62
7
 10
4.1295
 20
-0.18
 30
0
 11
4.125
 21
-0.19
 31
0
  0
LINE
  8
0
 62
7
 10
4.125
 20
-0.19
 30
0
 11
4.1205
 21
-0.195
 31
0
  0
LINE
  8
0
 62
7
 10
4.1205
 20
-0.195
 30
0
 11
4.1115
 21
-0.2
 31
0
  0
LINE
  8
0
 62
7
 10
4.1115
 20
-0.2
 30
0
 11
4.071000000000001
 21
-0.2
 31
0
  0
LINE
  8
0
 62
7
 10
4.071000000000001
 20
-0.2
 30
0
 11
4.071000000000001
 21
-0.15
 31
0
  0
LINE
  8
0
 62
7
 10
4.071000000000001
 20
-0.1
 30
0
 11
4.10475
 21
-0.1
 31
0
  0
LINE
  8
0
 62
7
 10
4.10475
 20
-0.1
 30
0
 11
4.116000000000001
 21
-0.1025
 31
0
  0
LINE
  8
0
 62
7
 10
4.116000000000001
 20
-0.1025
 30
0
 11
4.12275
 21
-0.11
 31
0
  0
LINE
  8
0
 62
7
 10
4.12275
 20
-0.11
 30
0
 11
4.125
 21
-0.12
 31
0
  0
LINE
  8
0
 62
7
 10
4.125
 20
-0.12
 30
0
 11
4.125
 21
-0.13
 31
0
  0
LINE
  8
0
 62
7
 10
4.125
 20
-0.13
 30
0
 11
4.1205
 21
-0.14
 31
0
  0
LINE
  8
0
 62
7
 10
4.1205
 20
-0.14
 30
0
 11
4.11375
 21
-0.1475
 31
0
  0
LINE
  8
0
 62
7
 10
4.11375
 20
-0.1475
 30
0
 11
4.107
 21
-0.15
 31
0
  0
LINE
  8
0
 62
7
 10
4.071000000000001
 20
-0.15
 30
0
 11
4.071000000000001
 21
-0.1
 31
0
  0
LINE
  8
0
 62
7
 10
4.27125
 20
-0.1475
 30
0
 11
4.264500000000001
 21
-0.1375
 31
0
  0
LINE
  8
0
 62
7
 10
4.264500000000001
 20
-0.1375
 30
0
 11
4.257750000000001
 21
-0.1325
 31
0
  0
LINE
  8
0
 62
7
 10
4.257750000000001
 20
-0.1325
 30
0
 11
4.251
 21
-0.13
 31
0
  0
LINE
  8
0
 62
7
 10
4.251
 20
-0.13
 30
0
 11
4.242
 21
-0.13
 31
0
  0
LINE
  8
0
 62
7
 10
4.242
 20
-0.13
 30
0
 11
4.23525
 21
-0.1325
 31
0
  0
LINE
  8
0
 62
7
 10
4.23525
 20
-0.1325
 30
0
 11
4.2285
 21
-0.1375
 31
0
  0
LINE
  8
0
 62
7
 10
4.2285
 20
-0.1375
 30
0
 11
4.22175
 21
-0.1475
 31
0
  0
LINE
  8
0
 62
7
 10
4.22175
 20
-0.1475
 30
0
 11
4.2195
 21
-0.155
 31
0
  0
LINE
  8
0
 62
7
 10
4.2195
 20
-0.155
 30
0
 11
4.2195
 21
-0.175
 31
0
  0
LINE
  8
0
 62
7
 10
4.2195
 20
-0.175
 30
0
 11
4.22175
 21
-0.1825
 31
0
  0
LINE
  8
0
 62
7
 10
4.22175
 20
-0.1825
 30
0
 11
4.2285
 21
-0.1925
 31
0
  0
LINE
  8
0
 62
7
 10
4.2285
 20
-0.1925
 30
0
 11
4.23525
 21
-0.1975
 31
0
  0
LINE
  8
0
 62
7
 10
4.23525
 20
-0.1975
 30
0
 11
4.242
 21
-0.2
 31
0
  0
LINE
  8
0
 62
7
 10
4.242
 20
-0.2
 30
0
 11
4.251
 21
-0.2
 31
0
  0
LINE
  8
0
 62
7
 10
4.251
 20
-0.2
 30
0
 11
4.257750000000001
 21
-0.1975
 31
0
  0
LINE
  8
0
 62
7
 10
4.257750000000001
 20
-0.1975
 30
0
 11
4.264500000000001
 21
-0.1925
 31
0
  0
LINE
  8
0
 62
7
 10
4.264500000000001
 20
-0.1925
 30
0
 11
4.27125
 21
-0.1825
 31
0
  0
LINE
  8
0
 62
7
 10
4.34325
 20
-0.155
 30
0
 11
4.341
 21
-0.1475
 31
0
  0
LINE
  8
0
 62
7
 10
4.341
 20
-0.1475
 30
0
 11
4.33425
 21
-0.1375
 31
0
  0
LINE
  8
0
 62
7
 10
4.33425
 20
-0.1375
 30
0
 11
4.3275
 21
-0.1325
 31
0
  0
LINE
  8
0
 62
7
 10
4.3275
 20
-0.1325
 30
0
 11
4.32075
 21
-0.13
 31
0
  0
LINE
  8
0
 62
7
 10
4.32075
 20
-0.13
 30
0
 11
4.31175
 21
-0.13
 31
0
  0
LINE
  8
0
 62
7
 10
4.31175
 20
-0.13
 30
0
 11
4.305000000000001
 21
-0.1325
 31
0
  0
LINE
  8
0
 62
7
 10
4.305000000000001
 20
-0.1325
 30
0
 11
4.29825
 21
-0.1375
 31
0
  0
LINE
  8
0
 62
7
 10
4.29825
 20
-0.1375
 30
0
 11
4.2915
 21
-0.1475
 31
0
  0
LINE
  8
0
 62
7
 10
4.2915
 20
-0.1475
 30
0
 11
4.28925
 21
-0.155
 31
0
  0
LINE
  8
0
 62
7
 10
4.28925
 20
-0.155
 30
0
 11
4.28925
 21
-0.175
 31
0
  0
LINE
  8
0
 62
7
 10
4.28925
 20
-0.175
 30
0
 11
4.2915
 21
-0.1825
 31
0
  0
LINE
  8
0
 62
7
 10
4.2915
 20
-0.1825
 30
0
 11
4.29825
 21
-0.1925
 31
0
  0
LINE
  8
0
 62
7
 10
4.29825
 20
-0.1925
 30
0
 11
4.305000000000001
 21
-0.1975
 31
0
  0
LINE
  8
0
 62
7
 10
4.305000000000001
 20
-0.1975
 30
0
 11
4.31175
 21
-0.2
 31
0
  0
LINE
  8
0
 62
7
 10
4.31175
 20
-0.2
 30
0
 11
4.32075
 21
-0.2
 31
0
  0
LINE
  8
0
 62
7
 10
4.32075
 20
-0.2
 30
0
 11
4.3275
 21
-0.1975
 31
0
  0
LINE
  8
0
 62
7
 10
4.3275
 20
-0.1975
 30
0
 11
4.33425
 21
-0.1925
 31
0
  0
LINE
  8
0
 62
7
 10
4.33425
 20
-0.1925
 30
0
 11
4.341
 21
-0.1825
 31
0
  0
LINE
  8
0
 62
7
 10
4.341
 20
-0.1825
 30
0
 11
4.34325
 21
-0.175
 31
0
  0
LINE
  8
0
 62
7
 10
4.34325
 20
-0.13
 30
0
 11
4.34325
 21
-0.155
 31
0
  0
LINE
  8
0
 62
7
 10
4.34325
 20
-0.1975
 30
0
 11
4.3455
 21
-0.2
 31
0
  0
LINE
  8
0
 62
7
 10
4.3455
 20
-0.2
 30
0
 11
4.34775
 21
-0.2
 31
0
  0
LINE
  8
0
 62
7
 10
4.34325
 20
-0.175
 30
0
 11
4.34325
 21
-0.1975
 31
0
  0
LINE
  8
0
 62
7
 10
4.34325
 20
-0.155
 30
0
 11
4.34325
 21
-0.175
 31
0
  0
LINE
  8
0
 62
7
 10
4.36575
 20
-0.2
 30
0
 11
4.36575
 21
-0.1975
 31
0
  0
LINE
  8
0
 62
7
 10
4.36575
 20
-0.1975
 30
0
 11
4.368
 21
-0.1975
 31
0
  0
LINE
  8
0
 62
7
 10
4.368
 20
-0.1975
 30
0
 11
4.368
 21
-0.2
 31
0
  0
LINE
  8
0
 62
7
 10
4.368
 20
-0.2
 30
0
 11
4.36575
 21
-0.2
 31
0
  0
LINE
  8
0
 62
7
 10
4.51875
 20
-0.1
 30
0
 11
4.469250000000001
 21
-0.1
 31
0
  0
LINE
  8
0
 62
7
 10
4.469250000000001
 20
-0.1
 30
0
 11
4.469250000000001
 21
-0.15
 31
0
  0
LINE
  8
0
 62
7
 10
4.469250000000001
 20
-0.15
 30
0
 11
4.473750000000001
 21
-0.1425
 31
0
  0
LINE
  8
0
 62
7
 10
4.473750000000001
 20
-0.1425
 30
0
 11
4.4805
 21
-0.1375
 31
0
  0
LINE
  8
0
 62
7
 10
4.4805
 20
-0.1375
 30
0
 11
4.4895
 21
-0.135
 31
0
  0
LINE
  8
0
 62
7
 10
4.4895
 20
-0.135
 30
0
 11
4.503
 21
-0.135
 31
0
  0
LINE
  8
0
 62
7
 10
4.503
 20
-0.135
 30
0
 11
4.50975
 21
-0.1375
 31
0
  0
LINE
  8
0
 62
7
 10
4.50975
 20
-0.1375
 30
0
 11
4.5165
 21
-0.1425
 31
0
  0
LINE
  8
0
 62
7
 10
4.5165
 20
-0.1425
 30
0
 11
4.521
 21
-0.15
 31
0
  0
LINE
  8
0
 62
7
 10
4.521
 20
-0.15
 30
0
 11
4.52325
 21
-0.16
 31
0
  0
LINE
  8
0
 62
7
 10
4.52325
 20
-0.16
 30
0
 11
4.52325
 21
-0.175
 31
0
  0
LINE
  8
0
 62
7
 10
4.52325
 20
-0.175
 30
0
 11
4.521
 21
-0.185
 31
0
  0
LINE
  8
0
 62
7
 10
4.521
 20
-0.185
 30
0
 11
4.5165
 21
-0.1925
 31
0
  0
LINE
  8
0
 62
7
 10
4.5165
 20
-0.1925
 30
0
 11
4.50975
 21
-0.1975
 31
0
  0
LINE
  8
0
 62
7
 10
4.50975
 20
-0.1975
 30
0
 11
4.503
 21
-0.2
 31
0
  0
LINE
  8
0
 62
7
 10
4.503
 20
-0.2
 30
0
 11
4.4895
 21
-0.2
 31
0
  0
LINE
  8
0
 62
7
 10
4.4895
 20
-0.2
 30
0
 11
4.4805
 21
-0.1975
 31
0
  0
LINE
  8
0
 62
7
 10
4.4805
 20
-0.1975
 30
0
 11
4.473750000000001
 21
-0.1925
 31
0
  0
LINE
  8
0
 62
7
 10
4.473750000000001
 20
-0.1925
 30
0
 11
4.469250000000001
 21
-0.185
 31
0
  0
LINE
  8
0
 62
7
 10
4.59075
 20
-0.1
 30
0
 11
4.55025
 21
-0.18
 31
0
  0
LINE
  8
0
 62
7
 10
4.55025
 20
-0.18
 30
0
 11
4.60425
 21
-0.18
 31
0
  0
LINE
  8
0
 62
7
 10
4.59075
 20
-0.16
 30
0
 11
4.59075
 21
-0.2
 31
0
  0
LINE
  8
0
 62
7
 10
4.755000000000001
 20
-0.1475
 30
0
 11
4.748250000000001
 21
-0.1375
 31
0
  0
LINE
  8
0
 62
7
 10
4.748250000000001
 20
-0.1375
 30
0
 11
4.7415
 21
-0.1325
 31
0
  0
LINE
  8
0
 62
7
 10
4.7415
 20
-0.1325
 30
0
 11
4.734750000000001
 21
-0.13
 31
0
  0
LINE
  8
0
 62
7
 10
4.734750000000001
 20
-0.13
 30
0
 11
4.725750000000001
 21
-0.13
 31
0
  0
LINE
  8
0
 62
7
 10
4.725750000000001
 20
-0.13
 30
0
 11
4.719
 21
-0.1325
 31
0
  0
LINE
  8
0
 62
7
 10
4.719
 20
-0.1325
 30
0
 11
4.71225
 21
-0.1375
 31
0
  0
LINE
  8
0
 62
7
 10
4.71225
 20
-0.1375
 30
0
 11
4.7055
 21
-0.1475
 31
0
  0
LINE
  8
0
 62
7
 10
4.7055
 20
-0.1475
 30
0
 11
4.70325
 21
-0.155
 31
0
  0
LINE
  8
0
 62
7
 10
4.70325
 20
-0.155
 30
0
 11
4.70325
 21
-0.175
 31
0
  0
LINE
  8
0
 62
7
 10
4.70325
 20
-0.175
 30
0
 11
4.7055
 21
-0.1825
 31
0
  0
LINE
  8
0
 62
7
 10
4.7055
 20
-0.1825
 30
0
 11
4.71225
 21
-0.1925
 31
0
  0
LINE
  8
0
 62
7
 10
4.71225
 20
-0.1925
 30
0
 11
4.719
 21
-0.1975
 31
0
  0
LINE
  8
0
 62
7
 10
4.719
 20
-0.1975
 30
0
 11
4.725750000000001
 21
-0.2
 31
0
  0
LINE
  8
0
 62
7
 10
4.725750000000001
 20
-0.2
 30
0
 11
4.734750000000001
 21
-0.2
 31
0
  0
LINE
  8
0
 62
7
 10
4.734750000000001
 20
-0.2
 30
0
 11
4.7415
 21
-0.1975
 31
0
  0
LINE
  8
0
 62
7
 10
4.7415
 20
-0.1975
 30
0
 11
4.748250000000001
 21
-0.1925
 31
0
  0
LINE
  8
0
 62
7
 10
4.748250000000001
 20
-0.1925
 30
0
 11
4.755000000000001
 21
-0.1825
 31
0
  0
LINE
  8
0
 62
7
 10
4.8135
 20
-0.155
 30
0
 11
4.8135
 21
-0.2
 31
0
  0
LINE
  8
0
 62
7
 10
4.773000000000001
 20
-0.13
 30
0
 11
4.773000000000001
 21
-0.155
 31
0
  0
LINE
  8
0
 62
7
 10
4.773000000000001
 20
-0.2
 30
0
 11
4.773000000000001
 21
-0.155
 31
0
  0
LINE
  8
0
 62
7
 10
4.773000000000001
 20
-0.155
 30
0
 11
4.77525
 21
-0.1425
 31
0
  0
LINE
  8
0
 62
7
 10
4.77525
 20
-0.1425
 30
0
 11
4.7775
 21
-0.1375
 31
0
  0
LINE
  8
0
 62
7
 10
4.7775
 20
-0.1375
 30
0
 11
4.782
 21
-0.1325
 31
0
  0
LINE
  8
0
 62
7
 10
4.782
 20
-0.1325
 30
0
 11
4.78875
 21
-0.13
 31
0
  0
LINE
  8
0
 62
7
 10
4.78875
 20
-0.13
 30
0
 11
4.79775
 21
-0.13
 31
0
  0
LINE
  8
0
 62
7
 10
4.79775
 20
-0.13
 30
0
 11
4.804500000000001
 21
-0.1325
 31
0
  0
LINE
  8
0
 62
7
 10
4.804500000000001
 20
-0.1325
 30
0
 11
4.809000000000001
 21
-0.1375
 31
0
  0
LINE
  8
0
 62
7
 10
4.809000000000001
 20
-0.1375
 30
0
 11
4.811250000000001
 21
-0.1425
 31
0
  0
LINE
  8
0
 62
7
 10
4.811250000000001
 20
-0.1425
 30
0
 11
4.8135
 21
-0.155
 31
0
  0
LINE
  8
0
 62
7
 10
4.8135
 20
-0.155
 30
0
 11
4.81575
 21
-0.1425
 31
0
  0
LINE
  8
0
 62
7
 10
4.81575
 20
-0.1425
 30
0
 11
4.818000000000001
 21
-0.1375
 31
0
  0
LINE
  8
0
 62
7
 10
4.818000000000001
 20
-0.1375
 30
0
 11
4.822500000000001
 21
-0.1325
 31
0
  0
LINE
  8
0
 62
7
 10
4.822500000000001
 20
-0.1325
 30
0
 11
4.829250000000001
 21
-0.13
 31
0
  0
LINE
  8
0
 62
7
 10
4.829250000000001
 20
-0.13
 30
0
 11
4.83825
 21
-0.13
 31
0
  0
LINE
  8
0
 62
7
 10
4.83825
 20
-0.13
 30
0
 11
4.845000000000001
 21
-0.1325
 31
0
  0
LINE
  8
0
 62
7
 10
4.849500000000001
 20
-0.1375
 30
0
 11
4.845000000000001
 21
-0.1325
 31
0
  0
LINE
  8
0
 62
7
 10
4.845000000000001
 20
-0.1325
 30
0
 11
4.849500000000001
 21
-0.1375
 31
0
  0
LINE
  8
0
 62
7
 10
4.849500000000001
 20
-0.1375
 30
0
 11
4.85175
 21
-0.1425
 31
0
  0
LINE
  8
0
 62
7
 10
4.85175
 20
-0.1425
 30
0
 11
4.854
 21
-0.155
 31
0
  0
LINE
  8
0
 62
7
 10
4.854
 20
-0.155
 30
0
 11
4.854
 21
-0.2
 31
0
  0
LINE
  8
0
 62
7
 10
4.944
 20
-0.175
 30
0
 11
4.94625
 21
-0.1825
 31
0
  0
LINE
  8
0
 62
7
 10
4.94625
 20
-0.1825
 30
0
 11
4.953
 21
-0.1925
 31
0
  0
LINE
  8
0
 62
7
 10
4.953
 20
-0.1925
 30
0
 11
4.959750000000001
 21
-0.1975
 31
0
  0
LINE
  8
0
 62
7
 10
4.959750000000001
 20
-0.1975
 30
0
 11
4.9665
 21
-0.2
 31
0
  0
LINE
  8
0
 62
7
 10
4.9665
 20
-0.2
 30
0
 11
4.9755
 21
-0.2
 31
0
  0
LINE
  8
0
 62
7
 10
4.9755
 20
-0.2
 30
0
 11
4.982250000000001
 21
-0.1975
 31
0
  0
LINE
  8
0
 62
7
 10
4.982250000000001
 20
-0.1975
 30
0
 11
4.989000000000001
 21
-0.1925
 31
0
  0
LINE
  8
0
 62
7
 10
4.989000000000001
 20
-0.1925
 30
0
 11
4.995750000000001
 21
-0.1825
 31
0
  0
LINE
  8
0
 62
7
 10
4.995750000000001
 20
-0.1825
 30
0
 11
4.998000000000001
 21
-0.175
 31
0
  0
LINE
  8
0
 62
7
 10
4.998000000000001
 20
-0.175
 30
0
 11
4.998000000000001
 21
-0.155
 31
0
  0
LINE
  8
0
 62
7
 10
4.998000000000001
 20
-0.155
 30
0
 11
4.995750000000001
 21
-0.1475
 31
0
  0
LINE
  8
0
 62
7
 10
4.995750000000001
 20
-0.1475
 30
0
 11
4.989000000000001
 21
-0.1375
 31
0
  0
LINE
  8
0
 62
7
 10
4.989000000000001
 20
-0.1375
 30
0
 11
4.982250000000001
 21
-0.1325
 31
0
  0
LINE
  8
0
 62
7
 10
4.982250000000001
 20
-0.1325
 30
0
 11
4.9755
 21
-0.13
 31
0
  0
LINE
  8
0
 62
7
 10
4.9755
 20
-0.13
 30
0
 11
4.9665
 21
-0.13
 31
0
  0
LINE
  8
0
 62
7
 10
4.9665
 20
-0.13
 30
0
 11
4.959750000000001
 21
-0.1325
 31
0
  0
LINE
  8
0
 62
7
 10
4.959750000000001
 20
-0.1325
 30
0
 11
4.953
 21
-0.1375
 31
0
  0
LINE
  8
0
 62
7
 10
4.953
 20
-0.1375
 30
0
 11
4.94625
 21
-0.1475
 31
0
  0
LINE
  8
0
 62
7
 10
4.94625
 20
-0.1475
 30
0
 11
4.944
 21
-0.155
 31
0
  0
LINE
  8
0
 62
7
 10
4.944
 20
-0.1
 30
0
 11
4.944
 21
-0.155
 31
0
  0
LINE
  8
0
 62
7
 10
4.944
 20
-0.155
 30
0
 11
4.944
 21
-0.2
 31
0
  0
LINE
  8
0
 62
7
 10
5.07
 20
-0.1825
 30
0
 11
5.06325
 21
-0.1925
 31
0
  0
LINE
  8
0
 62
7
 10
5.06325
 20
-0.1925
 30
0
 11
5.0565
 21
-0.1975
 31
0
  0
LINE
  8
0
 62
7
 10
5.0565
 20
-0.1975
 30
0
 11
5.0475
 21
-0.2
 31
0
  0
LINE
  8
0
 62
7
 10
5.0475
 20
-0.2
 30
0
 11
5.0385
 21
-0.2
 31
0
  0
LINE
  8
0
 62
7
 10
5.0385
 20
-0.2
 30
0
 11
5.031750000000001
 21
-0.1975
 31
0
  0
LINE
  8
0
 62
7
 10
5.031750000000001
 20
-0.1975
 30
0
 11
5.025
 21
-0.1925
 31
0
  0
LINE
  8
0
 62
7
 10
5.025
 20
-0.1925
 30
0
 11
5.018250000000001
 21
-0.1825
 31
0
  0
LINE
  8
0
 62
7
 10
5.018250000000001
 20
-0.1825
 30
0
 11
5.016000000000001
 21
-0.175
 31
0
  0
LINE
  8
0
 62
7
 10
5.016000000000001
 20
-0.175
 30
0
 11
5.016000000000001
 21
-0.165
 31
0
  0
LINE
  8
0
 62
7
 10
5.016000000000001
 20
-0.155
 30
0
 11
5.018250000000001
 21
-0.1475
 31
0
  0
LINE
  8
0
 62
7
 10
5.018250000000001
 20
-0.1475
 30
0
 11
5.025
 21
-0.1375
 31
0
  0
LINE
  8
0
 62
7
 10
5.025
 20
-0.1375
 30
0
 11
5.031750000000001
 21
-0.1325
 31
0
  0
LINE
  8
0
 62
7
 10
5.031750000000001
 20
-0.1325
 30
0
 11
5.0385
 21
-0.13
 31
0
  0
LINE
  8
0
 62
7
 10
5.0385
 20
-0.13
 30
0
 11
5.0475
 21
-0.13
 31
0
  0
LINE
  8
0
 62
7
 10
5.0475
 20
-0.13
 30
0
 11
5.054250000000001
 21
-0.1325
 31
0
  0
LINE
  8
0
 62
7
 10
5.054250000000001
 20
-0.1325
 30
0
 11
5.061
 21
-0.1375
 31
0
  0
LINE
  8
0
 62
7
 10
5.061
 20
-0.1375
 30
0
 11
5.06775
 21
-0.1475
 31
0
  0
LINE
  8
0
 62
7
 10
5.06775
 20
-0.1475
 30
0
 11
5.07
 21
-0.155
 31
0
  0
LINE
  8
0
 62
7
 10
5.07
 20
-0.155
 30
0
 11
5.07
 21
-0.165
 31
0
  0
LINE
  8
0
 62
7
 10
5.07
 20
-0.165
 30
0
 11
5.016000000000001
 21
-0.165
 31
0
  0
LINE
  8
0
 62
7
 10
5.016000000000001
 20
-0.165
 30
0
 11
5.016000000000001
 21
-0.155
 31
0
  0
LINE
  8
0
 62
7
 10
5.088000000000001
 20
-0.1
 30
0
 11
5.088000000000001
 21
-0.105
 31
0
  0
LINE
  8
0
 62
7
 10
5.088000000000001
 20
-0.13
 30
0
 11
5.088000000000001
 21
-0.2
 31
0
  0
LINE
  8
0
 62
7
 10
5.178000000000001
 20
-0.1
 30
0
 11
5.178000000000001
 21
-0.15
 31
0
  0
LINE
  8
0
 62
7
 10
5.178000000000001
 20
-0.15
 30
0
 11
5.241000000000001
 21
-0.15
 31
0
  0
LINE
  8
0
 62
7
 10
5.241000000000001
 20
-0.1
 30
0
 11
5.241000000000001
 21
-0.15
 31
0
  0
LINE
  8
0
 62
7
 10
5.241000000000001
 20
-0.15
 30
0
 11
5.241000000000001
 21
-0.2
 31
0
  0
LINE
  8
0
 62
7
 10
5.178000000000001
 20
-0.15
 30
0
 11
5.178000000000001
 21
-0.2
 31
0
  0
LINE
  8
0
 62
7
 10
5.322
 20
-0.155
 30
0
 11
5.31975
 21
-0.1475
 31
0
  0
LINE
  8
0
 62
7
 10
5.31975
 20
-0.1475
 30
0
 11
5.313000000000001
 21
-0.1375
 31
0
  0
LINE
  8
0
 62
7
 10
5.313000000000001
 20
-0.1375
 30
0
 11
5.30625
 21
-0.1325
 31
0
  0
LINE
  8
0
 62
7
 10
5.30625
 20
-0.1325
 30
0
 11
5.299500000000001
 21
-0.13
 31
0
  0
LINE
  8
0
 62
7
 10
5.299500000000001
 20
-0.13
 30
0
 11
5.290500000000002
 21
-0.13
 31
0
  0
LINE
  8
0
 62
7
 10
5.290500000000002
 20
-0.13
 30
0
 11
5.28375
 21
-0.1325
 31
0
  0
LINE
  8
0
 62
7
 10
5.28375
 20
-0.1325
 30
0
 11
5.277000000000001
 21
-0.1375
 31
0
  0
LINE
  8
0
 62
7
 10
5.277000000000001
 20
-0.1375
 30
0
 11
5.270250000000001
 21
-0.1475
 31
0
  0
LINE
  8
0
 62
7
 10
5.270250000000001
 20
-0.1475
 30
0
 11
5.268000000000001
 21
-0.155
 31
0
  0
LINE
  8
0
 62
7
 10
5.268000000000001
 20
-0.155
 30
0
 11
5.268000000000001
 21
-0.175
 31
0
  0
LINE
  8
0
 62
7
 10
5.268000000000001
 20
-0.175
 30
0
 11
5.270250000000001
 21
-0.1825
 31
0
  0
LINE
  8
0
 62
7
 10
5.270250000000001
 20
-0.1825
 30
0
 11
5.277000000000001
 21
-0.1925
 31
0
  0
LINE
  8
0
 62
7
 10
5.277000000000001
 20
-0.1925
 30
0
 11
5.28375
 21
-0.1975
 31
0
  0
LINE
  8
0
 62
7
 10
5.28375
 20
-0.1975
 30
0
 11
5.290500000000002
 21
-0.2
 31
0
  0
LINE
  8
0
 62
7
 10
5.290500000000002
 20
-0.2
 30
0
 11
5.299500000000001
 21
-0.2
 31
0
  0
LINE
  8
0
 62
7
 10
5.299500000000001
 20
-0.2
 30
0
 11
5.30625
 21
-0.1975
 31
0
  0
LINE
  8
0
 62
7
 10
5.30625
 20
-0.1975
 30
0
 11
5.313000000000001
 21
-0.1925
 31
0
  0
LINE
  8
0
 62
7
 10
5.313000000000001
 20
-0.1925
 30
0
 11
5.31975
 21
-0.1825
 31
0
  0
LINE
  8
0
 62
7
 10
5.31975
 20
-0.1825
 30
0
 11
5.322
 21
-0.175
 31
0
  0
LINE
  8
0
 62
7
 10
5.322
 20
-0.175
 30
0
 11
5.322
 21
-0.155
 31
0
  0
LINE
  8
0
 62
7
 10
5.34
 20
-0.1
 30
0
 11
5.34
 21
-0.185
 31
0
  0
LINE
  8
0
 62
7
 10
5.34
 20
-0.185
 30
0
 11
5.34225
 21
-0.1975
 31
0
  0
LINE
  8
0
 62
7
 10
5.34225
 20
-0.1975
 30
0
 11
5.346750000000001
 21
-0.2
 31
0
  0
LINE
  8
0
 62
7
 10
5.346750000000001
 20
-0.2
 30
0
 11
5.349
 21
-0.2
 31
0
  0
LINE
  8
0
 62
7
 10
5.367000000000001
 20
-0.13
 30
0
 11
5.421
 21
-0.13
 31
0
  0
LINE
  8
0
 62
7
 10
5.421
 20
-0.13
 30
0
 11
5.367000000000001
 21
-0.2
 31
0
  0
LINE
  8
0
 62
7
 10
5.367000000000001
 20
-0.2
 30
0
 11
5.421
 21
-0.2
 31
0
  0
LINE
  8
0
 62
7
 10
5.502000000000001
 20
-0.145
 30
0
 11
5.4975
 21
-0.1375
 31
0
  0
LINE
  8
0
 62
7
 10
5.4975
 20
-0.1375
 30
0
 11
5.49075
 21
-0.1325
 31
0
  0
LINE
  8
0
 62
7
 10
5.49075
 20
-0.1325
 30
0
 11
5.479500000000001
 21
-0.13
 31
0
  0
LINE
  8
0
 62
7
 10
5.479500000000001
 20
-0.13
 30
0
 11
5.470500000000001
 21
-0.13
 31
0
  0
LINE
  8
0
 62
7
 10
5.470500000000001
 20
-0.13
 30
0
 11
5.461500000000001
 21
-0.1325
 31
0
  0
LINE
  8
0
 62
7
 10
5.461500000000001
 20
-0.1325
 30
0
 11
5.454750000000001
 21
-0.1375
 31
0
  0
LINE
  8
0
 62
7
 10
5.454750000000001
 20
-0.1375
 30
0
 11
5.45025
 21
-0.1425
 31
0
  0
LINE
  8
0
 62
7
 10
5.45025
 20
-0.1425
 30
0
 11
5.448000000000001
 21
-0.1475
 31
0
  0
LINE
  8
0
 62
7
 10
5.448000000000001
 20
-0.1475
 30
0
 11
5.448000000000001
 21
-0.1525
 31
0
  0
LINE
  8
0
 62
7
 10
5.448000000000001
 20
-0.1525
 30
0
 11
5.45025
 21
-0.1575
 31
0
  0
LINE
  8
0
 62
7
 10
5.45025
 20
-0.1575
 30
0
 11
5.454750000000001
 21
-0.16
 31
0
  0
LINE
  8
0
 62
7
 10
5.454750000000001
 20
-0.16
 30
0
 11
5.49525
 21
-0.17
 31
0
  0
LINE
  8
0
 62
7
 10
5.49525
 20
-0.17
 30
0
 11
5.499750000000001
 21
-0.1725
 31
0
  0
LINE
  8
0
 62
7
 10
5.499750000000001
 20
-0.1725
 30
0
 11
5.502000000000001
 21
-0.1775
 31
0
  0
LINE
  8
0
 62
7
 10
5.502000000000001
 20
-0.1775
 30
0
 11
5.502000000000001
 21
-0.1825
 31
0
  0
LINE
  8
0
 62
7
 10
5.502000000000001
 20
-0.1825
 30
0
 11
5.499750000000001
 21
-0.1875
 31
0
  0
LINE
  8
0
 62
7
 10
5.499750000000001
 20
-0.1875
 30
0
 11
5.49525
 21
-0.1925
 31
0
  0
LINE
  8
0
 62
7
 10
5.49525
 20
-0.1925
 30
0
 11
5.4885
 21
-0.1975
 31
0
  0
LINE
  8
0
 62
7
 10
5.4885
 20
-0.1975
 30
0
 11
5.479500000000001
 21
-0.2
 31
0
  0
LINE
  8
0
 62
7
 10
5.479500000000001
 20
-0.2
 30
0
 11
5.470500000000001
 21
-0.2
 31
0
  0
LINE
  8
0
 62
7
 10
5.470500000000001
 20
-0.2
 30
0
 11
5.459250000000001
 21
-0.1975
 31
0
  0
LINE
  8
0
 62
7
 10
5.459250000000001
 20
-0.1975
 30
0
 11
5.452500000000001
 21
-0.1925
 31
0
  0
LINE
  8
0
 62
7
 10
5.452500000000001
 20
-0.1925
 30
0
 11
5.448000000000001
 21
-0.185
 31
0
  0
LINE
  8
0
 62
7
 10
5.529
 20
-0.1
 30
0
 11
5.529
 21
-0.185
 31
0
  0
LINE
  8
0
 62
7
 10
5.529
 20
-0.185
 30
0
 11
5.53125
 21
-0.1975
 31
0
  0
LINE
  8
0
 62
7
 10
5.53125
 20
-0.1975
 30
0
 11
5.53575
 21
-0.2
 31
0
  0
LINE
  8
0
 62
7
 10
5.53575
 20
-0.2
 30
0
 11
5.538000000000001
 21
-0.2
 31
0
  0
LINE
  8
0
 62
7
 10
5.52
 20
-0.13
 30
0
 11
5.538000000000001
 21
-0.13
 31
0
  0
LINE
  8
0
 62
7
 10
5.61
 20
-0.13
 30
0
 11
5.61
 21
-0.175
 31
0
  0
LINE
  8
0
 62
7
 10
5.556000000000001
 20
-0.13
 30
0
 11
5.556000000000001
 21
-0.175
 31
0
  0
LINE
  8
0
 62
7
 10
5.556000000000001
 20
-0.175
 30
0
 11
5.558250000000001
 21
-0.1825
 31
0
  0
LINE
  8
0
 62
7
 10
5.558250000000001
 20
-0.1825
 30
0
 11
5.565
 21
-0.1925
 31
0
  0
LINE
  8
0
 62
7
 10
5.565
 20
-0.1925
 30
0
 11
5.571750000000002
 21
-0.1975
 31
0
  0
LINE
  8
0
 62
7
 10
5.571750000000002
 20
-0.1975
 30
0
 11
5.578500000000001
 21
-0.2
 31
0
  0
LINE
  8
0
 62
7
 10
5.578500000000001
 20
-0.2
 30
0
 11
5.5875
 21
-0.2
 31
0
  0
LINE
  8
0
 62
7
 10
5.5875
 20
-0.2
 30
0
 11
5.594250000000001
 21
-0.1975
 31
0
  0
LINE
  8
0
 62
7
 10
5.594250000000001
 20
-0.1975
 30
0
 11
5.601
 21
-0.1925
 31
0
  0
LINE
  8
0
 62
7
 10
5.601
 20
-0.1925
 30
0
 11
5.60775
 21
-0.1825
 31
0
  0
LINE
  8
0
 62
7
 10
5.60775
 20
-0.1825
 30
0
 11
5.61
 21
-0.175
 31
0
  0
LINE
  8
0
 62
7
 10
5.61
 20
-0.175
 30
0
 11
5.61
 21
-0.2
 31
0
  0
LINE
  8
0
 62
7
 10
5.628000000000001
 20
-0.135
 30
0
 11
5.655000000000001
 21
-0.135
 31
0
  0
LINE
  8
0
 62
7
 10
5.637
 20
-0.2
 30
0
 11
5.637
 21
-0.1175
 31
0
  0
LINE
  8
0
 62
7
 10
5.637
 20
-0.1175
 30
0
 11
5.639250000000001
 21
-0.1075
 31
0
  0
LINE
  8
0
 62
7
 10
5.639250000000001
 20
-0.1075
 30
0
 11
5.643750000000001
 21
-0.1025
 31
0
  0
LINE
  8
0
 62
7
 10
5.643750000000001
 20
-0.1025
 30
0
 11
5.650500000000001
 21
-0.1
 31
0
  0
LINE
  8
0
 62
7
 10
5.650500000000001
 20
-0.1
 30
0
 11
5.655000000000001
 21
-0.1
 31
0
  0
LINE
  8
0
 62
7
 10
5.727
 20
-0.1825
 30
0
 11
5.72025
 21
-0.1925
 31
0
  0
LINE
  8
0
 62
7
 10
5.72025
 20
-0.1925
 30
0
 11
5.7135
 21
-0.1975
 31
0
  0
LINE
  8
0
 62
7
 10
5.7135
 20
-0.1975
 30
0
 11
5.7045
 21
-0.2
 31
0
  0
LINE
  8
0
 62
7
 10
5.7045
 20
-0.2
 30
0
 11
5.695500000000002
 21
-0.2
 31
0
  0
LINE
  8
0
 62
7
 10
5.695500000000002
 20
-0.2
 30
0
 11
5.688750000000001
 21
-0.1975
 31
0
  0
LINE
  8
0
 62
7
 10
5.688750000000001
 20
-0.1975
 30
0
 11
5.682
 21
-0.1925
 31
0
  0
LINE
  8
0
 62
7
 10
5.682
 20
-0.1925
 30
0
 11
5.67525
 21
-0.1825
 31
0
  0
LINE
  8
0
 62
7
 10
5.67525
 20
-0.1825
 30
0
 11
5.673000000000002
 21
-0.175
 31
0
  0
LINE
  8
0
 62
7
 10
5.673000000000002
 20
-0.175
 30
0
 11
5.673000000000002
 21
-0.165
 31
0
  0
LINE
  8
0
 62
7
 10
5.673000000000002
 20
-0.155
 30
0
 11
5.67525
 21
-0.1475
 31
0
  0
LINE
  8
0
 62
7
 10
5.67525
 20
-0.1475
 30
0
 11
5.682
 21
-0.1375
 31
0
  0
LINE
  8
0
 62
7
 10
5.682
 20
-0.1375
 30
0
 11
5.688750000000001
 21
-0.1325
 31
0
  0
LINE
  8
0
 62
7
 10
5.688750000000001
 20
-0.1325
 30
0
 11
5.695500000000002
 21
-0.13
 31
0
  0
LINE
  8
0
 62
7
 10
5.695500000000002
 20
-0.13
 30
0
 11
5.7045
 21
-0.13
 31
0
  0
LINE
  8
0
 62
7
 10
5.7045
 20
-0.13
 30
0
 11
5.711250000000001
 21
-0.1325
 31
0
  0
LINE
  8
0
 62
7
 10
5.711250000000001
 20
-0.1325
 30
0
 11
5.718000000000001
 21
-0.1375
 31
0
  0
LINE
  8
0
 62
7
 10
5.718000000000001
 20
-0.1375
 30
0
 11
5.72475
 21
-0.1475
 31
0
  0
LINE
  8
0
 62
7
 10
5.72475
 20
-0.1475
 30
0
 11
5.727
 21
-0.155
 31
0
  0
LINE
  8
0
 62
7
 10
5.727
 20
-0.155
 30
0
 11
5.727
 21
-0.165
 31
0
  0
LINE
  8
0
 62
7
 10
5.727
 20
-0.165
 30
0
 11
5.673000000000002
 21
-0.165
 31
0
  0
LINE
  8
0
 62
7
 10
5.673000000000002
 20
-0.165
 30
0
 11
5.673000000000002
 21
-0.155
 31
0
  0
LINE
  8
0
 62
7
 10
5.745000000000001
 20
-0.155
 30
0
 11
5.747250000000001
 21
-0.1475
 31
0
  0
LINE
  8
0
 62
7
 10
5.747250000000001
 20
-0.1475
 30
0
 11
5.754
 21
-0.1375
 31
0
  0
LINE
  8
0
 62
7
 10
5.754
 20
-0.1375
 30
0
 11
5.760750000000001
 21
-0.1325
 31
0
  0
LINE
  8
0
 62
7
 10
5.760750000000001
 20
-0.1325
 30
0
 11
5.767500000000001
 21
-0.13
 31
0
  0
LINE
  8
0
 62
7
 10
5.767500000000001
 20
-0.13
 30
0
 11
5.7765
 21
-0.13
 31
0
  0
LINE
  8
0
 62
7
 10
5.7765
 20
-0.13
 30
0
 11
5.783250000000001
 21
-0.1325
 31
0
  0
LINE
  8
0
 62
7
 10
5.783250000000001
 20
-0.1325
 30
0
 11
5.79
 21
-0.1375
 31
0
  0
LINE
  8
0
 62
7
 10
5.79
 20
-0.1375
 30
0
 11
5.796750000000001
 21
-0.1475
 31
0
  0
LINE
  8
0
 62
7
 10
5.796750000000001
 20
-0.1475
 30
0
 11
5.799
 21
-0.155
 31
0
  0
LINE
  8
0
 62
7
 10
5.799
 20
-0.155
 30
0
 11
5.799
 21
-0.2
 31
0
  0
LINE
  8
0
 62
7
 10
5.745000000000001
 20
-0.13
 30
0
 11
5.745000000000001
 21
-0.155
 31
0
  0
LINE
  8
0
 62
7
 10
5.745000000000001
 20
-0.155
 30
0
 11
5.745000000000001
 21
-0.2
 31
0
  0
LINE
  8
0
 62
7
 10
3.9
 20
-0.35
 30
0
 11
3.9
 21
-0.25
 31
0
  0
LINE
  8
0
 62
7
 10
3.9
 20
-0.25
 30
0
 11
3.963000000000001
 21
-0.35
 31
0
  0
LINE
  8
0
 62
7
 10
3.963000000000001
 20
-0.35
 30
0
 11
3.963000000000001
 21
-0.25
 31
0
  0
LINE
  8
0
 62
7
 10
4.044
 20
-0.35
 30
0
 11
3.99
 21
-0.35
 31
0
  0
LINE
  8
0
 62
7
 10
3.99
 20
-0.35
 30
0
 11
3.99
 21
-0.25
 31
0
  0
LINE
  8
0
 62
7
 10
4.071000000000001
 20
-0.3
 30
0
 11
4.107
 21
-0.3
 31
0
  0
LINE
  8
0
 62
7
 10
4.107
 20
-0.3
 30
0
 11
4.1115
 21
-0.3
 31
0
  0
LINE
  8
0
 62
7
 10
4.1115
 20
-0.3
 30
0
 11
4.1205
 21
-0.305
 31
0
  0
LINE
  8
0
 62
7
 10
4.1205
 20
-0.305
 30
0
 11
4.125
 21
-0.3100000000000001
 31
0
  0
LINE
  8
0
 62
7
 10
4.125
 20
-0.3100000000000001
 30
0
 11
4.1295
 21
-0.3200000000000001
 31
0
  0
LINE
  8
0
 62
7
 10
4.1295
 20
-0.3200000000000001
 30
0
 11
4.1295
 21
-0.3300000000000001
 31
0
  0
LINE
  8
0
 62
7
 10
4.1295
 20
-0.3300000000000001
 30
0
 11
4.125
 21
-0.34
 31
0
  0
LINE
  8
0
 62
7
 10
4.125
 20
-0.34
 30
0
 11
4.1205
 21
-0.345
 31
0
  0
LINE
  8
0
 62
7
 10
4.1205
 20
-0.345
 30
0
 11
4.1115
 21
-0.35
 31
0
  0
LINE
  8
0
 62
7
 10
4.1115
 20
-0.35
 30
0
 11
4.071000000000001
 21
-0.35
 31
0
  0
LINE
  8
0
 62
7
 10
4.071000000000001
 20
-0.35
 30
0
 11
4.071000000000001
 21
-0.3
 31
0
  0
LINE
  8
0
 62
7
 10
4.071000000000001
 20
-0.25
 30
0
 11
4.10475
 21
-0.25
 31
0
  0
LINE
  8
0
 62
7
 10
4.10475
 20
-0.25
 30
0
 11
4.116000000000001
 21
-0.2525
 31
0
  0
LINE
  8
0
 62
7
 10
4.116000000000001
 20
-0.2525
 30
0
 11
4.12275
 21
-0.26
 31
0
  0
LINE
  8
0
 62
7
 10
4.12275
 20
-0.26
 30
0
 11
4.125
 21
-0.27
 31
0
  0
LINE
  8
0
 62
7
 10
4.125
 20
-0.27
 30
0
 11
4.125
 21
-0.28
 31
0
  0
LINE
  8
0
 62
7
 10
4.125
 20
-0.28
 30
0
 11
4.1205
 21
-0.29
 31
0
  0
LINE
  8
0
 62
7
 10
4.1205
 20
-0.29
 30
0
 11
4.11375
 21
-0.2975
 31
0
  0
LINE
  8
0
 62
7
 10
4.11375
 20
-0.2975
 30
0
 11
4.107
 21
-0.3
 31
0
  0
LINE
  8
0
 62
7
 10
4.071000000000001
 20
-0.3
 30
0
 11
4.071000000000001
 21
-0.25
 31
0
  0
LINE
  8
0
 62
7
 10
4.27125
 20
-0.2975
 30
0
 11
4.264500000000001
 21
-0.2875
 31
0
  0
LINE
  8
0
 62
7
 10
4.264500000000001
 20
-0.2875
 30
0
 11
4.257750000000001
 21
-0.2825
 31
0
  0
LINE
  8
0
 62
7
 10
4.257750000000001
 20
-0.2825
 30
0
 11
4.251
 21
-0.28
 31
0
  0
LINE
  8
0
 62
7
 10
4.251
 20
-0.28
 30
0
 11
4.242
 21
-0.28
 31
0
  0
LINE
  8
0
 62
7
 10
4.242
 20
-0.28
 30
0
 11
4.23525
 21
-0.2825
 31
0
  0
LINE
  8
0
 62
7
 10
4.23525
 20
-0.2825
 30
0
 11
4.2285
 21
-0.2875
 31
0
  0
LINE
  8
0
 62
7
 10
4.2285
 20
-0.2875
 30
0
 11
4.22175
 21
-0.2975
 31
0
  0
LINE
  8
0
 62
7
 10
4.22175
 20
-0.2975
 30
0
 11
4.2195
 21
-0.305
 31
0
  0
LINE
  8
0
 62
7
 10
4.2195
 20
-0.305
 30
0
 11
4.2195
 21
-0.325
 31
0
  0
LINE
  8
0
 62
7
 10
4.2195
 20
-0.325
 30
0
 11
4.22175
 21
-0.3325
 31
0
  0
LINE
  8
0
 62
7
 10
4.22175
 20
-0.3325
 30
0
 11
4.2285
 21
-0.3425
 31
0
  0
LINE
  8
0
 62
7
 10
4.2285
 20
-0.3425
 30
0
 11
4.23525
 21
-0.3475
 31
0
  0
LINE
  8
0
 62
7
 10
4.23525
 20
-0.3475
 30
0
 11
4.242
 21
-0.35
 31
0
  0
LINE
  8
0
 62
7
 10
4.242
 20
-0.35
 30
0
 11
4.251
 21
-0.35
 31
0
  0
LINE
  8
0
 62
7
 10
4.251
 20
-0.35
 30
0
 11
4.257750000000001
 21
-0.3475
 31
0
  0
LINE
  8
0
 62
7
 10
4.257750000000001
 20
-0.3475
 30
0
 11
4.264500000000001
 21
-0.3425
 31
0
  0
LINE
  8
0
 62
7
 10
4.264500000000001
 20
-0.3425
 30
0
 11
4.27125
 21
-0.3325
 31
0
  0
LINE
  8
0
 62
7
 10
4.34325
 20
-0.305
 30
0
 11
4.341
 21
-0.2975
 31
0
  0
LINE
  8
0
 62
7
 10
4.341
 20
-0.2975
 30
0
 11
4.33425
 21
-0.2875
 31
0
  0
LINE
  8
0
 62
7
 10
4.33425
 20
-0.2875
 30
0
 11
4.3275
 21
-0.2825
 31
0
  0
LINE
  8
0
 62
7
 10
4.3275
 20
-0.2825
 30
0
 11
4.32075
 21
-0.28
 31
0
  0
LINE
  8
0
 62
7
 10
4.32075
 20
-0.28
 30
0
 11
4.31175
 21
-0.28
 31
0
  0
LINE
  8
0
 62
7
 10
4.31175
 20
-0.28
 30
0
 11
4.305000000000001
 21
-0.2825
 31
0
  0
LINE
  8
0
 62
7
 10
4.305000000000001
 20
-0.2825
 30
0
 11
4.29825
 21
-0.2875
 31
0
  0
LINE
  8
0
 62
7
 10
4.29825
 20
-0.2875
 30
0
 11
4.2915
 21
-0.2975
 31
0
  0
LINE
  8
0
 62
7
 10
4.2915
 20
-0.2975
 30
0
 11
4.28925
 21
-0.305
 31
0
  0
LINE
  8
0
 62
7
 10
4.28925
 20
-0.305
 30
0
 11
4.28925
 21
-0.325
 31
0
  0
LINE
  8
0
 62
7
 10
4.28925
 20
-0.325
 30
0
 11
4.2915
 21
-0.3325
 31
0
  0
LINE
  8
0
 62
7
 10
4.2915
 20
-0.3325
 30
0
 11
4.29825
 21
-0.3425
 31
0
  0
LINE
  8
0
 62
7
 10
4.29825
 20
-0.3425
 30
0
 11
4.305000000000001
 21
-0.3475
 31
0
  0
LINE
  8
0
 62
7
 10
4.305000000000001
 20
-0.3475
 30
0
 11
4.31175
 21
-0.35
 31
0
  0
LINE
  8
0
 62
7
 10
4.31175
 20
-0.35
 30
0
 11
4.32075
 21
-0.35
 31
0
  0
LINE
  8
0
 62
7
 10
4.32075
 20
-0.35
 30
0
 11
4.3275
 21
-0.3475
 31
0
  0
LINE
  8
0
 62
7
 10
4.3275
 20
-0.3475
 30
0
 11
4.33425
 21
-0.3425
 31
0
  0
LINE
  8
0
 62
7
 10
4.33425
 20
-0.3425
 30
0
 11
4.341
 21
-0.3325
 31
0
  0
LINE
  8
0
 62
7
 10
4.341
 20
-0.3325
 30
0
 11
4.34325
 21
-0.325
 31
0
  0
LINE
  8
0
 62
7
 10
4.34325
 20
-0.28
 30
0
 11
4.34325
 21
-0.305
 31
0
  0
LINE
  8
0
 62
7
 10
4.34325
 20
-0.3475
 30
0
 11
4.3455
 21
-0.35
 31
0
  0
LINE
  8
0
 62
7
 10
4.3455
 20
-0.35
 30
0
 11
4.34775
 21
-0.35
 31
0
  0
LINE
  8
0
 62
7
 10
4.34325
 20
-0.325
 30
0
 11
4.34325
 21
-0.3475
 31
0
  0
LINE
  8
0
 62
7
 10
4.34325
 20
-0.305
 30
0
 11
4.34325
 21
-0.325
 31
0
  0
LINE
  8
0
 62
7
 10
4.36575
 20
-0.35
 30
0
 11
4.36575
 21
-0.3475
 31
0
  0
LINE
  8
0
 62
7
 10
4.36575
 20
-0.3475
 30
0
 11
4.368
 21
-0.3475
 31
0
  0
LINE
  8
0
 62
7
 10
4.368
 20
-0.3475
 30
0
 11
4.368
 21
-0.35
 31
0
  0
LINE
  8
0
 62
7
 10
4.368
 20
-0.35
 30
0
 11
4.36575
 21
-0.35
 31
0
  0
LINE
  8
0
 62
7
 10
4.51875
 20
-0.25
 30
0
 11
4.469250000000001
 21
-0.25
 31
0
  0
LINE
  8
0
 62
7
 10
4.469250000000001
 20
-0.25
 30
0
 11
4.469250000000001
 21
-0.3
 31
0
  0
LINE
  8
0
 62
7
 10
4.469250000000001
 20
-0.3
 30
0
 11
4.473750000000001
 21
-0.2925
 31
0
  0
LINE
  8
0
 62
7
 10
4.473750000000001
 20
-0.2925
 30
0
 11
4.4805
 21
-0.2875
 31
0
  0
LINE
  8
0
 62
7
 10
4.4805
 20
-0.2875
 30
0
 11
4.4895
 21
-0.285
 31
0
  0
LINE
  8
0
 62
7
 10
4.4895
 20
-0.285
 30
0
 11
4.503
 21
-0.285
 31
0
  0
LINE
  8
0
 62
7
 10
4.503
 20
-0.285
 30
0
 11
4.50975
 21
-0.2875
 31
0
  0
LINE
  8
0
 62
7
 10
4.50975
 20
-0.2875
 30
0
 11
4.5165
 21
-0.2925
 31
0
  0
LINE
  8
0
 62
7
 10
4.5165
 20
-0.2925
 30
0
 11
4.521
 21
-0.3
 31
0
  0
LINE
  8
0
 62
7
 10
4.521
 20
-0.3
 30
0
 11
4.52325
 21
-0.3100000000000001
 31
0
  0
LINE
  8
0
 62
7
 10
4.52325
 20
-0.3100000000000001
 30
0
 11
4.52325
 21
-0.325
 31
0
  0
LINE
  8
0
 62
7
 10
4.52325
 20
-0.325
 30
0
 11
4.521
 21
-0.335
 31
0
  0
LINE
  8
0
 62
7
 10
4.521
 20
-0.335
 30
0
 11
4.5165
 21
-0.3425
 31
0
  0
LINE
  8
0
 62
7
 10
4.5165
 20
-0.3425
 30
0
 11
4.50975
 21
-0.3475
 31
0
  0
LINE
  8
0
 62
7
 10
4.50975
 20
-0.3475
 30
0
 11
4.503
 21
-0.35
 31
0
  0
LINE
  8
0
 62
7
 10
4.503
 20
-0.35
 30
0
 11
4.4895
 21
-0.35
 31
0
  0
LINE
  8
0
 62
7
 10
4.4895
 20
-0.35
 30
0
 11
4.4805
 21
-0.3475
 31
0
  0
LINE
  8
0
 62
7
 10
4.4805
 20
-0.3475
 30
0
 11
4.473750000000001
 21
-0.3425
 31
0
  0
LINE
  8
0
 62
7
 10
4.473750000000001
 20
-0.3425
 30
0
 11
4.469250000000001
 21
-0.335
 31
0
  0
LINE
  8
0
 62
7
 10
4.55025
 20
-0.265
 30
0
 11
4.55475
 21
-0.2575
 31
0
  0
LINE
  8
0
 62
7
 10
4.55475
 20
-0.2575
 30
0
 11
4.561500000000001
 21
-0.2525
 31
0
  0
LINE
  8
0
 62
7
 10
4.561500000000001
 20
-0.2525
 30
0
 11
4.5705
 21
-0.25
 31
0
  0
LINE
  8
0
 62
7
 10
4.5705
 20
-0.25
 30
0
 11
4.584000000000001
 21
-0.25
 31
0
  0
LINE
  8
0
 62
7
 10
4.584000000000001
 20
-0.25
 30
0
 11
4.593
 21
-0.2525
 31
0
  0
LINE
  8
0
 62
7
 10
4.593
 20
-0.2525
 30
0
 11
4.59975
 21
-0.2575
 31
0
  0
LINE
  8
0
 62
7
 10
4.59975
 20
-0.2575
 30
0
 11
4.60425
 21
-0.265
 31
0
  0
LINE
  8
0
 62
7
 10
4.60425
 20
-0.265
 30
0
 11
4.60425
 21
-0.275
 31
0
  0
LINE
  8
0
 62
7
 10
4.60425
 20
-0.275
 30
0
 11
4.59975
 21
-0.285
 31
0
  0
LINE
  8
0
 62
7
 10
4.59975
 20
-0.285
 30
0
 11
4.55025
 21
-0.35
 31
0
  0
LINE
  8
0
 62
7
 10
4.55025
 20
-0.35
 30
0
 11
4.60425
 21
-0.35
 31
0
  0
LINE
  8
0
 62
7
 10
4.755000000000001
 20
-0.2975
 30
0
 11
4.748250000000001
 21
-0.2875
 31
0
  0
LINE
  8
0
 62
7
 10
4.748250000000001
 20
-0.2875
 30
0
 11
4.7415
 21
-0.2825
 31
0
  0
LINE
  8
0
 62
7
 10
4.7415
 20
-0.2825
 30
0
 11
4.734750000000001
 21
-0.28
 31
0
  0
LINE
  8
0
 62
7
 10
4.734750000000001
 20
-0.28
 30
0
 11
4.725750000000001
 21
-0.28
 31
0
  0
LINE
  8
0
 62
7
 10
4.725750000000001
 20
-0.28
 30
0
 11
4.719
 21
-0.2825
 31
0
  0
LINE
  8
0
 62
7
 10
4.719
 20
-0.2825
 30
0
 11
4.71225
 21
-0.2875
 31
0
  0
LINE
  8
0
 62
7
 10
4.71225
 20
-0.2875
 30
0
 11
4.7055
 21
-0.2975
 31
0
  0
LINE
  8
0
 62
7
 10
4.7055
 20
-0.2975
 30
0
 11
4.70325
 21
-0.305
 31
0
  0
LINE
  8
0
 62
7
 10
4.70325
 20
-0.305
 30
0
 11
4.70325
 21
-0.325
 31
0
  0
LINE
  8
0
 62
7
 10
4.70325
 20
-0.325
 30
0
 11
4.7055
 21
-0.3325
 31
0
  0
LINE
  8
0
 62
7
 10
4.7055
 20
-0.3325
 30
0
 11
4.71225
 21
-0.3425
 31
0
  0
LINE
  8
0
 62
7
 10
4.71225
 20
-0.3425
 30
0
 11
4.719
 21
-0.3475
 31
0
  0
LINE
  8
0
 62
7
 10
4.719
 20
-0.3475
 30
0
 11
4.725750000000001
 21
-0.35
 31
0
  0
LINE
  8
0
 62
7
 10
4.725750000000001
 20
-0.35
 30
0
 11
4.734750000000001
 21
-0.35
 31
0
  0
LINE
  8
0
 62
7
 10
4.734750000000001
 20
-0.35
 30
0
 11
4.7415
 21
-0.3475
 31
0
  0
LINE
  8
0
 62
7
 10
4.7415
 20
-0.3475
 30
0
 11
4.748250000000001
 21
-0.3425
 31
0
  0
LINE
  8
0
 62
7
 10
4.748250000000001
 20
-0.3425
 30
0
 11
4.755000000000001
 21
-0.3325
 31
0
  0
LINE
  8
0
 62
7
 10
4.8135
 20
-0.305
 30
0
 11
4.8135
 21
-0.35
 31
0
  0
LINE
  8
0
 62
7
 10
4.773000000000001
 20
-0.28
 30
0
 11
4.773000000000001
 21
-0.305
 31
0
  0
LINE
  8
0
 62
7
 10
4.773000000000001
 20
-0.35
 30
0
 11
4.773000000000001
 21
-0.305
 31
0
  0
LINE
  8
0
 62
7
 10
4.773000000000001
 20
-0.305
 30
0
 11
4.77525
 21
-0.2925
 31
0
  0
LINE
  8
0
 62
7
 10
4.77525
 20
-0.2925
 30
0
 11
4.7775
 21
-0.2875
 31
0
  0
LINE
  8
0
 62
7
 10
4.7775
 20
-0.2875
 30
0
 11
4.782
 21
-0.2825
 31
0
  0
LINE
  8
0
 62
7
 10
4.782
 20
-0.2825
 30
0
 11
4.78875
 21
-0.28
 31
0
  0
LINE
  8
0
 62
7
 10
4.78875
 20
-0.28
 30
0
 11
4.79775
 21
-0.28
 31
0
  0
LINE
  8
0
 62
7
 10
4.79775
 20
-0.28
 30
0
 11
4.804500000000001
 21
-0.2825
 31
0
  0
LINE
  8
0
 62
7
 10
4.804500000000001
 20
-0.2825
 30
0
 11
4.809000000000001
 21
-0.2875
 31
0
  0
LINE
  8
0
 62
7
 10
4.809000000000001
 20
-0.2875
 30
0
 11
4.811250000000001
 21
-0.2925
 31
0
  0
LINE
  8
0
 62
7
 10
4.811250000000001
 20
-0.2925
 30
0
 11
4.8135
 21
-0.305
 31
0
  0
LINE
  8
0
 62
7
 10
4.8135
 20
-0.305
 30
0
 11
4.81575
 21
-0.2925
 31
0
  0
LINE
  8
0
 62
7
 10
4.81575
 20
-0.2925
 30
0
 11
4.818000000000001
 21
-0.2875
 31
0
  0
LINE
  8
0
 62
7
 10
4.818000000000001
 20
-0.2875
 30
0
 11
4.822500000000001
 21
-0.2825
 31
0
  0
LINE
  8
0
 62
7
 10
4.822500000000001
 20
-0.2825
 30
0
 11
4.829250000000001
 21
-0.28
 31
0
  0
LINE
  8
0
 62
7
 10
4.829250000000001
 20
-0.28
 30
0
 11
4.83825
 21
-0.28
 31
0
  0
LINE
  8
0
 62
7
 10
4.83825
 20
-0.28
 30
0
 11
4.845000000000001
 21
-0.2825
 31
0
  0
LINE
  8
0
 62
7
 10
4.849500000000001
 20
-0.2875
 30
0
 11
4.845000000000001
 21
-0.2825
 31
0
  0
LINE
  8
0
 62
7
 10
4.845000000000001
 20
-0.2825
 30
0
 11
4.849500000000001
 21
-0.2875
 31
0
  0
LINE
  8
0
 62
7
 10
4.849500000000001
 20
-0.2875
 30
0
 11
4.85175
 21
-0.2925
 31
0
  0
LINE
  8
0
 62
7
 10
4.85175
 20
-0.2925
 30
0
 11
4.854
 21
-0.305
 31
0
  0
LINE
  8
0
 62
7
 10
4.854
 20
-0.305
 30
0
 11
4.854
 21
-0.35
 31
0
  0
LINE
  8
0
 62
7
 10
4.944
 20
-0.325
 30
0
 11
4.94625
 21
-0.3325
 31
0
  0
LINE
  8
0
 62
7
 10
4.94625
 20
-0.3325
 30
0
 11
4.953
 21
-0.3425
 31
0
  0
LINE
  8
0
 62
7
 10
4.953
 20
-0.3425
 30
0
 11
4.959750000000001
 21
-0.3475
 31
0
  0
LINE
  8
0
 62
7
 10
4.959750000000001
 20
-0.3475
 30
0
 11
4.9665
 21
-0.35
 31
0
  0
LINE
  8
0
 62
7
 10
4.9665
 20
-0.35
 30
0
 11
4.9755
 21
-0.35
 31
0
  0
LINE
  8
0
 62
7
 10
4.9755
 20
-0.35
 30
0
 11
4.982250000000001
 21
-0.3475
 31
0
  0
LINE
  8
0
 62
7
 10
4.982250000000001
 20
-0.3475
 30
0
 11
4.989000000000001
 21
-0.3425
 31
0
  0
LINE
  8
0
 62
7
 10
4.989000000000001
 20
-0.3425
 30
0
 11
4.995750000000001
 21
-0.3325
 31
0
  0
LINE
  8
0
 62
7
 10
4.995750000000001
 20
-0.3325
 30
0
 11
4.998000000000001
 21
-0.325
 31
0
  0
LINE
  8
0
 62
7
 10
4.998000000000001
 20
-0.325
 30
0
 11
4.998000000000001
 21
-0.305
 31
0
  0
LINE
  8
0
 62
7
 10
4.998000000000001
 20
-0.305
 30
0
 11
4.995750000000001
 21
-0.2975
 31
0
  0
LINE
  8
0
 62
7
 10
4.995750000000001
 20
-0.2975
 30
0
 11
4.989000000000001
 21
-0.2875
 31
0
  0
LINE
  8
0
 62
7
 10
4.989000000000001
 20
-0.2875
 30
0
 11
4.982250000000001
 21
-0.2825
 31
0
  0
LINE
  8
0
 62
7
 10
4.982250000000001
 20
-0.2825
 30
0
 11
4.9755
 21
-0.28
 31
0
  0
LINE
  8
0
 62
7
 10
4.9755
 20
-0.28
 30
0
 11
4.9665
 21
-0.28
 31
0
  0
LINE
  8
0
 62
7
 10
4.9665
 20
-0.28
 30
0
 11
4.959750000000001
 21
-0.2825
 31
0
  0
LINE
  8
0
 62
7
 10
4.959750000000001
 20
-0.2825
 30
0
 11
4.953
 21
-0.2875
 31
0
  0
LINE
  8
0
 62
7
 10
4.953
 20
-0.2875
 30
0
 11
4.94625
 21
-0.2975
 31
0
  0
LINE
  8
0
 62
7
 10
4.94625
 20
-0.2975
 30
0
 11
4.944
 21
-0.305
 31
0
  0
LINE
  8
0
 62
7
 10
4.944
 20
-0.25
 30
0
 11
4.944
 21
-0.305
 31
0
  0
LINE
  8
0
 62
7
 10
4.944
 20
-0.305
 30
0
 11
4.944
 21
-0.35
 31
0
  0
LINE
  8
0
 62
7
 10
5.07
 20
-0.3325
 30
0
 11
5.06325
 21
-0.3425
 31
0
  0
LINE
  8
0
 62
7
 10
5.06325
 20
-0.3425
 30
0
 11
5.0565
 21
-0.3475
 31
0
  0
LINE
  8
0
 62
7
 10
5.0565
 20
-0.3475
 30
0
 11
5.0475
 21
-0.35
 31
0
  0
LINE
  8
0
 62
7
 10
5.0475
 20
-0.35
 30
0
 11
5.0385
 21
-0.35
 31
0
  0
LINE
  8
0
 62
7
 10
5.0385
 20
-0.35
 30
0
 11
5.031750000000001
 21
-0.3475
 31
0
  0
LINE
  8
0
 62
7
 10
5.031750000000001
 20
-0.3475
 30
0
 11
5.025
 21
-0.3425
 31
0
  0
LINE
  8
0
 62
7
 10
5.025
 20
-0.3425
 30
0
 11
5.018250000000001
 21
-0.3325
 31
0
  0
LINE
  8
0
 62
7
 10
5.018250000000001
 20
-0.3325
 30
0
 11
5.016000000000001
 21
-0.325
 31
0
  0
LINE
  8
0
 62
7
 10
5.016000000000001
 20
-0.325
 30
0
 11
5.016000000000001
 21
-0.315
 31
0
  0
LINE
  8
0
 62
7
 10
5.016000000000001
 20
-0.305
 30
0
 11
5.018250000000001
 21
-0.2975
 31
0
  0
LINE
  8
0
 62
7
 10
5.018250000000001
 20
-0.2975
 30
0
 11
5.025
 21
-0.2875
 31
0
  0
LINE
  8
0
 62
7
 10
5.025
 20
-0.2875
 30
0
 11
5.031750000000001
 21
-0.2825
 31
0
  0
LINE
  8
0
 62
7
 10
5.031750000000001
 20
-0.2825
 30
0
 11
5.0385
 21
-0.28
 31
0
  0
LINE
  8
0
 62
7
 10
5.0385
 20
-0.28
 30
0
 11
5.0475
 21
-0.28
 31
0
  0
LINE
  8
0
 62
7
 10
5.0475
 20
-0.28
 30
0
 11
5.054250000000001
 21
-0.2825
 31
0
  0
LINE
  8
0
 62
7
 10
5.054250000000001
 20
-0.2825
 30
0
 11
5.061
 21
-0.2875
 31
0
  0
LINE
  8
0
 62
7
 10
5.061
 20
-0.2875
 30
0
 11
5.06775
 21
-0.2975
 31
0
  0
LINE
  8
0
 62
7
 10
5.06775
 20
-0.2975
 30
0
 11
5.07
 21
-0.305
 31
0
  0
LINE
  8
0
 62
7
 10
5.07
 20
-0.305
 30
0
 11
5.07
 21
-0.315
 31
0
  0
LINE
  8
0
 62
7
 10
5.07
 20
-0.315
 30
0
 11
5.016000000000001
 21
-0.315
 31
0
  0
LINE
  8
0
 62
7
 10
5.016000000000001
 20
-0.315
 30
0
 11
5.016000000000001
 21
-0.305
 31
0
  0
LINE
  8
0
 62
7
 10
5.088000000000001
 20
-0.25
 30
0
 11
5.088000000000001
 21
-0.2550000000000001
 31
0
  0
LINE
  8
0
 62
7
 10
5.088000000000001
 20
-0.28
 30
0
 11
5.088000000000001
 21
-0.35
 31
0
  0
LINE
  8
0
 62
7
 10
5.23875
 20
-0.26
 30
0
 11
5.232
 21
-0.2550000000000001
 31
0
  0
LINE
  8
0
 62
7
 10
5.232
 20
-0.2550000000000001
 30
0
 11
5.22525
 21
-0.2525
 31
0
  0
LINE
  8
0
 62
7
 10
5.22525
 20
-0.2525
 30
0
 11
5.214
 21
-0.25
 31
0
  0
LINE
  8
0
 62
7
 10
5.214
 20
-0.25
 30
0
 11
5.205000000000001
 21
-0.25
 31
0
  0
LINE
  8
0
 62
7
 10
5.205000000000001
 20
-0.25
 30
0
 11
5.196000000000001
 21
-0.2525
 31
0
  0
LINE
  8
0
 62
7
 10
5.196000000000001
 20
-0.2525
 30
0
 11
5.189250000000001
 21
-0.2550000000000001
 31
0
  0
LINE
  8
0
 62
7
 10
5.189250000000001
 20
-0.2550000000000001
 30
0
 11
5.182500000000001
 21
-0.26
 31
0
  0
LINE
  8
0
 62
7
 10
5.182500000000001
 20
-0.26
 30
0
 11
5.180250000000001
 21
-0.2675
 31
0
  0
LINE
  8
0
 62
7
 10
5.180250000000001
 20
-0.2675
 30
0
 11
5.180250000000001
 21
-0.2725
 31
0
  0
LINE
  8
0
 62
7
 10
5.180250000000001
 20
-0.2725
 30
0
 11
5.182500000000001
 21
-0.28
 31
0
  0
LINE
  8
0
 62
7
 10
5.182500000000001
 20
-0.28
 30
0
 11
5.189250000000001
 21
-0.285
 31
0
  0
LINE
  8
0
 62
7
 10
5.189250000000001
 20
-0.285
 30
0
 11
5.2275
 21
-0.3025
 31
0
  0
LINE
  8
0
 62
7
 10
5.2275
 20
-0.3025
 30
0
 11
5.234250000000001
 21
-0.3075000000000001
 31
0
  0
LINE
  8
0
 62
7
 10
5.234250000000001
 20
-0.3075000000000001
 30
0
 11
5.23875
 21
-0.315
 31
0
  0
LINE
  8
0
 62
7
 10
5.23875
 20
-0.315
 30
0
 11
5.241000000000001
 21
-0.3225
 31
0
  0
LINE
  8
0
 62
7
 10
5.241000000000001
 20
-0.3225
 30
0
 11
5.241000000000001
 21
-0.3275
 31
0
  0
LINE
  8
0
 62
7
 10
5.241000000000001
 20
-0.3275
 30
0
 11
5.23875
 21
-0.335
 31
0
  0
LINE
  8
0
 62
7
 10
5.23875
 20
-0.335
 30
0
 11
5.234250000000001
 21
-0.3425
 31
0
  0
LINE
  8
0
 62
7
 10
5.234250000000001
 20
-0.3425
 30
0
 11
5.2275
 21
-0.3475
 31
0
  0
LINE
  8
0
 62
7
 10
5.2275
 20
-0.3475
 30
0
 11
5.21625
 21
-0.35
 31
0
  0
LINE
  8
0
 62
7
 10
5.21625
 20
-0.35
 30
0
 11
5.202750000000001
 21
-0.35
 31
0
  0
LINE
  8
0
 62
7
 10
5.202750000000001
 20
-0.35
 30
0
 11
5.1915
 21
-0.3475
 31
0
  0
LINE
  8
0
 62
7
 10
5.1915
 20
-0.3475
 30
0
 11
5.182500000000001
 21
-0.3425
 31
0
  0
LINE
  8
0
 62
7
 10
5.182500000000001
 20
-0.3425
 30
0
 11
5.178000000000001
 21
-0.3375
 31
0
  0
LINE
  8
0
 62
7
 10
5.268000000000001
 20
-0.25
 30
0
 11
5.268000000000001
 21
-0.335
 31
0
  0
LINE
  8
0
 62
7
 10
5.268000000000001
 20
-0.335
 30
0
 11
5.270250000000001
 21
-0.3475
 31
0
  0
LINE
  8
0
 62
7
 10
5.270250000000001
 20
-0.3475
 30
0
 11
5.274750000000001
 21
-0.35
 31
0
  0
LINE
  8
0
 62
7
 10
5.274750000000001
 20
-0.35
 30
0
 11
5.277000000000001
 21
-0.35
 31
0
  0
LINE
  8
0
 62
7
 10
5.259
 20
-0.28
 30
0
 11
5.277000000000001
 21
-0.28
 31
0
  0
LINE
  8
0
 62
7
 10
5.349
 20
-0.3325
 30
0
 11
5.34225
 21
-0.3425
 31
0
  0
LINE
  8
0
 62
7
 10
5.34225
 20
-0.3425
 30
0
 11
5.335500000000001
 21
-0.3475
 31
0
  0
LINE
  8
0
 62
7
 10
5.335500000000001
 20
-0.3475
 30
0
 11
5.3265
 21
-0.35
 31
0
  0
LINE
  8
0
 62
7
 10
5.3265
 20
-0.35
 30
0
 11
5.317500000000001
 21
-0.35
 31
0
  0
LINE
  8
0
 62
7
 10
5.317500000000001
 20
-0.35
 30
0
 11
5.310750000000001
 21
-0.3475
 31
0
  0
LINE
  8
0
 62
7
 10
5.310750000000001
 20
-0.3475
 30
0
 11
5.304
 21
-0.3425
 31
0
  0
LINE
  8
0
 62
7
 10
5.304
 20
-0.3425
 30
0
 11
5.297250000000001
 21
-0.3325
 31
0
  0
LINE
  8
0
 62
7
 10
5.297250000000001
 20
-0.3325
 30
0
 11
5.295000000000001
 21
-0.325
 31
0
  0
LINE
  8
0
 62
7
 10
5.295000000000001
 20
-0.325
 30
0
 11
5.295000000000001
 21
-0.315
 31
0
  0
LINE
  8
0
 62
7
 10
5.295000000000001
 20
-0.305
 30
0
 11
5.297250000000001
 21
-0.2975
 31
0
  0
LINE
  8
0
 62
7
 10
5.297250000000001
 20
-0.2975
 30
0
 11
5.304
 21
-0.2875
 31
0
  0
LINE
  8
0
 62
7
 10
5.304
 20
-0.2875
 30
0
 11
5.310750000000001
 21
-0.2825
 31
0
  0
LINE
  8
0
 62
7
 10
5.310750000000001
 20
-0.2825
 30
0
 11
5.317500000000001
 21
-0.28
 31
0
  0
LINE
  8
0
 62
7
 10
5.317500000000001
 20
-0.28
 30
0
 11
5.3265
 21
-0.28
 31
0
  0
LINE
  8
0
 62
7
 10
5.3265
 20
-0.28
 30
0
 11
5.33325
 21
-0.2825
 31
0
  0
LINE
  8
0
 62
7
 10
5.33325
 20
-0.2825
 30
0
 11
5.34
 21
-0.2875
 31
0
  0
LINE
  8
0
 62
7
 10
5.34
 20
-0.2875
 30
0
 11
5.346750000000001
 21
-0.2975
 31
0
  0
LINE
  8
0
 62
7
 10
5.346750000000001
 20
-0.2975
 30
0
 11
5.349
 21
-0.305
 31
0
  0
LINE
  8
0
 62
7
 10
5.349
 20
-0.305
 30
0
 11
5.349
 21
-0.315
 31
0
  0
LINE
  8
0
 62
7
 10
5.349
 20
-0.315
 30
0
 11
5.295000000000001
 21
-0.315
 31
0
  0
LINE
  8
0
 62
7
 10
5.295000000000001
 20
-0.315
 30
0
 11
5.295000000000001
 21
-0.305
 31
0
  0
LINE
  8
0
 62
7
 10
5.367000000000001
 20
-0.25
 30
0
 11
5.367000000000001
 21
-0.2550000000000001
 31
0
  0
LINE
  8
0
 62
7
 10
5.367000000000001
 20
-0.28
 30
0
 11
5.367000000000001
 21
-0.35
 31
0
  0
LINE
  8
0
 62
7
 10
5.385000000000001
 20
-0.305
 30
0
 11
5.387250000000001
 21
-0.2975
 31
0
  0
LINE
  8
0
 62
7
 10
5.387250000000001
 20
-0.2975
 30
0
 11
5.394
 21
-0.2875
 31
0
  0
LINE
  8
0
 62
7
 10
5.394
 20
-0.2875
 30
0
 11
5.40075
 21
-0.2825
 31
0
  0
LINE
  8
0
 62
7
 10
5.40075
 20
-0.2825
 30
0
 11
5.407500000000001
 21
-0.28
 31
0
  0
LINE
  8
0
 62
7
 10
5.407500000000001
 20
-0.28
 30
0
 11
5.4165
 21
-0.28
 31
0
  0
LINE
  8
0
 62
7
 10
5.4165
 20
-0.28
 30
0
 11
5.42325
 21
-0.2825
 31
0
  0
LINE
  8
0
 62
7
 10
5.42325
 20
-0.2825
 30
0
 11
5.430000000000001
 21
-0.2875
 31
0
  0
LINE
  8
0
 62
7
 10
5.430000000000001
 20
-0.2875
 30
0
 11
5.436750000000001
 21
-0.2975
 31
0
  0
LINE
  8
0
 62
7
 10
5.436750000000001
 20
-0.2975
 30
0
 11
5.439
 21
-0.305
 31
0
  0
LINE
  8
0
 62
7
 10
5.439
 20
-0.305
 30
0
 11
5.439
 21
-0.35
 31
0
  0
LINE
  8
0
 62
7
 10
5.385000000000001
 20
-0.28
 30
0
 11
5.385000000000001
 21
-0.305
 31
0
  0
LINE
  8
0
 62
7
 10
5.385000000000001
 20
-0.305
 30
0
 11
5.385000000000001
 21
-0.35
 31
0
  0
LINE
  8
0
 62
7
 10
5.511
 20
-0.295
 30
0
 11
5.5065
 21
-0.2875
 31
0
  0
LINE
  8
0
 62
7
 10
5.5065
 20
-0.2875
 30
0
 11
5.499750000000001
 21
-0.2825
 31
0
  0
LINE
  8
0
 62
7
 10
5.499750000000001
 20
-0.2825
 30
0
 11
5.4885
 21
-0.28
 31
0
  0
LINE
  8
0
 62
7
 10
5.4885
 20
-0.28
 30
0
 11
5.479500000000001
 21
-0.28
 31
0
  0
LINE
  8
0
 62
7
 10
5.479500000000001
 20
-0.28
 30
0
 11
5.470500000000001
 21
-0.2825
 31
0
  0
LINE
  8
0
 62
7
 10
5.470500000000001
 20
-0.2825
 30
0
 11
5.463750000000001
 21
-0.2875
 31
0
  0
LINE
  8
0
 62
7
 10
5.463750000000001
 20
-0.2875
 30
0
 11
5.459250000000001
 21
-0.2925
 31
0
  0
LINE
  8
0
 62
7
 10
5.459250000000001
 20
-0.2925
 30
0
 11
5.457000000000001
 21
-0.2975
 31
0
  0
LINE
  8
0
 62
7
 10
5.457000000000001
 20
-0.2975
 30
0
 11
5.457000000000001
 21
-0.3025
 31
0
  0
LINE
  8
0
 62
7
 10
5.457000000000001
 20
-0.3025
 30
0
 11
5.459250000000001
 21
-0.3075000000000001
 31
0
  0
LINE
  8
0
 62
7
 10
5.459250000000001
 20
-0.3075000000000001
 30
0
 11
5.463750000000001
 21
-0.3100000000000001
 31
0
  0
LINE
  8
0
 62
7
 10
5.463750000000001
 20
-0.3100000000000001
 30
0
 11
5.504250000000002
 21
-0.3200000000000001
 31
0
  0
LINE
  8
0
 62
7
 10
5.504250000000002
 20
-0.3200000000000001
 30
0
 11
5.50875
 21
-0.3225
 31
0
  0
LINE
  8
0
 62
7
 10
5.50875
 20
-0.3225
 30
0
 11
5.511
 21
-0.3275
 31
0
  0
LINE
  8
0
 62
7
 10
5.511
 20
-0.3275
 30
0
 11
5.511
 21
-0.3325
 31
0
  0
LINE
  8
0
 62
7
 10
5.511
 20
-0.3325
 30
0
 11
5.50875
 21
-0.3375
 31
0
  0
LINE
  8
0
 62
7
 10
5.50875
 20
-0.3375
 30
0
 11
5.504250000000002
 21
-0.3425
 31
0
  0
LINE
  8
0
 62
7
 10
5.504250000000002
 20
-0.3425
 30
0
 11
5.4975
 21
-0.3475
 31
0
  0
LINE
  8
0
 62
7
 10
5.4975
 20
-0.3475
 30
0
 11
5.4885
 21
-0.35
 31
0
  0
LINE
  8
0
 62
7
 10
5.4885
 20
-0.35
 30
0
 11
5.479500000000001
 21
-0.35
 31
0
  0
LINE
  8
0
 62
7
 10
5.479500000000001
 20
-0.35
 30
0
 11
5.468250000000001
 21
-0.3475
 31
0
  0
LINE
  8
0
 62
7
 10
5.468250000000001
 20
-0.3475
 30
0
 11
5.461500000000001
 21
-0.3425
 31
0
  0
LINE
  8
0
 62
7
 10
5.461500000000001
 20
-0.3425
 30
0
 11
5.457000000000001
 21
-0.335
 31
0
  0
LINE
  8
0
 62
7
 10
5.538000000000001
 20
-0.25
 30
0
 11
5.538000000000001
 21
-0.335
 31
0
  0
LINE
  8
0
 62
7
 10
5.538000000000001
 20
-0.335
 30
0
 11
5.54025
 21
-0.3475
 31
0
  0
LINE
  8
0
 62
7
 10
5.54025
 20
-0.3475
 30
0
 11
5.544750000000001
 21
-0.35
 31
0
  0
LINE
  8
0
 62
7
 10
5.544750000000001
 20
-0.35
 30
0
 11
5.547000000000001
 21
-0.35
 31
0
  0
LINE
  8
0
 62
7
 10
5.529
 20
-0.28
 30
0
 11
5.547000000000001
 21
-0.28
 31
0
  0
LINE
  8
0
 62
7
 10
5.619
 20
-0.28
 30
0
 11
5.619
 21
-0.325
 31
0
  0
LINE
  8
0
 62
7
 10
5.565
 20
-0.28
 30
0
 11
5.565
 21
-0.325
 31
0
  0
LINE
  8
0
 62
7
 10
5.565
 20
-0.325
 30
0
 11
5.56725
 21
-0.3325
 31
0
  0
LINE
  8
0
 62
7
 10
5.56725
 20
-0.3325
 30
0
 11
5.574000000000001
 21
-0.3425
 31
0
  0
LINE
  8
0
 62
7
 10
5.574000000000001
 20
-0.3425
 30
0
 11
5.580750000000001
 21
-0.3475
 31
0
  0
LINE
  8
0
 62
7
 10
5.580750000000001
 20
-0.3475
 30
0
 11
5.5875
 21
-0.35
 31
0
  0
LINE
  8
0
 62
7
 10
5.5875
 20
-0.35
 30
0
 11
5.596500000000001
 21
-0.35
 31
0
  0
LINE
  8
0
 62
7
 10
5.596500000000001
 20
-0.35
 30
0
 11
5.60325
 21
-0.3475
 31
0
  0
LINE
  8
0
 62
7
 10
5.60325
 20
-0.3475
 30
0
 11
5.61
 21
-0.3425
 31
0
  0
LINE
  8
0
 62
7
 10
5.61
 20
-0.3425
 30
0
 11
5.616750000000001
 21
-0.3325
 31
0
  0
LINE
  8
0
 62
7
 10
5.616750000000001
 20
-0.3325
 30
0
 11
5.619
 21
-0.325
 31
0
  0
LINE
  8
0
 62
7
 10
5.619
 20
-0.325
 30
0
 11
5.619
 21
-0.35
 31
0
  0
LINE
  8
0
 62
7
 10
5.637
 20
-0.285
 30
0
 11
5.664000000000001
 21
-0.285
 31
0
  0
LINE
  8
0
 62
7
 10
5.646000000000001
 20
-0.35
 30
0
 11
5.646000000000001
 21
-0.2675
 31
0
  0
LINE
  8
0
 62
7
 10
5.646000000000001
 20
-0.2675
 30
0
 11
5.648250000000001
 21
-0.2575
 31
0
  0
LINE
  8
0
 62
7
 10
5.648250000000001
 20
-0.2575
 30
0
 11
5.652750000000001
 21
-0.2525
 31
0
  0
LINE
  8
0
 62
7
 10
5.652750000000001
 20
-0.2525
 30
0
 11
5.6595
 21
-0.25
 31
0
  0
LINE
  8
0
 62
7
 10
5.6595
 20
-0.25
 30
0
 11
5.664000000000001
 21
-0.25
 31
0
  0
LINE
  8
0
 62
7
 10
5.736000000000001
 20
-0.3325
 30
0
 11
5.729250000000001
 21
-0.3425
 31
0
  0
LINE
  8
0
 62
7
 10
5.729250000000001
 20
-0.3425
 30
0
 11
5.7225
 21
-0.3475
 31
0
  0
LINE
  8
0
 62
7
 10
5.7225
 20
-0.3475
 30
0
 11
5.7135
 21
-0.35
 31
0
  0
LINE
  8
0
 62
7
 10
5.7135
 20
-0.35
 30
0
 11
5.7045
 21
-0.35
 31
0
  0
LINE
  8
0
 62
7
 10
5.7045
 20
-0.35
 30
0
 11
5.69775
 21
-0.3475
 31
0
  0
LINE
  8
0
 62
7
 10
5.69775
 20
-0.3475
 30
0
 11
5.691000000000001
 21
-0.3425
 31
0
  0
LINE
  8
0
 62
7
 10
5.691000000000001
 20
-0.3425
 30
0
 11
5.684250000000001
 21
-0.3325
 31
0
  0
LINE
  8
0
 62
7
 10
5.684250000000001
 20
-0.3325
 30
0
 11
5.682
 21
-0.325
 31
0
  0
LINE
  8
0
 62
7
 10
5.682
 20
-0.325
 30
0
 11
5.682
 21
-0.315
 31
0
  0
LINE
  8
0
 62
7
 10
5.682
 20
-0.305
 30
0
 11
5.684250000000001
 21
-0.2975
 31
0
  0
LINE
  8
0
 62
7
 10
5.684250000000001
 20
-0.2975
 30
0
 11
5.691000000000001
 21
-0.2875
 31
0
  0
LINE
  8
0
 62
7
 10
5.691000000000001
 20
-0.2875
 30
0
 11
5.69775
 21
-0.2825
 31
0
  0
LINE
  8
0
 62
7
 10
5.69775
 20
-0.2825
 30
0
 11
5.7045
 21
-0.28
 31
0
  0
LINE
  8
0
 62
7
 10
5.7045
 20
-0.28
 30
0
 11
5.7135
 21
-0.28
 31
0
  0
LINE
  8
0
 62
7
 10
5.7135
 20
-0.28
 30
0
 11
5.72025
 21
-0.2825
 31
0
  0
LINE
  8
0
 62
7
 10
5.72025
 20
-0.2825
 30
0
 11
5.727
 21
-0.2875
 31
0
  0
LINE
  8
0
 62
7
 10
5.727
 20
-0.2875
 30
0
 11
5.733750000000001
 21
-0.2975
 31
0
  0
LINE
  8
0
 62
7
 10
5.733750000000001
 20
-0.2975
 30
0
 11
5.736000000000001
 21
-0.305
 31
0
  0
LINE
  8
0
 62
7
 10
5.736000000000001
 20
-0.305
 30
0
 11
5.736000000000001
 21
-0.315
 31
0
  0
LINE
  8
0
 62
7
 10
5.736000000000001
 20
-0.315
 30
0
 11
5.682
 21
-0.315
 31
0
  0
LINE
  8
0
 62
7
 10
5.682
 20
-0.315
 30
0
 11
5.682
 21
-0.305
 31
0
  0
LINE
  8
0
 62
7
 10
5.754
 20
-0.305
 30
0
 11
5.756250000000001
 21
-0.2975
 31
0
  0
LINE
  8
0
 62
7
 10
5.756250000000001
 20
-0.2975
 30
0
 11
5.763000000000002
 21
-0.2875
 31
0
  0
LINE
  8
0
 62
7
 10
5.763000000000002
 20
-0.2875
 30
0
 11
5.76975
 21
-0.2825
 31
0
  0
LINE
  8
0
 62
7
 10
5.76975
 20
-0.2825
 30
0
 11
5.7765
 21
-0.28
 31
0
  0
LINE
  8
0
 62
7
 10
5.7765
 20
-0.28
 30
0
 11
5.785500000000002
 21
-0.28
 31
0
  0
LINE
  8
0
 62
7
 10
5.785500000000002
 20
-0.28
 30
0
 11
5.79225
 21
-0.2825
 31
0
  0
LINE
  8
0
 62
7
 10
5.79225
 20
-0.2825
 30
0
 11
5.799
 21
-0.2875
 31
0
  0
LINE
  8
0
 62
7
 10
5.799
 20
-0.2875
 30
0
 11
5.805750000000001
 21
-0.2975
 31
0
  0
LINE
  8
0
 62
7
 10
5.805750000000001
 20
-0.2975
 30
0
 11
5.808000000000002
 21
-0.305
 31
0
  0
LINE
  8
0
 62
7
 10
5.808000000000002
 20
-0.305
 30
0
 11
5.808000000000002
 21
-0.35
 31
0
  0
LINE
  8
0
 62
7
 10
5.754
 20
-0.28
 30
0
 11
5.754
 21
-0.305
 31
0
  0
LINE
  8
0
 62
7
 10
5.754
 20
-0.305
 30
0
 11
5.754
 21
-0.35
 31
0
  0
ARC
  8
0
 62
7
 10
4.668826476238217
 20
0.9750033012425994
 30
0
 40
0.4999999999998301
 50
330.7198190923137
 51
1.834192315085698
  0
ARC
  8
0
 62
7
 10
4.668826476237999
 20
0.9750033012425994
 30
0
 40
0.5000000000000224
 50
27.04433530084225
 51
52.25447828658865
  0
ARC
  8
0
 62
7
 10
4.668826476237999
 20
0.9750033012425994
 30
0
 40
0.5000000000000212
 50
1.8341923150849
 51
27.04433530084225
  0
ARC
  8
0
 62
7
  6
DASHDOT
 10
1.968826476237999
 20
0.9750033012425994
 30
0
 40
0.8249999999999997
 50
90
 51
180
  0
ARC
  8
0
 62
7
  6
DASHDOT
 10
1.968826476237999
 20
0.9750033012425994
 30
0
 40
0.8249999999999711
 50
180
 51
270
  0
ARC
  8
0
 62
7
 10
1.968826476237999
 20
0.9750033012425994
 30
0
 40
0.5000000000000826
 50
127.7455217134043
 51
134.9429054432762
  0
ARC
  8
0
 62
7
 10
1.968826476237999
 20
0.9750033012425994
 30
0
 40
0.5000000000000222
 50
27.04433530084226
 51
52.25447828658859
  0
ARC
  8
0
 62
7
 10
1.968826476237999
 20
0.9750033012425994
 30
0
 40
0.5000000000000205
 50
1.834192315084902
 51
27.04433530084226
  0
ARC
  8
0
 62
7
 10
1.968826476237999
 20
0.9750033012425994
 30
0
 40
0.4999999999999098
 50
336.6240493293445
 51
1.834192315084902
  0
ARC
  8
0
 62
7
 10
1.968826476237999
 20
0.9750033012425994
 30
0
 40
0.5000000000000216
 50
311.4139063435651
 51
336.6240493293445
  0
ARC
  8
0
 62
7
 10
1.968826476237999
 20
0.9750033012425994
 30
0
 40
0.5000000000000465
 50
286.2037633578174
 51
311.4139063435651
  0
ARC
  8
0
 62
7
 10
1.968826476237999
 20
0.9750033012425994
 30
0
 40
0.4999999999999576
 50
260.9936203720509
 51
286.2037633578174
  0
ARC
  8
0
 62
7
 10
1.968826476237999
 20
0.9750033012425994
 30
0
 40
0.5000000000000463
 50
235.7834773863013
 51
260.9936203720509
  0
ARC
  8
0
 62
7
 10
1.968826476237999
 20
0.9750033012425994
 30
0
 40
0.4999999999999911
 50
210.5733344005395
 51
235.7834773863013
  0
ARC
  8
0
 62
7
 10
1.968826476237999
 20
0.9750033012425994
 30
0
 40
0.4999999999999941
 50
185.3631914147865
 51
210.5733344005395
  0
ARC
  8
0
 62
7
 10
1.968826476237999
 20
0.9750033012425994
 30
0
 40
0.5000000000000682
 50
160.1530484290292
 51
185.3631914147865
  0
ARC
  8
0
 62
7
 10
1.968826476237999
 20
0.9750033012425994
 30
0
 40
0.5000000000000179
 50
134.9429054432762
 51
160.1530484290292
  0
ARC
  8
0
 62
7
  6
DASHED
 10
1.968826476237999
 20
0.9750033012425994
 30
0
 40
0.5000000000000342
 50
109.7327624575238
 51
127.7455217134043
  0
ARC
  8
0
 62
7
  6
DASHED
 10
1.968826476237999
 20
0.9750033012425994
 30
0
 40
0.5000000000000596
 50
84.52261947177153
 51
109.7327624575238
  0
ARC
  8
0
 62
7
 10
1.968826476237999
 20
0.9750033012425994
 30
0
 40
0.7950000000000406
 50
56.18996216781841
 51
123.8100378321815
  0
ARC
  8
0
 62
7
  6
DASHDOT
 10
1.968826476237999
 20
0.9750033012425994
 30
0
 40
0.8250000000000001
 50
270
 51
90
  0
CIRCLE
  8
0
 62
7
  6
DASHED
 10
2.016552865394187
 20
1.472720280838606
 30
0
 40
0.06000000000000005
  0
DIMENSION
  8
0
  6
CONTINUOUS
 62
7
  2
*D1
  3
DMST_1
 10
2.798826476237999
 20
6.61261596817733
 30
0
 11
1.98231163237971
 21
6.61261596817733
 31
0
 12
0
 22
0
 32
0
 70
0
 13
1.138826476237999
 23
6.095003301242599
 33
0
 14
2.798826476238
 24
6.095003301242599
 34
0
 53
0
  0
DIMENSION
  8
0
  6
CONTINUOUS
 62
7
  2
*D2
  3
DMST_1
 10
5.493826476238
 20
2.14996964332979
 30
0
 11
4.67189118324751
 21
2.14996964332979
 31
0
 12
0
 22
0
 32
0
 70
0
 13
3.843826476238
 23
1.800003301242599
 33
0
 14
5.493826476238
 24
1.800003301242599
 34
0
 53
0
  0
DIMENSION
  8
0
  6
CONTINUOUS
 62
7
  2
*D3
  3
DMST_1
 10
1.218826476237999
 20
2.17566626324254
 30
0
 11
1.93948393252512
 21
2.17566626324254
 31
0
 12
0
 22
0
 32
0
 70
0
 13
2.718826476238
 23
0.9750033012425994
 33
0
 14
1.218826476237999
 24
0.9750033012425994
 34
0
 53
0
  0
DIMENSION
  8
0
  6
CONTINUOUS
 62
7
  2
*D4
  3
DMST_1
 10
3.17103277174347
 20
0.1500033012425996
 30
0
 11
3.17103277174347
 21
0.955105904797364
 31
0
 12
0
 22
0
 32
0
 70
0
 13
1.968826476237999
 23
1.800003301242599
 33
0
 14
1.968826476237999
 24
0.1500033012425993
 34
0
 50
90
 53
0
  0
INSERT
  8
0
  2
*D0
 10
0
 20
0
 30
0
  0
ENDSEC
  0
EOF
