  0
SECTION
  2
HEADER
  9
$ACADVER
  1
AC1009
  9
$INSBASE
 10
0
 20
0
  9
$EXTMIN
 10
0.1
 20
-0.35
  9
$EXTMAX
 10
5.29038856718249
 20
6.72685269376743
  9
$LIMMIN
 10
0.1
 20
-0.35
  9
$LIMMAX
 10
5.29038856718249
 20
6.72685269376743
  9
$VIEWCTR
 10
10
 20
10
  9
$VIEWSIZE
 40
10
  9
$SNAPMODE
 70
0
  9
$SNAPUNIT
 10
1
 20
1
  9
$SNAPBASE
 10
0
 20
0
  9
$SNAPANG
 50
0
  9
$SNAPSTYLE
 70
0
  9
$SNAPISOPAIR
 70
0
  9
$GRIDMODE
 70
0
  9
$GRIDUNIT
 10
0
 20
0
  9
$ORTHOMODE
 70
0
  9
$REGENMODE
 70
1
  9
$FILLMODE
 70
1
  9
$QTEXTMODE
 70
0
  9
$DRAGMODE
 70
2
  9
$LTSCALE
 40
1
  9
$OSMODE
 70
0
  9
$ATTMODE
 70
1
  9
$TEXTSIZE
 40
3.5
  9
$TRACEWID
 40
0.5
  9
$TEXTSTYLE
  7
STANDARD
  9
$CLAYER
  8
0
  9
$CELTYPE
  6
BYLAYER
  9
$CECOLOR
 62
256
  9
$DIMSCALE
 40
1
  9
$DIMASZ
 40
0.18
  9
$DIMEXO
 40
0.0625
  9
$DIMDLI
 40
0.38
  9
$DIMRND
 40
0
  9
$DIMDLE
 40
0
  9
$DIMEXE
 40
0.18
  9
$DIMTP
 40
0
  9
$DIMTM
 40
0
  9
$DIMTXT
 40
0.18
  9
$DIMCEN
 40
0.09
  9
$DIMTSZ
 40
0
  9
$DIMTOL
 70
0
  9
$DIMLIM
 70
0
  9
$DIMTIH
 70
1
  9
$DIMTOH
 70
1
  9
$DIMSE1
 70
0
  9
$DIMSE2
 70
0
  9
$DIMTAD
 70
0
  9
$DIMZIN
 70
0
  9
$DIMBLK
  1

  9
$DIMASO
 70
1
  9
$DIMSHO
 70
1
  9
$DIMPOST
  1

  9
$DIMAPOST
  1

  9
$DIMALT
 70
0
  9
$DIMALTD
 70
2
  9
$DIMALTF
 40
25.4
  9
$DIMLFAC
 40
1
  9
$DIMTOFL
 70
0
  9
$DIMTVP
 40
0
  9
$DIMTIX
 70
0
  9
$DIMSOXD
 70
0
  9
$DIMSAH
 70
0
  9
$DIMBLK1
  1

  9
$DIMBLK2
  1

  9
$DIMSTYLE
  2
*UNNAMED
  9
$DIMCLRD
 70
0
  9
$DIMCLRE
 70
0
  9
$DIMCLRT
 70
0
  9
$DIMTFAC
 40
1
  9
$DIMGAP
 40
0.09
  9
$LUNITS
 70
2
  9
$LUPREC
 70
4
  9
$AXISMODE
 70
0
  9
$AXISUNIT
 10
0
 20
0
  9
$SKETCHINC
 40
0.1
  9
$FILLETRAD
 40
2
  9
$AUNITS
 70
0
  9
$AUPREC
 70
0
  9
$MENU
  1
ACAD
  9
$ELEVATION
 40
0
  9
$THICKNESS
 40
0
  9
$VIEWDIR
 10
0
 20
0
 30
1
  9
$LIMCHECK
 70
0
  9
$BLIPMODE
 70
1
  9
$CHAMFERA
 40
0
  9
$CHAMFERB
 40
0
  9
$FASTZOOM
 70
1
  9
$SKPOLY
 70
0
  9
$ANGBASE
 50
0
  9
$ANGDIR
 70
0
  9
$PDMODE
 70
0
  9
$PDSIZE
 40
0
  9
$PLINEWID
 40
0
  9
$COORDS
 70
2
  0
ENDSEC
  0
SECTION
  2
TABLES
  0
TABLE
  2
DIMSTYLE
 70
1
  0
DIMSTYLE
  2
DMST_1
 70
0
  3

  4

  5

  6

  7

 40
1
 41
0.1
 42
0
 43
0.7
 44
0.2
 45
0
 46
0
 47
0
 48
0
140
0.1
141
0
142
0.1
143
25.4
144
1
145
0
146
1
147
0.25
 71
0
 72
0
 73
0
 74
0
 75
0
 76
0
 77
0
 78
9
170
0
171
2
172
0
173
0
174
0
175
0
176
7
177
7
178
7
  0
ENDTAB
  0
TABLE
  2
LTYPE
 70
9
  0
LTYPE
  2
CONTINUOUS
 70
64
  3
Solid line
 72
65
 73
0
 40
0
  0
LTYPE
  2
BORDER
 70
64
  3
__ __ . __ __ .
 72
65
 73
6
 40
0.3259076898445527
 49
0.09311648281272934
 49
-0.04655824140636467
 49
0.09311648281272934
 49
-0.04655824140636467
 49
0
 49
-0.04655824140636467
  0
LTYPE
  2
CENTER
 70
64
  3
____ _ ____ _
 72
65
 73
4
 40
0.3724659312509174
 49
0.2327912070318233
 49
-0.04655824140636467
 49
0.04655824140636467
 49
-0.04655824140636467
  0
LTYPE
  2
DASHDOT
 70
64
  3
__ . __ . __ .
 72
65
 73
4
 40
0.1862329656254587
 49
0.09311648281272934
 49
-0.04655824140636467
 49
0
 49
-0.04655824140636467
  0
LTYPE
  2
DASHED
 70
64
  3
__ __ __ __ __
 72
65
 73
2
 40
0.139674724219094
 49
0.09311648281272934
 49
-0.04655824140636467
  0
LTYPE
  2
DIVIDE
 70
64
  3
__ . . __ . . 
 72
65
 73
6
 40
0.2327912070318233
 49
0.09311648281272934
 49
-0.04655824140636467
 49
0
 49
-0.04655824140636467
 49
0
 49
-0.04655824140636467
  0
LTYPE
  2
DOT
 70
64
  3
..............
 72
65
 73
4
 40
0.09311648281272934
 49
0
 49
-0.04655824140636467
 49
0
 49
-0.04655824140636467
  0
LTYPE
  2
HIDDEN
 70
64
  3
_ _ _ _ _ _ _
 72
65
 73
2
 40
0.06983736210954701
 49
0.04655824140636467
 49
-0.02327912070318234
  0
LTYPE
  2
PHANTOM
 70
64
  3
_____ _ _ _____ _ _ 
 72
65
 73
6
 40
0.4655824140636467
 49
0.2327912070318233
 49
-0.04655824140636467
 49
0.04655824140636467
 49
-0.04655824140636467
 49
0.04655824140636467
 49
-0.04655824140636467
  0
ENDTAB
  0
TABLE
  2
LAYER
 70
2
  0
LAYER
  2
0
 70
0
 62
7
  6
CONTINUOUS
  0
ENDTAB
  0
TABLE
  2
STYLE
 70
4
  0
STYLE
  2
STANDARD
 70
0
 40
0
 41
1
 50
0
 71
0
 42
3.5
  3
txt
  4

  0
STYLE
  2
SIMPLEX
 70
0
 40
0
 41
1
 50
0
 71
0
 42
3.5
  3
simplex
  4

  0
STYLE
  2
COMPLEX
 70
0
 40
0
 41
1
 50
0
 71
0
 42
3.5
  3
complex
  4

  0
STYLE
  2
ITALIC
 70
0
 40
0
 41
1
 50
0
 71
0
 42
3.5
  3
italic
  4

  0
ENDTAB
  0
TABLE
  2
VIEW
 70
0
  0
ENDTAB
  0
ENDSEC
  0
SECTION
  2
BLOCKS
  0
BLOCK
  8
0
  2
*X0
 70
1
 10
0
 20
0
 30
0
  0
LINE
  8
0
 62
7
  6
DASHED
 10
2.3799256952859
 20
3.334519849887739
 30
0
 11
2.390409146640764
 21
3.345003301242601
 31
0
  0
LINE
  8
0
 62
7
  6
DASHED
 10
2.402541180996727
 20
3.145003301242601
 30
0
 11
2.602541180996728
 21
3.345003301242601
 31
0
  0
LINE
  8
0
 62
7
  6
DASHED
 10
2.614673215352691
 20
3.145003301242601
 30
0
 11
2.814673215352692
 21
3.345003301242601
 31
0
  0
LINE
  8
0
 62
7
  6
DASHED
 10
2.826805249708656
 20
3.145003301242601
 30
0
 11
3.026805249708656
 21
3.345003301242601
 31
0
  0
LINE
  8
0
 62
7
  6
DASHED
 10
3.03893728406462
 20
3.145003301242601
 30
0
 11
3.238937284064621
 21
3.345003301242601
 31
0
  0
LINE
  8
0
 62
7
  6
DASHED
 10
3.251069318420584
 20
3.145003301242601
 30
0
 11
3.451069318420585
 21
3.345003301242601
 31
0
  0
LINE
  8
0
 62
7
  6
DASHED
 10
3.463201352776549
 20
3.145003301242601
 30
0
 11
3.663201352776549
 21
3.345003301242601
 31
0
  0
LINE
  8
0
 62
7
  6
DASHED
 10
3.675333387132513
 20
3.145003301242601
 30
0
 11
3.875333387132514
 21
3.345003301242601
 31
0
  0
LINE
  8
0
 62
7
  6
DASHED
 10
3.887465421488477
 20
3.145003301242601
 30
0
 11
4.087465421488478
 21
3.345003301242601
 31
0
  0
LINE
  8
0
 62
7
  6
DASHED
 10
4.099597455844441
 20
3.145003301242601
 30
0
 11
4.299597455844442
 21
3.345003301242601
 31
0
  0
LINE
  8
0
 62
7
  6
DASHED
 10
4.311729490200405
 20
3.145003301242601
 30
0
 11
4.511729490200405
 21
3.345003301242601
 31
0
  0
LINE
  8
0
 62
7
  6
DASHED
 10
4.523861524556369
 20
3.145003301242601
 30
0
 11
4.723861524556369
 21
3.345003301242601
 31
0
  0
LINE
  8
0
 62
7
  6
DASHED
 10
4.735993558912333
 20
3.145003301242601
 30
0
 11
4.935993558912333
 21
3.345003301242601
 31
0
  0
LINE
  8
0
 62
7
  6
DASHED
 10
4.948125593268297
 20
3.145003301242601
 30
0
 11
4.984925695285931
 21
3.181803403260234
 31
0
  0
LINE
  8
0
 62
7
 10
2.3799256952859
 20
3.228453832709757
 30
0
 11
2.496475163818745
 21
3.345003301242601
 31
0
  0
LINE
  8
0
 62
7
 10
2.508607198174709
 20
3.1450033012426
 30
0
 11
2.70860719817471
 21
3.345003301242601
 31
0
  0
LINE
  8
0
 62
7
 10
2.720739232530673
 20
3.1450033012426
 30
0
 11
2.920739232530674
 21
3.345003301242601
 31
0
  0
LINE
  8
0
 62
7
 10
2.932871266886638
 20
3.1450033012426
 30
0
 11
3.132871266886638
 21
3.345003301242601
 31
0
  0
LINE
  8
0
 62
7
 10
3.145003301242602
 20
3.1450033012426
 30
0
 11
3.345003301242603
 21
3.345003301242601
 31
0
  0
LINE
  8
0
 62
7
 10
3.357135335598566
 20
3.1450033012426
 30
0
 11
3.557135335598567
 21
3.345003301242601
 31
0
  0
LINE
  8
0
 62
7
 10
3.569267369954531
 20
3.1450033012426
 30
0
 11
3.769267369954531
 21
3.345003301242601
 31
0
  0
LINE
  8
0
 62
7
 10
3.781399404310495
 20
3.1450033012426
 30
0
 11
3.981399404310495
 21
3.345003301242601
 31
0
  0
LINE
  8
0
 62
7
 10
3.993531438666459
 20
3.1450033012426
 30
0
 11
4.19353143866646
 21
3.345003301242601
 31
0
  0
LINE
  8
0
 62
7
 10
4.205663473022423
 20
3.1450033012426
 30
0
 11
4.405663473022424
 21
3.345003301242601
 31
0
  0
LINE
  8
0
 62
7
 10
4.417795507378387
 20
3.1450033012426
 30
0
 11
4.617795507378387
 21
3.345003301242601
 31
0
  0
LINE
  8
0
 62
7
 10
4.629927541734351
 20
3.1450033012426
 30
0
 11
4.829927541734351
 21
3.345003301242601
 31
0
  0
LINE
  8
0
 62
7
 10
4.842059576090315
 20
3.1450033012426
 30
0
 11
4.984925695285931
 21
3.287869420438216
 31
0
  0
ENDBLK
  8
0
  0
BLOCK
  8
0
  2
*X1
 70
1
 10
0
 20
0
 30
0
  0
LINE
  8
0
 62
7
  6
DASHED
 10
4.516145077928834
 20
5.8950033012426
 30
0
 11
4.716145077928833
 21
6.095003301242599
 31
0
  0
LINE
  8
0
 62
7
  6
DASHED
 10
4.728277112284798
 20
5.8950033012426
 30
0
 11
4.928277112284797
 21
6.095003301242599
 31
0
  0
LINE
  8
0
 62
7
  6
DASHED
 10
4.940409146640762
 20
5.8950033012426
 30
0
 11
4.984925695285932
 21
5.93951984988777
 31
0
  0
LINE
  8
0
 62
7
 10
4.512425695285881
 20
5.997349935777629
 30
0
 11
4.61007906075085
 21
6.095003301242598
 31
0
  0
LINE
  8
0
 62
7
 10
4.622211095106816
 20
5.8950033012426
 30
0
 11
4.822211095106814
 21
6.095003301242598
 31
0
  0
LINE
  8
0
 62
7
 10
4.83434312946278
 20
5.8950033012426
 30
0
 11
4.984925695285932
 21
6.045585867065752
 31
0
  0
ENDBLK
  8
0
  0
BLOCK
  8
0
  2
*X2
 70
1
 10
0
 20
0
 30
0
  0
LINE
  8
0
 62
7
  6
DASHED
 10
2.3799256952859
 20
6.092236296515273
 30
0
 11
2.382692700013224
 21
6.095003301242598
 31
0
  0
LINE
  8
0
 62
7
  6
DASHED
 10
2.394824734369191
 20
5.8950033012426
 30
0
 11
2.594824734369189
 21
6.095003301242598
 31
0
  0
LINE
  8
0
 62
7
  6
DASHED
 10
2.606956768725155
 20
5.8950033012426
 30
0
 11
2.806956768725153
 21
6.095003301242598
 31
0
  0
LINE
  8
0
 62
7
  6
DASHED
 10
2.81908880308112
 20
5.8950033012426
 30
0
 11
2.852425695285901
 21
5.928340193447383
 31
0
  0
LINE
  8
0
 62
7
 10
2.3799256952859
 20
5.986170279337292
 30
0
 11
2.488758717191207
 21
6.095003301242598
 31
0
  0
LINE
  8
0
 62
7
 10
2.500890751547172
 20
5.8950033012426
 30
0
 11
2.700890751547171
 21
6.095003301242598
 31
0
  0
LINE
  8
0
 62
7
 10
2.713022785903136
 20
5.8950033012426
 30
0
 11
2.852425695285901
 21
6.034406210625363
 31
0
  0
ENDBLK
  8
0
  0
BLOCK
  8
0
  2
*D0
 70
1
 10
0
 20
0
 30
0
  0
LINE
  8
0
 62
7
 10
5.16538856718249
 20
5.28904343228146
 30
0
 11
5.16538856718249
 21
6.095003301242599
 31
0
  0
LINE
  8
0
 62
7
 10
5.16538856718249
 20
3.3450033012426
 30
0
 11
5.16538856718249
 21
4.10904343228146
 31
0
  0
LINE
  8
0
 62
7
 10
4.98492569528593
 20
6.095003301242599
 30
0
 11
5.21538856718249
 21
6.095003301242599
 31
0
  0
LINE
  8
0
 62
7
 10
4.98492569528593
 20
3.3450033012426
 30
0
 11
5.21538856718249
 21
3.3450033012426
 31
0
  0
LINE
  8
0
 62
7
 10
5.200743906241818
 20
6.059647962183272
 30
0
 11
5.130033228123163
 21
6.130358640301926
 31
0
  0
LINE
  8
0
 62
7
 10
5.130033228123163
 20
3.380358640301927
 30
0
 11
5.200743906241818
 21
3.309647962183273
 31
0
  0
TEXT
  8
0
 62
7
 10
5.14038856718249
 20
4.57904343228146
 30
0
 40
0.1
  1
275
 50
90
 41
0.9
  0
TEXT
  8
0
 62
7
 10
5.29038856718249
 20
4.35904343228146
 30
0
 40
0.1
  1
(260-280)
 50
90
 41
0.9
  0
ENDBLK
  8
0
  0
BLOCK
  8
0
  2
*D1
 70
1
 10
0
 20
0
 30
0
  0
LINE
  8
0
 62
7
 10
4.054783732306511
 20
6.671852693767431
 30
0
 11
4.512425695285901
 21
6.671852693767431
 31
0
  0
LINE
  8
0
 62
7
 10
2.852425695285901
 20
6.671852693767431
 30
0
 11
3.309783732306511
 21
6.671852693767431
 31
0
  0
LINE
  8
0
 62
7
 10
4.512425695285901
 20
6.095003301242601
 30
0
 11
4.512425695285901
 21
6.721852693767431
 31
0
  0
LINE
  8
0
 62
7
 10
2.852425695285901
 20
6.095003301242601
 30
0
 11
2.852425695285901
 21
6.721852693767431
 31
0
  0
LINE
  8
0
 62
7
 10
4.477070356226574
 20
6.636497354708104
 30
0
 11
4.547781034345229
 21
6.707208032826759
 31
0
  0
LINE
  8
0
 62
7
 10
2.887781034345228
 20
6.707208032826759
 30
0
 11
2.817070356226574
 21
6.636497354708104
 31
0
  0
TEXT
  8
0
 62
7
 10
3.559783732306511
 20
6.626852693767431
 30
0
 40
0.1
  1
1,66
 41
0.9
  0
ENDBLK
  8
0
  0
BLOCK
  8
0
  2
*D2
 70
1
 10
0
 20
0
 30
0
  0
LINE
  8
0
 62
7
 10
1.340422053382558
 20
2.16657196895551
 30
0
 11
1.8074256952859
 21
2.16657196895551
 31
0
  0
LINE
  8
0
 62
7
 10
0.1574256952858998
 20
2.16657196895551
 30
0
 11
0.595422053382558
 21
2.16657196895551
 31
0
  0
LINE
  8
0
 62
7
 10
1.8074256952859
 20
1.800003301242599
 30
0
 11
1.8074256952859
 21
2.21657196895551
 31
0
  0
LINE
  8
0
 62
7
 10
0.1574256952858998
 20
1.800003301242599
 30
0
 11
0.1574256952858998
 21
2.21657196895551
 31
0
  0
LINE
  8
0
 62
7
 10
1.772070356226573
 20
2.131216629896183
 30
0
 11
1.842781034345227
 21
2.201927308014837
 31
0
  0
LINE
  8
0
 62
7
 10
0.1927810343452272
 20
2.201927308014837
 30
0
 11
0.1220703562265724
 21
2.131216629896183
 31
0
  0
TEXT
  8
0
 62
7
 10
0.845422053382558
 20
2.12157196895551
 30
0
 40
0.1
  1
1,65
 41
0.9
  0
ENDBLK
  8
0
  0
BLOCK
  8
0
  2
*D3
 70
1
 10
0
 20
0
 30
0
  0
LINE
  8
0
 62
7
 10
4.009783732306511
 20
2.1945550790475
 30
0
 11
4.432425695285901
 21
2.1945550790475
 31
0
  0
LINE
  8
0
 62
7
 10
2.932425695285901
 20
2.1945550790475
 30
0
 11
3.354783732306511
 21
2.1945550790475
 31
0
  0
LINE
  8
0
 62
7
 10
4.432425695285901
 20
0.9750033012425989
 30
0
 11
4.432425695285901
 21
2.2445550790475
 31
0
  0
LINE
  8
0
 62
7
 10
2.932425695285901
 20
0.9750033012425989
 30
0
 11
2.932425695285901
 21
2.2445550790475
 31
0
  0
LINE
  8
0
 62
7
 10
2.967781034345228
 20
2.229910418106827
 30
0
 11
2.897070356226574
 21
2.159199739988173
 31
0
  0
LINE
  8
0
 62
7
 10
4.397070356226574
 20
2.159199739988173
 30
0
 11
4.467781034345228
 21
2.229910418106827
 31
0
  0
TEXT
  8
0
 62
7
 10
3.604783732306511
 20
2.1495550790475
 30
0
 40
0.1
  1
1,5
 41
0.9
  0
ENDBLK
  8
0
  0
BLOCK
  8
0
  2
*D4
 70
1
 10
0
 20
0
 30
0
  0
LINE
  8
0
 62
7
 10
4.8016081359865
 20
1.321806679953525
 30
0
 11
4.8016081359865
 21
1.800003301242599
 31
0
  0
LINE
  8
0
 62
7
 10
4.8016081359865
 20
0.1500033012425993
 30
0
 11
4.8016081359865
 21
0.576806679953525
 31
0
  0
LINE
  8
0
 62
7
 10
3.6824256952859
 20
1.800003301242599
 30
0
 11
4.8516081359865
 21
1.800003301242599
 31
0
  0
LINE
  8
0
 62
7
 10
3.6824256952859
 20
0.1500033012425993
 30
0
 11
4.8516081359865
 21
0.1500033012425993
 31
0
  0
LINE
  8
0
 62
7
 10
4.836963475045827
 20
1.764647962183272
 30
0
 11
4.766252796927173
 21
1.835358640301926
 31
0
  0
LINE
  8
0
 62
7
 10
4.766252796927173
 20
0.1853586403019267
 30
0
 11
4.836963475045827
 21
0.1146479621832719
 31
0
  0
TEXT
  8
0
 62
7
 10
4.8466081359865
 20
0.826806679953525
 30
0
 40
0.1
  1
1,65
 50
90
 41
0.9
  0
ENDBLK
  8
0
  0
ENDSEC
  0
SECTION
  2
ENTITIES
  0
INSERT
  8
0
  2
*X0
 10
0
 20
0
 30
0
  0
INSERT
  8
0
  2
*X1
 10
0
 20
0
 30
0
  0
INSERT
  8
0
  2
*X2
 10
0
 20
0
 30
0
  0
POINT
  8
0
 62
7
  6
DASHED
 10
3.6824256952859
 20
0.9750033012425994
 30
0
  0
LINE
  8
0
 62
7
  6
DASHDOT
 10
0.1574256952858996
 20
1.800003301242599
 30
0
 11
0.1574256952858996
 21
0.1500033012425993
 31
0
  0
LINE
  8
0
 62
7
  6
DASHDOT
 10
1.8074256952859
 20
1.800003301242599
 30
0
 11
0.1574256952858996
 21
1.800003301242599
 31
0
  0
LINE
  8
0
 62
7
  6
DASHDOT
 10
1.8074256952859
 20
0.1500033012425993
 30
0
 11
1.8074256952859
 21
1.800003301242599
 31
0
  0
LINE
  8
0
 62
7
  6
DASHDOT
 10
0.1574256952858996
 20
0.1500033012425993
 30
0
 11
1.8074256952859
 21
0.1500033012425993
 31
0
  0
LINE
  8
0
 62
7
  6
DASHDOT
 10
1.866353884079988
 20
0.9750033012425994
 30
0
 11
1.7324256952859
 21
0.9750033012425994
 31
0
  0
LINE
  8
0
 62
7
  6
DASHDOT
 10
0.2324256952858996
 20
0.9750033012425994
 30
0
 11
0.1
 21
0.9750033012425994
 31
0
  0
LINE
  8
0
 62
7
  6
DASHDOT
 10
1.7324256952859
 20
0.9750033012425994
 30
0
 11
0.2324256952858996
 21
0.9750033012425994
 31
0
  0
LINE
  8
0
 62
7
  6
DASHDOT
 10
0.9824256952858997
 20
1.858751213129916
 30
0
 11
0.9824256952858997
 21
1.800003301242599
 31
0
  0
LINE
  8
0
 62
7
  6
DASHDOT
 10
0.9824256952858997
 20
1.800003301242599
 30
0
 11
0.9824256952858997
 21
1.725003301242599
 31
0
  0
LINE
  8
0
 62
7
  6
DASHDOT
 10
0.9824256952858997
 20
1.725003301242599
 30
0
 11
0.9824256952858997
 21
0.1
 31
0
  0
LINE
  8
0
 62
7
 10
0.4709568070507666
 20
1.770003301242599
 30
0
 11
1.493894583521076
 21
1.770003301242599
 31
0
  0
LINE
  8
0
 62
7
 10
0.5400549493881118
 20
1.635558464097223
 30
0
 11
0.4709568070507666
 21
1.770003301242599
 31
0
  0
LINE
  8
0
 62
7
 10
1.027614461813908
 20
0.8627581437539193
 30
0
 11
1.493894583521076
 21
1.770003301242599
 31
0
  0
LINE
  8
0
 62
7
 10
0.482681876567105
 20
0.9910069149713092
 30
0
 11
0.8703592826065579
 21
0.9059212823828132
 31
0
  0
LINE
  8
0
 62
7
 10
0.937236928757775
 20
0.8627581437539193
 30
0
 11
1.027614461813908
 21
0.8627581437539193
 31
0
  0
LINE
  8
0
 62
7
 10
0.5681271380518156
 20
1.580938170330425
 30
0
 11
0.3367448932027037
 21
1.35657413584771
 31
0
  0
LINE
  8
0
 62
7
 10
0.3494968125546002
 20
1.346757776006911
 30
0
 11
0.2357188385154878
 21
1.04520921304512
 31
0
  0
LINE
  8
0
 62
7
 10
0.676347956686601
 20
1.370372012617212
 30
0
 11
0.676347956686601
 21
1.37037201261711
 31
0
  0
LINE
  8
0
 62
7
 10
0.6751893115185958
 20
1.225673165825021
 30
0
 11
0.5494965065857977
 21
1.396758098116101
 31
0
  0
LINE
  8
0
 62
7
 10
0.5494965065857977
 20
1.396758098116101
 30
0
 11
0.676347956686601
 21
1.37037201261711
 31
0
  0
LINE
  8
0
 62
7
 10
0.676347956686601
 20
1.37037201261711
 30
0
 11
0.6751893115185958
 21
1.225673165825021
 31
0
  0
LINE
  8
0
 62
7
 10
0.676347956686601
 20
1.37037201261711
 30
0
 11
0.676347956686601
 21
1.370372012617212
 31
0
  0
LINE
  8
0
 62
7
 10
0.2357188385154878
 20
1.04520921304512
 30
0
 11
0.482681876567105
 21
0.9910069149713092
 31
0
  0
LINE
  8
0
 62
7
 10
0.3367448932027037
 20
1.35657413584771
 30
0
 11
0.8750569719118796
 21
0.9421843545576268
 31
0
  0
LINE
  8
0
 62
7
 10
0.5400549493881118
 20
1.635558464097223
 30
0
 11
0.676347956686601
 21
1.37037201261711
 31
0
  0
LINE
  8
0
 62
7
 10
0.676347956686601
 20
1.37037201261711
 30
0
 11
0.937236928757775
 21
0.8627581437539193
 31
0
  0
LINE
  8
0
 62
7
  6
DASHED
 10
4.092697763967604
 20
1.573103797663018
 30
0
 11
3.9787213478802
 21
1.663994510369215
 31
0
  0
LINE
  8
0
 62
7
  6
DASHED
 10
3.814810742317393
 20
1.032416680661103
 30
0
 11
3.687827252295
 21
1.068607430152217
 31
0
  0
LINE
  8
0
 62
7
  6
DASHED
 10
3.846793607177287
 20
1.094646010019104
 30
0
 11
3.647443070378111
 21
1.061992528860821
 31
0
  0
LINE
  8
0
 62
7
  6
DASHED
 10
3.929791936855706
 20
1.256136558671904
 30
0
 11
3.613722962138607
 21
1.038806469072617
 31
0
  0
LINE
  8
0
 62
7
 10
3.268127138051816
 20
1.580938170330425
 30
0
 11
3.036744893202704
 21
1.35657413584771
 31
0
  0
LINE
  8
0
 62
7
 10
3.0494968125546
 20
1.346757776006911
 30
0
 11
2.935718838515488
 21
1.04520921304512
 31
0
  0
LINE
  8
0
 62
7
 10
2.951437333817783
 20
1.041759390859617
 30
0
 11
2.976937956167502
 21
0.7204702975797992
 31
0
  0
LINE
  8
0
 62
7
 10
2.992628706351796
 20
0.7240441927005159
 30
0
 11
3.152550141358997
 21
0.444219072623615
 31
0
  0
LINE
  8
0
 62
7
 10
3.165224110709503
 20
0.4541358699182165
 30
0
 11
3.429101856974303
 21
0.2690804775975121
 31
0
  0
LINE
  8
0
 62
7
 10
3.436344696489106
 20
0.2834510601690127
 30
0
 11
3.7539109211216
 21
0.2284178322658992
 31
0
  0
LINE
  8
0
 62
7
 10
3.754342893965704
 20
0.2445046519372991
 30
0
 11
4.065102287538408
 21
0.3299772353026056
 31
0
  0
LINE
  8
0
 62
7
 10
4.058641104322103
 20
0.344715806438515
 30
0
 11
4.303395036081812
 21
0.5544119582605054
 31
0
  0
LINE
  8
0
 62
7
 10
4.291271530714964
 20
0.5649946320863091
 30
0
 11
4.423395190820826
 21
0.8589679329846114
 31
0
  0
LINE
  8
0
 62
7
 10
4.407918850747781
 20
0.8633787453391998
 30
0
 11
4.402243121450913
 21
1.185628259377219
 31
0
  0
LINE
  8
0
 62
7
 10
4.386362137974473
 20
1.183026965179306
 30
0
 11
4.243968226825993
 21
1.47216523187641
 31
0
  0
LINE
  8
0
 62
7
 10
4.230707874471292
 20
1.463047369017702
 30
0
 11
4.092697763967604
 21
1.573103797663018
 31
0
  0
LINE
  8
0
 62
7
  6
DASHED
 10
3.970607679660985
 20
1.650097001394213
 30
0
 11
3.657031132724893
 21
1.724573255411204
 31
0
  0
LINE
  8
0
 62
7
 10
3.763971804951187
 20
0.9334989323161138
 30
0
 11
3.763971804951187
 21
0.9334989323161138
 31
0
  0
LINE
  8
0
 62
7
 10
4.124796441183689
 20
1.635558464097223
 30
0
 11
3.763971804951187
 21
0.9334989323161138
 31
0
  0
LINE
  8
0
 62
7
 10
3.376347956686601
 20
1.370372012617212
 30
0
 11
3.376347956686601
 21
1.37037201261711
 31
0
  0
LINE
  8
0
 62
7
 10
3.375189311518596
 20
1.225673165825021
 30
0
 11
3.249496506585798
 21
1.396758098116101
 31
0
  0
LINE
  8
0
 62
7
 10
3.249496506585798
 20
1.396758098116101
 30
0
 11
3.376347956686601
 21
1.37037201261711
 31
0
  0
LINE
  8
0
 62
7
 10
3.376347956686601
 20
1.37037201261711
 30
0
 11
3.375189311518596
 21
1.225673165825021
 31
0
  0
LINE
  8
0
 62
7
 10
3.376347956686601
 20
1.37037201261711
 30
0
 11
3.376347956686601
 21
1.370372012617212
 31
0
  0
LINE
  8
0
 62
7
  6
DASHED
 10
3.657031132724893
 20
1.724573255411204
 30
0
 11
3.588945449663385
 21
0.9567192810977141
 31
0
  0
LINE
  8
0
 62
7
 10
4.243968226825993
 20
1.47216523187641
 30
0
 11
3.929791936855706
 21
1.256136558671904
 31
0
  0
LINE
  8
0
 62
7
 10
4.402243121450913
 20
1.185628259377219
 30
0
 11
3.846793607177287
 21
1.094646010019104
 31
0
  0
LINE
  8
0
 62
7
 10
4.423395190820826
 20
0.8589679329846114
 30
0
 11
3.814810742317393
 21
1.032416680661103
 31
0
  0
LINE
  8
0
 62
7
 10
4.303395036081812
 20
0.5544119582605054
 30
0
 11
3.796533377823769
 21
0.996854258725318
 31
0
  0
LINE
  8
0
 62
7
 10
4.065102287538408
 20
0.3299772353026056
 30
0
 11
3.783699590599761
 21
0.9718834509014125
 31
0
  0
LINE
  8
0
 62
7
 10
3.7539109211216
 20
0.2284178322658992
 30
0
 11
3.77333329045368
 21
0.9517136534540187
 31
0
  0
LINE
  8
0
 62
7
 10
3.429101856974303
 20
0.2690804775975121
 30
0
 11
3.763971804951187
 21
0.9334989323161138
 31
0
  0
LINE
  8
0
 62
7
 10
3.152550141358997
 20
0.444219072623615
 30
0
 11
3.754626843646707
 21
0.9153163624492153
 31
0
  0
LINE
  8
0
 62
7
 10
2.976937956167502
 20
0.7204702975797992
 30
0
 11
3.722696495500393
 21
0.8903323356338224
 31
0
  0
LINE
  8
0
 62
7
 10
2.935718838515488
 20
1.04520921304512
 30
0
 11
3.682796062961105
 21
0.8812441811804167
 31
0
  0
LINE
  8
0
 62
7
 10
3.036744893202704
 20
1.35657413584771
 30
0
 11
3.642825076611669
 21
0.8900168272148149
 31
0
  0
LINE
  8
0
 62
7
 10
3.240054949388112
 20
1.635558464097223
 30
0
 11
3.376347956686601
 21
1.37037201261711
 31
0
  0
LINE
  8
0
 62
7
  6
DASHED
 10
3.9787213478802
 20
1.663994510369215
 30
0
 11
3.593090496028104
 21
1.003466118050215
 31
0
  0
LINE
  8
0
 62
7
  6
DASHDOT
 10
3.6824256952859
 20
1.858751213129916
 30
0
 11
3.6824256952859
 21
1.800003301242599
 31
0
  0
LINE
  8
0
 62
7
  6
DASHDOT
 10
4.566353884079989
 20
0.9750033012425994
 30
0
 11
4.4324256952859
 21
0.9750033012425994
 31
0
  0
LINE
  8
0
 62
7
  6
DASHDOT
 10
3.6824256952859
 20
1.725003301242599
 30
0
 11
3.6824256952859
 21
0.1
 31
0
  0
LINE
  8
0
 62
7
  6
DASHDOT
 10
3.6824256952859
 20
1.800003301242599
 30
0
 11
3.6824256952859
 21
1.725003301242599
 31
0
  0
LINE
  8
0
 62
7
  6
DASHED
 10
3.796533377823769
 20
0.996854258725318
 30
0
 11
3.727182455569609
 21
1.057391056254914
 31
0
  0
LINE
  8
0
 62
7
  6
DASHED
 10
3.783699590599761
 20
0.9718834509014125
 30
0
 11
3.758011644890809
 21
1.030480089085599
 31
0
  0
LINE
  8
0
 62
7
  6
DASHED
 10
3.77333329045368
 20
0.9517136534540187
 30
0
 11
3.774441962244397
 21
0.9930009783724092
 31
0
  0
LINE
  8
0
 62
7
 10
3.376347956686601
 20
1.37037201261711
 30
0
 11
3.610397876390605
 21
0.9149791138492147
 31
0
  0
LINE
  8
0
 62
7
  6
DASHDOT
 10
2.932425695285901
 20
0.9750033012425994
 30
0
 11
2.8
 21
0.9750033012425994
 31
0
  0
LINE
  8
0
 62
7
  6
DASHDOT
 10
4.4324256952859
 20
0.9750033012425994
 30
0
 11
2.932425695285901
 21
0.9750033012425994
 31
0
  0
LINE
  8
0
 62
7
 10
2.3799256952859
 20
5.8950033012426
 30
0
 11
2.852425695285901
 21
5.8950033012426
 31
0
  0
LINE
  8
0
 62
7
 10
2.852425695285901
 20
5.8950033012426
 30
0
 11
2.852425695285901
 21
6.095003301242599
 31
0
  0
LINE
  8
0
 62
7
 10
4.95992569528593
 20
6.1950033012426
 30
0
 11
2.3799256952859
 21
6.1950033012426
 31
0
  0
LINE
  8
0
 62
7
 10
2.3799256952859
 20
3.4450033012426
 30
0
 11
4.95992569528593
 21
3.4450033012426
 31
0
  0
LINE
  8
0
 62
7
  6
DASHDOT
 10
4.984925695285931
 20
6.095003301242599
 30
0
 11
4.984925695285931
 21
6.1950033012426
 31
0
  0
LINE
  8
0
 62
7
  6
DASHDOT
 10
4.984925695285931
 20
5.8950033012426
 30
0
 11
4.984925695285931
 21
6.095003301242599
 31
0
  0
LINE
  8
0
 62
7
  6
DASHDOT
 10
2.3799256952859
 20
6.095003301242599
 30
0
 11
2.3799256952859
 21
6.1950033012426
 31
0
  0
LINE
  8
0
 62
7
  6
DASHDOT
 10
2.3799256952859
 20
5.8950033012426
 30
0
 11
2.3799256952859
 21
6.095003301242599
 31
0
  0
LINE
  8
0
 62
7
  6
DASHDOT
 10
2.3799256952859
 20
3.345003301242601
 30
0
 11
2.3799256952859
 21
3.4450033012426
 31
0
  0
LINE
  8
0
 62
7
  6
DASHDOT
 10
2.3799256952859
 20
3.1450033012426
 30
0
 11
2.3799256952859
 21
3.345003301242601
 31
0
  0
LINE
  8
0
 62
7
  6
DASHDOT
 10
4.984925695285931
 20
3.345003301242601
 30
0
 11
4.984925695285931
 21
3.4450033012426
 31
0
  0
LINE
  8
0
 62
7
  6
DASHDOT
 10
4.984925695285931
 20
3.1450033012426
 30
0
 11
4.984925695285931
 21
3.345003301242601
 31
0
  0
LINE
  8
0
 62
7
  6
DASHDOT
 10
4.984925695285931
 20
6.1950033012426
 30
0
 11
4.984925695285931
 21
6.245003301242601
 31
0
  0
LINE
  8
0
 62
7
  6
DASHDOT
 10
2.3799256952859
 20
6.1950033012426
 30
0
 11
2.3799256952859
 21
6.245003301242601
 31
0
  0
LINE
  8
0
 62
7
  6
DASHDOT
 10
4.984925695285931
 20
3.4450033012426
 30
0
 11
4.984925695285931
 21
3.495003301242601
 31
0
  0
LINE
  8
0
 62
7
  6
DASHDOT
 10
2.3799256952859
 20
3.4450033012426
 30
0
 11
2.3799256952859
 21
3.495003301242601
 31
0
  0
LINE
  8
0
 62
7
  6
DASHDOT
 10
4.984925695285931
 20
5.845003301242599
 30
0
 11
4.984925695285931
 21
5.8950033012426
 31
0
  0
LINE
  8
0
 62
7
  6
DASHDOT
 10
4.984925695285931
 20
3.0950033012426
 30
0
 11
4.984925695285931
 21
3.1450033012426
 31
0
  0
LINE
  8
0
 62
7
  6
DASHDOT
 10
2.3799256952859
 20
5.845003301242599
 30
0
 11
2.3799256952859
 21
5.8950033012426
 31
0
  0
LINE
  8
0
 62
7
  6
DASHDOT
 10
2.3799256952859
 20
3.0950033012426
 30
0
 11
2.3799256952859
 21
3.1450033012426
 31
0
  0
LINE
  8
0
 62
7
 10
4.532425695285856
 20
6.095003301242599
 30
0
 11
4.512425695285901
 21
6.095003301242599
 31
0
  0
LINE
  8
0
 62
7
 10
4.532425695285856
 20
5.8950033012426
 30
0
 11
4.512425695285856
 21
5.8950033012426
 31
0
  0
LINE
  8
0
 62
7
 10
4.95992569528593
 20
5.8950033012426
 30
0
 11
4.532425695285856
 21
5.8950033012426
 31
0
  0
LINE
  8
0
 62
7
  6
DASHED
 10
2.852425695285901
 20
6.095003301242599
 30
0
 11
4.512425695285901
 21
6.095003301242599
 31
0
  0
LINE
  8
0
 62
7
  6
DASHED
 10
2.852425695285901
 20
5.8950033012426
 30
0
 11
4.512425695285856
 21
5.8950033012426
 31
0
  0
LINE
  8
0
 62
7
 10
2.3799256952859
 20
3.345003301242601
 30
0
 11
4.95992569528593
 21
3.345003301242601
 31
0
  0
LINE
  8
0
 62
7
 10
2.3799256952859
 20
6.095003301242599
 30
0
 11
2.852425695285901
 21
6.095003301242599
 31
0
  0
LINE
  8
0
 62
7
 10
2.3799256952859
 20
6.095003301242599
 30
0
 11
2.852425695285901
 21
6.095003301242599
 31
0
  0
LINE
  8
0
 62
7
 10
4.95992569528593
 20
3.345003301242601
 30
0
 11
4.984925695285931
 21
3.345003301242601
 31
0
  0
LINE
  8
0
 62
7
 10
4.95992569528593
 20
6.095003301242599
 30
0
 11
4.532425695285856
 21
6.095003301242599
 31
0
  0
LINE
  8
0
 62
7
 10
4.95992569528593
 20
6.1950033012426
 30
0
 11
4.984925695285931
 21
6.1950033012426
 31
0
  0
LINE
  8
0
 62
7
 10
4.95992569528593
 20
3.4450033012426
 30
0
 11
4.984925695285931
 21
3.4450033012426
 31
0
  0
LINE
  8
0
 62
7
 10
4.512425695285901
 20
6.095003301242599
 30
0
 11
4.512425695285856
 21
5.8950033012426
 31
0
  0
LINE
  8
0
 62
7
 10
4.512425695285901
 20
6.095003301242599
 30
0
 11
4.984925695285931
 21
6.095003301242599
 31
0
  0
LINE
  8
0
 62
7
 10
4.512425695285856
 20
5.8950033012426
 30
0
 11
4.984925695285931
 21
5.8950033012426
 31
0
  0
LINE
  8
0
 62
7
 10
2.3799256952859
 20
3.1450033012426
 30
0
 11
4.984925695285931
 21
3.1450033012426
 31
0
  0
LINE
  8
0
 62
7
  6
DASHED
 10
4.512425695285856
 20
5.8950033012426
 30
0
 11
4.95992569528593
 21
5.8950033012426
 31
0
  0
LINE
  8
0
 62
7
  6
DASHED
 10
4.512425695285901
 20
6.095003301242599
 30
0
 11
4.95992569528593
 21
6.095003301242599
 31
0
  0
LINE
  8
0
 62
7
 10
3.753225695285888
 20
3.460003301242601
 30
0
 11
3.753225695285888
 21
3.4450033012426
 31
0
  0
LINE
  8
0
 62
7
 10
3.733225695285888
 20
3.460003301242601
 30
0
 11
3.753225695285888
 21
3.460003301242601
 31
0
  0
LINE
  8
0
 62
7
 10
3.733225695285888
 20
3.501431872671208
 30
0
 11
3.733225695285888
 21
3.460003301242601
 31
0
  0
LINE
  8
0
 62
7
 10
3.743225695285888
 20
3.501431872671208
 30
0
 11
3.733225695285888
 21
3.501431872671208
 31
0
  0
LINE
  8
0
 62
7
 10
3.743225695285888
 20
3.561431872671209
 30
0
 11
3.743225695285888
 21
3.501431872671208
 31
0
  0
LINE
  8
0
 62
7
 10
3.753225695285888
 20
3.561431872671209
 30
0
 11
3.743225695285888
 21
3.561431872671209
 31
0
  0
LINE
  8
0
 62
7
 10
3.753225695285888
 20
3.576431872671209
 30
0
 11
3.753225695285888
 21
3.561431872671209
 31
0
  0
LINE
  8
0
 62
7
 10
3.726457368979405
 20
3.576431872671209
 30
0
 11
3.753225695285888
 21
3.576431872671209
 31
0
  0
LINE
  8
0
 62
7
 10
3.611625695285911
 20
3.561431872671209
 30
0
 11
3.611625695285911
 21
3.576431872671209
 31
0
  0
LINE
  8
0
 62
7
 10
3.621625695285911
 20
3.561431872671209
 30
0
 11
3.611625695285911
 21
3.561431872671209
 31
0
  0
LINE
  8
0
 62
7
 10
3.621625695285911
 20
3.501431872671208
 30
0
 11
3.621625695285911
 21
3.561431872671209
 31
0
  0
LINE
  8
0
 62
7
 10
3.631625695285912
 20
3.501431872671208
 30
0
 11
3.621625695285911
 21
3.501431872671208
 31
0
  0
LINE
  8
0
 62
7
 10
3.631625695285912
 20
3.460003301242601
 30
0
 11
3.631625695285912
 21
3.501431872671208
 31
0
  0
LINE
  8
0
 62
7
 10
3.611625695285911
 20
3.460003301242601
 30
0
 11
3.631625695285912
 21
3.460003301242601
 31
0
  0
LINE
  8
0
 62
7
 10
3.611625695285911
 20
3.4450033012426
 30
0
 11
3.611625695285911
 21
3.460003301242601
 31
0
  0
LINE
  8
0
 62
7
 10
3.611625695285911
 20
3.460003301242601
 30
0
 11
3.753225695285888
 21
3.460003301242601
 31
0
  0
LINE
  8
0
 62
7
 10
3.656457368979405
 20
3.501431872671208
 30
0
 11
3.621625695285911
 21
3.501431872671208
 31
0
  0
LINE
  8
0
 62
7
 10
3.611625695285911
 20
3.561431872671209
 30
0
 11
3.753225695285888
 21
3.561431872671209
 31
0
  0
LINE
  8
0
 62
7
 10
3.726457368979405
 20
3.501431872671208
 30
0
 11
3.716457368979405
 21
3.501431872671208
 31
0
  0
LINE
  8
0
 62
7
 10
3.726457368979405
 20
3.501431872671208
 30
0
 11
3.716457368979405
 21
3.501431872671208
 31
0
  0
LINE
  8
0
 62
7
 10
3.743225695285888
 20
3.501431872671208
 30
0
 11
3.726457368979405
 21
3.501431872671208
 31
0
  0
LINE
  8
0
 62
7
 10
3.656457368979405
 20
3.576431872671209
 30
0
 11
3.726457368979405
 21
3.576431872671209
 31
0
  0
LINE
  8
0
 62
7
 10
3.656457368979405
 20
3.576431872671209
 30
0
 11
3.726457368979405
 21
3.576431872671209
 31
0
  0
LINE
  8
0
 62
7
 10
3.611625695285911
 20
3.576431872671209
 30
0
 11
3.656457368979405
 21
3.576431872671209
 31
0
  0
LINE
  8
0
 62
7
 10
3.666457368979405
 20
3.501431872671208
 30
0
 11
3.656457368979405
 21
3.501431872671208
 31
0
  0
LINE
  8
0
 62
7
 10
3.666457368979405
 20
3.501431872671208
 30
0
 11
3.656457368979405
 21
3.501431872671208
 31
0
  0
LINE
  8
0
 62
7
 10
3.716457368979405
 20
3.501431872671208
 30
0
 11
3.666457368979405
 21
3.501431872671208
 31
0
  0
LINE
  8
0
 62
7
 10
3.656457368979405
 20
3.501431872671208
 30
0
 11
3.726457368979405
 21
3.501431872671208
 31
0
  0
LINE
  8
0
 62
7
 10
3.753225695285888
 20
3.641431872671208
 30
0
 11
3.6824256952859
 21
3.641431872671208
 31
0
  0
LINE
  8
0
 62
7
 10
4.042150503110897
 20
3.576431872671209
 30
0
 11
4.042150503110897
 21
3.641431872671208
 31
0
  0
LINE
  8
0
 62
7
 10
3.584294303087781
 20
3.576431872671209
 30
0
 11
4.042150503110897
 21
3.576431872671209
 31
0
  0
LINE
  8
0
 62
7
 10
3.584294303087781
 20
3.641431872671208
 30
0
 11
3.584294303087781
 21
3.576431872671209
 31
0
  0
LINE
  8
0
 62
7
 10
3.611625695285911
 20
3.641431872671208
 30
0
 11
3.584294303087781
 21
3.641431872671208
 31
0
  0
LINE
  8
0
 62
7
 10
3.753225695285888
 20
3.656431872671208
 30
0
 11
3.753225695285888
 21
3.641431872671208
 31
0
  0
LINE
  8
0
 62
7
 10
3.733225695285888
 20
3.656431872671208
 30
0
 11
3.753225695285888
 21
3.656431872671208
 31
0
  0
LINE
  8
0
 62
7
 10
3.733225695285888
 20
3.697860444099701
 30
0
 11
3.733225695285888
 21
3.656431872671208
 31
0
  0
LINE
  8
0
 62
7
 10
3.743225695285888
 20
3.697860444099701
 30
0
 11
3.733225695285888
 21
3.697860444099701
 31
0
  0
LINE
  8
0
 62
7
 10
3.743225695285888
 20
3.757860444099701
 30
0
 11
3.743225695285888
 21
3.697860444099701
 31
0
  0
LINE
  8
0
 62
7
 10
3.753225695285888
 20
3.757860444099701
 30
0
 11
3.743225695285888
 21
3.757860444099701
 31
0
  0
LINE
  8
0
 62
7
 10
3.753225695285888
 20
3.772860444099701
 30
0
 11
3.753225695285888
 21
3.757860444099701
 31
0
  0
LINE
  8
0
 62
7
 10
3.611625695285911
 20
3.772860444099701
 30
0
 11
3.753225695285888
 21
3.772860444099701
 31
0
  0
LINE
  8
0
 62
7
 10
3.611625695285911
 20
3.757860444099701
 30
0
 11
3.611625695285911
 21
3.772860444099701
 31
0
  0
LINE
  8
0
 62
7
 10
3.621625695285911
 20
3.757860444099701
 30
0
 11
3.611625695285911
 21
3.757860444099701
 31
0
  0
LINE
  8
0
 62
7
 10
3.621625695285911
 20
3.697860444099701
 30
0
 11
3.621625695285911
 21
3.757860444099701
 31
0
  0
LINE
  8
0
 62
7
 10
3.631625695285912
 20
3.697860444099701
 30
0
 11
3.621625695285911
 21
3.697860444099701
 31
0
  0
LINE
  8
0
 62
7
 10
3.631625695285912
 20
3.656431872671208
 30
0
 11
3.631625695285912
 21
3.697860444099701
 31
0
  0
LINE
  8
0
 62
7
 10
3.611625695285911
 20
3.656431872671208
 30
0
 11
3.631625695285912
 21
3.656431872671208
 31
0
  0
LINE
  8
0
 62
7
 10
3.611625695285911
 20
3.641431872671208
 30
0
 11
3.611625695285911
 21
3.656431872671208
 31
0
  0
LINE
  8
0
 62
7
 10
3.6824256952859
 20
3.641431872671208
 30
0
 11
3.611625695285911
 21
3.641431872671208
 31
0
  0
LINE
  8
0
 62
7
 10
3.611625695285911
 20
3.656431872671208
 30
0
 11
3.753225695285888
 21
3.656431872671208
 31
0
  0
LINE
  8
0
 62
7
 10
3.743225695285888
 20
3.697860444099701
 30
0
 11
3.621625695285911
 21
3.697860444099701
 31
0
  0
LINE
  8
0
 62
7
 10
3.611625695285911
 20
3.757860444099701
 30
0
 11
3.753225695285888
 21
3.757860444099701
 31
0
  0
LINE
  8
0
 62
7
 10
4.042150503110897
 20
3.641431872671208
 30
0
 11
3.753225695285888
 21
3.641431872671208
 31
0
  0
LINE
  8
0
 62
7
 10
3.753225695285888
 20
3.837860444099701
 30
0
 11
3.6824256952859
 21
3.837860444099701
 31
0
  0
LINE
  8
0
 62
7
 10
4.288198869185901
 20
3.772860444099701
 30
0
 11
4.288198869185901
 21
3.837860444099701
 31
0
  0
LINE
  8
0
 62
7
 10
3.563510821796896
 20
3.772860444099701
 30
0
 11
4.288198869185901
 21
3.772860444099701
 31
0
  0
LINE
  8
0
 62
7
 10
3.563510821796896
 20
3.837860444099701
 30
0
 11
3.563510821796896
 21
3.772860444099701
 31
0
  0
LINE
  8
0
 62
7
 10
3.611625695285911
 20
3.837860444099701
 30
0
 11
3.563510821796896
 21
3.837860444099701
 31
0
  0
LINE
  8
0
 62
7
 10
3.753225695285888
 20
3.852860444099701
 30
0
 11
3.753225695285888
 21
3.837860444099701
 31
0
  0
LINE
  8
0
 62
7
 10
3.733225695285888
 20
3.852860444099701
 30
0
 11
3.753225695285888
 21
3.852860444099701
 31
0
  0
LINE
  8
0
 62
7
 10
3.733225695285888
 20
3.89428901552831
 30
0
 11
3.733225695285888
 21
3.852860444099701
 31
0
  0
LINE
  8
0
 62
7
 10
3.743225695285888
 20
3.89428901552831
 30
0
 11
3.733225695285888
 21
3.89428901552831
 31
0
  0
LINE
  8
0
 62
7
 10
3.743225695285888
 20
3.95428901552831
 30
0
 11
3.743225695285888
 21
3.89428901552831
 31
0
  0
LINE
  8
0
 62
7
 10
3.753225695285888
 20
3.95428901552831
 30
0
 11
3.743225695285888
 21
3.95428901552831
 31
0
  0
LINE
  8
0
 62
7
 10
3.753225695285888
 20
3.96928901552831
 30
0
 11
3.753225695285888
 21
3.95428901552831
 31
0
  0
LINE
  8
0
 62
7
 10
3.611625695285911
 20
3.96928901552831
 30
0
 11
3.753225695285888
 21
3.96928901552831
 31
0
  0
LINE
  8
0
 62
7
 10
3.611625695285911
 20
3.95428901552831
 30
0
 11
3.611625695285911
 21
3.96928901552831
 31
0
  0
LINE
  8
0
 62
7
 10
3.621625695285911
 20
3.95428901552831
 30
0
 11
3.611625695285911
 21
3.95428901552831
 31
0
  0
LINE
  8
0
 62
7
 10
3.621625695285911
 20
3.89428901552831
 30
0
 11
3.621625695285911
 21
3.95428901552831
 31
0
  0
LINE
  8
0
 62
7
 10
3.631625695285912
 20
3.89428901552831
 30
0
 11
3.621625695285911
 21
3.89428901552831
 31
0
  0
LINE
  8
0
 62
7
 10
3.631625695285912
 20
3.852860444099701
 30
0
 11
3.631625695285912
 21
3.89428901552831
 31
0
  0
LINE
  8
0
 62
7
 10
3.611625695285911
 20
3.852860444099701
 30
0
 11
3.631625695285912
 21
3.852860444099701
 31
0
  0
LINE
  8
0
 62
7
 10
3.611625695285911
 20
3.837860444099701
 30
0
 11
3.611625695285911
 21
3.852860444099701
 31
0
  0
LINE
  8
0
 62
7
 10
3.6824256952859
 20
3.837860444099701
 30
0
 11
3.611625695285911
 21
3.837860444099701
 31
0
  0
LINE
  8
0
 62
7
 10
3.611625695285911
 20
3.852860444099701
 30
0
 11
3.753225695285888
 21
3.852860444099701
 31
0
  0
LINE
  8
0
 62
7
 10
3.743225695285888
 20
3.89428901552831
 30
0
 11
3.621625695285911
 21
3.89428901552831
 31
0
  0
LINE
  8
0
 62
7
 10
3.611625695285911
 20
3.95428901552831
 30
0
 11
3.753225695285888
 21
3.95428901552831
 31
0
  0
LINE
  8
0
 62
7
 10
4.288198869185901
 20
3.837860444099701
 30
0
 11
3.753225695285888
 21
3.837860444099701
 31
0
  0
LINE
  8
0
 62
7
 10
3.753225695285888
 20
4.03428901552831
 30
0
 11
3.6824256952859
 21
4.03428901552831
 31
0
  0
LINE
  8
0
 62
7
 10
4.418849460635903
 20
3.96928901552831
 30
0
 11
4.418849460635903
 21
4.03428901552831
 31
0
  0
LINE
  8
0
 62
7
 10
3.565380228344817
 20
3.96928901552831
 30
0
 11
4.418849460635903
 21
3.96928901552831
 31
0
  0
LINE
  8
0
 62
7
 10
3.565380228344817
 20
4.03428901552831
 30
0
 11
3.565380228344817
 21
3.96928901552831
 31
0
  0
LINE
  8
0
 62
7
 10
3.611625695285911
 20
4.03428901552831
 30
0
 11
3.565380228344817
 21
4.03428901552831
 31
0
  0
LINE
  8
0
 62
7
 10
3.753225695285888
 20
4.049289015528311
 30
0
 11
3.753225695285888
 21
4.03428901552831
 31
0
  0
LINE
  8
0
 62
7
 10
3.733225695285888
 20
4.049289015528311
 30
0
 11
3.753225695285888
 21
4.049289015528311
 31
0
  0
LINE
  8
0
 62
7
 10
3.733225695285888
 20
4.090717586956919
 30
0
 11
3.733225695285888
 21
4.049289015528311
 31
0
  0
LINE
  8
0
 62
7
 10
3.743225695285888
 20
4.090717586956919
 30
0
 11
3.733225695285888
 21
4.090717586956919
 31
0
  0
LINE
  8
0
 62
7
 10
3.743225695285888
 20
4.15071758695692
 30
0
 11
3.743225695285888
 21
4.090717586956919
 31
0
  0
LINE
  8
0
 62
7
 10
3.753225695285888
 20
4.15071758695692
 30
0
 11
3.743225695285888
 21
4.15071758695692
 31
0
  0
LINE
  8
0
 62
7
 10
3.753225695285888
 20
4.165717586956919
 30
0
 11
3.753225695285888
 21
4.15071758695692
 31
0
  0
LINE
  8
0
 62
7
 10
3.611625695285911
 20
4.165717586956919
 30
0
 11
3.753225695285888
 21
4.165717586956919
 31
0
  0
LINE
  8
0
 62
7
 10
3.611625695285911
 20
4.15071758695692
 30
0
 11
3.611625695285911
 21
4.165717586956919
 31
0
  0
LINE
  8
0
 62
7
 10
3.621625695285911
 20
4.15071758695692
 30
0
 11
3.611625695285911
 21
4.15071758695692
 31
0
  0
LINE
  8
0
 62
7
 10
3.621625695285911
 20
4.090717586956919
 30
0
 11
3.621625695285911
 21
4.15071758695692
 31
0
  0
LINE
  8
0
 62
7
 10
3.631625695285912
 20
4.090717586956919
 30
0
 11
3.621625695285911
 21
4.090717586956919
 31
0
  0
LINE
  8
0
 62
7
 10
3.631625695285912
 20
4.049289015528311
 30
0
 11
3.631625695285912
 21
4.090717586956919
 31
0
  0
LINE
  8
0
 62
7
 10
3.611625695285911
 20
4.049289015528311
 30
0
 11
3.631625695285912
 21
4.049289015528311
 31
0
  0
LINE
  8
0
 62
7
 10
3.611625695285911
 20
4.03428901552831
 30
0
 11
3.611625695285911
 21
4.049289015528311
 31
0
  0
LINE
  8
0
 62
7
 10
3.6824256952859
 20
4.03428901552831
 30
0
 11
3.611625695285911
 21
4.03428901552831
 31
0
  0
LINE
  8
0
 62
7
 10
3.611625695285911
 20
4.049289015528311
 30
0
 11
3.753225695285888
 21
4.049289015528311
 31
0
  0
LINE
  8
0
 62
7
 10
3.743225695285888
 20
4.090717586956919
 30
0
 11
3.621625695285911
 21
4.090717586956919
 31
0
  0
LINE
  8
0
 62
7
 10
3.611625695285911
 20
4.15071758695692
 30
0
 11
3.753225695285888
 21
4.15071758695692
 31
0
  0
LINE
  8
0
 62
7
 10
4.418849460635903
 20
4.03428901552831
 30
0
 11
3.753225695285888
 21
4.03428901552831
 31
0
  0
LINE
  8
0
 62
7
 10
3.753225695285888
 20
4.23071758695692
 30
0
 11
3.6824256952859
 21
4.23071758695692
 31
0
  0
LINE
  8
0
 62
7
 10
4.409213774435907
 20
4.165717586956919
 30
0
 11
4.409213774435907
 21
4.23071758695692
 31
0
  0
LINE
  8
0
 62
7
 10
3.589546406997107
 20
4.165717586956919
 30
0
 11
4.409213774435907
 21
4.165717586956919
 31
0
  0
LINE
  8
0
 62
7
 10
3.589546406997107
 20
4.23071758695692
 30
0
 11
3.589546406997107
 21
4.165717586956919
 31
0
  0
LINE
  8
0
 62
7
 10
3.611625695285911
 20
4.23071758695692
 30
0
 11
3.589546406997107
 21
4.23071758695692
 31
0
  0
LINE
  8
0
 62
7
 10
3.753225695285888
 20
4.245717586956919
 30
0
 11
3.753225695285888
 21
4.23071758695692
 31
0
  0
LINE
  8
0
 62
7
 10
3.733225695285888
 20
4.245717586956919
 30
0
 11
3.753225695285888
 21
4.245717586956919
 31
0
  0
LINE
  8
0
 62
7
 10
3.733225695285888
 20
4.287146158385498
 30
0
 11
3.733225695285888
 21
4.245717586956919
 31
0
  0
LINE
  8
0
 62
7
 10
3.743225695285888
 20
4.287146158385498
 30
0
 11
3.733225695285888
 21
4.287146158385498
 31
0
  0
LINE
  8
0
 62
7
 10
3.743225695285888
 20
4.347146158385498
 30
0
 11
3.743225695285888
 21
4.287146158385498
 31
0
  0
LINE
  8
0
 62
7
 10
3.753225695285888
 20
4.347146158385498
 30
0
 11
3.743225695285888
 21
4.347146158385498
 31
0
  0
LINE
  8
0
 62
7
 10
3.753225695285888
 20
4.362146158385499
 30
0
 11
3.753225695285888
 21
4.347146158385498
 31
0
  0
LINE
  8
0
 62
7
 10
3.611625695285911
 20
4.362146158385499
 30
0
 11
3.753225695285888
 21
4.362146158385499
 31
0
  0
LINE
  8
0
 62
7
 10
3.611625695285911
 20
4.347146158385498
 30
0
 11
3.611625695285911
 21
4.362146158385499
 31
0
  0
LINE
  8
0
 62
7
 10
3.621625695285911
 20
4.347146158385498
 30
0
 11
3.611625695285911
 21
4.347146158385498
 31
0
  0
LINE
  8
0
 62
7
 10
3.621625695285911
 20
4.287146158385498
 30
0
 11
3.621625695285911
 21
4.347146158385498
 31
0
  0
LINE
  8
0
 62
7
 10
3.631625695285912
 20
4.287146158385498
 30
0
 11
3.621625695285911
 21
4.287146158385498
 31
0
  0
LINE
  8
0
 62
7
 10
3.631625695285912
 20
4.245717586956919
 30
0
 11
3.631625695285912
 21
4.287146158385498
 31
0
  0
LINE
  8
0
 62
7
 10
3.611625695285911
 20
4.245717586956919
 30
0
 11
3.631625695285912
 21
4.245717586956919
 31
0
  0
LINE
  8
0
 62
7
 10
3.611625695285911
 20
4.23071758695692
 30
0
 11
3.611625695285911
 21
4.245717586956919
 31
0
  0
LINE
  8
0
 62
7
 10
3.6824256952859
 20
4.23071758695692
 30
0
 11
3.611625695285911
 21
4.23071758695692
 31
0
  0
LINE
  8
0
 62
7
 10
3.611625695285911
 20
4.245717586956919
 30
0
 11
3.753225695285888
 21
4.245717586956919
 31
0
  0
LINE
  8
0
 62
7
 10
3.743225695285888
 20
4.287146158385498
 30
0
 11
3.621625695285911
 21
4.287146158385498
 31
0
  0
LINE
  8
0
 62
7
 10
3.611625695285911
 20
4.347146158385498
 30
0
 11
3.753225695285888
 21
4.347146158385498
 31
0
  0
LINE
  8
0
 62
7
 10
4.409213774435907
 20
4.23071758695692
 30
0
 11
3.753225695285888
 21
4.23071758695692
 31
0
  0
LINE
  8
0
 62
7
 10
3.753225695285888
 20
4.427146158385498
 30
0
 11
3.6824256952859
 21
4.427146158385498
 31
0
  0
LINE
  8
0
 62
7
 10
4.423395190835901
 20
4.362146158385499
 30
0
 11
4.423395190835901
 21
4.427146158385498
 31
0
  0
LINE
  8
0
 62
7
 10
3.566529076148072
 20
4.362146158385499
 30
0
 11
4.423395190835901
 21
4.362146158385499
 31
0
  0
LINE
  8
0
 62
7
 10
3.566529076148072
 20
4.427146158385498
 30
0
 11
3.566529076148072
 21
4.362146158385499
 31
0
  0
LINE
  8
0
 62
7
 10
3.611625695285911
 20
4.427146158385498
 30
0
 11
3.566529076148072
 21
4.427146158385498
 31
0
  0
LINE
  8
0
 62
7
 10
3.753225695285888
 20
4.442146158385498
 30
0
 11
3.753225695285888
 21
4.427146158385498
 31
0
  0
LINE
  8
0
 62
7
 10
3.733225695285888
 20
4.442146158385498
 30
0
 11
3.753225695285888
 21
4.442146158385498
 31
0
  0
LINE
  8
0
 62
7
 10
3.733225695285888
 20
4.48357472981402
 30
0
 11
3.733225695285888
 21
4.442146158385498
 31
0
  0
LINE
  8
0
 62
7
 10
3.743225695285888
 20
4.48357472981402
 30
0
 11
3.733225695285888
 21
4.48357472981402
 31
0
  0
LINE
  8
0
 62
7
 10
3.743225695285888
 20
4.543574729814019
 30
0
 11
3.743225695285888
 21
4.48357472981402
 31
0
  0
LINE
  8
0
 62
7
 10
3.753225695285888
 20
4.543574729814019
 30
0
 11
3.743225695285888
 21
4.543574729814019
 31
0
  0
LINE
  8
0
 62
7
 10
3.753225695285888
 20
4.55857472981402
 30
0
 11
3.753225695285888
 21
4.543574729814019
 31
0
  0
LINE
  8
0
 62
7
 10
3.611625695285911
 20
4.55857472981402
 30
0
 11
3.753225695285888
 21
4.55857472981402
 31
0
  0
LINE
  8
0
 62
7
 10
3.611625695285911
 20
4.543574729814019
 30
0
 11
3.611625695285911
 21
4.55857472981402
 31
0
  0
LINE
  8
0
 62
7
 10
3.621625695285911
 20
4.543574729814019
 30
0
 11
3.611625695285911
 21
4.543574729814019
 31
0
  0
LINE
  8
0
 62
7
 10
3.621625695285911
 20
4.48357472981402
 30
0
 11
3.621625695285911
 21
4.543574729814019
 31
0
  0
LINE
  8
0
 62
7
 10
3.631625695285912
 20
4.48357472981402
 30
0
 11
3.621625695285911
 21
4.48357472981402
 31
0
  0
LINE
  8
0
 62
7
 10
3.631625695285912
 20
4.442146158385498
 30
0
 11
3.631625695285912
 21
4.48357472981402
 31
0
  0
LINE
  8
0
 62
7
 10
3.611625695285911
 20
4.442146158385498
 30
0
 11
3.631625695285912
 21
4.442146158385498
 31
0
  0
LINE
  8
0
 62
7
 10
3.611625695285911
 20
4.427146158385498
 30
0
 11
3.611625695285911
 21
4.442146158385498
 31
0
  0
LINE
  8
0
 62
7
 10
3.6824256952859
 20
4.427146158385498
 30
0
 11
3.611625695285911
 21
4.427146158385498
 31
0
  0
LINE
  8
0
 62
7
 10
3.611625695285911
 20
4.442146158385498
 30
0
 11
3.753225695285888
 21
4.442146158385498
 31
0
  0
LINE
  8
0
 62
7
 10
3.743225695285888
 20
4.48357472981402
 30
0
 11
3.621625695285911
 21
4.48357472981402
 31
0
  0
LINE
  8
0
 62
7
 10
3.611625695285911
 20
4.543574729814019
 30
0
 11
3.753225695285888
 21
4.543574729814019
 31
0
  0
LINE
  8
0
 62
7
 10
4.423395190835901
 20
4.427146158385498
 30
0
 11
3.753225695285888
 21
4.427146158385498
 31
0
  0
LINE
  8
0
 62
7
 10
3.753225695285888
 20
4.62357472981402
 30
0
 11
3.6824256952859
 21
4.62357472981402
 31
0
  0
LINE
  8
0
 62
7
 10
4.303395036110902
 20
4.55857472981402
 30
0
 11
4.303395036110902
 21
4.62357472981402
 31
0
  0
LINE
  8
0
 62
7
 10
3.562802711323966
 20
4.55857472981402
 30
0
 11
4.303395036110902
 21
4.55857472981402
 31
0
  0
LINE
  8
0
 62
7
 10
3.562802711323966
 20
4.62357472981402
 30
0
 11
3.562802711323966
 21
4.55857472981402
 31
0
  0
LINE
  8
0
 62
7
 10
3.611625695285911
 20
4.62357472981402
 30
0
 11
3.562802711323966
 21
4.62357472981402
 31
0
  0
LINE
  8
0
 62
7
 10
3.753225695285888
 20
4.63857472981402
 30
0
 11
3.753225695285888
 21
4.62357472981402
 31
0
  0
LINE
  8
0
 62
7
 10
3.733225695285888
 20
4.63857472981402
 30
0
 11
3.753225695285888
 21
4.63857472981402
 31
0
  0
LINE
  8
0
 62
7
 10
3.733225695285888
 20
4.680003301242601
 30
0
 11
3.733225695285888
 21
4.63857472981402
 31
0
  0
LINE
  8
0
 62
7
 10
3.743225695285888
 20
4.680003301242601
 30
0
 11
3.733225695285888
 21
4.680003301242601
 31
0
  0
LINE
  8
0
 62
7
 10
3.743225695285888
 20
4.7400033012426
 30
0
 11
3.743225695285888
 21
4.680003301242601
 31
0
  0
LINE
  8
0
 62
7
 10
3.753225695285888
 20
4.7400033012426
 30
0
 11
3.743225695285888
 21
4.7400033012426
 31
0
  0
LINE
  8
0
 62
7
 10
3.753225695285888
 20
4.755003301242601
 30
0
 11
3.753225695285888
 21
4.7400033012426
 31
0
  0
LINE
  8
0
 62
7
 10
3.611625695285911
 20
4.755003301242601
 30
0
 11
3.753225695285888
 21
4.755003301242601
 31
0
  0
LINE
  8
0
 62
7
 10
3.611625695285911
 20
4.7400033012426
 30
0
 11
3.611625695285911
 21
4.755003301242601
 31
0
  0
LINE
  8
0
 62
7
 10
3.621625695285911
 20
4.7400033012426
 30
0
 11
3.611625695285911
 21
4.7400033012426
 31
0
  0
LINE
  8
0
 62
7
 10
3.621625695285911
 20
4.680003301242601
 30
0
 11
3.621625695285911
 21
4.7400033012426
 31
0
  0
LINE
  8
0
 62
7
 10
3.631625695285912
 20
4.680003301242601
 30
0
 11
3.621625695285911
 21
4.680003301242601
 31
0
  0
LINE
  8
0
 62
7
 10
3.631625695285912
 20
4.63857472981402
 30
0
 11
3.631625695285912
 21
4.680003301242601
 31
0
  0
LINE
  8
0
 62
7
 10
3.611625695285911
 20
4.63857472981402
 30
0
 11
3.631625695285912
 21
4.63857472981402
 31
0
  0
LINE
  8
0
 62
7
 10
3.611625695285911
 20
4.62357472981402
 30
0
 11
3.611625695285911
 21
4.63857472981402
 31
0
  0
LINE
  8
0
 62
7
 10
3.6824256952859
 20
4.62357472981402
 30
0
 11
3.611625695285911
 21
4.62357472981402
 31
0
  0
LINE
  8
0
 62
7
 10
3.611625695285911
 20
4.63857472981402
 30
0
 11
3.753225695285888
 21
4.63857472981402
 31
0
  0
LINE
  8
0
 62
7
 10
3.743225695285888
 20
4.680003301242601
 30
0
 11
3.621625695285911
 21
4.680003301242601
 31
0
  0
LINE
  8
0
 62
7
 10
3.611625695285911
 20
4.7400033012426
 30
0
 11
3.753225695285888
 21
4.7400033012426
 31
0
  0
LINE
  8
0
 62
7
 10
4.303395036110902
 20
4.62357472981402
 30
0
 11
3.753225695285888
 21
4.62357472981402
 31
0
  0
LINE
  8
0
 62
7
 10
3.753225695285888
 20
4.8200033012426
 30
0
 11
3.6824256952859
 21
4.8200033012426
 31
0
  0
LINE
  8
0
 62
7
 10
4.065102287510905
 20
4.755003301242601
 30
0
 11
4.065102287510905
 21
4.8200033012426
 31
0
  0
LINE
  8
0
 62
7
 10
3.581864127034059
 20
4.755003301242601
 30
0
 11
4.065102287510905
 21
4.755003301242601
 31
0
  0
LINE
  8
0
 62
7
 10
3.581864127034059
 20
4.8200033012426
 30
0
 11
3.581864127034059
 21
4.755003301242601
 31
0
  0
LINE
  8
0
 62
7
 10
3.611625695285911
 20
4.8200033012426
 30
0
 11
3.581864127034059
 21
4.8200033012426
 31
0
  0
LINE
  8
0
 62
7
 10
3.753225695285888
 20
4.835003301242601
 30
0
 11
3.753225695285888
 21
4.8200033012426
 31
0
  0
LINE
  8
0
 62
7
 10
4.065102287510905
 20
4.8200033012426
 30
0
 11
3.753225695285888
 21
4.8200033012426
 31
0
  0
LINE
  8
0
 62
7
 10
3.733225695285888
 20
4.835003301242601
 30
0
 11
3.753225695285888
 21
4.835003301242601
 31
0
  0
LINE
  8
0
 62
7
 10
3.733225695285888
 20
4.876431872671208
 30
0
 11
3.733225695285888
 21
4.835003301242601
 31
0
  0
LINE
  8
0
 62
7
 10
3.743225695285888
 20
4.876431872671208
 30
0
 11
3.733225695285888
 21
4.876431872671208
 31
0
  0
LINE
  8
0
 62
7
 10
3.743225695285888
 20
4.936431872671209
 30
0
 11
3.743225695285888
 21
4.876431872671208
 31
0
  0
LINE
  8
0
 62
7
 10
3.753225695285888
 20
4.936431872671209
 30
0
 11
3.743225695285888
 21
4.936431872671209
 31
0
  0
LINE
  8
0
 62
7
 10
3.753225695285888
 20
4.951431872671209
 30
0
 11
3.753225695285888
 21
4.936431872671209
 31
0
  0
LINE
  8
0
 62
7
 10
3.611625695285911
 20
4.951431872671209
 30
0
 11
3.753225695285888
 21
4.951431872671209
 31
0
  0
LINE
  8
0
 62
7
 10
3.611625695285911
 20
4.936431872671209
 30
0
 11
3.611625695285911
 21
4.951431872671209
 31
0
  0
LINE
  8
0
 62
7
 10
3.621625695285911
 20
4.936431872671209
 30
0
 11
3.611625695285911
 21
4.936431872671209
 31
0
  0
LINE
  8
0
 62
7
 10
3.621625695285911
 20
4.876431872671208
 30
0
 11
3.621625695285911
 21
4.936431872671209
 31
0
  0
LINE
  8
0
 62
7
 10
3.631625695285912
 20
4.876431872671208
 30
0
 11
3.621625695285911
 21
4.876431872671208
 31
0
  0
LINE
  8
0
 62
7
 10
3.631625695285912
 20
4.835003301242601
 30
0
 11
3.631625695285912
 21
4.876431872671208
 31
0
  0
LINE
  8
0
 62
7
 10
3.611625695285911
 20
4.835003301242601
 30
0
 11
3.631625695285912
 21
4.835003301242601
 31
0
  0
LINE
  8
0
 62
7
 10
3.611625695285911
 20
4.8200033012426
 30
0
 11
3.611625695285911
 21
4.835003301242601
 31
0
  0
LINE
  8
0
 62
7
 10
3.6824256952859
 20
4.8200033012426
 30
0
 11
3.611625695285911
 21
4.8200033012426
 31
0
  0
LINE
  8
0
 62
7
 10
3.611625695285911
 20
4.835003301242601
 30
0
 11
3.753225695285888
 21
4.835003301242601
 31
0
  0
LINE
  8
0
 62
7
 10
3.743225695285888
 20
4.876431872671208
 30
0
 11
3.621625695285911
 21
4.876431872671208
 31
0
  0
LINE
  8
0
 62
7
 10
3.611625695285911
 20
4.936431872671209
 30
0
 11
3.753225695285888
 21
4.936431872671209
 31
0
  0
LINE
  8
0
 62
7
 10
3.753225695285888
 20
5.016431872671209
 30
0
 11
3.6824256952859
 21
5.016431872671209
 31
0
  0
LINE
  8
0
 62
7
 10
3.776016788286084
 20
4.951431872671209
 30
0
 11
3.776016788286084
 21
5.016431872671209
 31
0
  0
LINE
  8
0
 62
7
 10
3.363891623810894
 20
4.951431872671209
 30
0
 11
3.776016788286084
 21
4.951431872671209
 31
0
  0
LINE
  8
0
 62
7
 10
3.363891623810894
 20
5.016431872671209
 30
0
 11
3.363891623810894
 21
4.951431872671209
 31
0
  0
LINE
  8
0
 62
7
 10
3.753225695285888
 20
5.031431872671209
 30
0
 11
3.753225695285888
 21
5.016431872671209
 31
0
  0
LINE
  8
0
 62
7
 10
3.776016788286084
 20
5.016431872671209
 30
0
 11
3.753225695285888
 21
5.016431872671209
 31
0
  0
LINE
  8
0
 62
7
 10
3.733225695285888
 20
5.031431872671209
 30
0
 11
3.753225695285888
 21
5.031431872671209
 31
0
  0
LINE
  8
0
 62
7
 10
3.733225695285888
 20
5.0728604440997
 30
0
 11
3.733225695285888
 21
5.031431872671209
 31
0
  0
LINE
  8
0
 62
7
 10
3.743225695285888
 20
5.0728604440997
 30
0
 11
3.733225695285888
 21
5.0728604440997
 31
0
  0
LINE
  8
0
 62
7
 10
3.743225695285888
 20
5.132860444099701
 30
0
 11
3.743225695285888
 21
5.0728604440997
 31
0
  0
LINE
  8
0
 62
7
 10
3.753225695285888
 20
5.132860444099701
 30
0
 11
3.743225695285888
 21
5.132860444099701
 31
0
  0
LINE
  8
0
 62
7
 10
3.753225695285888
 20
5.147860444099701
 30
0
 11
3.753225695285888
 21
5.132860444099701
 31
0
  0
LINE
  8
0
 62
7
 10
3.611625695285911
 20
5.147860444099701
 30
0
 11
3.753225695285888
 21
5.147860444099701
 31
0
  0
LINE
  8
0
 62
7
 10
3.611625695285911
 20
5.132860444099701
 30
0
 11
3.611625695285911
 21
5.147860444099701
 31
0
  0
LINE
  8
0
 62
7
 10
3.621625695285911
 20
5.132860444099701
 30
0
 11
3.611625695285911
 21
5.132860444099701
 31
0
  0
LINE
  8
0
 62
7
 10
3.621625695285911
 20
5.0728604440997
 30
0
 11
3.621625695285911
 21
5.132860444099701
 31
0
  0
LINE
  8
0
 62
7
 10
3.631625695285912
 20
5.0728604440997
 30
0
 11
3.621625695285911
 21
5.0728604440997
 31
0
  0
LINE
  8
0
 62
7
 10
3.631625695285912
 20
5.031431872671209
 30
0
 11
3.631625695285912
 21
5.0728604440997
 31
0
  0
LINE
  8
0
 62
7
 10
3.611625695285911
 20
5.031431872671209
 30
0
 11
3.631625695285912
 21
5.031431872671209
 31
0
  0
LINE
  8
0
 62
7
 10
3.611625695285911
 20
5.016431872671209
 30
0
 11
3.611625695285911
 21
5.031431872671209
 31
0
  0
LINE
  8
0
 62
7
 10
3.6824256952859
 20
5.016431872671209
 30
0
 11
3.611625695285911
 21
5.016431872671209
 31
0
  0
LINE
  8
0
 62
7
 10
3.611625695285911
 20
5.031431872671209
 30
0
 11
3.753225695285888
 21
5.031431872671209
 31
0
  0
LINE
  8
0
 62
7
 10
3.743225695285888
 20
5.0728604440997
 30
0
 11
3.621625695285911
 21
5.0728604440997
 31
0
  0
LINE
  8
0
 62
7
 10
3.611625695285911
 20
5.132860444099701
 30
0
 11
3.753225695285888
 21
5.132860444099701
 31
0
  0
LINE
  8
0
 62
7
 10
3.611625695285911
 20
5.016431872671209
 30
0
 11
3.363891623810894
 21
5.016431872671209
 31
0
  0
LINE
  8
0
 62
7
 10
3.753225695285888
 20
5.212860444099701
 30
0
 11
3.6824256952859
 21
5.212860444099701
 31
0
  0
LINE
  8
0
 62
7
 10
3.799748415838025
 20
5.147860444099701
 30
0
 11
3.799748415838025
 21
5.212860444099701
 31
0
  0
LINE
  8
0
 62
7
 10
3.105020121560898
 20
5.147860444099701
 30
0
 11
3.799748415838025
 21
5.147860444099701
 31
0
  0
LINE
  8
0
 62
7
 10
3.105020121560898
 20
5.212860444099701
 30
0
 11
3.105020121560898
 21
5.147860444099701
 31
0
  0
LINE
  8
0
 62
7
 10
3.753225695285888
 20
5.227860444099701
 30
0
 11
3.753225695285888
 21
5.212860444099701
 31
0
  0
LINE
  8
0
 62
7
 10
3.799748415838025
 20
5.212860444099701
 30
0
 11
3.753225695285888
 21
5.212860444099701
 31
0
  0
LINE
  8
0
 62
7
 10
3.733225695285888
 20
5.227860444099701
 30
0
 11
3.753225695285888
 21
5.227860444099701
 31
0
  0
LINE
  8
0
 62
7
 10
3.733225695285888
 20
5.269289015528311
 30
0
 11
3.733225695285888
 21
5.227860444099701
 31
0
  0
LINE
  8
0
 62
7
 10
3.743225695285888
 20
5.269289015528311
 30
0
 11
3.733225695285888
 21
5.269289015528311
 31
0
  0
LINE
  8
0
 62
7
 10
3.743225695285888
 20
5.32928901552831
 30
0
 11
3.743225695285888
 21
5.269289015528311
 31
0
  0
LINE
  8
0
 62
7
 10
3.753225695285888
 20
5.32928901552831
 30
0
 11
3.743225695285888
 21
5.32928901552831
 31
0
  0
LINE
  8
0
 62
7
 10
3.753225695285888
 20
5.344289015528311
 30
0
 11
3.753225695285888
 21
5.32928901552831
 31
0
  0
LINE
  8
0
 62
7
 10
3.611625695285911
 20
5.344289015528311
 30
0
 11
3.753225695285888
 21
5.344289015528311
 31
0
  0
LINE
  8
0
 62
7
 10
3.611625695285911
 20
5.32928901552831
 30
0
 11
3.611625695285911
 21
5.344289015528311
 31
0
  0
LINE
  8
0
 62
7
 10
3.621625695285911
 20
5.32928901552831
 30
0
 11
3.611625695285911
 21
5.32928901552831
 31
0
  0
LINE
  8
0
 62
7
 10
3.621625695285911
 20
5.269289015528311
 30
0
 11
3.621625695285911
 21
5.32928901552831
 31
0
  0
LINE
  8
0
 62
7
 10
3.631625695285912
 20
5.269289015528311
 30
0
 11
3.621625695285911
 21
5.269289015528311
 31
0
  0
LINE
  8
0
 62
7
 10
3.631625695285912
 20
5.227860444099701
 30
0
 11
3.631625695285912
 21
5.269289015528311
 31
0
  0
LINE
  8
0
 62
7
 10
3.611625695285911
 20
5.227860444099701
 30
0
 11
3.631625695285912
 21
5.227860444099701
 31
0
  0
LINE
  8
0
 62
7
 10
3.611625695285911
 20
5.212860444099701
 30
0
 11
3.611625695285911
 21
5.227860444099701
 31
0
  0
LINE
  8
0
 62
7
 10
3.6824256952859
 20
5.212860444099701
 30
0
 11
3.611625695285911
 21
5.212860444099701
 31
0
  0
LINE
  8
0
 62
7
 10
3.611625695285911
 20
5.227860444099701
 30
0
 11
3.753225695285888
 21
5.227860444099701
 31
0
  0
LINE
  8
0
 62
7
 10
3.743225695285888
 20
5.269289015528311
 30
0
 11
3.621625695285911
 21
5.269289015528311
 31
0
  0
LINE
  8
0
 62
7
 10
3.611625695285911
 20
5.32928901552831
 30
0
 11
3.753225695285888
 21
5.32928901552831
 31
0
  0
LINE
  8
0
 62
7
 10
3.611625695285911
 20
5.212860444099701
 30
0
 11
3.105020121560898
 21
5.212860444099701
 31
0
  0
LINE
  8
0
 62
7
 10
3.753225695285888
 20
5.40928901552831
 30
0
 11
3.6824256952859
 21
5.40928901552831
 31
0
  0
LINE
  8
0
 62
7
 10
3.801130455391263
 20
5.344289015528311
 30
0
 11
3.801130455391263
 21
5.40928901552831
 31
0
  0
LINE
  8
0
 62
7
 10
2.956142460485906
 20
5.344289015528311
 30
0
 11
3.801130455391263
 21
5.344289015528311
 31
0
  0
LINE
  8
0
 62
7
 10
2.956142460485906
 20
5.40928901552831
 30
0
 11
2.956142460485906
 21
5.344289015528311
 31
0
  0
LINE
  8
0
 62
7
 10
3.753225695285888
 20
5.424289015528311
 30
0
 11
3.753225695285888
 21
5.40928901552831
 31
0
  0
LINE
  8
0
 62
7
 10
3.801130455391263
 20
5.40928901552831
 30
0
 11
3.753225695285888
 21
5.40928901552831
 31
0
  0
LINE
  8
0
 62
7
 10
3.733225695285888
 20
5.424289015528311
 30
0
 11
3.753225695285888
 21
5.424289015528311
 31
0
  0
LINE
  8
0
 62
7
 10
3.733225695285888
 20
5.465717586956919
 30
0
 11
3.733225695285888
 21
5.424289015528311
 31
0
  0
LINE
  8
0
 62
7
 10
3.743225695285888
 20
5.465717586956919
 30
0
 11
3.733225695285888
 21
5.465717586956919
 31
0
  0
LINE
  8
0
 62
7
 10
3.743225695285888
 20
5.525717586956919
 30
0
 11
3.743225695285888
 21
5.465717586956919
 31
0
  0
LINE
  8
0
 62
7
 10
3.753225695285888
 20
5.525717586956919
 30
0
 11
3.743225695285888
 21
5.525717586956919
 31
0
  0
LINE
  8
0
 62
7
 10
3.753225695285888
 20
5.540717586956919
 30
0
 11
3.753225695285888
 21
5.525717586956919
 31
0
  0
LINE
  8
0
 62
7
 10
3.611625695285911
 20
5.540717586956919
 30
0
 11
3.753225695285888
 21
5.540717586956919
 31
0
  0
LINE
  8
0
 62
7
 10
3.611625695285911
 20
5.525717586956919
 30
0
 11
3.611625695285911
 21
5.540717586956919
 31
0
  0
LINE
  8
0
 62
7
 10
3.621625695285911
 20
5.525717586956919
 30
0
 11
3.611625695285911
 21
5.525717586956919
 31
0
  0
LINE
  8
0
 62
7
 10
3.621625695285911
 20
5.465717586956919
 30
0
 11
3.621625695285911
 21
5.525717586956919
 31
0
  0
LINE
  8
0
 62
7
 10
3.631625695285912
 20
5.465717586956919
 30
0
 11
3.621625695285911
 21
5.465717586956919
 31
0
  0
LINE
  8
0
 62
7
 10
3.631625695285912
 20
5.424289015528311
 30
0
 11
3.631625695285912
 21
5.465717586956919
 31
0
  0
LINE
  8
0
 62
7
 10
3.611625695285911
 20
5.424289015528311
 30
0
 11
3.631625695285912
 21
5.424289015528311
 31
0
  0
LINE
  8
0
 62
7
 10
3.611625695285911
 20
5.40928901552831
 30
0
 11
3.611625695285911
 21
5.424289015528311
 31
0
  0
LINE
  8
0
 62
7
 10
3.6824256952859
 20
5.40928901552831
 30
0
 11
3.611625695285911
 21
5.40928901552831
 31
0
  0
LINE
  8
0
 62
7
 10
3.611625695285911
 20
5.424289015528311
 30
0
 11
3.753225695285888
 21
5.424289015528311
 31
0
  0
LINE
  8
0
 62
7
 10
3.743225695285888
 20
5.465717586956919
 30
0
 11
3.621625695285911
 21
5.465717586956919
 31
0
  0
LINE
  8
0
 62
7
 10
3.611625695285911
 20
5.525717586956919
 30
0
 11
3.753225695285888
 21
5.525717586956919
 31
0
  0
LINE
  8
0
 62
7
 10
3.611625695285911
 20
5.40928901552831
 30
0
 11
2.956142460485906
 21
5.40928901552831
 31
0
  0
LINE
  8
0
 62
7
 10
3.753225695285888
 20
5.605717586956919
 30
0
 11
3.6824256952859
 21
5.605717586956919
 31
0
  0
LINE
  8
0
 62
7
 10
3.779899633012537
 20
5.540717586956919
 30
0
 11
3.779899633012537
 21
5.605717586956919
 31
0
  0
LINE
  8
0
 62
7
 10
2.945619339635901
 20
5.540717586956919
 30
0
 11
3.779899633012537
 21
5.540717586956919
 31
0
  0
LINE
  8
0
 62
7
 10
2.945619339635901
 20
5.605717586956919
 30
0
 11
2.945619339635901
 21
5.540717586956919
 31
0
  0
LINE
  8
0
 62
7
 10
3.753225695285888
 20
5.620717586956919
 30
0
 11
3.753225695285888
 21
5.605717586956919
 31
0
  0
LINE
  8
0
 62
7
 10
3.779899633012537
 20
5.605717586956919
 30
0
 11
3.753225695285888
 21
5.605717586956919
 31
0
  0
LINE
  8
0
 62
7
 10
3.733225695285888
 20
5.620717586956919
 30
0
 11
3.753225695285888
 21
5.620717586956919
 31
0
  0
LINE
  8
0
 62
7
 10
3.733225695285888
 20
5.662146158385498
 30
0
 11
3.733225695285888
 21
5.620717586956919
 31
0
  0
LINE
  8
0
 62
7
 10
3.743225695285888
 20
5.662146158385498
 30
0
 11
3.733225695285888
 21
5.662146158385498
 31
0
  0
LINE
  8
0
 62
7
 10
3.743225695285888
 20
5.722146158385499
 30
0
 11
3.743225695285888
 21
5.662146158385498
 31
0
  0
LINE
  8
0
 62
7
 10
3.753225695285888
 20
5.722146158385499
 30
0
 11
3.743225695285888
 21
5.722146158385499
 31
0
  0
LINE
  8
0
 62
7
 10
3.753225695285888
 20
5.737146158385499
 30
0
 11
3.753225695285888
 21
5.722146158385499
 31
0
  0
LINE
  8
0
 62
7
 10
3.611625695285911
 20
5.737146158385499
 30
0
 11
3.753225695285888
 21
5.737146158385499
 31
0
  0
LINE
  8
0
 62
7
 10
3.611625695285911
 20
5.722146158385499
 30
0
 11
3.611625695285911
 21
5.737146158385499
 31
0
  0
LINE
  8
0
 62
7
 10
3.621625695285911
 20
5.722146158385499
 30
0
 11
3.611625695285911
 21
5.722146158385499
 31
0
  0
LINE
  8
0
 62
7
 10
3.621625695285911
 20
5.662146158385498
 30
0
 11
3.621625695285911
 21
5.722146158385499
 31
0
  0
LINE
  8
0
 62
7
 10
3.631625695285912
 20
5.662146158385498
 30
0
 11
3.621625695285911
 21
5.662146158385498
 31
0
  0
LINE
  8
0
 62
7
 10
3.631625695285912
 20
5.620717586956919
 30
0
 11
3.631625695285912
 21
5.662146158385498
 31
0
  0
LINE
  8
0
 62
7
 10
3.611625695285911
 20
5.620717586956919
 30
0
 11
3.631625695285912
 21
5.620717586956919
 31
0
  0
LINE
  8
0
 62
7
 10
3.611625695285911
 20
5.605717586956919
 30
0
 11
3.611625695285911
 21
5.620717586956919
 31
0
  0
LINE
  8
0
 62
7
 10
3.6824256952859
 20
5.605717586956919
 30
0
 11
3.611625695285911
 21
5.605717586956919
 31
0
  0
LINE
  8
0
 62
7
 10
3.611625695285911
 20
5.620717586956919
 30
0
 11
3.753225695285888
 21
5.620717586956919
 31
0
  0
LINE
  8
0
 62
7
 10
3.743225695285888
 20
5.662146158385498
 30
0
 11
3.621625695285911
 21
5.662146158385498
 31
0
  0
LINE
  8
0
 62
7
 10
3.611625695285911
 20
5.722146158385499
 30
0
 11
3.753225695285888
 21
5.722146158385499
 31
0
  0
LINE
  8
0
 62
7
 10
3.611625695285911
 20
5.605717586956919
 30
0
 11
2.945619339635901
 21
5.605717586956919
 31
0
  0
LINE
  8
0
 62
7
 10
3.753225695285888
 20
5.802146158385498
 30
0
 11
3.6824256952859
 21
5.802146158385498
 31
0
  0
LINE
  8
0
 62
7
 10
3.795968769119443
 20
5.737146158385499
 30
0
 11
3.795968769119443
 21
5.802146158385498
 31
0
  0
LINE
  8
0
 62
7
 10
2.935718838485904
 20
5.737146158385499
 30
0
 11
3.795968769119443
 21
5.737146158385499
 31
0
  0
LINE
  8
0
 62
7
 10
2.935718838485904
 20
5.802146158385498
 30
0
 11
2.935718838485904
 21
5.737146158385499
 31
0
  0
LINE
  8
0
 62
7
 10
3.753225695285888
 20
5.817146158385498
 30
0
 11
3.753225695285888
 21
5.802146158385498
 31
0
  0
LINE
  8
0
 62
7
 10
3.795968769119443
 20
5.802146158385498
 30
0
 11
3.753225695285888
 21
5.802146158385498
 31
0
  0
LINE
  8
0
 62
7
 10
3.733225695285888
 20
5.817146158385498
 30
0
 11
3.753225695285888
 21
5.817146158385498
 31
0
  0
LINE
  8
0
 62
7
 10
3.733225695285888
 20
5.85857472981402
 30
0
 11
3.733225695285888
 21
5.817146158385498
 31
0
  0
LINE
  8
0
 62
7
 10
3.743225695285888
 20
5.85857472981402
 30
0
 11
3.733225695285888
 21
5.85857472981402
 31
0
  0
LINE
  8
0
 62
7
 10
3.743225695285888
 20
5.91857472981402
 30
0
 11
3.743225695285888
 21
5.85857472981402
 31
0
  0
LINE
  8
0
 62
7
 10
3.753225695285888
 20
5.91857472981402
 30
0
 11
3.743225695285888
 21
5.91857472981402
 31
0
  0
LINE
  8
0
 62
7
 10
3.753225695285888
 20
5.93357472981402
 30
0
 11
3.753225695285888
 21
5.91857472981402
 31
0
  0
LINE
  8
0
 62
7
 10
3.611625695285911
 20
5.93357472981402
 30
0
 11
3.753225695285888
 21
5.93357472981402
 31
0
  0
LINE
  8
0
 62
7
 10
3.611625695285911
 20
5.91857472981402
 30
0
 11
3.611625695285911
 21
5.93357472981402
 31
0
  0
LINE
  8
0
 62
7
 10
3.621625695285911
 20
5.91857472981402
 30
0
 11
3.611625695285911
 21
5.91857472981402
 31
0
  0
LINE
  8
0
 62
7
 10
3.621625695285911
 20
5.85857472981402
 30
0
 11
3.621625695285911
 21
5.91857472981402
 31
0
  0
LINE
  8
0
 62
7
 10
3.631625695285912
 20
5.85857472981402
 30
0
 11
3.621625695285911
 21
5.85857472981402
 31
0
  0
LINE
  8
0
 62
7
 10
3.631625695285912
 20
5.817146158385498
 30
0
 11
3.631625695285912
 21
5.85857472981402
 31
0
  0
LINE
  8
0
 62
7
 10
3.611625695285911
 20
5.817146158385498
 30
0
 11
3.631625695285912
 21
5.817146158385498
 31
0
  0
LINE
  8
0
 62
7
 10
3.611625695285911
 20
5.802146158385498
 30
0
 11
3.611625695285911
 21
5.817146158385498
 31
0
  0
LINE
  8
0
 62
7
 10
3.6824256952859
 20
5.802146158385498
 30
0
 11
3.611625695285911
 21
5.802146158385498
 31
0
  0
LINE
  8
0
 62
7
 10
3.611625695285911
 20
5.817146158385498
 30
0
 11
3.753225695285888
 21
5.817146158385498
 31
0
  0
LINE
  8
0
 62
7
 10
3.743225695285888
 20
5.85857472981402
 30
0
 11
3.621625695285911
 21
5.85857472981402
 31
0
  0
LINE
  8
0
 62
7
 10
3.611625695285911
 20
5.91857472981402
 30
0
 11
3.753225695285888
 21
5.91857472981402
 31
0
  0
LINE
  8
0
 62
7
 10
3.611625695285911
 20
5.802146158385498
 30
0
 11
2.935718838485904
 21
5.802146158385498
 31
0
  0
LINE
  8
0
 62
7
 10
3.753225695285888
 20
5.99857472981402
 30
0
 11
3.6824256952859
 21
5.99857472981402
 31
0
  0
LINE
  8
0
 62
7
 10
3.802929902605698
 20
5.93357472981402
 30
0
 11
3.802929902605698
 21
5.99857472981402
 31
0
  0
LINE
  8
0
 62
7
 10
3.036744893210911
 20
5.93357472981402
 30
0
 11
3.802929902605698
 21
5.93357472981402
 31
0
  0
LINE
  8
0
 62
7
 10
3.036744893210911
 20
5.99857472981402
 30
0
 11
3.036744893210911
 21
5.93357472981402
 31
0
  0
LINE
  8
0
 62
7
 10
3.753225695285888
 20
6.01357472981402
 30
0
 11
3.753225695285888
 21
5.99857472981402
 31
0
  0
LINE
  8
0
 62
7
 10
3.802929902605698
 20
5.99857472981402
 30
0
 11
3.753225695285888
 21
5.99857472981402
 31
0
  0
LINE
  8
0
 62
7
 10
3.733225695285888
 20
6.01357472981402
 30
0
 11
3.753225695285888
 21
6.01357472981402
 31
0
  0
LINE
  8
0
 62
7
 10
3.733225695285888
 20
6.0550033012426
 30
0
 11
3.733225695285888
 21
6.01357472981402
 31
0
  0
LINE
  8
0
 62
7
 10
3.743225695285888
 20
6.0550033012426
 30
0
 11
3.733225695285888
 21
6.0550033012426
 31
0
  0
LINE
  8
0
 62
7
 10
3.743225695285888
 20
6.115003301242599
 30
0
 11
3.743225695285888
 21
6.0550033012426
 31
0
  0
LINE
  8
0
 62
7
 10
3.753225695285888
 20
6.115003301242599
 30
0
 11
3.743225695285888
 21
6.115003301242599
 31
0
  0
LINE
  8
0
 62
7
 10
3.753225695285888
 20
6.130003301242599
 30
0
 11
3.753225695285888
 21
6.115003301242599
 31
0
  0
LINE
  8
0
 62
7
 10
3.611625695285911
 20
6.130003301242599
 30
0
 11
3.753225695285888
 21
6.130003301242599
 31
0
  0
LINE
  8
0
 62
7
 10
3.611625695285911
 20
6.115003301242599
 30
0
 11
3.611625695285911
 21
6.130003301242599
 31
0
  0
LINE
  8
0
 62
7
 10
3.621625695285911
 20
6.115003301242599
 30
0
 11
3.611625695285911
 21
6.115003301242599
 31
0
  0
LINE
  8
0
 62
7
 10
3.621625695285911
 20
6.0550033012426
 30
0
 11
3.621625695285911
 21
6.115003301242599
 31
0
  0
LINE
  8
0
 62
7
 10
3.631625695285912
 20
6.0550033012426
 30
0
 11
3.621625695285911
 21
6.0550033012426
 31
0
  0
LINE
  8
0
 62
7
 10
3.631625695285912
 20
6.01357472981402
 30
0
 11
3.631625695285912
 21
6.0550033012426
 31
0
  0
LINE
  8
0
 62
7
 10
3.611625695285911
 20
6.01357472981402
 30
0
 11
3.631625695285912
 21
6.01357472981402
 31
0
  0
LINE
  8
0
 62
7
 10
3.611625695285911
 20
5.99857472981402
 30
0
 11
3.611625695285911
 21
6.01357472981402
 31
0
  0
LINE
  8
0
 62
7
 10
3.6824256952859
 20
5.99857472981402
 30
0
 11
3.611625695285911
 21
5.99857472981402
 31
0
  0
LINE
  8
0
 62
7
 10
3.611625695285911
 20
6.01357472981402
 30
0
 11
3.753225695285888
 21
6.01357472981402
 31
0
  0
LINE
  8
0
 62
7
 10
3.743225695285888
 20
6.0550033012426
 30
0
 11
3.621625695285911
 21
6.0550033012426
 31
0
  0
LINE
  8
0
 62
7
 10
3.611625695285911
 20
6.115003301242599
 30
0
 11
3.753225695285888
 21
6.115003301242599
 31
0
  0
LINE
  8
0
 62
7
 10
3.611625695285911
 20
5.99857472981402
 30
0
 11
3.036744893210911
 21
5.99857472981402
 31
0
  0
LINE
  8
0
 62
7
  6
DASHDOT
 10
3.6824256952859
 20
6.395003301242601
 30
0
 11
3.6824256952859
 21
3.245003301242601
 31
0
  0
LINE
  8
0
 62
7
 10
4.124796441183702
 20
6.130003301242599
 30
0
 11
4.124796441183702
 21
6.1950033012426
 31
0
  0
LINE
  8
0
 62
7
 10
3.240054949388112
 20
6.1950033012426
 30
0
 11
3.240054949388112
 21
6.130003301242599
 31
0
  0
LINE
  8
0
 62
7
 10
3.240054949388112
 20
6.1950033012426
 30
0
 11
4.124796441183702
 21
6.1950033012426
 31
0
  0
LINE
  8
0
 62
7
 10
3.240054949388112
 20
6.130003301242599
 30
0
 11
4.124796441183702
 21
6.130003301242599
 31
0
  0
LINE
  8
0
 62
7
 10
4.14620401319681
 20
0.5918275802049311
 30
0
 11
4.108806403915729
 21
0.6227256522965899
 31
0
  0
LINE
  8
0
 62
7
 10
4.06327439241019
 20
0.6603444038965308
 30
0
 11
4.02012057100433
 21
0.6081129977707815
 31
0
  0
LINE
  8
0
 62
7
 10
4.14620401319681
 20
0.5918275802049311
 30
0
 11
4.103050191790928
 21
0.5395961740791818
 31
0
  0
LINE
  8
0
 62
7
 10
4.108806403915729
 20
0.6227256522965899
 30
0
 11
4.071529725940641
 21
0.577849968933514
 31
0
  0
LINE
  8
0
 62
7
 10
4.108806403915729
 20
0.6227256522965899
 30
0
 11
4.06327439241019
 21
0.6603444038965308
 31
0
  0
LINE
  8
0
 62
7
 10
4.140072727035671
 20
0.7889518403213652
 30
0
 11
4.18941680398689
 21
0.7688915384562489
 31
0
  0
LINE
  8
0
 62
7
 10
4.18941680398689
 20
0.7688915384562489
 30
0
 11
4.171738214435198
 21
0.7254059673470539
 31
0
  0
LINE
  8
0
 62
7
 10
4.18941680398689
 20
0.7688915384562489
 30
0
 11
4.239725148282509
 21
0.7484392241105808
 31
0
  0
LINE
  8
0
 62
7
 10
4.239725148282509
 20
0.7484392241105808
 30
0
 11
4.222475044404808
 21
0.706007636645808
 31
0
  0
LINE
  8
0
 62
7
 10
4.222475044404808
 20
0.706007636645808
 30
0
 11
4.216629074642941
 21
0.6980675416403601
 31
0
  0
LINE
  8
0
 62
7
 10
4.216629074642941
 20
0.6980675416403601
 30
0
 11
4.20793816324346
 21
0.6930034787674515
 31
0
  0
LINE
  8
0
 62
7
 10
4.20793816324346
 20
0.6930034787674515
 30
0
 11
4.193912313134638
 21
0.6935471812788665
 31
0
  0
LINE
  8
0
 62
7
 10
4.193912313134638
 20
0.6935471812788665
 30
0
 11
4.184380165657331
 21
0.696685465023641
 31
0
  0
LINE
  8
0
 62
7
 10
4.184380165657331
 20
0.696685465023641
 30
0
 11
4.17820204003224
 21
0.7026360189468388
 31
0
  0
LINE
  8
0
 62
7
 10
4.17820204003224
 20
0.7026360189468388
 30
0
 11
4.172313516054739
 21
0.7074862945499909
 31
0
  0
LINE
  8
0
 62
7
 10
4.172313516054739
 20
0.7074862945499909
 30
0
 11
4.172276064433277
 21
0.7158531432208829
 31
0
  0
LINE
  8
0
 62
7
 10
4.172276064433277
 20
0.7158531432208829
 30
0
 11
4.171738214435198
 21
0.7254059673470539
 31
0
  0
LINE
  8
0
 62
7
 10
4.174796207364442
 20
0.9346643546050393
 30
0
 11
4.227884213515412
 21
0.9303149587848738
 31
0
  0
LINE
  8
0
 62
7
 10
4.227884213515412
 20
0.9303149587848738
 30
0
 11
4.224051211199702
 21
0.8835299663569378
 31
0
  0
LINE
  8
0
 62
7
 10
4.227884213515412
 20
0.9303149587848738
 30
0
 11
4.2820096497669
 21
0.9258805683591119
 31
0
  0
LINE
  8
0
 62
7
 10
4.2820096497669
 20
0.9258805683591119
 30
0
 11
4.278269550031222
 21
0.8802295294603311
 31
0
  0
LINE
  8
0
 62
7
 10
4.278269550031222
 20
0.8802295294603311
 30
0
 11
4.275072013044272
 21
0.8709023525900185
 31
0
  0
LINE
  8
0
 62
7
 10
4.275072013044272
 20
0.8709023525900185
 30
0
 11
4.268298345925639
 21
0.8634663518167719
 31
0
  0
LINE
  8
0
 62
7
 10
4.268298345925639
 20
0.8634663518167719
 30
0
 11
4.25475429414936
 21
0.859781416922152
 31
0
  0
LINE
  8
0
 62
7
 10
4.25475429414936
 20
0.859781416922152
 30
0
 11
4.244719761543291
 21
0.8599185875089234
 31
0
  0
LINE
  8
0
 62
7
 10
4.244719761543291
 20
0.8599185875089234
 30
0
 11
4.23704221406228
 21
0.8637439754512372
 31
0
  0
LINE
  8
0
 62
7
 10
4.23704221406228
 20
0.8637439754512372
 30
0
 11
4.22997071663486
 21
0.8666064590221714
 31
0
  0
LINE
  8
0
 62
7
 10
4.22997071663486
 20
0.8666064590221714
 30
0
 11
4.227427384297091
 21
0.8745774702456975
 31
0
  0
LINE
  8
0
 62
7
 10
4.227427384297091
 20
0.8745774702456975
 30
0
 11
4.224051211199702
 21
0.8835299663569378
 31
0
  0
LINE
  8
0
 62
7
 10
4.269169992733359
 20
1.107838126382389
 30
0
 11
4.221856797751141
 21
1.097126748343252
 31
0
  0
LINE
  8
0
 62
7
 10
4.164252448711022
 20
1.084085524652916
 30
0
 11
4.179212504909349
 21
1.0180055064451
 31
0
  0
LINE
  8
0
 62
7
 10
4.269169992733359
 20
1.107838126382389
 30
0
 11
4.2841300489317
 21
1.041758108174566
 31
0
  0
LINE
  8
0
 62
7
 10
4.221856797751141
 20
1.097126748343252
 30
0
 11
4.23458767188112
 21
1.040194310119964
 31
0
  0
LINE
  8
0
 62
7
 10
4.221856797751141
 20
1.097126748343252
 30
0
 11
4.164252448711022
 21
1.084085524652916
 31
0
  0
LINE
  8
0
 62
7
 10
4.109410816281099
 20
1.223477964395671
 30
0
 11
4.155448887558112
 21
1.250268814217582
 31
0
  0
LINE
  8
0
 62
7
 10
4.202386621195322
 20
1.27758320289578
 30
0
 11
4.225701253056137
 21
1.237518752139599
 31
0
  0
LINE
  8
0
 62
7
 10
4.225701253056137
 20
1.237518752139599
 30
0
 11
4.227428616084519
 21
1.227466396757422
 31
0
  0
LINE
  8
0
 62
7
 10
4.227428616084519
 20
1.227466396757422
 30
0
 11
4.22638861817756
 21
1.219752763478143
 31
0
  0
LINE
  8
0
 62
7
 10
4.22638861817756
 20
1.219752763478143
 30
0
 11
4.2181861487625
 21
1.20760781122151
 31
0
  0
LINE
  8
0
 62
7
 10
4.2181861487625
 20
1.20760781122151
 30
0
 11
4.207876900439941
 21
1.201345294221733
 31
0
  0
LINE
  8
0
 62
7
 10
4.207876900439941
 20
1.201345294221733
 30
0
 11
4.200063272215161
 21
1.20074745131783
 31
0
  0
LINE
  8
0
 62
7
 10
4.200063272215161
 20
1.20074745131783
 30
0
 11
4.19321524047415
 21
1.199395140411652
 31
0
  0
LINE
  8
0
 62
7
 10
4.19321524047415
 20
1.199395140411652
 30
0
 11
4.185308249983872
 21
1.203481920188037
 31
0
  0
LINE
  8
0
 62
7
 10
4.185308249983872
 20
1.203481920188037
 30
0
 11
4.178666840813301
 21
1.211727754396247
 31
0
  0
LINE
  8
0
 62
7
 10
4.178666840813301
 20
1.211727754396247
 30
0
 11
4.175375878693678
 21
1.217190646259673
 31
0
  0
LINE
  8
0
 62
7
 10
4.155448887558112
 20
1.250268814217582
 30
0
 11
4.202386621195322
 21
1.27758320289578
 31
0
  0
LINE
  8
0
 62
7
 10
4.175375878693678
 20
1.217190646259673
 30
0
 11
4.143598186399061
 21
1.164729526301052
 31
0
  0
LINE
  8
0
 62
7
 10
4.175375878693678
 20
1.217190646259673
 30
0
 11
4.155448887558112
 21
1.250268814217582
 31
0
  0
LINE
  8
0
 62
7
 10
4.062291740812467
 20
1.442771956123374
 30
0
 11
4.08779942120463
 21
1.419509885774037
 31
0
  0
LINE
  8
0
 62
7
 10
4.01531330430566
 20
1.340026302629412
 30
0
 11
4.08779942120463
 21
1.419509885774037
 31
0
  0
LINE
  8
0
 62
7
 10
4.08779942120463
 20
1.419509885774037
 30
0
 11
4.112819846651848
 21
1.396692174089752
 31
0
  0
LINE
  8
0
 62
7
 10
3.35535564184366
 20
1.479918285669038
 30
0
 11
3.384329813422123
 21
1.498686957898833
 31
0
  0
LINE
  8
0
 62
7
 10
3.442814210935151
 20
1.408401563841201
 30
0
 11
3.384329813422123
 21
1.498686957898833
 31
0
  0
LINE
  8
0
 62
7
 10
3.384329813422123
 20
1.498686957898833
 30
0
 11
3.412750512157848
 21
1.517097105628766
 31
0
  0
LINE
  8
0
 62
7
 10
3.246971591078462
 20
1.386647966097159
 30
0
 11
3.270624126647931
 21
1.411794004295304
 31
0
  0
LINE
  8
0
 62
7
 10
3.348980809307799
 20
1.338091172496627
 30
0
 11
3.270624126647931
 21
1.411794004295304
 31
0
  0
LINE
  8
0
 62
7
 10
3.270624126647931
 20
1.411794004295304
 30
0
 11
3.29382484477499
 21
1.436459695740209
 31
0
  0
LINE
  8
0
 62
7
 10
3.248762192079328
 20
1.211755476536738
 30
0
 11
3.25586065963058
 21
1.22550462399861
 31
0
  0
LINE
  8
0
 62
7
 10
3.25586065963058
 20
1.22550462399861
 30
0
 11
3.25677762781323
 21
1.234762546272831
 31
0
  0
LINE
  8
0
 62
7
 10
3.25677762781323
 20
1.234762546272831
 30
0
 11
3.255858852661281
 21
1.242407355278664
 31
0
  0
LINE
  8
0
 62
7
 10
3.255858852661281
 20
1.242407355278664
 30
0
 11
3.252089615341749
 21
1.249987285730348
 31
0
  0
LINE
  8
0
 62
7
 10
3.252089615341749
 20
1.249987285730348
 30
0
 11
3.248209403680878
 21
1.256856246917922
 31
0
  0
LINE
  8
0
 62
7
 10
3.248209403680878
 20
1.256856246917922
 30
0
 11
3.240161180554158
 21
1.264084471578294
 31
0
  0
LINE
  8
0
 62
7
 10
3.240161180554158
 20
1.264084471578294
 30
0
 11
3.2009356716187
 21
1.284335981945151
 31
0
  0
LINE
  8
0
 62
7
 10
3.2009356716187
 20
1.284335981945151
 30
0
 11
3.189664552627179
 21
1.28631376474678
 31
0
  0
LINE
  8
0
 62
7
 10
3.189664552627179
 20
1.28631376474678
 30
0
 11
3.174883710533861
 21
1.284469629330276
 31
0
  0
LINE
  8
0
 62
7
 10
3.174883710533861
 20
1.284469629330276
 30
0
 11
3.166781833938778
 21
1.279689425285723
 31
0
  0
LINE
  8
0
 62
7
 10
3.166781833938778
 20
1.279689425285723
 30
0
 11
3.16027541741887
 21
1.274853773980459
 31
0
  0
LINE
  8
0
 62
7
 10
3.16027541741887
 20
1.274853773980459
 30
0
 11
3.153698896010999
 21
1.26211559324355
 31
0
  0
LINE
  8
0
 62
7
 10
3.153698896010999
 20
1.26211559324355
 30
0
 11
3.152806847518573
 21
1.253613068889396
 31
0
  0
LINE
  8
0
 62
7
 10
3.152806847518573
 20
1.253613068889396
 30
0
 11
3.15532341409399
 21
1.243606818297906
 31
0
  0
LINE
  8
0
 62
7
 10
3.15532341409399
 20
1.243606818297906
 30
0
 11
3.158297048258021
 21
1.237461996598481
 31
0
  0
LINE
  8
0
 62
7
 10
3.158297048258021
 20
1.237461996598481
 30
0
 11
3.161466290654811
 21
1.230704009752239
 31
0
  0
LINE
  8
0
 62
7
 10
3.161466290654811
 20
1.230704009752239
 30
0
 11
3.16961034038309
 21
1.22366139333276
 31
0
  0
LINE
  8
0
 62
7
 10
3.16961034038309
 20
1.22366139333276
 30
0
 11
3.208431462628349
 21
1.203618661423337
 31
0
  0
LINE
  8
0
 62
7
 10
3.208431462628349
 20
1.203618661423337
 30
0
 11
3.219495780677812
 21
1.200744301116726
 31
0
  0
LINE
  8
0
 62
7
 10
3.219495780677812
 20
1.200744301116726
 30
0
 11
3.232123959642562
 21
1.201395031800093
 31
0
  0
LINE
  8
0
 62
7
 10
3.232123959642562
 20
1.201395031800093
 30
0
 11
3.242678496826942
 21
1.206957668775357
 31
0
  0
LINE
  8
0
 62
7
 10
3.242678496826942
 20
1.206957668775357
 30
0
 11
3.248762192079328
 21
1.211755476536738
 31
0
  0
LINE
  8
0
 62
7
 10
3.098038560101581
 20
1.130128690573386
 30
0
 11
3.091969371332951
 21
1.088778991205151
 31
0
  0
LINE
  8
0
 62
7
 10
3.198356886107329
 20
1.072852002665713
 30
0
 11
3.204381283814957
 21
1.113896538201275
 31
0
  0
LINE
  8
0
 62
7
 10
3.204381283814957
 20
1.113896538201275
 30
0
 11
3.146060961584368
 21
1.122456625700629
 31
0
  0
LINE
  8
0
 62
7
 10
3.146060961584368
 20
1.122456625700629
 30
0
 11
3.142589654355059
 21
1.098806428644791
 31
0
  0
LINE
  8
0
 62
7
 10
3.091969371332951
 20
1.088778991205151
 30
0
 11
3.093268211993487
 21
1.079236207101115
 31
0
  0
LINE
  8
0
 62
7
 10
3.093268211993487
 20
1.079236207101115
 30
0
 11
3.102417676478686
 21
1.065112011752447
 31
0
  0
LINE
  8
0
 62
7
 10
3.102417676478686
 20
1.065112011752447
 30
0
 11
3.119729742203021
 21
1.057750616386961
 31
0
  0
LINE
  8
0
 62
7
 10
3.119729742203021
 20
1.057750616386961
 30
0
 11
3.163215588402313
 21
1.051367890191125
 31
0
  0
LINE
  8
0
 62
7
 10
3.163215588402313
 20
1.051367890191125
 30
0
 11
3.182110227946709
 21
1.05372670865841
 31
0
  0
LINE
  8
0
 62
7
 10
3.182110227946709
 20
1.05372670865841
 30
0
 11
3.1884500203026
 21
1.057628113440535
 31
0
  0
LINE
  8
0
 62
7
 10
3.1884500203026
 20
1.057628113440535
 30
0
 11
3.198356886107329
 21
1.072852002665713
 31
0
  0
LINE
  8
0
 62
7
 10
3.18389799026123
 20
0.9640327694519357
 30
0
 11
3.088359861775102
 21
0.8801363058638589
 31
0
  0
LINE
  8
0
 62
7
 10
3.07767125996202
 20
0.9470693115926617
 30
0
 11
3.18389799026123
 21
0.9640327694519357
 31
0
  0
LINE
  8
0
 62
7
 10
3.194586592074331
 20
0.8970997637231259
 30
0
 11
3.088359861775102
 21
0.8801363058638589
 31
0
  0
LINE
  8
0
 62
7
 10
3.210102591873261
 20
0.8151248748443387
 30
0
 11
3.144100573878848
 21
0.7064515836552083
 31
0
  0
LINE
  8
0
 62
7
 10
3.113843028943929
 20
0.7671043201072382
 30
0
 11
3.210102591873261
 21
0.8151248748443387
 31
0
  0
LINE
  8
0
 62
7
 10
3.24036013680818
 20
0.7544721383923015
 30
0
 11
3.144100573878848
 21
0.7064515836552083
 31
0
  0
LINE
  8
0
 62
7
 10
3.249333469862548
 20
0.5574567940905609
 30
0
 11
3.284256650191499
 21
0.5911264171153808
 31
0
  0
LINE
  8
0
 62
7
 10
3.326776016512381
 20
0.6321195632662922
 30
0
 11
3.279751305892701
 21
0.6808950558720817
 31
0
  0
LINE
  8
0
 62
7
 10
3.249333469862548
 20
0.5574567940905609
 30
0
 11
3.202308759242882
 21
0.6062322866963288
 31
0
  0
LINE
  8
0
 62
7
 10
3.284256650191499
 20
0.5911264171153808
 30
0
 11
3.24387700997014
 21
0.6332317889075267
 31
0
  0
LINE
  8
0
 62
7
 10
3.284256650191499
 20
0.5911264171153808
 30
0
 11
3.326776016512381
 21
0.6321195632662922
 31
0
  0
LINE
  8
0
 62
7
 10
3.39469530524372
 20
0.4466803091220491
 30
0
 11
3.43090225565328
 21
0.5131625613900024
 31
0
  0
LINE
  8
0
 62
7
 10
3.43090225565328
 20
0.5131625613900024
 30
0
 11
3.40320535081158
 21
0.5033106225026195
 31
0
  0
LINE
  8
0
 62
7
 10
3.43090225565328
 20
0.5131625613900024
 30
0
 11
3.446145257113978
 21
0.5411513606942017
 31
0
  0
LINE
  8
0
 62
7
 10
3.40320535081158
 20
0.5033106225026195
 30
0
 11
3.386607013210673
 21
0.5735765293811993
 31
0
  0
LINE
  8
0
 62
7
 10
3.40320535081158
 20
0.5033106225026195
 30
0
 11
3.335157061340422
 21
0.4791054778090393
 31
0
  0
LINE
  8
0
 62
7
 10
0.2804256952858997
 20
0.3327889754412292
 30
0
 11
0.2804256952858997
 21
0.4327889754412292
 31
0
  0
LINE
  8
0
 62
7
 10
0.3434256952858997
 20
0.4327889754412292
 30
0
 11
0.2984256952858997
 21
0.3827889754412291
 31
0
  0
LINE
  8
0
 62
7
 10
0.2984256952858997
 20
0.3827889754412291
 30
0
 11
0.3434256952858997
 21
0.3327889754412292
 31
0
  0
LINE
  8
0
 62
7
 10
0.2984256952858997
 20
0.3827889754412291
 30
0
 11
0.2804256952858997
 21
0.3627889754412292
 31
0
  0
LINE
  8
0
 62
7
 10
0.4334256952858997
 20
0.4327889754412292
 30
0
 11
0.3704256952858997
 21
0.4327889754412292
 31
0
  0
LINE
  8
0
 62
7
 10
0.3704256952858997
 20
0.4327889754412292
 30
0
 11
0.3704256952858997
 21
0.3827889754412291
 31
0
  0
LINE
  8
0
 62
7
 10
0.3704256952858997
 20
0.3327889754412292
 30
0
 11
0.4334256952858997
 21
0.3327889754412292
 31
0
  0
LINE
  8
0
 62
7
 10
0.4244256952858997
 20
0.3827889754412291
 30
0
 11
0.3704256952858997
 21
0.3827889754412291
 31
0
  0
LINE
  8
0
 62
7
 10
0.3704256952858997
 20
0.3827889754412291
 30
0
 11
0.3704256952858997
 21
0.3327889754412292
 31
0
  0
LINE
  8
0
 62
7
 10
0.4604256952858998
 20
0.3327889754412292
 30
0
 11
0.4604256952858998
 21
0.4327889754412292
 31
0
  0
LINE
  8
0
 62
7
 10
0.4604256952858998
 20
0.4327889754412292
 30
0
 11
0.5234256952858998
 21
0.3327889754412292
 31
0
  0
LINE
  8
0
 62
7
 10
0.5234256952858998
 20
0.3327889754412292
 30
0
 11
0.5234256952858998
 21
0.4327889754412292
 31
0
  0
LINE
  8
0
 62
7
 10
0.5504256952858997
 20
0.3327889754412292
 30
0
 11
0.5504256952858997
 21
0.4327889754412292
 31
0
  0
LINE
  8
0
 62
7
 10
0.5504256952858997
 20
0.4327889754412292
 30
0
 11
0.6134256952858997
 21
0.3327889754412292
 31
0
  0
LINE
  8
0
 62
7
 10
0.6134256952858997
 20
0.3327889754412292
 30
0
 11
0.6134256952858997
 21
0.4327889754412292
 31
0
  0
LINE
  8
0
 62
7
 10
0.7034256952858998
 20
0.4027889754412291
 30
0
 11
0.7011756952858997
 21
0.4127889754412292
 31
0
  0
LINE
  8
0
 62
7
 10
0.7011756952858997
 20
0.4127889754412292
 30
0
 11
0.6966756952858998
 21
0.4202889754412292
 31
0
  0
LINE
  8
0
 62
7
 10
0.6966756952858998
 20
0.4202889754412292
 30
0
 11
0.6921756952858998
 21
0.4252889754412292
 31
0
  0
LINE
  8
0
 62
7
 10
0.6921756952858998
 20
0.4252889754412292
 30
0
 11
0.6854256952858997
 21
0.4302889754412291
 31
0
  0
LINE
  8
0
 62
7
 10
0.6854256952858997
 20
0.4302889754412291
 30
0
 11
0.6786756952858997
 21
0.4327889754412292
 31
0
  0
LINE
  8
0
 62
7
 10
0.6786756952858997
 20
0.4327889754412292
 30
0
 11
0.6651756952858998
 21
0.4327889754412292
 31
0
  0
LINE
  8
0
 62
7
 10
0.6651756952858998
 20
0.4327889754412292
 30
0
 11
0.6584256952858998
 21
0.4302889754412291
 31
0
  0
LINE
  8
0
 62
7
 10
0.6584256952858998
 20
0.4302889754412291
 30
0
 11
0.6516756952858997
 21
0.4252889754412292
 31
0
  0
LINE
  8
0
 62
7
 10
0.6516756952858997
 20
0.4252889754412292
 30
0
 11
0.6471756952858998
 21
0.4202889754412292
 31
0
  0
LINE
  8
0
 62
7
 10
0.6471756952858998
 20
0.4202889754412292
 30
0
 11
0.6426756952858999
 21
0.4127889754412292
 31
0
  0
LINE
  8
0
 62
7
 10
0.6426756952858999
 20
0.4127889754412292
 30
0
 11
0.6404256952858998
 21
0.4027889754412291
 31
0
  0
LINE
  8
0
 62
7
 10
0.6404256952858998
 20
0.4027889754412291
 30
0
 11
0.6404256952858998
 21
0.3627889754412292
 31
0
  0
LINE
  8
0
 62
7
 10
0.6404256952858998
 20
0.3627889754412292
 30
0
 11
0.6426756952858999
 21
0.3527889754412292
 31
0
  0
LINE
  8
0
 62
7
 10
0.6426756952858999
 20
0.3527889754412292
 30
0
 11
0.6471756952858998
 21
0.3452889754412292
 31
0
  0
LINE
  8
0
 62
7
 10
0.6471756952858998
 20
0.3452889754412292
 30
0
 11
0.6516756952858997
 21
0.3402889754412292
 31
0
  0
LINE
  8
0
 62
7
 10
0.6516756952858997
 20
0.3402889754412292
 30
0
 11
0.6584256952858998
 21
0.3352889754412292
 31
0
  0
LINE
  8
0
 62
7
 10
0.6584256952858998
 20
0.3352889754412292
 30
0
 11
0.6651756952858998
 21
0.3327889754412292
 31
0
  0
LINE
  8
0
 62
7
 10
0.6651756952858998
 20
0.3327889754412292
 30
0
 11
0.6786756952858997
 21
0.3327889754412292
 31
0
  0
LINE
  8
0
 62
7
 10
0.6786756952858997
 20
0.3327889754412292
 30
0
 11
0.6854256952858997
 21
0.3352889754412292
 31
0
  0
LINE
  8
0
 62
7
 10
0.6854256952858997
 20
0.3352889754412292
 30
0
 11
0.6921756952858998
 21
0.3402889754412292
 31
0
  0
LINE
  8
0
 62
7
 10
0.6921756952858998
 20
0.3402889754412292
 30
0
 11
0.6966756952858998
 21
0.3452889754412292
 31
0
  0
LINE
  8
0
 62
7
 10
0.6966756952858998
 20
0.3452889754412292
 30
0
 11
0.7011756952858997
 21
0.3527889754412292
 31
0
  0
LINE
  8
0
 62
7
 10
0.7011756952858997
 20
0.3527889754412292
 30
0
 11
0.7034256952858998
 21
0.3627889754412292
 31
0
  0
LINE
  8
0
 62
7
 10
0.7034256952858998
 20
0.3627889754412292
 30
0
 11
0.7034256952858998
 21
0.3827889754412291
 31
0
  0
LINE
  8
0
 62
7
 10
0.7034256952858998
 20
0.3827889754412291
 30
0
 11
0.6764256952858999
 21
0.3827889754412291
 31
0
  0
LINE
  8
0
 62
7
 10
0.7686756952858997
 20
0.4327889754412292
 30
0
 11
0.7551756952858999
 21
0.4327889754412292
 31
0
  0
LINE
  8
0
 62
7
 10
0.7551756952858999
 20
0.4327889754412292
 30
0
 11
0.7484256952858999
 21
0.4302889754412291
 31
0
  0
LINE
  8
0
 62
7
 10
0.7484256952858999
 20
0.4302889754412291
 30
0
 11
0.7416756952858997
 21
0.4252889754412292
 31
0
  0
LINE
  8
0
 62
7
 10
0.7416756952858997
 20
0.4252889754412292
 30
0
 11
0.7371756952858999
 21
0.4202889754412292
 31
0
  0
LINE
  8
0
 62
7
 10
0.7371756952858999
 20
0.4202889754412292
 30
0
 11
0.7326756952858999
 21
0.4127889754412292
 31
0
  0
LINE
  8
0
 62
7
 10
0.7326756952858999
 20
0.4127889754412292
 30
0
 11
0.7304256952858997
 21
0.4027889754412291
 31
0
  0
LINE
  8
0
 62
7
 10
0.7304256952858997
 20
0.4027889754412291
 30
0
 11
0.7304256952858997
 21
0.3627889754412292
 31
0
  0
LINE
  8
0
 62
7
 10
0.7304256952858997
 20
0.3627889754412292
 30
0
 11
0.7326756952858999
 21
0.3527889754412292
 31
0
  0
LINE
  8
0
 62
7
 10
0.7326756952858999
 20
0.3527889754412292
 30
0
 11
0.7371756952858999
 21
0.3452889754412292
 31
0
  0
LINE
  8
0
 62
7
 10
0.7371756952858999
 20
0.3452889754412292
 30
0
 11
0.7416756952858997
 21
0.3402889754412292
 31
0
  0
LINE
  8
0
 62
7
 10
0.7416756952858997
 20
0.3402889754412292
 30
0
 11
0.7484256952858999
 21
0.3352889754412292
 31
0
  0
LINE
  8
0
 62
7
 10
0.7484256952858999
 20
0.3352889754412292
 30
0
 11
0.7551756952858999
 21
0.3327889754412292
 31
0
  0
LINE
  8
0
 62
7
 10
0.7551756952858999
 20
0.3327889754412292
 30
0
 11
0.7686756952858997
 21
0.3327889754412292
 31
0
  0
LINE
  8
0
 62
7
 10
0.7686756952858997
 20
0.3327889754412292
 30
0
 11
0.7754256952858998
 21
0.3352889754412292
 31
0
  0
LINE
  8
0
 62
7
 10
0.7754256952858998
 20
0.3352889754412292
 30
0
 11
0.7821756952858999
 21
0.3402889754412292
 31
0
  0
LINE
  8
0
 62
7
 10
0.7821756952858999
 20
0.3402889754412292
 30
0
 11
0.7866756952858999
 21
0.3452889754412292
 31
0
  0
LINE
  8
0
 62
7
 10
0.7866756952858999
 20
0.3452889754412292
 30
0
 11
0.7911756952858997
 21
0.3527889754412292
 31
0
  0
LINE
  8
0
 62
7
 10
0.7911756952858997
 20
0.3527889754412292
 30
0
 11
0.7934256952858999
 21
0.3627889754412292
 31
0
  0
LINE
  8
0
 62
7
 10
0.7934256952858999
 20
0.3627889754412292
 30
0
 11
0.7934256952858999
 21
0.4027889754412291
 31
0
  0
LINE
  8
0
 62
7
 10
0.7934256952858999
 20
0.4027889754412291
 30
0
 11
0.7911756952858997
 21
0.4127889754412292
 31
0
  0
LINE
  8
0
 62
7
 10
0.7911756952858997
 20
0.4127889754412292
 30
0
 11
0.7866756952858999
 21
0.4202889754412292
 31
0
  0
LINE
  8
0
 62
7
 10
0.7866756952858999
 20
0.4202889754412292
 30
0
 11
0.7821756952858999
 21
0.4252889754412292
 31
0
  0
LINE
  8
0
 62
7
 10
0.7821756952858999
 20
0.4252889754412292
 30
0
 11
0.7754256952858998
 21
0.4302889754412291
 31
0
  0
LINE
  8
0
 62
7
 10
0.7754256952858998
 20
0.4302889754412291
 30
0
 11
0.7686756952858997
 21
0.4327889754412292
 31
0
  0
LINE
  8
0
 62
7
 10
0.8114256952858998
 20
0.4327889754412292
 30
0
 11
0.8429256952858998
 21
0.4327889754412292
 31
0
  0
LINE
  8
0
 62
7
 10
0.8429256952858998
 20
0.4327889754412292
 30
0
 11
0.8429256952858998
 21
0.3327889754412292
 31
0
  0
LINE
  8
0
 62
7
 10
0.8429256952858998
 20
0.4327889754412292
 30
0
 11
0.8744256952858998
 21
0.4327889754412292
 31
0
  0
LINE
  8
0
 62
7
 10
0.9014256952858999
 20
0.4327889754412292
 30
0
 11
0.9329256952858999
 21
0.4327889754412292
 31
0
  0
LINE
  8
0
 62
7
 10
0.9329256952858999
 20
0.4327889754412292
 30
0
 11
0.9329256952858999
 21
0.3327889754412292
 31
0
  0
LINE
  8
0
 62
7
 10
0.9329256952858999
 20
0.4327889754412292
 30
0
 11
0.9644256952858998
 21
0.4327889754412292
 31
0
  0
LINE
  8
0
 62
7
 10
1.0634256952859
 20
0.3677889754412291
 30
0
 11
1.1084256952859
 21
0.3677889754412291
 31
0
  0
LINE
  8
0
 62
7
 10
1.1984256952859
 20
0.4327889754412292
 30
0
 11
1.2299256952859
 21
0.4327889754412292
 31
0
  0
LINE
  8
0
 62
7
 10
1.2299256952859
 20
0.4327889754412292
 30
0
 11
1.2299256952859
 21
0.3327889754412292
 31
0
  0
LINE
  8
0
 62
7
 10
1.2299256952859
 20
0.4327889754412292
 30
0
 11
1.2614256952859
 21
0.4327889754412292
 31
0
  0
LINE
  8
0
 62
7
 10
1.2884256952859
 20
0.3327889754412292
 30
0
 11
1.2884256952859
 21
0.4327889754412292
 31
0
  0
LINE
  8
0
 62
7
 10
1.2884256952859
 20
0.4327889754412292
 30
0
 11
1.3311756952859
 21
0.4327889754412292
 31
0
  0
LINE
  8
0
 62
7
 10
1.3311756952859
 20
0.4327889754412292
 30
0
 11
1.3401756952859
 21
0.4302889754412291
 31
0
  0
LINE
  8
0
 62
7
 10
1.3401756952859
 20
0.4302889754412291
 30
0
 11
1.3469256952859
 21
0.4252889754412292
 31
0
  0
LINE
  8
0
 62
7
 10
1.3469256952859
 20
0.4252889754412292
 30
0
 11
1.3491756952859
 21
0.4202889754412292
 31
0
  0
LINE
  8
0
 62
7
 10
1.3491756952859
 20
0.4202889754412292
 30
0
 11
1.3514256952859
 21
0.4127889754412292
 31
0
  0
LINE
  8
0
 62
7
 10
1.3514256952859
 20
0.4127889754412292
 30
0
 11
1.3514256952859
 21
0.4027889754412291
 31
0
  0
LINE
  8
0
 62
7
 10
1.3514256952859
 20
0.4027889754412291
 30
0
 11
1.3491756952859
 21
0.3952889754412292
 31
0
  0
LINE
  8
0
 62
7
 10
1.3491756952859
 20
0.3952889754412292
 30
0
 11
1.3469256952859
 21
0.3902889754412291
 31
0
  0
LINE
  8
0
 62
7
 10
1.3469256952859
 20
0.3902889754412291
 30
0
 11
1.3401756952859
 21
0.3852889754412292
 31
0
  0
LINE
  8
0
 62
7
 10
1.3401756952859
 20
0.3852889754412292
 30
0
 11
1.3311756952859
 21
0.3827889754412291
 31
0
  0
LINE
  8
0
 62
7
 10
1.3311756952859
 20
0.3827889754412291
 30
0
 11
1.3244256952859
 21
0.3827889754412291
 31
0
  0
LINE
  8
0
 62
7
 10
1.3244256952859
 20
0.3827889754412291
 30
0
 11
1.3514256952859
 21
0.3327889754412292
 31
0
  0
LINE
  8
0
 62
7
 10
1.3244256952859
 20
0.3827889754412291
 30
0
 11
1.2884256952859
 21
0.3827889754412291
 31
0
  0
LINE
  8
0
 62
7
 10
1.4324256952859
 20
0.4327889754412292
 30
0
 11
1.3694256952859
 21
0.4327889754412292
 31
0
  0
LINE
  8
0
 62
7
 10
1.3694256952859
 20
0.4327889754412292
 30
0
 11
1.3694256952859
 21
0.3827889754412291
 31
0
  0
LINE
  8
0
 62
7
 10
1.3694256952859
 20
0.3327889754412292
 30
0
 11
1.4324256952859
 21
0.3327889754412292
 31
0
  0
LINE
  8
0
 62
7
 10
1.4234256952859
 20
0.3827889754412291
 30
0
 11
1.3694256952859
 21
0.3827889754412291
 31
0
  0
LINE
  8
0
 62
7
 10
1.3694256952859
 20
0.3827889754412291
 30
0
 11
1.3694256952859
 21
0.3327889754412292
 31
0
  0
LINE
  8
0
 62
7
 10
1.4594256952859
 20
0.3327889754412292
 30
0
 11
1.4594256952859
 21
0.3827889754412291
 31
0
  0
LINE
  8
0
 62
7
 10
1.4594256952859
 20
0.4327889754412292
 30
0
 11
1.5021756952859
 21
0.4327889754412292
 31
0
  0
LINE
  8
0
 62
7
 10
1.5021756952859
 20
0.4327889754412292
 30
0
 11
1.5111756952859
 21
0.4302889754412291
 31
0
  0
LINE
  8
0
 62
7
 10
1.5111756952859
 20
0.4302889754412291
 30
0
 11
1.5179256952859
 21
0.4252889754412292
 31
0
  0
LINE
  8
0
 62
7
 10
1.5179256952859
 20
0.4252889754412292
 30
0
 11
1.5201756952859
 21
0.4202889754412292
 31
0
  0
LINE
  8
0
 62
7
 10
1.5201756952859
 20
0.4202889754412292
 30
0
 11
1.5224256952859
 21
0.4127889754412292
 31
0
  0
LINE
  8
0
 62
7
 10
1.5224256952859
 20
0.4127889754412292
 30
0
 11
1.5224256952859
 21
0.4027889754412291
 31
0
  0
LINE
  8
0
 62
7
 10
1.5224256952859
 20
0.4027889754412291
 30
0
 11
1.5201756952859
 21
0.3952889754412292
 31
0
  0
LINE
  8
0
 62
7
 10
1.5201756952859
 20
0.3952889754412292
 30
0
 11
1.5179256952859
 21
0.3902889754412291
 31
0
  0
LINE
  8
0
 62
7
 10
1.5179256952859
 20
0.3902889754412291
 30
0
 11
1.5111756952859
 21
0.3852889754412292
 31
0
  0
LINE
  8
0
 62
7
 10
1.5111756952859
 20
0.3852889754412292
 30
0
 11
1.5021756952859
 21
0.3827889754412291
 31
0
  0
LINE
  8
0
 62
7
 10
1.5021756952859
 20
0.3827889754412291
 30
0
 11
1.4594256952859
 21
0.3827889754412291
 31
0
  0
LINE
  8
0
 62
7
 10
1.4594256952859
 20
0.3827889754412291
 30
0
 11
1.4594256952859
 21
0.4327889754412292
 31
0
  0
LINE
  8
0
 62
7
 10
1.5404256952859
 20
0.3327889754412292
 30
0
 11
1.5404256952859
 21
0.3827889754412291
 31
0
  0
LINE
  8
0
 62
7
 10
1.5404256952859
 20
0.4327889754412292
 30
0
 11
1.5831756952859
 21
0.4327889754412292
 31
0
  0
LINE
  8
0
 62
7
 10
1.5831756952859
 20
0.4327889754412292
 30
0
 11
1.5921756952859
 21
0.4302889754412291
 31
0
  0
LINE
  8
0
 62
7
 10
1.5921756952859
 20
0.4302889754412291
 30
0
 11
1.5989256952859
 21
0.4252889754412292
 31
0
  0
LINE
  8
0
 62
7
 10
1.5989256952859
 20
0.4252889754412292
 30
0
 11
1.6011756952859
 21
0.4202889754412292
 31
0
  0
LINE
  8
0
 62
7
 10
1.6011756952859
 20
0.4202889754412292
 30
0
 11
1.6034256952859
 21
0.4127889754412292
 31
0
  0
LINE
  8
0
 62
7
 10
1.6034256952859
 20
0.4127889754412292
 30
0
 11
1.6034256952859
 21
0.4027889754412291
 31
0
  0
LINE
  8
0
 62
7
 10
1.6034256952859
 20
0.4027889754412291
 30
0
 11
1.6011756952859
 21
0.3952889754412292
 31
0
  0
LINE
  8
0
 62
7
 10
1.6011756952859
 20
0.3952889754412292
 30
0
 11
1.5989256952859
 21
0.3902889754412291
 31
0
  0
LINE
  8
0
 62
7
 10
1.5989256952859
 20
0.3902889754412291
 30
0
 11
1.5921756952859
 21
0.3852889754412292
 31
0
  0
LINE
  8
0
 62
7
 10
1.5921756952859
 20
0.3852889754412292
 30
0
 11
1.5831756952859
 21
0.3827889754412291
 31
0
  0
LINE
  8
0
 62
7
 10
1.5831756952859
 20
0.3827889754412291
 30
0
 11
1.5404256952859
 21
0.3827889754412291
 31
0
  0
LINE
  8
0
 62
7
 10
1.5404256952859
 20
0.3827889754412291
 30
0
 11
1.5404256952859
 21
0.4327889754412292
 31
0
  0
LINE
  8
0
 62
7
 10
1.6844256952859
 20
0.4327889754412292
 30
0
 11
1.6214256952859
 21
0.4327889754412292
 31
0
  0
LINE
  8
0
 62
7
 10
1.6214256952859
 20
0.4327889754412292
 30
0
 11
1.6214256952859
 21
0.3827889754412291
 31
0
  0
LINE
  8
0
 62
7
 10
1.6214256952859
 20
0.3327889754412292
 30
0
 11
1.6844256952859
 21
0.3327889754412292
 31
0
  0
LINE
  8
0
 62
7
 10
1.6754256952859
 20
0.3827889754412291
 30
0
 11
1.6214256952859
 21
0.3827889754412291
 31
0
  0
LINE
  8
0
 62
7
 10
1.6214256952859
 20
0.3827889754412291
 30
0
 11
1.6214256952859
 21
0.3327889754412292
 31
0
  0
LINE
  8
0
 62
7
 10
0.5512521715238984
 20
-0.1
 30
0
 11
0.6142521715238984
 21
-0.1
 31
0
  0
LINE
  8
0
 62
7
 10
0.6142521715238984
 20
-0.1
 30
0
 11
0.5512521715238984
 21
-0.2
 31
0
  0
LINE
  8
0
 62
7
 10
0.5512521715238984
 20
-0.2
 30
0
 11
0.6142521715238984
 21
-0.2
 31
0
  0
LINE
  8
0
 62
7
 10
0.7020021715238984
 20
-0.11
 30
0
 11
0.6952521715238984
 21
-0.105
 31
0
  0
LINE
  8
0
 62
7
 10
0.6952521715238984
 20
-0.105
 30
0
 11
0.6885021715238985
 21
-0.1025
 31
0
  0
LINE
  8
0
 62
7
 10
0.6885021715238985
 20
-0.1025
 30
0
 11
0.6772521715238985
 21
-0.1
 31
0
  0
LINE
  8
0
 62
7
 10
0.6772521715238985
 20
-0.1
 30
0
 11
0.6682521715238985
 21
-0.1
 31
0
  0
LINE
  8
0
 62
7
 10
0.6682521715238985
 20
-0.1
 30
0
 11
0.6592521715238985
 21
-0.1025
 31
0
  0
LINE
  8
0
 62
7
 10
0.6592521715238985
 20
-0.1025
 30
0
 11
0.6525021715238984
 21
-0.105
 31
0
  0
LINE
  8
0
 62
7
 10
0.6525021715238984
 20
-0.105
 30
0
 11
0.6457521715238984
 21
-0.11
 31
0
  0
LINE
  8
0
 62
7
 10
0.6457521715238984
 20
-0.11
 30
0
 11
0.6435021715238985
 21
-0.1175
 31
0
  0
LINE
  8
0
 62
7
 10
0.6435021715238985
 20
-0.1175
 30
0
 11
0.6435021715238985
 21
-0.1225
 31
0
  0
LINE
  8
0
 62
7
 10
0.6435021715238985
 20
-0.1225
 30
0
 11
0.6457521715238984
 21
-0.13
 31
0
  0
LINE
  8
0
 62
7
 10
0.6457521715238984
 20
-0.13
 30
0
 11
0.6525021715238984
 21
-0.135
 31
0
  0
LINE
  8
0
 62
7
 10
0.6525021715238984
 20
-0.135
 30
0
 11
0.6907521715238985
 21
-0.1525
 31
0
  0
LINE
  8
0
 62
7
 10
0.6907521715238985
 20
-0.1525
 30
0
 11
0.6975021715238984
 21
-0.1575
 31
0
  0
LINE
  8
0
 62
7
 10
0.6975021715238984
 20
-0.1575
 30
0
 11
0.7020021715238984
 21
-0.165
 31
0
  0
LINE
  8
0
 62
7
 10
0.7020021715238984
 20
-0.165
 30
0
 11
0.7042521715238984
 21
-0.1725
 31
0
  0
LINE
  8
0
 62
7
 10
0.7042521715238984
 20
-0.1725
 30
0
 11
0.7042521715238984
 21
-0.1775
 31
0
  0
LINE
  8
0
 62
7
 10
0.7042521715238984
 20
-0.1775
 30
0
 11
0.7020021715238984
 21
-0.185
 31
0
  0
LINE
  8
0
 62
7
 10
0.7020021715238984
 20
-0.185
 30
0
 11
0.6975021715238984
 21
-0.1925
 31
0
  0
LINE
  8
0
 62
7
 10
0.6975021715238984
 20
-0.1925
 30
0
 11
0.6907521715238985
 21
-0.1975
 31
0
  0
LINE
  8
0
 62
7
 10
0.6907521715238985
 20
-0.1975
 30
0
 11
0.6795021715238985
 21
-0.2
 31
0
  0
LINE
  8
0
 62
7
 10
0.6795021715238985
 20
-0.2
 30
0
 11
0.6660021715238985
 21
-0.2
 31
0
  0
LINE
  8
0
 62
7
 10
0.6660021715238985
 20
-0.2
 30
0
 11
0.6547521715238985
 21
-0.1975
 31
0
  0
LINE
  8
0
 62
7
 10
0.6547521715238985
 20
-0.1975
 30
0
 11
0.6457521715238984
 21
-0.1925
 31
0
  0
LINE
  8
0
 62
7
 10
0.6457521715238984
 20
-0.1925
 30
0
 11
0.6412521715238984
 21
-0.1875
 31
0
  0
LINE
  8
0
 62
7
 10
0.7222521715238985
 20
-0.2
 30
0
 11
0.7222521715238985
 21
-0.1
 31
0
  0
LINE
  8
0
 62
7
 10
0.7222521715238985
 20
-0.1
 30
0
 11
0.7650021715238985
 21
-0.1
 31
0
  0
LINE
  8
0
 62
7
 10
0.7650021715238985
 20
-0.1
 30
0
 11
0.7740021715238985
 21
-0.1025
 31
0
  0
LINE
  8
0
 62
7
 10
0.7740021715238985
 20
-0.1025
 30
0
 11
0.7807521715238984
 21
-0.1075
 31
0
  0
LINE
  8
0
 62
7
 10
0.7807521715238984
 20
-0.1075
 30
0
 11
0.7830021715238985
 21
-0.1125
 31
0
  0
LINE
  8
0
 62
7
 10
0.7830021715238985
 20
-0.1125
 30
0
 11
0.7852521715238985
 21
-0.12
 31
0
  0
LINE
  8
0
 62
7
 10
0.7852521715238985
 20
-0.12
 30
0
 11
0.7852521715238985
 21
-0.13
 31
0
  0
LINE
  8
0
 62
7
 10
0.7852521715238985
 20
-0.13
 30
0
 11
0.7830021715238985
 21
-0.1375
 31
0
  0
LINE
  8
0
 62
7
 10
0.7830021715238985
 20
-0.1375
 30
0
 11
0.7807521715238984
 21
-0.1425
 31
0
  0
LINE
  8
0
 62
7
 10
0.7807521715238984
 20
-0.1425
 30
0
 11
0.7740021715238985
 21
-0.1475
 31
0
  0
LINE
  8
0
 62
7
 10
0.7740021715238985
 20
-0.1475
 30
0
 11
0.7650021715238985
 21
-0.15
 31
0
  0
LINE
  8
0
 62
7
 10
0.7650021715238985
 20
-0.15
 30
0
 11
0.7582521715238983
 21
-0.15
 31
0
  0
LINE
  8
0
 62
7
 10
0.7582521715238983
 20
-0.15
 30
0
 11
0.7852521715238985
 21
-0.2
 31
0
  0
LINE
  8
0
 62
7
 10
0.7582521715238983
 20
-0.15
 30
0
 11
0.7222521715238985
 21
-0.15
 31
0
  0
LINE
  8
0
 62
7
 10
0.8032521715238984
 20
-0.13
 30
0
 11
0.8302521715238984
 21
-0.1
 31
0
  0
LINE
  8
0
 62
7
 10
0.8302521715238984
 20
-0.1
 30
0
 11
0.8302521715238984
 21
-0.2
 31
0
  0
LINE
  8
0
 62
7
 10
0.9067521715238986
 20
-0.1
 30
0
 11
0.8572521715238985
 21
-0.1
 31
0
  0
LINE
  8
0
 62
7
 10
0.8572521715238985
 20
-0.1
 30
0
 11
0.8572521715238985
 21
-0.15
 31
0
  0
LINE
  8
0
 62
7
 10
0.8572521715238985
 20
-0.15
 30
0
 11
0.8617521715238985
 21
-0.1425
 31
0
  0
LINE
  8
0
 62
7
 10
0.8617521715238985
 20
-0.1425
 30
0
 11
0.8685021715238985
 21
-0.1375
 31
0
  0
LINE
  8
0
 62
7
 10
0.8685021715238985
 20
-0.1375
 30
0
 11
0.8775021715238984
 21
-0.135
 31
0
  0
LINE
  8
0
 62
7
 10
0.8775021715238984
 20
-0.135
 30
0
 11
0.8910021715238985
 21
-0.135
 31
0
  0
LINE
  8
0
 62
7
 10
0.8910021715238985
 20
-0.135
 30
0
 11
0.8977521715238984
 21
-0.1375
 31
0
  0
LINE
  8
0
 62
7
 10
0.8977521715238984
 20
-0.1375
 30
0
 11
0.9045021715238986
 21
-0.1425
 31
0
  0
LINE
  8
0
 62
7
 10
0.9045021715238986
 20
-0.1425
 30
0
 11
0.9090021715238985
 21
-0.15
 31
0
  0
LINE
  8
0
 62
7
 10
0.9090021715238985
 20
-0.15
 30
0
 11
0.9112521715238984
 21
-0.16
 31
0
  0
LINE
  8
0
 62
7
 10
0.9112521715238984
 20
-0.16
 30
0
 11
0.9112521715238984
 21
-0.175
 31
0
  0
LINE
  8
0
 62
7
 10
0.9112521715238984
 20
-0.175
 30
0
 11
0.9090021715238985
 21
-0.185
 31
0
  0
LINE
  8
0
 62
7
 10
0.9090021715238985
 20
-0.185
 30
0
 11
0.9045021715238986
 21
-0.1925
 31
0
  0
LINE
  8
0
 62
7
 10
0.9045021715238986
 20
-0.1925
 30
0
 11
0.8977521715238984
 21
-0.1975
 31
0
  0
LINE
  8
0
 62
7
 10
0.8977521715238984
 20
-0.1975
 30
0
 11
0.8910021715238985
 21
-0.2
 31
0
  0
LINE
  8
0
 62
7
 10
0.8910021715238985
 20
-0.2
 30
0
 11
0.8775021715238984
 21
-0.2
 31
0
  0
LINE
  8
0
 62
7
 10
0.8775021715238984
 20
-0.2
 30
0
 11
0.8685021715238985
 21
-0.1975
 31
0
  0
LINE
  8
0
 62
7
 10
0.8685021715238985
 20
-0.1975
 30
0
 11
0.8617521715238985
 21
-0.1925
 31
0
  0
LINE
  8
0
 62
7
 10
0.8617521715238985
 20
-0.1925
 30
0
 11
0.8572521715238985
 21
-0.185
 31
0
  0
LINE
  8
0
 62
7
 10
0.9382521715238984
 20
-0.125
 30
0
 11
0.9405021715238986
 21
-0.115
 31
0
  0
LINE
  8
0
 62
7
 10
0.9405021715238986
 20
-0.115
 30
0
 11
0.9450021715238984
 21
-0.1075
 31
0
  0
LINE
  8
0
 62
7
 10
0.9450021715238984
 20
-0.1075
 30
0
 11
0.9517521715238986
 21
-0.1025
 31
0
  0
LINE
  8
0
 62
7
 10
0.9517521715238986
 20
-0.1025
 30
0
 11
0.9585021715238986
 21
-0.1
 31
0
  0
LINE
  8
0
 62
7
 10
0.9585021715238986
 20
-0.1
 30
0
 11
0.9720021715238985
 21
-0.1
 31
0
  0
LINE
  8
0
 62
7
 10
0.9720021715238985
 20
-0.1
 30
0
 11
0.9787521715238985
 21
-0.1025
 31
0
  0
LINE
  8
0
 62
7
 10
0.9787521715238985
 20
-0.1025
 30
0
 11
0.9855021715238985
 21
-0.1075
 31
0
  0
LINE
  8
0
 62
7
 10
0.9855021715238985
 20
-0.1075
 30
0
 11
0.9900021715238984
 21
-0.115
 31
0
  0
LINE
  8
0
 62
7
 10
0.9900021715238984
 20
-0.115
 30
0
 11
0.9922521715238984
 21
-0.125
 31
0
  0
LINE
  8
0
 62
7
 10
0.9922521715238984
 20
-0.125
 30
0
 11
0.9922521715238984
 21
-0.175
 31
0
  0
LINE
  8
0
 62
7
 10
0.9922521715238984
 20
-0.175
 30
0
 11
0.9900021715238984
 21
-0.185
 31
0
  0
LINE
  8
0
 62
7
 10
0.9900021715238984
 20
-0.185
 30
0
 11
0.9855021715238985
 21
-0.1925
 31
0
  0
LINE
  8
0
 62
7
 10
0.9855021715238985
 20
-0.1925
 30
0
 11
0.9787521715238985
 21
-0.1975
 31
0
  0
LINE
  8
0
 62
7
 10
0.9787521715238985
 20
-0.1975
 30
0
 11
0.9720021715238985
 21
-0.2
 31
0
  0
LINE
  8
0
 62
7
 10
0.9720021715238985
 20
-0.2
 30
0
 11
0.9585021715238986
 21
-0.2
 31
0
  0
LINE
  8
0
 62
7
 10
0.9585021715238986
 20
-0.2
 30
0
 11
0.9517521715238986
 21
-0.1975
 31
0
  0
LINE
  8
0
 62
7
 10
0.9517521715238986
 20
-0.1975
 30
0
 11
0.9450021715238984
 21
-0.1925
 31
0
  0
LINE
  8
0
 62
7
 10
0.9450021715238984
 20
-0.1925
 30
0
 11
0.9405021715238986
 21
-0.185
 31
0
  0
LINE
  8
0
 62
7
 10
0.9405021715238986
 20
-0.185
 30
0
 11
0.9382521715238984
 21
-0.175
 31
0
  0
LINE
  8
0
 62
7
 10
0.9382521715238984
 20
-0.175
 30
0
 11
0.9382521715238984
 21
-0.125
 31
0
  0
LINE
  8
0
 62
7
 10
1.019252171523898
 20
-0.2
 30
0
 11
1.019252171523898
 21
-0.1
 31
0
  0
LINE
  8
0
 62
7
 10
1.019252171523898
 20
-0.1
 30
0
 11
1.062002171523898
 21
-0.1
 31
0
  0
LINE
  8
0
 62
7
 10
1.062002171523898
 20
-0.1
 30
0
 11
1.071002171523898
 21
-0.1025
 31
0
  0
LINE
  8
0
 62
7
 10
1.071002171523898
 20
-0.1025
 30
0
 11
1.077752171523898
 21
-0.1075
 31
0
  0
LINE
  8
0
 62
7
 10
1.077752171523898
 20
-0.1075
 30
0
 11
1.080002171523898
 21
-0.1125
 31
0
  0
LINE
  8
0
 62
7
 10
1.080002171523898
 20
-0.1125
 30
0
 11
1.082252171523898
 21
-0.12
 31
0
  0
LINE
  8
0
 62
7
 10
1.082252171523898
 20
-0.12
 30
0
 11
1.082252171523898
 21
-0.13
 31
0
  0
LINE
  8
0
 62
7
 10
1.082252171523898
 20
-0.13
 30
0
 11
1.080002171523898
 21
-0.1375
 31
0
  0
LINE
  8
0
 62
7
 10
1.080002171523898
 20
-0.1375
 30
0
 11
1.077752171523898
 21
-0.1425
 31
0
  0
LINE
  8
0
 62
7
 10
1.077752171523898
 20
-0.1425
 30
0
 11
1.071002171523898
 21
-0.1475
 31
0
  0
LINE
  8
0
 62
7
 10
1.071002171523898
 20
-0.1475
 30
0
 11
1.062002171523898
 21
-0.15
 31
0
  0
LINE
  8
0
 62
7
 10
1.062002171523898
 20
-0.15
 30
0
 11
1.055252171523898
 21
-0.15
 31
0
  0
LINE
  8
0
 62
7
 10
1.055252171523898
 20
-0.15
 30
0
 11
1.082252171523898
 21
-0.2
 31
0
  0
LINE
  8
0
 62
7
 10
1.055252171523898
 20
-0.15
 30
0
 11
1.019252171523898
 21
-0.15
 31
0
  0
LINE
  8
0
 62
7
 10
1.100252171523898
 20
-0.115
 30
0
 11
1.104752171523898
 21
-0.1075
 31
0
  0
LINE
  8
0
 62
7
 10
1.104752171523898
 20
-0.1075
 30
0
 11
1.111502171523898
 21
-0.1025
 31
0
  0
LINE
  8
0
 62
7
 10
1.111502171523898
 20
-0.1025
 30
0
 11
1.120502171523898
 21
-0.1
 31
0
  0
LINE
  8
0
 62
7
 10
1.120502171523898
 20
-0.1
 30
0
 11
1.134002171523898
 21
-0.1
 31
0
  0
LINE
  8
0
 62
7
 10
1.134002171523898
 20
-0.1
 30
0
 11
1.143002171523898
 21
-0.1025
 31
0
  0
LINE
  8
0
 62
7
 10
1.143002171523898
 20
-0.1025
 30
0
 11
1.149752171523898
 21
-0.1075
 31
0
  0
LINE
  8
0
 62
7
 10
1.149752171523898
 20
-0.1075
 30
0
 11
1.154252171523898
 21
-0.115
 31
0
  0
LINE
  8
0
 62
7
 10
1.154252171523898
 20
-0.115
 30
0
 11
1.154252171523898
 21
-0.125
 31
0
  0
LINE
  8
0
 62
7
 10
1.154252171523898
 20
-0.125
 30
0
 11
1.149752171523898
 21
-0.135
 31
0
  0
LINE
  8
0
 62
7
 10
1.149752171523898
 20
-0.135
 30
0
 11
1.100252171523898
 21
-0.2
 31
0
  0
LINE
  8
0
 62
7
 10
1.100252171523898
 20
-0.2
 30
0
 11
1.154252171523898
 21
-0.2
 31
0
  0
LINE
  8
0
 62
7
 10
3.051252171523898
 20
-0.2
 30
0
 11
3.051252171523898
 21
-0.1
 31
0
  0
LINE
  8
0
 62
7
 10
3.051252171523898
 20
-0.1
 30
0
 11
3.114252171523898
 21
-0.2
 31
0
  0
LINE
  8
0
 62
7
 10
3.114252171523898
 20
-0.2
 30
0
 11
3.114252171523898
 21
-0.1
 31
0
  0
LINE
  8
0
 62
7
 10
3.195252171523899
 20
-0.2
 30
0
 11
3.141252171523898
 21
-0.2
 31
0
  0
LINE
  8
0
 62
7
 10
3.141252171523898
 20
-0.2
 30
0
 11
3.141252171523898
 21
-0.1
 31
0
  0
LINE
  8
0
 62
7
 10
3.222252171523899
 20
-0.15
 30
0
 11
3.258252171523898
 21
-0.15
 31
0
  0
LINE
  8
0
 62
7
 10
3.258252171523898
 20
-0.15
 30
0
 11
3.262752171523899
 21
-0.15
 31
0
  0
LINE
  8
0
 62
7
 10
3.262752171523899
 20
-0.15
 30
0
 11
3.271752171523898
 21
-0.155
 31
0
  0
LINE
  8
0
 62
7
 10
3.271752171523898
 20
-0.155
 30
0
 11
3.276252171523898
 21
-0.16
 31
0
  0
LINE
  8
0
 62
7
 10
3.276252171523898
 20
-0.16
 30
0
 11
3.280752171523899
 21
-0.17
 31
0
  0
LINE
  8
0
 62
7
 10
3.280752171523899
 20
-0.17
 30
0
 11
3.280752171523899
 21
-0.18
 31
0
  0
LINE
  8
0
 62
7
 10
3.280752171523899
 20
-0.18
 30
0
 11
3.276252171523898
 21
-0.19
 31
0
  0
LINE
  8
0
 62
7
 10
3.276252171523898
 20
-0.19
 30
0
 11
3.271752171523898
 21
-0.195
 31
0
  0
LINE
  8
0
 62
7
 10
3.271752171523898
 20
-0.195
 30
0
 11
3.262752171523899
 21
-0.2
 31
0
  0
LINE
  8
0
 62
7
 10
3.262752171523899
 20
-0.2
 30
0
 11
3.222252171523899
 21
-0.2
 31
0
  0
LINE
  8
0
 62
7
 10
3.222252171523899
 20
-0.2
 30
0
 11
3.222252171523899
 21
-0.15
 31
0
  0
LINE
  8
0
 62
7
 10
3.222252171523899
 20
-0.1
 30
0
 11
3.256002171523899
 21
-0.1
 31
0
  0
LINE
  8
0
 62
7
 10
3.256002171523899
 20
-0.1
 30
0
 11
3.2672521715239
 21
-0.1025
 31
0
  0
LINE
  8
0
 62
7
 10
3.2672521715239
 20
-0.1025
 30
0
 11
3.274002171523898
 21
-0.11
 31
0
  0
LINE
  8
0
 62
7
 10
3.274002171523898
 20
-0.11
 30
0
 11
3.276252171523898
 21
-0.12
 31
0
  0
LINE
  8
0
 62
7
 10
3.276252171523898
 20
-0.12
 30
0
 11
3.276252171523898
 21
-0.13
 31
0
  0
LINE
  8
0
 62
7
 10
3.276252171523898
 20
-0.13
 30
0
 11
3.271752171523898
 21
-0.14
 31
0
  0
LINE
  8
0
 62
7
 10
3.271752171523898
 20
-0.14
 30
0
 11
3.265002171523898
 21
-0.1475
 31
0
  0
LINE
  8
0
 62
7
 10
3.265002171523898
 20
-0.1475
 30
0
 11
3.258252171523898
 21
-0.15
 31
0
  0
LINE
  8
0
 62
7
 10
3.222252171523899
 20
-0.15
 30
0
 11
3.222252171523899
 21
-0.1
 31
0
  0
LINE
  8
0
 62
7
 10
3.422502171523898
 20
-0.1475
 30
0
 11
3.415752171523899
 21
-0.1375
 31
0
  0
LINE
  8
0
 62
7
 10
3.415752171523899
 20
-0.1375
 30
0
 11
3.409002171523898
 21
-0.1325
 31
0
  0
LINE
  8
0
 62
7
 10
3.409002171523898
 20
-0.1325
 30
0
 11
3.4022521715239
 21
-0.13
 31
0
  0
LINE
  8
0
 62
7
 10
3.4022521715239
 20
-0.13
 30
0
 11
3.393252171523899
 21
-0.13
 31
0
  0
LINE
  8
0
 62
7
 10
3.393252171523899
 20
-0.13
 30
0
 11
3.386502171523898
 21
-0.1325
 31
0
  0
LINE
  8
0
 62
7
 10
3.386502171523898
 20
-0.1325
 30
0
 11
3.379752171523899
 21
-0.1375
 31
0
  0
LINE
  8
0
 62
7
 10
3.379752171523899
 20
-0.1375
 30
0
 11
3.373002171523899
 21
-0.1475
 31
0
  0
LINE
  8
0
 62
7
 10
3.373002171523899
 20
-0.1475
 30
0
 11
3.370752171523899
 21
-0.155
 31
0
  0
LINE
  8
0
 62
7
 10
3.370752171523899
 20
-0.155
 30
0
 11
3.370752171523899
 21
-0.175
 31
0
  0
LINE
  8
0
 62
7
 10
3.370752171523899
 20
-0.175
 30
0
 11
3.373002171523899
 21
-0.1825
 31
0
  0
LINE
  8
0
 62
7
 10
3.373002171523899
 20
-0.1825
 30
0
 11
3.379752171523899
 21
-0.1925
 31
0
  0
LINE
  8
0
 62
7
 10
3.379752171523899
 20
-0.1925
 30
0
 11
3.386502171523898
 21
-0.1975
 31
0
  0
LINE
  8
0
 62
7
 10
3.386502171523898
 20
-0.1975
 30
0
 11
3.393252171523899
 21
-0.2
 31
0
  0
LINE
  8
0
 62
7
 10
3.393252171523899
 20
-0.2
 30
0
 11
3.4022521715239
 21
-0.2
 31
0
  0
LINE
  8
0
 62
7
 10
3.4022521715239
 20
-0.2
 30
0
 11
3.409002171523898
 21
-0.1975
 31
0
  0
LINE
  8
0
 62
7
 10
3.409002171523898
 20
-0.1975
 30
0
 11
3.415752171523899
 21
-0.1925
 31
0
  0
LINE
  8
0
 62
7
 10
3.415752171523899
 20
-0.1925
 30
0
 11
3.422502171523898
 21
-0.1825
 31
0
  0
LINE
  8
0
 62
7
 10
3.494502171523898
 20
-0.155
 30
0
 11
3.4922521715239
 21
-0.1475
 31
0
  0
LINE
  8
0
 62
7
 10
3.4922521715239
 20
-0.1475
 30
0
 11
3.485502171523899
 21
-0.1375
 31
0
  0
LINE
  8
0
 62
7
 10
3.485502171523899
 20
-0.1375
 30
0
 11
3.478752171523898
 21
-0.1325
 31
0
  0
LINE
  8
0
 62
7
 10
3.478752171523898
 20
-0.1325
 30
0
 11
3.472002171523899
 21
-0.13
 31
0
  0
LINE
  8
0
 62
7
 10
3.472002171523899
 20
-0.13
 30
0
 11
3.463002171523899
 21
-0.13
 31
0
  0
LINE
  8
0
 62
7
 10
3.463002171523899
 20
-0.13
 30
0
 11
3.456252171523898
 21
-0.1325
 31
0
  0
LINE
  8
0
 62
7
 10
3.456252171523898
 20
-0.1325
 30
0
 11
3.449502171523898
 21
-0.1375
 31
0
  0
LINE
  8
0
 62
7
 10
3.449502171523898
 20
-0.1375
 30
0
 11
3.442752171523898
 21
-0.1475
 31
0
  0
LINE
  8
0
 62
7
 10
3.442752171523898
 20
-0.1475
 30
0
 11
3.440502171523898
 21
-0.155
 31
0
  0
LINE
  8
0
 62
7
 10
3.440502171523898
 20
-0.155
 30
0
 11
3.440502171523898
 21
-0.175
 31
0
  0
LINE
  8
0
 62
7
 10
3.440502171523898
 20
-0.175
 30
0
 11
3.442752171523898
 21
-0.1825
 31
0
  0
LINE
  8
0
 62
7
 10
3.442752171523898
 20
-0.1825
 30
0
 11
3.449502171523898
 21
-0.1925
 31
0
  0
LINE
  8
0
 62
7
 10
3.449502171523898
 20
-0.1925
 30
0
 11
3.456252171523898
 21
-0.1975
 31
0
  0
LINE
  8
0
 62
7
 10
3.456252171523898
 20
-0.1975
 30
0
 11
3.463002171523899
 21
-0.2
 31
0
  0
LINE
  8
0
 62
7
 10
3.463002171523899
 20
-0.2
 30
0
 11
3.472002171523899
 21
-0.2
 31
0
  0
LINE
  8
0
 62
7
 10
3.472002171523899
 20
-0.2
 30
0
 11
3.478752171523898
 21
-0.1975
 31
0
  0
LINE
  8
0
 62
7
 10
3.478752171523898
 20
-0.1975
 30
0
 11
3.485502171523899
 21
-0.1925
 31
0
  0
LINE
  8
0
 62
7
 10
3.485502171523899
 20
-0.1925
 30
0
 11
3.4922521715239
 21
-0.1825
 31
0
  0
LINE
  8
0
 62
7
 10
3.4922521715239
 20
-0.1825
 30
0
 11
3.494502171523898
 21
-0.175
 31
0
  0
LINE
  8
0
 62
7
 10
3.494502171523898
 20
-0.13
 30
0
 11
3.494502171523898
 21
-0.155
 31
0
  0
LINE
  8
0
 62
7
 10
3.494502171523898
 20
-0.1975
 30
0
 11
3.496752171523898
 21
-0.2
 31
0
  0
LINE
  8
0
 62
7
 10
3.496752171523898
 20
-0.2
 30
0
 11
3.499002171523898
 21
-0.2
 31
0
  0
LINE
  8
0
 62
7
 10
3.494502171523898
 20
-0.175
 30
0
 11
3.494502171523898
 21
-0.1975
 31
0
  0
LINE
  8
0
 62
7
 10
3.494502171523898
 20
-0.155
 30
0
 11
3.494502171523898
 21
-0.175
 31
0
  0
LINE
  8
0
 62
7
 10
3.517002171523898
 20
-0.2
 30
0
 11
3.517002171523898
 21
-0.1975
 31
0
  0
LINE
  8
0
 62
7
 10
3.517002171523898
 20
-0.1975
 30
0
 11
3.519252171523898
 21
-0.1975
 31
0
  0
LINE
  8
0
 62
7
 10
3.519252171523898
 20
-0.1975
 30
0
 11
3.519252171523898
 21
-0.2
 31
0
  0
LINE
  8
0
 62
7
 10
3.519252171523898
 20
-0.2
 30
0
 11
3.517002171523898
 21
-0.2
 31
0
  0
LINE
  8
0
 62
7
 10
3.670002171523898
 20
-0.1
 30
0
 11
3.620502171523899
 21
-0.1
 31
0
  0
LINE
  8
0
 62
7
 10
3.620502171523899
 20
-0.1
 30
0
 11
3.620502171523899
 21
-0.15
 31
0
  0
LINE
  8
0
 62
7
 10
3.620502171523899
 20
-0.15
 30
0
 11
3.625002171523898
 21
-0.1425
 31
0
  0
LINE
  8
0
 62
7
 10
3.625002171523898
 20
-0.1425
 30
0
 11
3.631752171523898
 21
-0.1375
 31
0
  0
LINE
  8
0
 62
7
 10
3.631752171523898
 20
-0.1375
 30
0
 11
3.640752171523899
 21
-0.135
 31
0
  0
LINE
  8
0
 62
7
 10
3.640752171523899
 20
-0.135
 30
0
 11
3.654252171523899
 21
-0.135
 31
0
  0
LINE
  8
0
 62
7
 10
3.654252171523899
 20
-0.135
 30
0
 11
3.661002171523899
 21
-0.1375
 31
0
  0
LINE
  8
0
 62
7
 10
3.661002171523899
 20
-0.1375
 30
0
 11
3.667752171523898
 21
-0.1425
 31
0
  0
LINE
  8
0
 62
7
 10
3.667752171523898
 20
-0.1425
 30
0
 11
3.672252171523899
 21
-0.15
 31
0
  0
LINE
  8
0
 62
7
 10
3.672252171523899
 20
-0.15
 30
0
 11
3.674502171523899
 21
-0.16
 31
0
  0
LINE
  8
0
 62
7
 10
3.674502171523899
 20
-0.16
 30
0
 11
3.674502171523899
 21
-0.175
 31
0
  0
LINE
  8
0
 62
7
 10
3.674502171523899
 20
-0.175
 30
0
 11
3.672252171523899
 21
-0.185
 31
0
  0
LINE
  8
0
 62
7
 10
3.672252171523899
 20
-0.185
 30
0
 11
3.667752171523898
 21
-0.1925
 31
0
  0
LINE
  8
0
 62
7
 10
3.667752171523898
 20
-0.1925
 30
0
 11
3.661002171523899
 21
-0.1975
 31
0
  0
LINE
  8
0
 62
7
 10
3.661002171523899
 20
-0.1975
 30
0
 11
3.654252171523899
 21
-0.2
 31
0
  0
LINE
  8
0
 62
7
 10
3.654252171523899
 20
-0.2
 30
0
 11
3.640752171523899
 21
-0.2
 31
0
  0
LINE
  8
0
 62
7
 10
3.640752171523899
 20
-0.2
 30
0
 11
3.631752171523898
 21
-0.1975
 31
0
  0
LINE
  8
0
 62
7
 10
3.631752171523898
 20
-0.1975
 30
0
 11
3.625002171523898
 21
-0.1925
 31
0
  0
LINE
  8
0
 62
7
 10
3.625002171523898
 20
-0.1925
 30
0
 11
3.620502171523899
 21
-0.185
 31
0
  0
LINE
  8
0
 62
7
 10
3.742002171523898
 20
-0.1
 30
0
 11
3.701502171523898
 21
-0.18
 31
0
  0
LINE
  8
0
 62
7
 10
3.701502171523898
 20
-0.18
 30
0
 11
3.755502171523898
 21
-0.18
 31
0
  0
LINE
  8
0
 62
7
 10
3.742002171523898
 20
-0.16
 30
0
 11
3.742002171523898
 21
-0.2
 31
0
  0
LINE
  8
0
 62
7
 10
3.906252171523898
 20
-0.1475
 30
0
 11
3.899502171523899
 21
-0.1375
 31
0
  0
LINE
  8
0
 62
7
 10
3.899502171523899
 20
-0.1375
 30
0
 11
3.892752171523898
 21
-0.1325
 31
0
  0
LINE
  8
0
 62
7
 10
3.892752171523898
 20
-0.1325
 30
0
 11
3.886002171523899
 21
-0.13
 31
0
  0
LINE
  8
0
 62
7
 10
3.886002171523899
 20
-0.13
 30
0
 11
3.877002171523898
 21
-0.13
 31
0
  0
LINE
  8
0
 62
7
 10
3.877002171523898
 20
-0.13
 30
0
 11
3.870252171523898
 21
-0.1325
 31
0
  0
LINE
  8
0
 62
7
 10
3.870252171523898
 20
-0.1325
 30
0
 11
3.8635021715239
 21
-0.1375
 31
0
  0
LINE
  8
0
 62
7
 10
3.8635021715239
 20
-0.1375
 30
0
 11
3.856752171523898
 21
-0.1475
 31
0
  0
LINE
  8
0
 62
7
 10
3.856752171523898
 20
-0.1475
 30
0
 11
3.854502171523898
 21
-0.155
 31
0
  0
LINE
  8
0
 62
7
 10
3.854502171523898
 20
-0.155
 30
0
 11
3.854502171523898
 21
-0.175
 31
0
  0
LINE
  8
0
 62
7
 10
3.854502171523898
 20
-0.175
 30
0
 11
3.856752171523898
 21
-0.1825
 31
0
  0
LINE
  8
0
 62
7
 10
3.856752171523898
 20
-0.1825
 30
0
 11
3.8635021715239
 21
-0.1925
 31
0
  0
LINE
  8
0
 62
7
 10
3.8635021715239
 20
-0.1925
 30
0
 11
3.870252171523898
 21
-0.1975
 31
0
  0
LINE
  8
0
 62
7
 10
3.870252171523898
 20
-0.1975
 30
0
 11
3.877002171523898
 21
-0.2
 31
0
  0
LINE
  8
0
 62
7
 10
3.877002171523898
 20
-0.2
 30
0
 11
3.886002171523899
 21
-0.2
 31
0
  0
LINE
  8
0
 62
7
 10
3.886002171523899
 20
-0.2
 30
0
 11
3.892752171523898
 21
-0.1975
 31
0
  0
LINE
  8
0
 62
7
 10
3.892752171523898
 20
-0.1975
 30
0
 11
3.899502171523899
 21
-0.1925
 31
0
  0
LINE
  8
0
 62
7
 10
3.899502171523899
 20
-0.1925
 30
0
 11
3.906252171523898
 21
-0.1825
 31
0
  0
LINE
  8
0
 62
7
 10
3.9647521715239
 20
-0.155
 30
0
 11
3.9647521715239
 21
-0.2
 31
0
  0
LINE
  8
0
 62
7
 10
3.924252171523898
 20
-0.13
 30
0
 11
3.924252171523898
 21
-0.155
 31
0
  0
LINE
  8
0
 62
7
 10
3.924252171523898
 20
-0.2
 30
0
 11
3.924252171523898
 21
-0.155
 31
0
  0
LINE
  8
0
 62
7
 10
3.924252171523898
 20
-0.155
 30
0
 11
3.926502171523898
 21
-0.1425
 31
0
  0
LINE
  8
0
 62
7
 10
3.926502171523898
 20
-0.1425
 30
0
 11
3.928752171523898
 21
-0.1375
 31
0
  0
LINE
  8
0
 62
7
 10
3.928752171523898
 20
-0.1375
 30
0
 11
3.933252171523899
 21
-0.1325
 31
0
  0
LINE
  8
0
 62
7
 10
3.933252171523899
 20
-0.1325
 30
0
 11
3.940002171523898
 21
-0.13
 31
0
  0
LINE
  8
0
 62
7
 10
3.940002171523898
 20
-0.13
 30
0
 11
3.949002171523898
 21
-0.13
 31
0
  0
LINE
  8
0
 62
7
 10
3.949002171523898
 20
-0.13
 30
0
 11
3.955752171523899
 21
-0.1325
 31
0
  0
LINE
  8
0
 62
7
 10
3.955752171523899
 20
-0.1325
 30
0
 11
3.960252171523899
 21
-0.1375
 31
0
  0
LINE
  8
0
 62
7
 10
3.960252171523899
 20
-0.1375
 30
0
 11
3.962502171523898
 21
-0.1425
 31
0
  0
LINE
  8
0
 62
7
 10
3.962502171523898
 20
-0.1425
 30
0
 11
3.9647521715239
 21
-0.155
 31
0
  0
LINE
  8
0
 62
7
 10
3.9647521715239
 20
-0.155
 30
0
 11
3.967002171523898
 21
-0.1425
 31
0
  0
LINE
  8
0
 62
7
 10
3.967002171523898
 20
-0.1425
 30
0
 11
3.969252171523898
 21
-0.1375
 31
0
  0
LINE
  8
0
 62
7
 10
3.969252171523898
 20
-0.1375
 30
0
 11
3.973752171523898
 21
-0.1325
 31
0
  0
LINE
  8
0
 62
7
 10
3.973752171523898
 20
-0.1325
 30
0
 11
3.980502171523898
 21
-0.13
 31
0
  0
LINE
  8
0
 62
7
 10
3.980502171523898
 20
-0.13
 30
0
 11
3.989502171523899
 21
-0.13
 31
0
  0
LINE
  8
0
 62
7
 10
3.989502171523899
 20
-0.13
 30
0
 11
3.996252171523898
 21
-0.1325
 31
0
  0
LINE
  8
0
 62
7
 10
4.000752171523899
 20
-0.1375
 30
0
 11
3.996252171523898
 21
-0.1325
 31
0
  0
LINE
  8
0
 62
7
 10
3.996252171523898
 20
-0.1325
 30
0
 11
4.000752171523899
 21
-0.1375
 31
0
  0
LINE
  8
0
 62
7
 10
4.000752171523899
 20
-0.1375
 30
0
 11
4.003002171523899
 21
-0.1425
 31
0
  0
LINE
  8
0
 62
7
 10
4.003002171523899
 20
-0.1425
 30
0
 11
4.005252171523899
 21
-0.155
 31
0
  0
LINE
  8
0
 62
7
 10
4.005252171523899
 20
-0.155
 30
0
 11
4.005252171523899
 21
-0.2
 31
0
  0
LINE
  8
0
 62
7
 10
4.095252171523899
 20
-0.175
 30
0
 11
4.097502171523899
 21
-0.1825
 31
0
  0
LINE
  8
0
 62
7
 10
4.097502171523899
 20
-0.1825
 30
0
 11
4.104252171523899
 21
-0.1925
 31
0
  0
LINE
  8
0
 62
7
 10
4.104252171523899
 20
-0.1925
 30
0
 11
4.111002171523899
 21
-0.1975
 31
0
  0
LINE
  8
0
 62
7
 10
4.111002171523899
 20
-0.1975
 30
0
 11
4.117752171523898
 21
-0.2
 31
0
  0
LINE
  8
0
 62
7
 10
4.117752171523898
 20
-0.2
 30
0
 11
4.126752171523899
 21
-0.2
 31
0
  0
LINE
  8
0
 62
7
 10
4.126752171523899
 20
-0.2
 30
0
 11
4.1335021715239
 21
-0.1975
 31
0
  0
LINE
  8
0
 62
7
 10
4.1335021715239
 20
-0.1975
 30
0
 11
4.140252171523898
 21
-0.1925
 31
0
  0
LINE
  8
0
 62
7
 10
4.140252171523898
 20
-0.1925
 30
0
 11
4.147002171523899
 21
-0.1825
 31
0
  0
LINE
  8
0
 62
7
 10
4.147002171523899
 20
-0.1825
 30
0
 11
4.149252171523898
 21
-0.175
 31
0
  0
LINE
  8
0
 62
7
 10
4.149252171523898
 20
-0.175
 30
0
 11
4.149252171523898
 21
-0.155
 31
0
  0
LINE
  8
0
 62
7
 10
4.149252171523898
 20
-0.155
 30
0
 11
4.147002171523899
 21
-0.1475
 31
0
  0
LINE
  8
0
 62
7
 10
4.147002171523899
 20
-0.1475
 30
0
 11
4.140252171523898
 21
-0.1375
 31
0
  0
LINE
  8
0
 62
7
 10
4.140252171523898
 20
-0.1375
 30
0
 11
4.1335021715239
 21
-0.1325
 31
0
  0
LINE
  8
0
 62
7
 10
4.1335021715239
 20
-0.1325
 30
0
 11
4.126752171523899
 21
-0.13
 31
0
  0
LINE
  8
0
 62
7
 10
4.126752171523899
 20
-0.13
 30
0
 11
4.117752171523898
 21
-0.13
 31
0
  0
LINE
  8
0
 62
7
 10
4.117752171523898
 20
-0.13
 30
0
 11
4.111002171523899
 21
-0.1325
 31
0
  0
LINE
  8
0
 62
7
 10
4.111002171523899
 20
-0.1325
 30
0
 11
4.104252171523899
 21
-0.1375
 31
0
  0
LINE
  8
0
 62
7
 10
4.104252171523899
 20
-0.1375
 30
0
 11
4.097502171523899
 21
-0.1475
 31
0
  0
LINE
  8
0
 62
7
 10
4.097502171523899
 20
-0.1475
 30
0
 11
4.095252171523899
 21
-0.155
 31
0
  0
LINE
  8
0
 62
7
 10
4.095252171523899
 20
-0.1
 30
0
 11
4.095252171523899
 21
-0.155
 31
0
  0
LINE
  8
0
 62
7
 10
4.095252171523899
 20
-0.155
 30
0
 11
4.095252171523899
 21
-0.2
 31
0
  0
LINE
  8
0
 62
7
 10
4.221252171523899
 20
-0.1825
 30
0
 11
4.214502171523899
 21
-0.1925
 31
0
  0
LINE
  8
0
 62
7
 10
4.214502171523899
 20
-0.1925
 30
0
 11
4.207752171523898
 21
-0.1975
 31
0
  0
LINE
  8
0
 62
7
 10
4.207752171523898
 20
-0.1975
 30
0
 11
4.198752171523899
 21
-0.2
 31
0
  0
LINE
  8
0
 62
7
 10
4.198752171523899
 20
-0.2
 30
0
 11
4.189752171523899
 21
-0.2
 31
0
  0
LINE
  8
0
 62
7
 10
4.189752171523899
 20
-0.2
 30
0
 11
4.183002171523898
 21
-0.1975
 31
0
  0
LINE
  8
0
 62
7
 10
4.183002171523898
 20
-0.1975
 30
0
 11
4.176252171523898
 21
-0.1925
 31
0
  0
LINE
  8
0
 62
7
 10
4.176252171523898
 20
-0.1925
 30
0
 11
4.169502171523898
 21
-0.1825
 31
0
  0
LINE
  8
0
 62
7
 10
4.169502171523898
 20
-0.1825
 30
0
 11
4.167252171523899
 21
-0.175
 31
0
  0
LINE
  8
0
 62
7
 10
4.167252171523899
 20
-0.175
 30
0
 11
4.167252171523899
 21
-0.165
 31
0
  0
LINE
  8
0
 62
7
 10
4.167252171523899
 20
-0.155
 30
0
 11
4.169502171523898
 21
-0.1475
 31
0
  0
LINE
  8
0
 62
7
 10
4.169502171523898
 20
-0.1475
 30
0
 11
4.176252171523898
 21
-0.1375
 31
0
  0
LINE
  8
0
 62
7
 10
4.176252171523898
 20
-0.1375
 30
0
 11
4.183002171523898
 21
-0.1325
 31
0
  0
LINE
  8
0
 62
7
 10
4.183002171523898
 20
-0.1325
 30
0
 11
4.189752171523899
 21
-0.13
 31
0
  0
LINE
  8
0
 62
7
 10
4.189752171523899
 20
-0.13
 30
0
 11
4.198752171523899
 21
-0.13
 31
0
  0
LINE
  8
0
 62
7
 10
4.198752171523899
 20
-0.13
 30
0
 11
4.205502171523898
 21
-0.1325
 31
0
  0
LINE
  8
0
 62
7
 10
4.205502171523898
 20
-0.1325
 30
0
 11
4.212252171523899
 21
-0.1375
 31
0
  0
LINE
  8
0
 62
7
 10
4.212252171523899
 20
-0.1375
 30
0
 11
4.219002171523899
 21
-0.1475
 31
0
  0
LINE
  8
0
 62
7
 10
4.219002171523899
 20
-0.1475
 30
0
 11
4.221252171523899
 21
-0.155
 31
0
  0
LINE
  8
0
 62
7
 10
4.221252171523899
 20
-0.155
 30
0
 11
4.221252171523899
 21
-0.165
 31
0
  0
LINE
  8
0
 62
7
 10
4.221252171523899
 20
-0.165
 30
0
 11
4.167252171523899
 21
-0.165
 31
0
  0
LINE
  8
0
 62
7
 10
4.167252171523899
 20
-0.165
 30
0
 11
4.167252171523899
 21
-0.155
 31
0
  0
LINE
  8
0
 62
7
 10
4.239252171523899
 20
-0.1
 30
0
 11
4.239252171523899
 21
-0.105
 31
0
  0
LINE
  8
0
 62
7
 10
4.239252171523899
 20
-0.13
 30
0
 11
4.239252171523899
 21
-0.2
 31
0
  0
LINE
  8
0
 62
7
 10
4.329252171523899
 20
-0.1
 30
0
 11
4.329252171523899
 21
-0.15
 31
0
  0
LINE
  8
0
 62
7
 10
4.329252171523899
 20
-0.15
 30
0
 11
4.392252171523899
 21
-0.15
 31
0
  0
LINE
  8
0
 62
7
 10
4.392252171523899
 20
-0.1
 30
0
 11
4.392252171523899
 21
-0.15
 31
0
  0
LINE
  8
0
 62
7
 10
4.392252171523899
 20
-0.15
 30
0
 11
4.392252171523899
 21
-0.2
 31
0
  0
LINE
  8
0
 62
7
 10
4.329252171523899
 20
-0.15
 30
0
 11
4.329252171523899
 21
-0.2
 31
0
  0
LINE
  8
0
 62
7
 10
4.473252171523899
 20
-0.155
 30
0
 11
4.471002171523899
 21
-0.1475
 31
0
  0
LINE
  8
0
 62
7
 10
4.471002171523899
 20
-0.1475
 30
0
 11
4.464252171523898
 21
-0.1375
 31
0
  0
LINE
  8
0
 62
7
 10
4.464252171523898
 20
-0.1375
 30
0
 11
4.457502171523898
 21
-0.1325
 31
0
  0
LINE
  8
0
 62
7
 10
4.457502171523898
 20
-0.1325
 30
0
 11
4.450752171523898
 21
-0.13
 31
0
  0
LINE
  8
0
 62
7
 10
4.450752171523898
 20
-0.13
 30
0
 11
4.441752171523898
 21
-0.13
 31
0
  0
LINE
  8
0
 62
7
 10
4.441752171523898
 20
-0.13
 30
0
 11
4.435002171523898
 21
-0.1325
 31
0
  0
LINE
  8
0
 62
7
 10
4.435002171523898
 20
-0.1325
 30
0
 11
4.428252171523899
 21
-0.1375
 31
0
  0
LINE
  8
0
 62
7
 10
4.428252171523899
 20
-0.1375
 30
0
 11
4.421502171523898
 21
-0.1475
 31
0
  0
LINE
  8
0
 62
7
 10
4.421502171523898
 20
-0.1475
 30
0
 11
4.419252171523898
 21
-0.155
 31
0
  0
LINE
  8
0
 62
7
 10
4.419252171523898
 20
-0.155
 30
0
 11
4.419252171523898
 21
-0.175
 31
0
  0
LINE
  8
0
 62
7
 10
4.419252171523898
 20
-0.175
 30
0
 11
4.421502171523898
 21
-0.1825
 31
0
  0
LINE
  8
0
 62
7
 10
4.421502171523898
 20
-0.1825
 30
0
 11
4.428252171523899
 21
-0.1925
 31
0
  0
LINE
  8
0
 62
7
 10
4.428252171523899
 20
-0.1925
 30
0
 11
4.435002171523898
 21
-0.1975
 31
0
  0
LINE
  8
0
 62
7
 10
4.435002171523898
 20
-0.1975
 30
0
 11
4.441752171523898
 21
-0.2
 31
0
  0
LINE
  8
0
 62
7
 10
4.441752171523898
 20
-0.2
 30
0
 11
4.450752171523898
 21
-0.2
 31
0
  0
LINE
  8
0
 62
7
 10
4.450752171523898
 20
-0.2
 30
0
 11
4.457502171523898
 21
-0.1975
 31
0
  0
LINE
  8
0
 62
7
 10
4.457502171523898
 20
-0.1975
 30
0
 11
4.464252171523898
 21
-0.1925
 31
0
  0
LINE
  8
0
 62
7
 10
4.464252171523898
 20
-0.1925
 30
0
 11
4.471002171523899
 21
-0.1825
 31
0
  0
LINE
  8
0
 62
7
 10
4.471002171523899
 20
-0.1825
 30
0
 11
4.473252171523899
 21
-0.175
 31
0
  0
LINE
  8
0
 62
7
 10
4.473252171523899
 20
-0.175
 30
0
 11
4.473252171523899
 21
-0.155
 31
0
  0
LINE
  8
0
 62
7
 10
4.491252171523898
 20
-0.1
 30
0
 11
4.491252171523898
 21
-0.185
 31
0
  0
LINE
  8
0
 62
7
 10
4.491252171523898
 20
-0.185
 30
0
 11
4.493502171523899
 21
-0.1975
 31
0
  0
LINE
  8
0
 62
7
 10
4.493502171523899
 20
-0.1975
 30
0
 11
4.498002171523899
 21
-0.2
 31
0
  0
LINE
  8
0
 62
7
 10
4.498002171523899
 20
-0.2
 30
0
 11
4.500252171523899
 21
-0.2
 31
0
  0
LINE
  8
0
 62
7
 10
4.518252171523899
 20
-0.13
 30
0
 11
4.572252171523899
 21
-0.13
 31
0
  0
LINE
  8
0
 62
7
 10
4.572252171523899
 20
-0.13
 30
0
 11
4.518252171523899
 21
-0.2
 31
0
  0
LINE
  8
0
 62
7
 10
4.518252171523899
 20
-0.2
 30
0
 11
4.572252171523899
 21
-0.2
 31
0
  0
LINE
  8
0
 62
7
 10
4.653252171523898
 20
-0.145
 30
0
 11
4.648752171523898
 21
-0.1375
 31
0
  0
LINE
  8
0
 62
7
 10
4.648752171523898
 20
-0.1375
 30
0
 11
4.642002171523898
 21
-0.1325
 31
0
  0
LINE
  8
0
 62
7
 10
4.642002171523898
 20
-0.1325
 30
0
 11
4.630752171523898
 21
-0.13
 31
0
  0
LINE
  8
0
 62
7
 10
4.630752171523898
 20
-0.13
 30
0
 11
4.621752171523898
 21
-0.13
 31
0
  0
LINE
  8
0
 62
7
 10
4.621752171523898
 20
-0.13
 30
0
 11
4.612752171523899
 21
-0.1325
 31
0
  0
LINE
  8
0
 62
7
 10
4.612752171523899
 20
-0.1325
 30
0
 11
4.606002171523899
 21
-0.1375
 31
0
  0
LINE
  8
0
 62
7
 10
4.606002171523899
 20
-0.1375
 30
0
 11
4.601502171523898
 21
-0.1425
 31
0
  0
LINE
  8
0
 62
7
 10
4.601502171523898
 20
-0.1425
 30
0
 11
4.599252171523898
 21
-0.1475
 31
0
  0
LINE
  8
0
 62
7
 10
4.599252171523898
 20
-0.1475
 30
0
 11
4.599252171523898
 21
-0.1525
 31
0
  0
LINE
  8
0
 62
7
 10
4.599252171523898
 20
-0.1525
 30
0
 11
4.601502171523898
 21
-0.1575
 31
0
  0
LINE
  8
0
 62
7
 10
4.601502171523898
 20
-0.1575
 30
0
 11
4.606002171523899
 21
-0.16
 31
0
  0
LINE
  8
0
 62
7
 10
4.606002171523899
 20
-0.16
 30
0
 11
4.646502171523898
 21
-0.17
 31
0
  0
LINE
  8
0
 62
7
 10
4.646502171523898
 20
-0.17
 30
0
 11
4.651002171523899
 21
-0.1725
 31
0
  0
LINE
  8
0
 62
7
 10
4.651002171523899
 20
-0.1725
 30
0
 11
4.653252171523898
 21
-0.1775
 31
0
  0
LINE
  8
0
 62
7
 10
4.653252171523898
 20
-0.1775
 30
0
 11
4.653252171523898
 21
-0.1825
 31
0
  0
LINE
  8
0
 62
7
 10
4.653252171523898
 20
-0.1825
 30
0
 11
4.651002171523899
 21
-0.1875
 31
0
  0
LINE
  8
0
 62
7
 10
4.651002171523899
 20
-0.1875
 30
0
 11
4.646502171523898
 21
-0.1925
 31
0
  0
LINE
  8
0
 62
7
 10
4.646502171523898
 20
-0.1925
 30
0
 11
4.6397521715239
 21
-0.1975
 31
0
  0
LINE
  8
0
 62
7
 10
4.6397521715239
 20
-0.1975
 30
0
 11
4.630752171523898
 21
-0.2
 31
0
  0
LINE
  8
0
 62
7
 10
4.630752171523898
 20
-0.2
 30
0
 11
4.621752171523898
 21
-0.2
 31
0
  0
LINE
  8
0
 62
7
 10
4.621752171523898
 20
-0.2
 30
0
 11
4.610502171523899
 21
-0.1975
 31
0
  0
LINE
  8
0
 62
7
 10
4.610502171523899
 20
-0.1975
 30
0
 11
4.603752171523898
 21
-0.1925
 31
0
  0
LINE
  8
0
 62
7
 10
4.603752171523898
 20
-0.1925
 30
0
 11
4.599252171523898
 21
-0.185
 31
0
  0
LINE
  8
0
 62
7
 10
4.680252171523898
 20
-0.1
 30
0
 11
4.680252171523898
 21
-0.185
 31
0
  0
LINE
  8
0
 62
7
 10
4.680252171523898
 20
-0.185
 30
0
 11
4.682502171523899
 21
-0.1975
 31
0
  0
LINE
  8
0
 62
7
 10
4.682502171523899
 20
-0.1975
 30
0
 11
4.687002171523899
 21
-0.2
 31
0
  0
LINE
  8
0
 62
7
 10
4.687002171523899
 20
-0.2
 30
0
 11
4.689252171523899
 21
-0.2
 31
0
  0
LINE
  8
0
 62
7
 10
4.671252171523899
 20
-0.13
 30
0
 11
4.689252171523899
 21
-0.13
 31
0
  0
LINE
  8
0
 62
7
 10
4.761252171523899
 20
-0.13
 30
0
 11
4.761252171523899
 21
-0.175
 31
0
  0
LINE
  8
0
 62
7
 10
4.7072521715239
 20
-0.13
 30
0
 11
4.7072521715239
 21
-0.175
 31
0
  0
LINE
  8
0
 62
7
 10
4.7072521715239
 20
-0.175
 30
0
 11
4.709502171523899
 21
-0.1825
 31
0
  0
LINE
  8
0
 62
7
 10
4.709502171523899
 20
-0.1825
 30
0
 11
4.716252171523898
 21
-0.1925
 31
0
  0
LINE
  8
0
 62
7
 10
4.716252171523898
 20
-0.1925
 30
0
 11
4.723002171523898
 21
-0.1975
 31
0
  0
LINE
  8
0
 62
7
 10
4.723002171523898
 20
-0.1975
 30
0
 11
4.729752171523899
 21
-0.2
 31
0
  0
LINE
  8
0
 62
7
 10
4.729752171523899
 20
-0.2
 30
0
 11
4.738752171523898
 21
-0.2
 31
0
  0
LINE
  8
0
 62
7
 10
4.738752171523898
 20
-0.2
 30
0
 11
4.745502171523898
 21
-0.1975
 31
0
  0
LINE
  8
0
 62
7
 10
4.745502171523898
 20
-0.1975
 30
0
 11
4.752252171523899
 21
-0.1925
 31
0
  0
LINE
  8
0
 62
7
 10
4.752252171523899
 20
-0.1925
 30
0
 11
4.759002171523899
 21
-0.1825
 31
0
  0
LINE
  8
0
 62
7
 10
4.759002171523899
 20
-0.1825
 30
0
 11
4.761252171523899
 21
-0.175
 31
0
  0
LINE
  8
0
 62
7
 10
4.761252171523899
 20
-0.175
 30
0
 11
4.761252171523899
 21
-0.2
 31
0
  0
LINE
  8
0
 62
7
 10
4.779252171523899
 20
-0.135
 30
0
 11
4.806252171523898
 21
-0.135
 31
0
  0
LINE
  8
0
 62
7
 10
4.788252171523898
 20
-0.2
 30
0
 11
4.788252171523898
 21
-0.1175
 31
0
  0
LINE
  8
0
 62
7
 10
4.788252171523898
 20
-0.1175
 30
0
 11
4.790502171523898
 21
-0.1075
 31
0
  0
LINE
  8
0
 62
7
 10
4.790502171523898
 20
-0.1075
 30
0
 11
4.795002171523898
 21
-0.1025
 31
0
  0
LINE
  8
0
 62
7
 10
4.795002171523898
 20
-0.1025
 30
0
 11
4.801752171523899
 21
-0.1
 31
0
  0
LINE
  8
0
 62
7
 10
4.801752171523899
 20
-0.1
 30
0
 11
4.806252171523898
 21
-0.1
 31
0
  0
LINE
  8
0
 62
7
 10
4.878252171523899
 20
-0.1825
 30
0
 11
4.871502171523899
 21
-0.1925
 31
0
  0
LINE
  8
0
 62
7
 10
4.871502171523899
 20
-0.1925
 30
0
 11
4.8647521715239
 21
-0.1975
 31
0
  0
LINE
  8
0
 62
7
 10
4.8647521715239
 20
-0.1975
 30
0
 11
4.855752171523899
 21
-0.2
 31
0
  0
LINE
  8
0
 62
7
 10
4.855752171523899
 20
-0.2
 30
0
 11
4.846752171523899
 21
-0.2
 31
0
  0
LINE
  8
0
 62
7
 10
4.846752171523899
 20
-0.2
 30
0
 11
4.840002171523899
 21
-0.1975
 31
0
  0
LINE
  8
0
 62
7
 10
4.840002171523899
 20
-0.1975
 30
0
 11
4.833252171523899
 21
-0.1925
 31
0
  0
LINE
  8
0
 62
7
 10
4.833252171523899
 20
-0.1925
 30
0
 11
4.826502171523899
 21
-0.1825
 31
0
  0
LINE
  8
0
 62
7
 10
4.826502171523899
 20
-0.1825
 30
0
 11
4.824252171523899
 21
-0.175
 31
0
  0
LINE
  8
0
 62
7
 10
4.824252171523899
 20
-0.175
 30
0
 11
4.824252171523899
 21
-0.165
 31
0
  0
LINE
  8
0
 62
7
 10
4.824252171523899
 20
-0.155
 30
0
 11
4.826502171523899
 21
-0.1475
 31
0
  0
LINE
  8
0
 62
7
 10
4.826502171523899
 20
-0.1475
 30
0
 11
4.833252171523899
 21
-0.1375
 31
0
  0
LINE
  8
0
 62
7
 10
4.833252171523899
 20
-0.1375
 30
0
 11
4.840002171523899
 21
-0.1325
 31
0
  0
LINE
  8
0
 62
7
 10
4.840002171523899
 20
-0.1325
 30
0
 11
4.846752171523899
 21
-0.13
 31
0
  0
LINE
  8
0
 62
7
 10
4.846752171523899
 20
-0.13
 30
0
 11
4.855752171523899
 21
-0.13
 31
0
  0
LINE
  8
0
 62
7
 10
4.855752171523899
 20
-0.13
 30
0
 11
4.862502171523898
 21
-0.1325
 31
0
  0
LINE
  8
0
 62
7
 10
4.862502171523898
 20
-0.1325
 30
0
 11
4.869252171523899
 21
-0.1375
 31
0
  0
LINE
  8
0
 62
7
 10
4.869252171523899
 20
-0.1375
 30
0
 11
4.8760021715239
 21
-0.1475
 31
0
  0
LINE
  8
0
 62
7
 10
4.8760021715239
 20
-0.1475
 30
0
 11
4.878252171523899
 21
-0.155
 31
0
  0
LINE
  8
0
 62
7
 10
4.878252171523899
 20
-0.155
 30
0
 11
4.878252171523899
 21
-0.165
 31
0
  0
LINE
  8
0
 62
7
 10
4.878252171523899
 20
-0.165
 30
0
 11
4.824252171523899
 21
-0.165
 31
0
  0
LINE
  8
0
 62
7
 10
4.824252171523899
 20
-0.165
 30
0
 11
4.824252171523899
 21
-0.155
 31
0
  0
LINE
  8
0
 62
7
 10
4.896252171523899
 20
-0.155
 30
0
 11
4.8985021715239
 21
-0.1475
 31
0
  0
LINE
  8
0
 62
7
 10
4.8985021715239
 20
-0.1475
 30
0
 11
4.905252171523898
 21
-0.1375
 31
0
  0
LINE
  8
0
 62
7
 10
4.905252171523898
 20
-0.1375
 30
0
 11
4.912002171523898
 21
-0.1325
 31
0
  0
LINE
  8
0
 62
7
 10
4.912002171523898
 20
-0.1325
 30
0
 11
4.918752171523899
 21
-0.13
 31
0
  0
LINE
  8
0
 62
7
 10
4.918752171523899
 20
-0.13
 30
0
 11
4.927752171523899
 21
-0.13
 31
0
  0
LINE
  8
0
 62
7
 10
4.927752171523899
 20
-0.13
 30
0
 11
4.934502171523899
 21
-0.1325
 31
0
  0
LINE
  8
0
 62
7
 10
4.934502171523899
 20
-0.1325
 30
0
 11
4.941252171523899
 21
-0.1375
 31
0
  0
LINE
  8
0
 62
7
 10
4.941252171523899
 20
-0.1375
 30
0
 11
4.948002171523899
 21
-0.1475
 31
0
  0
LINE
  8
0
 62
7
 10
4.948002171523899
 20
-0.1475
 30
0
 11
4.950252171523899
 21
-0.155
 31
0
  0
LINE
  8
0
 62
7
 10
4.950252171523899
 20
-0.155
 30
0
 11
4.950252171523899
 21
-0.2
 31
0
  0
LINE
  8
0
 62
7
 10
4.896252171523899
 20
-0.13
 30
0
 11
4.896252171523899
 21
-0.155
 31
0
  0
LINE
  8
0
 62
7
 10
4.896252171523899
 20
-0.155
 30
0
 11
4.896252171523899
 21
-0.2
 31
0
  0
LINE
  8
0
 62
7
 10
3.051252171523898
 20
-0.35
 30
0
 11
3.051252171523898
 21
-0.25
 31
0
  0
LINE
  8
0
 62
7
 10
3.051252171523898
 20
-0.25
 30
0
 11
3.114252171523898
 21
-0.35
 31
0
  0
LINE
  8
0
 62
7
 10
3.114252171523898
 20
-0.35
 30
0
 11
3.114252171523898
 21
-0.25
 31
0
  0
LINE
  8
0
 62
7
 10
3.195252171523899
 20
-0.35
 30
0
 11
3.141252171523898
 21
-0.35
 31
0
  0
LINE
  8
0
 62
7
 10
3.141252171523898
 20
-0.35
 30
0
 11
3.141252171523898
 21
-0.25
 31
0
  0
LINE
  8
0
 62
7
 10
3.222252171523899
 20
-0.3
 30
0
 11
3.258252171523898
 21
-0.3
 31
0
  0
LINE
  8
0
 62
7
 10
3.258252171523898
 20
-0.3
 30
0
 11
3.262752171523899
 21
-0.3
 31
0
  0
LINE
  8
0
 62
7
 10
3.262752171523899
 20
-0.3
 30
0
 11
3.271752171523898
 21
-0.305
 31
0
  0
LINE
  8
0
 62
7
 10
3.271752171523898
 20
-0.305
 30
0
 11
3.276252171523898
 21
-0.3100000000000001
 31
0
  0
LINE
  8
0
 62
7
 10
3.276252171523898
 20
-0.3100000000000001
 30
0
 11
3.280752171523899
 21
-0.3200000000000001
 31
0
  0
LINE
  8
0
 62
7
 10
3.280752171523899
 20
-0.3200000000000001
 30
0
 11
3.280752171523899
 21
-0.3300000000000001
 31
0
  0
LINE
  8
0
 62
7
 10
3.280752171523899
 20
-0.3300000000000001
 30
0
 11
3.276252171523898
 21
-0.34
 31
0
  0
LINE
  8
0
 62
7
 10
3.276252171523898
 20
-0.34
 30
0
 11
3.271752171523898
 21
-0.345
 31
0
  0
LINE
  8
0
 62
7
 10
3.271752171523898
 20
-0.345
 30
0
 11
3.262752171523899
 21
-0.35
 31
0
  0
LINE
  8
0
 62
7
 10
3.262752171523899
 20
-0.35
 30
0
 11
3.222252171523899
 21
-0.35
 31
0
  0
LINE
  8
0
 62
7
 10
3.222252171523899
 20
-0.35
 30
0
 11
3.222252171523899
 21
-0.3
 31
0
  0
LINE
  8
0
 62
7
 10
3.222252171523899
 20
-0.25
 30
0
 11
3.256002171523899
 21
-0.25
 31
0
  0
LINE
  8
0
 62
7
 10
3.256002171523899
 20
-0.25
 30
0
 11
3.2672521715239
 21
-0.2525
 31
0
  0
LINE
  8
0
 62
7
 10
3.2672521715239
 20
-0.2525
 30
0
 11
3.274002171523898
 21
-0.26
 31
0
  0
LINE
  8
0
 62
7
 10
3.274002171523898
 20
-0.26
 30
0
 11
3.276252171523898
 21
-0.27
 31
0
  0
LINE
  8
0
 62
7
 10
3.276252171523898
 20
-0.27
 30
0
 11
3.276252171523898
 21
-0.28
 31
0
  0
LINE
  8
0
 62
7
 10
3.276252171523898
 20
-0.28
 30
0
 11
3.271752171523898
 21
-0.29
 31
0
  0
LINE
  8
0
 62
7
 10
3.271752171523898
 20
-0.29
 30
0
 11
3.265002171523898
 21
-0.2975
 31
0
  0
LINE
  8
0
 62
7
 10
3.265002171523898
 20
-0.2975
 30
0
 11
3.258252171523898
 21
-0.3
 31
0
  0
LINE
  8
0
 62
7
 10
3.222252171523899
 20
-0.3
 30
0
 11
3.222252171523899
 21
-0.25
 31
0
  0
LINE
  8
0
 62
7
 10
3.422502171523898
 20
-0.2975
 30
0
 11
3.415752171523899
 21
-0.2875
 31
0
  0
LINE
  8
0
 62
7
 10
3.415752171523899
 20
-0.2875
 30
0
 11
3.409002171523898
 21
-0.2825
 31
0
  0
LINE
  8
0
 62
7
 10
3.409002171523898
 20
-0.2825
 30
0
 11
3.4022521715239
 21
-0.28
 31
0
  0
LINE
  8
0
 62
7
 10
3.4022521715239
 20
-0.28
 30
0
 11
3.393252171523899
 21
-0.28
 31
0
  0
LINE
  8
0
 62
7
 10
3.393252171523899
 20
-0.28
 30
0
 11
3.386502171523898
 21
-0.2825
 31
0
  0
LINE
  8
0
 62
7
 10
3.386502171523898
 20
-0.2825
 30
0
 11
3.379752171523899
 21
-0.2875
 31
0
  0
LINE
  8
0
 62
7
 10
3.379752171523899
 20
-0.2875
 30
0
 11
3.373002171523899
 21
-0.2975
 31
0
  0
LINE
  8
0
 62
7
 10
3.373002171523899
 20
-0.2975
 30
0
 11
3.370752171523899
 21
-0.305
 31
0
  0
LINE
  8
0
 62
7
 10
3.370752171523899
 20
-0.305
 30
0
 11
3.370752171523899
 21
-0.325
 31
0
  0
LINE
  8
0
 62
7
 10
3.370752171523899
 20
-0.325
 30
0
 11
3.373002171523899
 21
-0.3325
 31
0
  0
LINE
  8
0
 62
7
 10
3.373002171523899
 20
-0.3325
 30
0
 11
3.379752171523899
 21
-0.3425
 31
0
  0
LINE
  8
0
 62
7
 10
3.379752171523899
 20
-0.3425
 30
0
 11
3.386502171523898
 21
-0.3475
 31
0
  0
LINE
  8
0
 62
7
 10
3.386502171523898
 20
-0.3475
 30
0
 11
3.393252171523899
 21
-0.35
 31
0
  0
LINE
  8
0
 62
7
 10
3.393252171523899
 20
-0.35
 30
0
 11
3.4022521715239
 21
-0.35
 31
0
  0
LINE
  8
0
 62
7
 10
3.4022521715239
 20
-0.35
 30
0
 11
3.409002171523898
 21
-0.3475
 31
0
  0
LINE
  8
0
 62
7
 10
3.409002171523898
 20
-0.3475
 30
0
 11
3.415752171523899
 21
-0.3425
 31
0
  0
LINE
  8
0
 62
7
 10
3.415752171523899
 20
-0.3425
 30
0
 11
3.422502171523898
 21
-0.3325
 31
0
  0
LINE
  8
0
 62
7
 10
3.494502171523898
 20
-0.305
 30
0
 11
3.4922521715239
 21
-0.2975
 31
0
  0
LINE
  8
0
 62
7
 10
3.4922521715239
 20
-0.2975
 30
0
 11
3.485502171523899
 21
-0.2875
 31
0
  0
LINE
  8
0
 62
7
 10
3.485502171523899
 20
-0.2875
 30
0
 11
3.478752171523898
 21
-0.2825
 31
0
  0
LINE
  8
0
 62
7
 10
3.478752171523898
 20
-0.2825
 30
0
 11
3.472002171523899
 21
-0.28
 31
0
  0
LINE
  8
0
 62
7
 10
3.472002171523899
 20
-0.28
 30
0
 11
3.463002171523899
 21
-0.28
 31
0
  0
LINE
  8
0
 62
7
 10
3.463002171523899
 20
-0.28
 30
0
 11
3.456252171523898
 21
-0.2825
 31
0
  0
LINE
  8
0
 62
7
 10
3.456252171523898
 20
-0.2825
 30
0
 11
3.449502171523898
 21
-0.2875
 31
0
  0
LINE
  8
0
 62
7
 10
3.449502171523898
 20
-0.2875
 30
0
 11
3.442752171523898
 21
-0.2975
 31
0
  0
LINE
  8
0
 62
7
 10
3.442752171523898
 20
-0.2975
 30
0
 11
3.440502171523898
 21
-0.305
 31
0
  0
LINE
  8
0
 62
7
 10
3.440502171523898
 20
-0.305
 30
0
 11
3.440502171523898
 21
-0.325
 31
0
  0
LINE
  8
0
 62
7
 10
3.440502171523898
 20
-0.325
 30
0
 11
3.442752171523898
 21
-0.3325
 31
0
  0
LINE
  8
0
 62
7
 10
3.442752171523898
 20
-0.3325
 30
0
 11
3.449502171523898
 21
-0.3425
 31
0
  0
LINE
  8
0
 62
7
 10
3.449502171523898
 20
-0.3425
 30
0
 11
3.456252171523898
 21
-0.3475
 31
0
  0
LINE
  8
0
 62
7
 10
3.456252171523898
 20
-0.3475
 30
0
 11
3.463002171523899
 21
-0.35
 31
0
  0
LINE
  8
0
 62
7
 10
3.463002171523899
 20
-0.35
 30
0
 11
3.472002171523899
 21
-0.35
 31
0
  0
LINE
  8
0
 62
7
 10
3.472002171523899
 20
-0.35
 30
0
 11
3.478752171523898
 21
-0.3475
 31
0
  0
LINE
  8
0
 62
7
 10
3.478752171523898
 20
-0.3475
 30
0
 11
3.485502171523899
 21
-0.3425
 31
0
  0
LINE
  8
0
 62
7
 10
3.485502171523899
 20
-0.3425
 30
0
 11
3.4922521715239
 21
-0.3325
 31
0
  0
LINE
  8
0
 62
7
 10
3.4922521715239
 20
-0.3325
 30
0
 11
3.494502171523898
 21
-0.325
 31
0
  0
LINE
  8
0
 62
7
 10
3.494502171523898
 20
-0.28
 30
0
 11
3.494502171523898
 21
-0.305
 31
0
  0
LINE
  8
0
 62
7
 10
3.494502171523898
 20
-0.3475
 30
0
 11
3.496752171523898
 21
-0.35
 31
0
  0
LINE
  8
0
 62
7
 10
3.496752171523898
 20
-0.35
 30
0
 11
3.499002171523898
 21
-0.35
 31
0
  0
LINE
  8
0
 62
7
 10
3.494502171523898
 20
-0.325
 30
0
 11
3.494502171523898
 21
-0.3475
 31
0
  0
LINE
  8
0
 62
7
 10
3.494502171523898
 20
-0.305
 30
0
 11
3.494502171523898
 21
-0.325
 31
0
  0
LINE
  8
0
 62
7
 10
3.517002171523898
 20
-0.35
 30
0
 11
3.517002171523898
 21
-0.3475
 31
0
  0
LINE
  8
0
 62
7
 10
3.517002171523898
 20
-0.3475
 30
0
 11
3.519252171523898
 21
-0.3475
 31
0
  0
LINE
  8
0
 62
7
 10
3.519252171523898
 20
-0.3475
 30
0
 11
3.519252171523898
 21
-0.35
 31
0
  0
LINE
  8
0
 62
7
 10
3.519252171523898
 20
-0.35
 30
0
 11
3.517002171523898
 21
-0.35
 31
0
  0
LINE
  8
0
 62
7
 10
3.670002171523898
 20
-0.25
 30
0
 11
3.620502171523899
 21
-0.25
 31
0
  0
LINE
  8
0
 62
7
 10
3.620502171523899
 20
-0.25
 30
0
 11
3.620502171523899
 21
-0.3
 31
0
  0
LINE
  8
0
 62
7
 10
3.620502171523899
 20
-0.3
 30
0
 11
3.625002171523898
 21
-0.2925
 31
0
  0
LINE
  8
0
 62
7
 10
3.625002171523898
 20
-0.2925
 30
0
 11
3.631752171523898
 21
-0.2875
 31
0
  0
LINE
  8
0
 62
7
 10
3.631752171523898
 20
-0.2875
 30
0
 11
3.640752171523899
 21
-0.285
 31
0
  0
LINE
  8
0
 62
7
 10
3.640752171523899
 20
-0.285
 30
0
 11
3.654252171523899
 21
-0.285
 31
0
  0
LINE
  8
0
 62
7
 10
3.654252171523899
 20
-0.285
 30
0
 11
3.661002171523899
 21
-0.2875
 31
0
  0
LINE
  8
0
 62
7
 10
3.661002171523899
 20
-0.2875
 30
0
 11
3.667752171523898
 21
-0.2925
 31
0
  0
LINE
  8
0
 62
7
 10
3.667752171523898
 20
-0.2925
 30
0
 11
3.672252171523899
 21
-0.3
 31
0
  0
LINE
  8
0
 62
7
 10
3.672252171523899
 20
-0.3
 30
0
 11
3.674502171523899
 21
-0.3100000000000001
 31
0
  0
LINE
  8
0
 62
7
 10
3.674502171523899
 20
-0.3100000000000001
 30
0
 11
3.674502171523899
 21
-0.325
 31
0
  0
LINE
  8
0
 62
7
 10
3.674502171523899
 20
-0.325
 30
0
 11
3.672252171523899
 21
-0.335
 31
0
  0
LINE
  8
0
 62
7
 10
3.672252171523899
 20
-0.335
 30
0
 11
3.667752171523898
 21
-0.3425
 31
0
  0
LINE
  8
0
 62
7
 10
3.667752171523898
 20
-0.3425
 30
0
 11
3.661002171523899
 21
-0.3475
 31
0
  0
LINE
  8
0
 62
7
 10
3.661002171523899
 20
-0.3475
 30
0
 11
3.654252171523899
 21
-0.35
 31
0
  0
LINE
  8
0
 62
7
 10
3.654252171523899
 20
-0.35
 30
0
 11
3.640752171523899
 21
-0.35
 31
0
  0
LINE
  8
0
 62
7
 10
3.640752171523899
 20
-0.35
 30
0
 11
3.631752171523898
 21
-0.3475
 31
0
  0
LINE
  8
0
 62
7
 10
3.631752171523898
 20
-0.3475
 30
0
 11
3.625002171523898
 21
-0.3425
 31
0
  0
LINE
  8
0
 62
7
 10
3.625002171523898
 20
-0.3425
 30
0
 11
3.620502171523899
 21
-0.335
 31
0
  0
LINE
  8
0
 62
7
 10
3.701502171523898
 20
-0.265
 30
0
 11
3.706002171523899
 21
-0.2575
 31
0
  0
LINE
  8
0
 62
7
 10
3.706002171523899
 20
-0.2575
 30
0
 11
3.712752171523899
 21
-0.2525
 31
0
  0
LINE
  8
0
 62
7
 10
3.712752171523899
 20
-0.2525
 30
0
 11
3.721752171523898
 21
-0.25
 31
0
  0
LINE
  8
0
 62
7
 10
3.721752171523898
 20
-0.25
 30
0
 11
3.735252171523899
 21
-0.25
 31
0
  0
LINE
  8
0
 62
7
 10
3.735252171523899
 20
-0.25
 30
0
 11
3.744252171523899
 21
-0.2525
 31
0
  0
LINE
  8
0
 62
7
 10
3.744252171523899
 20
-0.2525
 30
0
 11
3.751002171523899
 21
-0.2575
 31
0
  0
LINE
  8
0
 62
7
 10
3.751002171523899
 20
-0.2575
 30
0
 11
3.755502171523898
 21
-0.265
 31
0
  0
LINE
  8
0
 62
7
 10
3.755502171523898
 20
-0.265
 30
0
 11
3.755502171523898
 21
-0.275
 31
0
  0
LINE
  8
0
 62
7
 10
3.755502171523898
 20
-0.275
 30
0
 11
3.751002171523899
 21
-0.285
 31
0
  0
LINE
  8
0
 62
7
 10
3.751002171523899
 20
-0.285
 30
0
 11
3.701502171523898
 21
-0.35
 31
0
  0
LINE
  8
0
 62
7
 10
3.701502171523898
 20
-0.35
 30
0
 11
3.755502171523898
 21
-0.35
 31
0
  0
LINE
  8
0
 62
7
 10
3.906252171523898
 20
-0.2975
 30
0
 11
3.899502171523899
 21
-0.2875
 31
0
  0
LINE
  8
0
 62
7
 10
3.899502171523899
 20
-0.2875
 30
0
 11
3.892752171523898
 21
-0.2825
 31
0
  0
LINE
  8
0
 62
7
 10
3.892752171523898
 20
-0.2825
 30
0
 11
3.886002171523899
 21
-0.28
 31
0
  0
LINE
  8
0
 62
7
 10
3.886002171523899
 20
-0.28
 30
0
 11
3.877002171523898
 21
-0.28
 31
0
  0
LINE
  8
0
 62
7
 10
3.877002171523898
 20
-0.28
 30
0
 11
3.870252171523898
 21
-0.2825
 31
0
  0
LINE
  8
0
 62
7
 10
3.870252171523898
 20
-0.2825
 30
0
 11
3.8635021715239
 21
-0.2875
 31
0
  0
LINE
  8
0
 62
7
 10
3.8635021715239
 20
-0.2875
 30
0
 11
3.856752171523898
 21
-0.2975
 31
0
  0
LINE
  8
0
 62
7
 10
3.856752171523898
 20
-0.2975
 30
0
 11
3.854502171523898
 21
-0.305
 31
0
  0
LINE
  8
0
 62
7
 10
3.854502171523898
 20
-0.305
 30
0
 11
3.854502171523898
 21
-0.325
 31
0
  0
LINE
  8
0
 62
7
 10
3.854502171523898
 20
-0.325
 30
0
 11
3.856752171523898
 21
-0.3325
 31
0
  0
LINE
  8
0
 62
7
 10
3.856752171523898
 20
-0.3325
 30
0
 11
3.8635021715239
 21
-0.3425
 31
0
  0
LINE
  8
0
 62
7
 10
3.8635021715239
 20
-0.3425
 30
0
 11
3.870252171523898
 21
-0.3475
 31
0
  0
LINE
  8
0
 62
7
 10
3.870252171523898
 20
-0.3475
 30
0
 11
3.877002171523898
 21
-0.35
 31
0
  0
LINE
  8
0
 62
7
 10
3.877002171523898
 20
-0.35
 30
0
 11
3.886002171523899
 21
-0.35
 31
0
  0
LINE
  8
0
 62
7
 10
3.886002171523899
 20
-0.35
 30
0
 11
3.892752171523898
 21
-0.3475
 31
0
  0
LINE
  8
0
 62
7
 10
3.892752171523898
 20
-0.3475
 30
0
 11
3.899502171523899
 21
-0.3425
 31
0
  0
LINE
  8
0
 62
7
 10
3.899502171523899
 20
-0.3425
 30
0
 11
3.906252171523898
 21
-0.3325
 31
0
  0
LINE
  8
0
 62
7
 10
3.9647521715239
 20
-0.305
 30
0
 11
3.9647521715239
 21
-0.35
 31
0
  0
LINE
  8
0
 62
7
 10
3.924252171523898
 20
-0.28
 30
0
 11
3.924252171523898
 21
-0.305
 31
0
  0
LINE
  8
0
 62
7
 10
3.924252171523898
 20
-0.35
 30
0
 11
3.924252171523898
 21
-0.305
 31
0
  0
LINE
  8
0
 62
7
 10
3.924252171523898
 20
-0.305
 30
0
 11
3.926502171523898
 21
-0.2925
 31
0
  0
LINE
  8
0
 62
7
 10
3.926502171523898
 20
-0.2925
 30
0
 11
3.928752171523898
 21
-0.2875
 31
0
  0
LINE
  8
0
 62
7
 10
3.928752171523898
 20
-0.2875
 30
0
 11
3.933252171523899
 21
-0.2825
 31
0
  0
LINE
  8
0
 62
7
 10
3.933252171523899
 20
-0.2825
 30
0
 11
3.940002171523898
 21
-0.28
 31
0
  0
LINE
  8
0
 62
7
 10
3.940002171523898
 20
-0.28
 30
0
 11
3.949002171523898
 21
-0.28
 31
0
  0
LINE
  8
0
 62
7
 10
3.949002171523898
 20
-0.28
 30
0
 11
3.955752171523899
 21
-0.2825
 31
0
  0
LINE
  8
0
 62
7
 10
3.955752171523899
 20
-0.2825
 30
0
 11
3.960252171523899
 21
-0.2875
 31
0
  0
LINE
  8
0
 62
7
 10
3.960252171523899
 20
-0.2875
 30
0
 11
3.962502171523898
 21
-0.2925
 31
0
  0
LINE
  8
0
 62
7
 10
3.962502171523898
 20
-0.2925
 30
0
 11
3.9647521715239
 21
-0.305
 31
0
  0
LINE
  8
0
 62
7
 10
3.9647521715239
 20
-0.305
 30
0
 11
3.967002171523898
 21
-0.2925
 31
0
  0
LINE
  8
0
 62
7
 10
3.967002171523898
 20
-0.2925
 30
0
 11
3.969252171523898
 21
-0.2875
 31
0
  0
LINE
  8
0
 62
7
 10
3.969252171523898
 20
-0.2875
 30
0
 11
3.973752171523898
 21
-0.2825
 31
0
  0
LINE
  8
0
 62
7
 10
3.973752171523898
 20
-0.2825
 30
0
 11
3.980502171523898
 21
-0.28
 31
0
  0
LINE
  8
0
 62
7
 10
3.980502171523898
 20
-0.28
 30
0
 11
3.989502171523899
 21
-0.28
 31
0
  0
LINE
  8
0
 62
7
 10
3.989502171523899
 20
-0.28
 30
0
 11
3.996252171523898
 21
-0.2825
 31
0
  0
LINE
  8
0
 62
7
 10
4.000752171523899
 20
-0.2875
 30
0
 11
3.996252171523898
 21
-0.2825
 31
0
  0
LINE
  8
0
 62
7
 10
3.996252171523898
 20
-0.2825
 30
0
 11
4.000752171523899
 21
-0.2875
 31
0
  0
LINE
  8
0
 62
7
 10
4.000752171523899
 20
-0.2875
 30
0
 11
4.003002171523899
 21
-0.2925
 31
0
  0
LINE
  8
0
 62
7
 10
4.003002171523899
 20
-0.2925
 30
0
 11
4.005252171523899
 21
-0.305
 31
0
  0
LINE
  8
0
 62
7
 10
4.005252171523899
 20
-0.305
 30
0
 11
4.005252171523899
 21
-0.35
 31
0
  0
LINE
  8
0
 62
7
 10
4.095252171523899
 20
-0.325
 30
0
 11
4.097502171523899
 21
-0.3325
 31
0
  0
LINE
  8
0
 62
7
 10
4.097502171523899
 20
-0.3325
 30
0
 11
4.104252171523899
 21
-0.3425
 31
0
  0
LINE
  8
0
 62
7
 10
4.104252171523899
 20
-0.3425
 30
0
 11
4.111002171523899
 21
-0.3475
 31
0
  0
LINE
  8
0
 62
7
 10
4.111002171523899
 20
-0.3475
 30
0
 11
4.117752171523898
 21
-0.35
 31
0
  0
LINE
  8
0
 62
7
 10
4.117752171523898
 20
-0.35
 30
0
 11
4.126752171523899
 21
-0.35
 31
0
  0
LINE
  8
0
 62
7
 10
4.126752171523899
 20
-0.35
 30
0
 11
4.1335021715239
 21
-0.3475
 31
0
  0
LINE
  8
0
 62
7
 10
4.1335021715239
 20
-0.3475
 30
0
 11
4.140252171523898
 21
-0.3425
 31
0
  0
LINE
  8
0
 62
7
 10
4.140252171523898
 20
-0.3425
 30
0
 11
4.147002171523899
 21
-0.3325
 31
0
  0
LINE
  8
0
 62
7
 10
4.147002171523899
 20
-0.3325
 30
0
 11
4.149252171523898
 21
-0.325
 31
0
  0
LINE
  8
0
 62
7
 10
4.149252171523898
 20
-0.325
 30
0
 11
4.149252171523898
 21
-0.305
 31
0
  0
LINE
  8
0
 62
7
 10
4.149252171523898
 20
-0.305
 30
0
 11
4.147002171523899
 21
-0.2975
 31
0
  0
LINE
  8
0
 62
7
 10
4.147002171523899
 20
-0.2975
 30
0
 11
4.140252171523898
 21
-0.2875
 31
0
  0
LINE
  8
0
 62
7
 10
4.140252171523898
 20
-0.2875
 30
0
 11
4.1335021715239
 21
-0.2825
 31
0
  0
LINE
  8
0
 62
7
 10
4.1335021715239
 20
-0.2825
 30
0
 11
4.126752171523899
 21
-0.28
 31
0
  0
LINE
  8
0
 62
7
 10
4.126752171523899
 20
-0.28
 30
0
 11
4.117752171523898
 21
-0.28
 31
0
  0
LINE
  8
0
 62
7
 10
4.117752171523898
 20
-0.28
 30
0
 11
4.111002171523899
 21
-0.2825
 31
0
  0
LINE
  8
0
 62
7
 10
4.111002171523899
 20
-0.2825
 30
0
 11
4.104252171523899
 21
-0.2875
 31
0
  0
LINE
  8
0
 62
7
 10
4.104252171523899
 20
-0.2875
 30
0
 11
4.097502171523899
 21
-0.2975
 31
0
  0
LINE
  8
0
 62
7
 10
4.097502171523899
 20
-0.2975
 30
0
 11
4.095252171523899
 21
-0.305
 31
0
  0
LINE
  8
0
 62
7
 10
4.095252171523899
 20
-0.25
 30
0
 11
4.095252171523899
 21
-0.305
 31
0
  0
LINE
  8
0
 62
7
 10
4.095252171523899
 20
-0.305
 30
0
 11
4.095252171523899
 21
-0.35
 31
0
  0
LINE
  8
0
 62
7
 10
4.221252171523899
 20
-0.3325
 30
0
 11
4.214502171523899
 21
-0.3425
 31
0
  0
LINE
  8
0
 62
7
 10
4.214502171523899
 20
-0.3425
 30
0
 11
4.207752171523898
 21
-0.3475
 31
0
  0
LINE
  8
0
 62
7
 10
4.207752171523898
 20
-0.3475
 30
0
 11
4.198752171523899
 21
-0.35
 31
0
  0
LINE
  8
0
 62
7
 10
4.198752171523899
 20
-0.35
 30
0
 11
4.189752171523899
 21
-0.35
 31
0
  0
LINE
  8
0
 62
7
 10
4.189752171523899
 20
-0.35
 30
0
 11
4.183002171523898
 21
-0.3475
 31
0
  0
LINE
  8
0
 62
7
 10
4.183002171523898
 20
-0.3475
 30
0
 11
4.176252171523898
 21
-0.3425
 31
0
  0
LINE
  8
0
 62
7
 10
4.176252171523898
 20
-0.3425
 30
0
 11
4.169502171523898
 21
-0.3325
 31
0
  0
LINE
  8
0
 62
7
 10
4.169502171523898
 20
-0.3325
 30
0
 11
4.167252171523899
 21
-0.325
 31
0
  0
LINE
  8
0
 62
7
 10
4.167252171523899
 20
-0.325
 30
0
 11
4.167252171523899
 21
-0.315
 31
0
  0
LINE
  8
0
 62
7
 10
4.167252171523899
 20
-0.305
 30
0
 11
4.169502171523898
 21
-0.2975
 31
0
  0
LINE
  8
0
 62
7
 10
4.169502171523898
 20
-0.2975
 30
0
 11
4.176252171523898
 21
-0.2875
 31
0
  0
LINE
  8
0
 62
7
 10
4.176252171523898
 20
-0.2875
 30
0
 11
4.183002171523898
 21
-0.2825
 31
0
  0
LINE
  8
0
 62
7
 10
4.183002171523898
 20
-0.2825
 30
0
 11
4.189752171523899
 21
-0.28
 31
0
  0
LINE
  8
0
 62
7
 10
4.189752171523899
 20
-0.28
 30
0
 11
4.198752171523899
 21
-0.28
 31
0
  0
LINE
  8
0
 62
7
 10
4.198752171523899
 20
-0.28
 30
0
 11
4.205502171523898
 21
-0.2825
 31
0
  0
LINE
  8
0
 62
7
 10
4.205502171523898
 20
-0.2825
 30
0
 11
4.212252171523899
 21
-0.2875
 31
0
  0
LINE
  8
0
 62
7
 10
4.212252171523899
 20
-0.2875
 30
0
 11
4.219002171523899
 21
-0.2975
 31
0
  0
LINE
  8
0
 62
7
 10
4.219002171523899
 20
-0.2975
 30
0
 11
4.221252171523899
 21
-0.305
 31
0
  0
LINE
  8
0
 62
7
 10
4.221252171523899
 20
-0.305
 30
0
 11
4.221252171523899
 21
-0.315
 31
0
  0
LINE
  8
0
 62
7
 10
4.221252171523899
 20
-0.315
 30
0
 11
4.167252171523899
 21
-0.315
 31
0
  0
LINE
  8
0
 62
7
 10
4.167252171523899
 20
-0.315
 30
0
 11
4.167252171523899
 21
-0.305
 31
0
  0
LINE
  8
0
 62
7
 10
4.239252171523899
 20
-0.25
 30
0
 11
4.239252171523899
 21
-0.2550000000000001
 31
0
  0
LINE
  8
0
 62
7
 10
4.239252171523899
 20
-0.28
 30
0
 11
4.239252171523899
 21
-0.35
 31
0
  0
LINE
  8
0
 62
7
 10
4.390002171523899
 20
-0.26
 30
0
 11
4.383252171523899
 21
-0.2550000000000001
 31
0
  0
LINE
  8
0
 62
7
 10
4.383252171523899
 20
-0.2550000000000001
 30
0
 11
4.376502171523899
 21
-0.2525
 31
0
  0
LINE
  8
0
 62
7
 10
4.376502171523899
 20
-0.2525
 30
0
 11
4.365252171523898
 21
-0.25
 31
0
  0
LINE
  8
0
 62
7
 10
4.365252171523898
 20
-0.25
 30
0
 11
4.356252171523898
 21
-0.25
 31
0
  0
LINE
  8
0
 62
7
 10
4.356252171523898
 20
-0.25
 30
0
 11
4.347252171523899
 21
-0.2525
 31
0
  0
LINE
  8
0
 62
7
 10
4.347252171523899
 20
-0.2525
 30
0
 11
4.340502171523898
 21
-0.2550000000000001
 31
0
  0
LINE
  8
0
 62
7
 10
4.340502171523898
 20
-0.2550000000000001
 30
0
 11
4.333752171523899
 21
-0.26
 31
0
  0
LINE
  8
0
 62
7
 10
4.333752171523899
 20
-0.26
 30
0
 11
4.331502171523899
 21
-0.2675
 31
0
  0
LINE
  8
0
 62
7
 10
4.331502171523899
 20
-0.2675
 30
0
 11
4.331502171523899
 21
-0.2725
 31
0
  0
LINE
  8
0
 62
7
 10
4.331502171523899
 20
-0.2725
 30
0
 11
4.333752171523899
 21
-0.28
 31
0
  0
LINE
  8
0
 62
7
 10
4.333752171523899
 20
-0.28
 30
0
 11
4.340502171523898
 21
-0.285
 31
0
  0
LINE
  8
0
 62
7
 10
4.340502171523898
 20
-0.285
 30
0
 11
4.378752171523899
 21
-0.3025
 31
0
  0
LINE
  8
0
 62
7
 10
4.378752171523899
 20
-0.3025
 30
0
 11
4.385502171523899
 21
-0.3075000000000001
 31
0
  0
LINE
  8
0
 62
7
 10
4.385502171523899
 20
-0.3075000000000001
 30
0
 11
4.390002171523899
 21
-0.315
 31
0
  0
LINE
  8
0
 62
7
 10
4.390002171523899
 20
-0.315
 30
0
 11
4.392252171523899
 21
-0.3225
 31
0
  0
LINE
  8
0
 62
7
 10
4.392252171523899
 20
-0.3225
 30
0
 11
4.392252171523899
 21
-0.3275
 31
0
  0
LINE
  8
0
 62
7
 10
4.392252171523899
 20
-0.3275
 30
0
 11
4.390002171523899
 21
-0.335
 31
0
  0
LINE
  8
0
 62
7
 10
4.390002171523899
 20
-0.335
 30
0
 11
4.385502171523899
 21
-0.3425
 31
0
  0
LINE
  8
0
 62
7
 10
4.385502171523899
 20
-0.3425
 30
0
 11
4.378752171523899
 21
-0.3475
 31
0
  0
LINE
  8
0
 62
7
 10
4.378752171523899
 20
-0.3475
 30
0
 11
4.367502171523898
 21
-0.35
 31
0
  0
LINE
  8
0
 62
7
 10
4.367502171523898
 20
-0.35
 30
0
 11
4.354002171523899
 21
-0.35
 31
0
  0
LINE
  8
0
 62
7
 10
4.354002171523899
 20
-0.35
 30
0
 11
4.342752171523898
 21
-0.3475
 31
0
  0
LINE
  8
0
 62
7
 10
4.342752171523898
 20
-0.3475
 30
0
 11
4.333752171523899
 21
-0.3425
 31
0
  0
LINE
  8
0
 62
7
 10
4.333752171523899
 20
-0.3425
 30
0
 11
4.329252171523899
 21
-0.3375
 31
0
  0
LINE
  8
0
 62
7
 10
4.419252171523898
 20
-0.25
 30
0
 11
4.419252171523898
 21
-0.335
 31
0
  0
LINE
  8
0
 62
7
 10
4.419252171523898
 20
-0.335
 30
0
 11
4.421502171523898
 21
-0.3475
 31
0
  0
LINE
  8
0
 62
7
 10
4.421502171523898
 20
-0.3475
 30
0
 11
4.4260021715239
 21
-0.35
 31
0
  0
LINE
  8
0
 62
7
 10
4.4260021715239
 20
-0.35
 30
0
 11
4.428252171523899
 21
-0.35
 31
0
  0
LINE
  8
0
 62
7
 10
4.410252171523899
 20
-0.28
 30
0
 11
4.428252171523899
 21
-0.28
 31
0
  0
LINE
  8
0
 62
7
 10
4.500252171523899
 20
-0.3325
 30
0
 11
4.493502171523899
 21
-0.3425
 31
0
  0
LINE
  8
0
 62
7
 10
4.493502171523899
 20
-0.3425
 30
0
 11
4.486752171523898
 21
-0.3475
 31
0
  0
LINE
  8
0
 62
7
 10
4.486752171523898
 20
-0.3475
 30
0
 11
4.477752171523899
 21
-0.35
 31
0
  0
LINE
  8
0
 62
7
 10
4.477752171523899
 20
-0.35
 30
0
 11
4.468752171523898
 21
-0.35
 31
0
  0
LINE
  8
0
 62
7
 10
4.468752171523898
 20
-0.35
 30
0
 11
4.462002171523898
 21
-0.3475
 31
0
  0
LINE
  8
0
 62
7
 10
4.462002171523898
 20
-0.3475
 30
0
 11
4.455252171523898
 21
-0.3425
 31
0
  0
LINE
  8
0
 62
7
 10
4.455252171523898
 20
-0.3425
 30
0
 11
4.448502171523899
 21
-0.3325
 31
0
  0
LINE
  8
0
 62
7
 10
4.448502171523899
 20
-0.3325
 30
0
 11
4.446252171523899
 21
-0.325
 31
0
  0
LINE
  8
0
 62
7
 10
4.446252171523899
 20
-0.325
 30
0
 11
4.446252171523899
 21
-0.315
 31
0
  0
LINE
  8
0
 62
7
 10
4.446252171523899
 20
-0.305
 30
0
 11
4.448502171523899
 21
-0.2975
 31
0
  0
LINE
  8
0
 62
7
 10
4.448502171523899
 20
-0.2975
 30
0
 11
4.455252171523898
 21
-0.2875
 31
0
  0
LINE
  8
0
 62
7
 10
4.455252171523898
 20
-0.2875
 30
0
 11
4.462002171523898
 21
-0.2825
 31
0
  0
LINE
  8
0
 62
7
 10
4.462002171523898
 20
-0.2825
 30
0
 11
4.468752171523898
 21
-0.28
 31
0
  0
LINE
  8
0
 62
7
 10
4.468752171523898
 20
-0.28
 30
0
 11
4.477752171523899
 21
-0.28
 31
0
  0
LINE
  8
0
 62
7
 10
4.477752171523899
 20
-0.28
 30
0
 11
4.484502171523899
 21
-0.2825
 31
0
  0
LINE
  8
0
 62
7
 10
4.484502171523899
 20
-0.2825
 30
0
 11
4.491252171523898
 21
-0.2875
 31
0
  0
LINE
  8
0
 62
7
 10
4.491252171523898
 20
-0.2875
 30
0
 11
4.498002171523899
 21
-0.2975
 31
0
  0
LINE
  8
0
 62
7
 10
4.498002171523899
 20
-0.2975
 30
0
 11
4.500252171523899
 21
-0.305
 31
0
  0
LINE
  8
0
 62
7
 10
4.500252171523899
 20
-0.305
 30
0
 11
4.500252171523899
 21
-0.315
 31
0
  0
LINE
  8
0
 62
7
 10
4.500252171523899
 20
-0.315
 30
0
 11
4.446252171523899
 21
-0.315
 31
0
  0
LINE
  8
0
 62
7
 10
4.446252171523899
 20
-0.315
 30
0
 11
4.446252171523899
 21
-0.305
 31
0
  0
LINE
  8
0
 62
7
 10
4.518252171523899
 20
-0.25
 30
0
 11
4.518252171523899
 21
-0.2550000000000001
 31
0
  0
LINE
  8
0
 62
7
 10
4.518252171523899
 20
-0.28
 30
0
 11
4.518252171523899
 21
-0.35
 31
0
  0
LINE
  8
0
 62
7
 10
4.536252171523898
 20
-0.305
 30
0
 11
4.538502171523899
 21
-0.2975
 31
0
  0
LINE
  8
0
 62
7
 10
4.538502171523899
 20
-0.2975
 30
0
 11
4.545252171523898
 21
-0.2875
 31
0
  0
LINE
  8
0
 62
7
 10
4.545252171523898
 20
-0.2875
 30
0
 11
4.552002171523898
 21
-0.2825
 31
0
  0
LINE
  8
0
 62
7
 10
4.552002171523898
 20
-0.2825
 30
0
 11
4.558752171523898
 21
-0.28
 31
0
  0
LINE
  8
0
 62
7
 10
4.558752171523898
 20
-0.28
 30
0
 11
4.567752171523899
 21
-0.28
 31
0
  0
LINE
  8
0
 62
7
 10
4.567752171523899
 20
-0.28
 30
0
 11
4.574502171523899
 21
-0.2825
 31
0
  0
LINE
  8
0
 62
7
 10
4.574502171523899
 20
-0.2825
 30
0
 11
4.581252171523898
 21
-0.2875
 31
0
  0
LINE
  8
0
 62
7
 10
4.581252171523898
 20
-0.2875
 30
0
 11
4.588002171523899
 21
-0.2975
 31
0
  0
LINE
  8
0
 62
7
 10
4.588002171523899
 20
-0.2975
 30
0
 11
4.590252171523899
 21
-0.305
 31
0
  0
LINE
  8
0
 62
7
 10
4.590252171523899
 20
-0.305
 30
0
 11
4.590252171523899
 21
-0.35
 31
0
  0
LINE
  8
0
 62
7
 10
4.536252171523898
 20
-0.28
 30
0
 11
4.536252171523898
 21
-0.305
 31
0
  0
LINE
  8
0
 62
7
 10
4.536252171523898
 20
-0.305
 30
0
 11
4.536252171523898
 21
-0.35
 31
0
  0
LINE
  8
0
 62
7
 10
4.662252171523899
 20
-0.295
 30
0
 11
4.657752171523899
 21
-0.2875
 31
0
  0
LINE
  8
0
 62
7
 10
4.657752171523899
 20
-0.2875
 30
0
 11
4.651002171523899
 21
-0.2825
 31
0
  0
LINE
  8
0
 62
7
 10
4.651002171523899
 20
-0.2825
 30
0
 11
4.6397521715239
 21
-0.28
 31
0
  0
LINE
  8
0
 62
7
 10
4.6397521715239
 20
-0.28
 30
0
 11
4.630752171523898
 21
-0.28
 31
0
  0
LINE
  8
0
 62
7
 10
4.630752171523898
 20
-0.28
 30
0
 11
4.621752171523898
 21
-0.2825
 31
0
  0
LINE
  8
0
 62
7
 10
4.621752171523898
 20
-0.2825
 30
0
 11
4.615002171523899
 21
-0.2875
 31
0
  0
LINE
  8
0
 62
7
 10
4.615002171523899
 20
-0.2875
 30
0
 11
4.610502171523899
 21
-0.2925
 31
0
  0
LINE
  8
0
 62
7
 10
4.610502171523899
 20
-0.2925
 30
0
 11
4.608252171523898
 21
-0.2975
 31
0
  0
LINE
  8
0
 62
7
 10
4.608252171523898
 20
-0.2975
 30
0
 11
4.608252171523898
 21
-0.3025
 31
0
  0
LINE
  8
0
 62
7
 10
4.608252171523898
 20
-0.3025
 30
0
 11
4.610502171523899
 21
-0.3075000000000001
 31
0
  0
LINE
  8
0
 62
7
 10
4.610502171523899
 20
-0.3075000000000001
 30
0
 11
4.615002171523899
 21
-0.3100000000000001
 31
0
  0
LINE
  8
0
 62
7
 10
4.615002171523899
 20
-0.3100000000000001
 30
0
 11
4.655502171523898
 21
-0.3200000000000001
 31
0
  0
LINE
  8
0
 62
7
 10
4.655502171523898
 20
-0.3200000000000001
 30
0
 11
4.660002171523899
 21
-0.3225
 31
0
  0
LINE
  8
0
 62
7
 10
4.660002171523899
 20
-0.3225
 30
0
 11
4.662252171523899
 21
-0.3275
 31
0
  0
LINE
  8
0
 62
7
 10
4.662252171523899
 20
-0.3275
 30
0
 11
4.662252171523899
 21
-0.3325
 31
0
  0
LINE
  8
0
 62
7
 10
4.662252171523899
 20
-0.3325
 30
0
 11
4.660002171523899
 21
-0.3375
 31
0
  0
LINE
  8
0
 62
7
 10
4.660002171523899
 20
-0.3375
 30
0
 11
4.655502171523898
 21
-0.3425
 31
0
  0
LINE
  8
0
 62
7
 10
4.655502171523898
 20
-0.3425
 30
0
 11
4.648752171523898
 21
-0.3475
 31
0
  0
LINE
  8
0
 62
7
 10
4.648752171523898
 20
-0.3475
 30
0
 11
4.6397521715239
 21
-0.35
 31
0
  0
LINE
  8
0
 62
7
 10
4.6397521715239
 20
-0.35
 30
0
 11
4.630752171523898
 21
-0.35
 31
0
  0
LINE
  8
0
 62
7
 10
4.630752171523898
 20
-0.35
 30
0
 11
4.619502171523898
 21
-0.3475
 31
0
  0
LINE
  8
0
 62
7
 10
4.619502171523898
 20
-0.3475
 30
0
 11
4.612752171523899
 21
-0.3425
 31
0
  0
LINE
  8
0
 62
7
 10
4.612752171523899
 20
-0.3425
 30
0
 11
4.608252171523898
 21
-0.335
 31
0
  0
LINE
  8
0
 62
7
 10
4.689252171523899
 20
-0.25
 30
0
 11
4.689252171523899
 21
-0.335
 31
0
  0
LINE
  8
0
 62
7
 10
4.689252171523899
 20
-0.335
 30
0
 11
4.691502171523899
 21
-0.3475
 31
0
  0
LINE
  8
0
 62
7
 10
4.691502171523899
 20
-0.3475
 30
0
 11
4.6960021715239
 21
-0.35
 31
0
  0
LINE
  8
0
 62
7
 10
4.6960021715239
 20
-0.35
 30
0
 11
4.698252171523898
 21
-0.35
 31
0
  0
LINE
  8
0
 62
7
 10
4.680252171523898
 20
-0.28
 30
0
 11
4.698252171523898
 21
-0.28
 31
0
  0
LINE
  8
0
 62
7
 10
4.770252171523898
 20
-0.28
 30
0
 11
4.770252171523898
 21
-0.325
 31
0
  0
LINE
  8
0
 62
7
 10
4.716252171523898
 20
-0.28
 30
0
 11
4.716252171523898
 21
-0.325
 31
0
  0
LINE
  8
0
 62
7
 10
4.716252171523898
 20
-0.325
 30
0
 11
4.718502171523899
 21
-0.3325
 31
0
  0
LINE
  8
0
 62
7
 10
4.718502171523899
 20
-0.3325
 30
0
 11
4.725252171523898
 21
-0.3425
 31
0
  0
LINE
  8
0
 62
7
 10
4.725252171523898
 20
-0.3425
 30
0
 11
4.732002171523898
 21
-0.3475
 31
0
  0
LINE
  8
0
 62
7
 10
4.732002171523898
 20
-0.3475
 30
0
 11
4.738752171523898
 21
-0.35
 31
0
  0
LINE
  8
0
 62
7
 10
4.738752171523898
 20
-0.35
 30
0
 11
4.747752171523898
 21
-0.35
 31
0
  0
LINE
  8
0
 62
7
 10
4.747752171523898
 20
-0.35
 30
0
 11
4.754502171523899
 21
-0.3475
 31
0
  0
LINE
  8
0
 62
7
 10
4.754502171523899
 20
-0.3475
 30
0
 11
4.761252171523899
 21
-0.3425
 31
0
  0
LINE
  8
0
 62
7
 10
4.761252171523899
 20
-0.3425
 30
0
 11
4.768002171523898
 21
-0.3325
 31
0
  0
LINE
  8
0
 62
7
 10
4.768002171523898
 20
-0.3325
 30
0
 11
4.770252171523898
 21
-0.325
 31
0
  0
LINE
  8
0
 62
7
 10
4.770252171523898
 20
-0.325
 30
0
 11
4.770252171523898
 21
-0.35
 31
0
  0
LINE
  8
0
 62
7
 10
4.788252171523898
 20
-0.285
 30
0
 11
4.815252171523898
 21
-0.285
 31
0
  0
LINE
  8
0
 62
7
 10
4.797252171523899
 20
-0.35
 30
0
 11
4.797252171523899
 21
-0.2675
 31
0
  0
LINE
  8
0
 62
7
 10
4.797252171523899
 20
-0.2675
 30
0
 11
4.799502171523899
 21
-0.2575
 31
0
  0
LINE
  8
0
 62
7
 10
4.799502171523899
 20
-0.2575
 30
0
 11
4.804002171523899
 21
-0.2525
 31
0
  0
LINE
  8
0
 62
7
 10
4.804002171523899
 20
-0.2525
 30
0
 11
4.810752171523898
 21
-0.25
 31
0
  0
LINE
  8
0
 62
7
 10
4.810752171523898
 20
-0.25
 30
0
 11
4.815252171523898
 21
-0.25
 31
0
  0
LINE
  8
0
 62
7
 10
4.887252171523899
 20
-0.3325
 30
0
 11
4.880502171523898
 21
-0.3425
 31
0
  0
LINE
  8
0
 62
7
 10
4.880502171523898
 20
-0.3425
 30
0
 11
4.873752171523899
 21
-0.3475
 31
0
  0
LINE
  8
0
 62
7
 10
4.873752171523899
 20
-0.3475
 30
0
 11
4.8647521715239
 21
-0.35
 31
0
  0
LINE
  8
0
 62
7
 10
4.8647521715239
 20
-0.35
 30
0
 11
4.855752171523899
 21
-0.35
 31
0
  0
LINE
  8
0
 62
7
 10
4.855752171523899
 20
-0.35
 30
0
 11
4.849002171523899
 21
-0.3475
 31
0
  0
LINE
  8
0
 62
7
 10
4.849002171523899
 20
-0.3475
 30
0
 11
4.842252171523899
 21
-0.3425
 31
0
  0
LINE
  8
0
 62
7
 10
4.842252171523899
 20
-0.3425
 30
0
 11
4.835502171523899
 21
-0.3325
 31
0
  0
LINE
  8
0
 62
7
 10
4.835502171523899
 20
-0.3325
 30
0
 11
4.833252171523899
 21
-0.325
 31
0
  0
LINE
  8
0
 62
7
 10
4.833252171523899
 20
-0.325
 30
0
 11
4.833252171523899
 21
-0.315
 31
0
  0
LINE
  8
0
 62
7
 10
4.833252171523899
 20
-0.305
 30
0
 11
4.835502171523899
 21
-0.2975
 31
0
  0
LINE
  8
0
 62
7
 10
4.835502171523899
 20
-0.2975
 30
0
 11
4.842252171523899
 21
-0.2875
 31
0
  0
LINE
  8
0
 62
7
 10
4.842252171523899
 20
-0.2875
 30
0
 11
4.849002171523899
 21
-0.2825
 31
0
  0
LINE
  8
0
 62
7
 10
4.849002171523899
 20
-0.2825
 30
0
 11
4.855752171523899
 21
-0.28
 31
0
  0
LINE
  8
0
 62
7
 10
4.855752171523899
 20
-0.28
 30
0
 11
4.8647521715239
 21
-0.28
 31
0
  0
LINE
  8
0
 62
7
 10
4.8647521715239
 20
-0.28
 30
0
 11
4.871502171523899
 21
-0.2825
 31
0
  0
LINE
  8
0
 62
7
 10
4.871502171523899
 20
-0.2825
 30
0
 11
4.878252171523899
 21
-0.2875
 31
0
  0
LINE
  8
0
 62
7
 10
4.878252171523899
 20
-0.2875
 30
0
 11
4.885002171523898
 21
-0.2975
 31
0
  0
LINE
  8
0
 62
7
 10
4.885002171523898
 20
-0.2975
 30
0
 11
4.887252171523899
 21
-0.305
 31
0
  0
LINE
  8
0
 62
7
 10
4.887252171523899
 20
-0.305
 30
0
 11
4.887252171523899
 21
-0.315
 31
0
  0
LINE
  8
0
 62
7
 10
4.887252171523899
 20
-0.315
 30
0
 11
4.833252171523899
 21
-0.315
 31
0
  0
LINE
  8
0
 62
7
 10
4.833252171523899
 20
-0.315
 30
0
 11
4.833252171523899
 21
-0.305
 31
0
  0
LINE
  8
0
 62
7
 10
4.905252171523898
 20
-0.305
 30
0
 11
4.907502171523898
 21
-0.2975
 31
0
  0
LINE
  8
0
 62
7
 10
4.907502171523898
 20
-0.2975
 30
0
 11
4.914252171523898
 21
-0.2875
 31
0
  0
LINE
  8
0
 62
7
 10
4.914252171523898
 20
-0.2875
 30
0
 11
4.9210021715239
 21
-0.2825
 31
0
  0
LINE
  8
0
 62
7
 10
4.9210021715239
 20
-0.2825
 30
0
 11
4.927752171523899
 21
-0.28
 31
0
  0
LINE
  8
0
 62
7
 10
4.927752171523899
 20
-0.28
 30
0
 11
4.936752171523898
 21
-0.28
 31
0
  0
LINE
  8
0
 62
7
 10
4.936752171523898
 20
-0.28
 30
0
 11
4.9435021715239
 21
-0.2825
 31
0
  0
LINE
  8
0
 62
7
 10
4.9435021715239
 20
-0.2825
 30
0
 11
4.950252171523899
 21
-0.2875
 31
0
  0
LINE
  8
0
 62
7
 10
4.950252171523899
 20
-0.2875
 30
0
 11
4.957002171523898
 21
-0.2975
 31
0
  0
LINE
  8
0
 62
7
 10
4.957002171523898
 20
-0.2975
 30
0
 11
4.959252171523898
 21
-0.305
 31
0
  0
LINE
  8
0
 62
7
 10
4.959252171523898
 20
-0.305
 30
0
 11
4.959252171523898
 21
-0.35
 31
0
  0
LINE
  8
0
 62
7
 10
4.905252171523898
 20
-0.28
 30
0
 11
4.905252171523898
 21
-0.305
 31
0
  0
LINE
  8
0
 62
7
 10
4.905252171523898
 20
-0.305
 30
0
 11
4.905252171523898
 21
-0.35
 31
0
  0
ARC
  8
0
 62
7
 10
0.9824256952856669
 20
0.9750033012425994
 30
0
 40
0.4999999999997886
 50
178.1658076849143
 51
209.2801809076871
  0
ARC
  8
0
 62
7
 10
0.9824256952858997
 20
0.9750033012425994
 30
0
 40
0.5000000000000017
 50
127.7455217134114
 51
152.9556646991578
  0
ARC
  8
0
 62
7
 10
0.9824256952858997
 20
0.9750033012425994
 30
0
 40
0.5000000000000225
 50
152.9556646991578
 51
178.1658076849151
  0
ARC
  8
0
 62
7
  6
DASHDOT
 10
3.6824256952859
 20
0.9750033012425994
 30
0
 40
0.8249999999999562
 50
0
 51
90
  0
ARC
  8
0
 62
7
  6
DASHDOT
 10
3.6824256952859
 20
0.9750033012425994
 30
0
 40
0.8250000000000001
 50
270
 51
0
  0
ARC
  8
0
 62
7
 10
3.6824256952859
 20
0.9750033012425994
 30
0
 40
0.5000000000000184
 50
45.05709455672372
 51
52.25447828659573
  0
ARC
  8
0
 62
7
 10
3.6824256952859
 20
0.9750033012425994
 30
0
 40
0.5000000000000017
 50
127.7455217134114
 51
152.9556646991578
  0
ARC
  8
0
 62
7
 10
3.6824256952859
 20
0.9750033012425994
 30
0
 40
0.5000000000000228
 50
152.9556646991578
 51
178.1658076849151
  0
ARC
  8
0
 62
7
 10
3.6824256952859
 20
0.9750033012425994
 30
0
 40
0.5000000000000203
 50
178.1658076849151
 51
203.3759506706562
  0
ARC
  8
0
 62
7
 10
3.6824256952859
 20
0.9750033012425994
 30
0
 40
0.4999999999998966
 50
203.3759506706562
 51
228.5860936564349
  0
ARC
  8
0
 62
7
 10
3.6824256952859
 20
0.9750033012425994
 30
0
 40
0.5000000000000214
 50
228.5860936564349
 51
253.7962366421825
  0
ARC
  8
0
 62
7
 10
3.6824256952859
 20
0.9750033012425994
 30
0
 40
0.5000000000000469
 50
253.7962366421825
 51
279.0063796279491
  0
ARC
  8
0
 62
7
 10
3.6824256952859
 20
0.9750033012425994
 30
0
 40
0.4999999999999578
 50
279.0063796279491
 51
304.2165226136987
  0
ARC
  8
0
 62
7
 10
3.6824256952859
 20
0.9750033012425994
 30
0
 40
0.5000000000000465
 50
304.2165226136987
 51
329.4266655994604
  0
ARC
  8
0
 62
7
 10
3.6824256952859
 20
0.9750033012425994
 30
0
 40
0.4999999999999913
 50
329.4266655994604
 51
354.6368085852135
  0
ARC
  8
0
 62
7
 10
3.6824256952859
 20
0.9750033012425994
 30
0
 40
0.4999999999999943
 50
354.6368085852135
 51
19.84695157097135
  0
ARC
  8
0
 62
7
 10
3.6824256952859
 20
0.9750033012425994
 30
0
 40
0.500000000000054
 50
19.84695157097135
 51
45.05709455672372
  0
ARC
  8
0
 62
7
  6
DASHED
 10
3.6824256952859
 20
0.9750033012425994
 30
0
 40
0.5000000000000822
 50
52.25447828659573
 51
70.26723754247618
  0
ARC
  8
0
 62
7
  6
DASHED
 10
3.6824256952859
 20
0.9750033012425994
 30
0
 40
0.5000000000000342
 50
70.26723754247618
 51
95.47738052822858
  0
ARC
  8
0
 62
7
 10
3.6824256952859
 20
0.9750033012425994
 30
0
 40
0.7950000000000403
 50
56.18996216781841
 51
123.8100378321815
  0
ARC
  8
0
 62
7
  6
DASHDOT
 10
3.6824256952859
 20
0.9750033012425994
 30
0
 40
0.8249999999999997
 50
90
 51
270
  0
CIRCLE
  8
0
 62
7
  6
DASHED
 10
3.634699306129711
 20
1.472720280838606
 30
0
 40
0.05999999999999961
  0
DIMENSION
  8
0
  6
CONTINUOUS
 62
7
  2
*D1
  3
DMST_1
 10
2.852425695285901
 20
6.671852693767431
 30
0
 11
3.682283732306511
 21
6.671852693767431
 31
0
 12
0
 22
0
 32
0
 70
0
 13
4.512425695285901
 23
6.095003301242599
 33
0
 14
2.852425695285901
 24
6.095003301242599
 34
0
 53
0
  0
DIMENSION
  8
0
  6
CONTINUOUS
 62
7
  2
*D2
  3
DMST_1
 10
0.1574256952858999
 20
2.16657196895551
 30
0
 11
0.9679220533825581
 21
2.16657196895551
 31
0
 12
0
 22
0
 32
0
 70
0
 13
1.8074256952859
 23
1.800003301242599
 33
0
 14
0.1574256952858996
 24
1.800003301242599
 34
0
 53
0
  0
DIMENSION
  8
0
  6
CONTINUOUS
 62
7
  2
*D3
  3
DMST_1
 10
2.932425695285901
 20
2.1945550790475
 30
0
 11
3.682283732306511
 21
2.1945550790475
 31
0
 12
0
 22
0
 32
0
 70
0
 13
4.4324256952859
 23
0.9750033012425994
 33
0
 14
2.932425695285901
 24
0.9750033012425994
 34
0
 53
0
  0
DIMENSION
  8
0
  6
CONTINUOUS
 62
7
  2
*D4
  3
DMST_1
 10
4.8016081359865
 20
0.1500033012425992
 30
0
 11
4.8016081359865
 21
0.949306679953525
 31
0
 12
0
 22
0
 32
0
 70
0
 13
3.6824256952859
 23
1.800003301242599
 33
0
 14
3.6824256952859
 24
0.1500033012425993
 34
0
 50
90
 53
0
  0
INSERT
  8
0
  2
*D0
 10
0
 20
0
 30
0
  0
ENDSEC
  0
EOF
