  0
SECTION
  2
HEADER
  9
$ACADVER
  1
AC1009
  9
$INSBASE
 10
0
 20
0
  9
$EXTMIN
 10
0.30209647566364
 20
-0.35
  9
$EXTMAX
 10
5.808000000000002
 20
6.82968819956611
  9
$LIMMIN
 10
0.30209647566364
 20
-0.35
  9
$LIMMAX
 10
5.808000000000002
 20
6.82968819956611
  9
$VIEWCTR
 10
10
 20
10
  9
$VIEWSIZE
 40
10
  9
$SNAPMODE
 70
0
  9
$SNAPUNIT
 10
1
 20
1
  9
$SNAPBASE
 10
0
 20
0
  9
$SNAPANG
 50
0
  9
$SNAPSTYLE
 70
0
  9
$SNAPISOPAIR
 70
0
  9
$GRIDMODE
 70
0
  9
$GRIDUNIT
 10
0
 20
0
  9
$ORTHOMODE
 70
0
  9
$REGENMODE
 70
1
  9
$FILLMODE
 70
1
  9
$QTEXTMODE
 70
0
  9
$DRAGMODE
 70
2
  9
$LTSCALE
 40
1
  9
$OSMODE
 70
0
  9
$ATTMODE
 70
1
  9
$TEXTSIZE
 40
3.5
  9
$TRACEWID
 40
0.5
  9
$TEXTSTYLE
  7
STANDARD
  9
$CLAYER
  8
0
  9
$CELTYPE
  6
BYLAYER
  9
$CECOLOR
 62
256
  9
$DIMSCALE
 40
1
  9
$DIMASZ
 40
0.18
  9
$DIMEXO
 40
0.0625
  9
$DIMDLI
 40
0.38
  9
$DIMRND
 40
0
  9
$DIMDLE
 40
0
  9
$DIMEXE
 40
0.18
  9
$DIMTP
 40
0
  9
$DIMTM
 40
0
  9
$DIMTXT
 40
0.18
  9
$DIMCEN
 40
0.09
  9
$DIMTSZ
 40
0
  9
$DIMTOL
 70
0
  9
$DIMLIM
 70
0
  9
$DIMTIH
 70
1
  9
$DIMTOH
 70
1
  9
$DIMSE1
 70
0
  9
$DIMSE2
 70
0
  9
$DIMTAD
 70
0
  9
$DIMZIN
 70
0
  9
$DIMBLK
  1

  9
$DIMASO
 70
1
  9
$DIMSHO
 70
1
  9
$DIMPOST
  1

  9
$DIMAPOST
  1

  9
$DIMALT
 70
0
  9
$DIMALTD
 70
2
  9
$DIMALTF
 40
25.4
  9
$DIMLFAC
 40
1
  9
$DIMTOFL
 70
0
  9
$DIMTVP
 40
0
  9
$DIMTIX
 70
0
  9
$DIMSOXD
 70
0
  9
$DIMSAH
 70
0
  9
$DIMBLK1
  1

  9
$DIMBLK2
  1

  9
$DIMSTYLE
  2
*UNNAMED
  9
$DIMCLRD
 70
0
  9
$DIMCLRE
 70
0
  9
$DIMCLRT
 70
0
  9
$DIMTFAC
 40
1
  9
$DIMGAP
 40
0.09
  9
$LUNITS
 70
2
  9
$LUPREC
 70
4
  9
$AXISMODE
 70
0
  9
$AXISUNIT
 10
0
 20
0
  9
$SKETCHINC
 40
0.1
  9
$FILLETRAD
 40
2
  9
$AUNITS
 70
0
  9
$AUPREC
 70
0
  9
$MENU
  1
ACAD
  9
$ELEVATION
 40
0
  9
$THICKNESS
 40
0
  9
$VIEWDIR
 10
0
 20
0
 30
1
  9
$LIMCHECK
 70
0
  9
$BLIPMODE
 70
1
  9
$CHAMFERA
 40
0
  9
$CHAMFERB
 40
0
  9
$FASTZOOM
 70
1
  9
$SKPOLY
 70
0
  9
$ANGBASE
 50
0
  9
$ANGDIR
 70
0
  9
$PDMODE
 70
0
  9
$PDSIZE
 40
0
  9
$PLINEWID
 40
0
  9
$COORDS
 70
2
  0
ENDSEC
  0
SECTION
  2
TABLES
  0
TABLE
  2
DIMSTYLE
 70
2
  0
DIMSTYLE
  2
DMST_1
 70
0
  3

  4

  5

  6

  7

 40
1
 41
0.1
 42
0
 43
0.7
 44
0.2
 45
0
 46
0
 47
0
 48
0
140
0.1
141
0
142
0.1
143
25.4
144
1
145
0
146
1
147
0.25
 71
0
 72
0
 73
0
 74
0
 75
0
 76
0
 77
0
 78
9
170
0
171
2
172
0
173
0
174
0
175
0
176
7
177
7
178
7
  0
DIMSTYLE
  2
DMST_2
 70
0
  3

  4

  5

  6

  7

 40
1
 41
0.1
 42
0
 43
0.7
 44
0.1
 45
0
 46
0
 47
0
 48
0
140
0.1
141
0
142
0.1
143
25.4
144
1
145
0
146
1
147
0.1
 71
0
 72
0
 73
0
 74
0
 75
0
 76
0
 77
0
 78
9
170
0
171
2
172
0
173
0
174
0
175
0
176
7
177
7
178
7
  0
ENDTAB
  0
TABLE
  2
LTYPE
 70
9
  0
LTYPE
  2
CONTINUOUS
 70
64
  3
Solid line
 72
65
 73
0
 40
0
  0
LTYPE
  2
BORDER
 70
64
  3
__ __ . __ __ .
 72
65
 73
6
 40
0.330643535506334
 49
0.09446958157323829
 49
-0.04723479078661914
 49
0.09446958157323829
 49
-0.04723479078661914
 49
0
 49
-0.04723479078661914
  0
LTYPE
  2
CENTER
 70
64
  3
____ _ ____ _
 72
65
 73
4
 40
0.3778783262929531
 49
0.2361739539330957
 49
-0.04723479078661914
 49
0.04723479078661914
 49
-0.04723479078661914
  0
LTYPE
  2
DASHDOT
 70
64
  3
__ . __ . __ .
 72
65
 73
4
 40
0.1889391631464766
 49
0.09446958157323829
 49
-0.04723479078661914
 49
0
 49
-0.04723479078661914
  0
LTYPE
  2
DASHED
 70
64
  3
__ __ __ __ __
 72
65
 73
2
 40
0.1417043723598574
 49
0.09446958157323829
 49
-0.04723479078661914
  0
LTYPE
  2
DIVIDE
 70
64
  3
__ . . __ . . 
 72
65
 73
6
 40
0.2361739539330957
 49
0.09446958157323829
 49
-0.04723479078661914
 49
0
 49
-0.04723479078661914
 49
0
 49
-0.04723479078661914
  0
LTYPE
  2
DOT
 70
64
  3
..............
 72
65
 73
4
 40
0.09446958157323829
 49
0
 49
-0.04723479078661914
 49
0
 49
-0.04723479078661914
  0
LTYPE
  2
HIDDEN
 70
64
  3
_ _ _ _ _ _ _
 72
65
 73
2
 40
0.07085218617992872
 49
0.04723479078661914
 49
-0.02361739539330957
  0
LTYPE
  2
PHANTOM
 70
64
  3
_____ _ _ _____ _ _ 
 72
65
 73
6
 40
0.4723479078661914
 49
0.2361739539330957
 49
-0.04723479078661914
 49
0.04723479078661914
 49
-0.04723479078661914
 49
0.04723479078661914
 49
-0.04723479078661914
  0
ENDTAB
  0
TABLE
  2
LAYER
 70
2
  0
LAYER
  2
0
 70
0
 62
7
  6
CONTINUOUS
  0
ENDTAB
  0
TABLE
  2
STYLE
 70
4
  0
STYLE
  2
STANDARD
 70
0
 40
0
 41
1
 50
0
 71
0
 42
3.5
  3
txt
  4

  0
STYLE
  2
SIMPLEX
 70
0
 40
0
 41
1
 50
0
 71
0
 42
3.5
  3
simplex
  4

  0
STYLE
  2
COMPLEX
 70
0
 40
0
 41
1
 50
0
 71
0
 42
3.5
  3
complex
  4

  0
STYLE
  2
ITALIC
 70
0
 40
0
 41
1
 50
0
 71
0
 42
3.5
  3
italic
  4

  0
ENDTAB
  0
TABLE
  2
VIEW
 70
0
  0
ENDTAB
  0
ENDSEC
  0
SECTION
  2
BLOCKS
  0
BLOCK
  8
0
  2
*X0
 70
1
 10
0
 20
0
 30
0
  0
LINE
  8
0
 62
7
  6
DASHED
 10
0.6663264762379115
 20
3.317976905687464
 30
0
 11
0.8369399078958235
 21
3.488590337345377
 31
0
  0
LINE
  8
0
 62
7
  6
DASHED
 10
0.8490719422517894
 20
3.288590337345378
 30
0
 11
1.049071942251788
 21
3.488590337345377
 31
0
  0
LINE
  8
0
 62
7
  6
DASHED
 10
1.061203976607754
 20
3.288590337345378
 30
0
 11
1.261203976607752
 21
3.488590337345377
 31
0
  0
LINE
  8
0
 62
7
  6
DASHED
 10
1.273336010963718
 20
3.288590337345378
 30
0
 11
1.473336010963716
 21
3.488590337345377
 31
0
  0
LINE
  8
0
 62
7
  6
DASHED
 10
1.485468045319682
 20
3.288590337345378
 30
0
 11
1.685468045319681
 21
3.488590337345377
 31
0
  0
LINE
  8
0
 62
7
  6
DASHED
 10
1.697600079675647
 20
3.288590337345378
 30
0
 11
1.897600079675645
 21
3.488590337345377
 31
0
  0
LINE
  8
0
 62
7
  6
DASHED
 10
1.909732114031611
 20
3.288590337345378
 30
0
 11
2.109732114031609
 21
3.488590337345377
 31
0
  0
LINE
  8
0
 62
7
  6
DASHED
 10
2.121864148387575
 20
3.288590337345378
 30
0
 11
2.321864148387573
 21
3.488590337345377
 31
0
  0
LINE
  8
0
 62
7
  6
DASHED
 10
2.333996182743539
 20
3.288590337345378
 30
0
 11
2.533996182743538
 21
3.488590337345377
 31
0
  0
LINE
  8
0
 62
7
  6
DASHED
 10
2.546128217099504
 20
3.288590337345378
 30
0
 11
2.746128217099502
 21
3.488590337345377
 31
0
  0
LINE
  8
0
 62
7
  6
DASHED
 10
2.758260251455468
 20
3.288590337345378
 30
0
 11
2.958260251455466
 21
3.488590337345377
 31
0
  0
LINE
  8
0
 62
7
  6
DASHED
 10
2.970392285811432
 20
3.288590337345378
 30
0
 11
3.170392285811431
 21
3.488590337345377
 31
0
  0
LINE
  8
0
 62
7
  6
DASHED
 10
3.182524320167397
 20
3.288590337345378
 30
0
 11
3.271326476237999
 21
3.37739249341598
 31
0
  0
LINE
  8
0
 62
7
 10
0.6663264762379111
 20
3.424042922865446
 30
0
 11
0.7308738907178411
 21
3.488590337345376
 31
0
  0
LINE
  8
0
 62
7
 10
0.743005925073807
 20
3.288590337345378
 30
0
 11
0.9430059250738054
 21
3.488590337345376
 31
0
  0
LINE
  8
0
 62
7
 10
0.9551379594297713
 20
3.288590337345378
 30
0
 11
1.15513795942977
 21
3.488590337345376
 31
0
  0
LINE
  8
0
 62
7
 10
1.167269993785736
 20
3.288590337345378
 30
0
 11
1.367269993785734
 21
3.488590337345376
 31
0
  0
LINE
  8
0
 62
7
 10
1.3794020281417
 20
3.288590337345378
 30
0
 11
1.579402028141698
 21
3.488590337345376
 31
0
  0
LINE
  8
0
 62
7
 10
1.591534062497664
 20
3.288590337345378
 30
0
 11
1.791534062497663
 21
3.488590337345376
 31
0
  0
LINE
  8
0
 62
7
 10
1.803666096853628
 20
3.288590337345378
 30
0
 11
2.003666096853627
 21
3.488590337345376
 31
0
  0
LINE
  8
0
 62
7
 10
2.015798131209593
 20
3.288590337345378
 30
0
 11
2.215798131209591
 21
3.488590337345376
 31
0
  0
LINE
  8
0
 62
7
 10
2.227930165565557
 20
3.288590337345378
 30
0
 11
2.427930165565555
 21
3.488590337345376
 31
0
  0
LINE
  8
0
 62
7
 10
2.440062199921521
 20
3.288590337345378
 30
0
 11
2.64006219992152
 21
3.488590337345376
 31
0
  0
LINE
  8
0
 62
7
 10
2.652194234277486
 20
3.288590337345378
 30
0
 11
2.852194234277484
 21
3.488590337345376
 31
0
  0
LINE
  8
0
 62
7
 10
2.86432626863345
 20
3.288590337345378
 30
0
 11
3.064326268633448
 21
3.488590337345376
 31
0
  0
LINE
  8
0
 62
7
 10
3.076458302989414
 20
3.288590337345378
 30
0
 11
3.271326476237999
 21
3.483458510593963
 31
0
  0
ENDBLK
  8
0
  0
BLOCK
  8
0
  2
*X1
 70
1
 10
0
 20
0
 30
0
  0
LINE
  8
0
 62
7
  6
DASHED
 10
0.6663264762379111
 20
6.075693352314999
 30
0
 11
0.8292234612682896
 21
6.238590337345377
 31
0
  0
LINE
  8
0
 62
7
  6
DASHED
 10
0.8413554956242542
 20
6.038590337345377
 30
0
 11
1.018826476237999
 21
6.216061317959122
 31
0
  0
LINE
  8
0
 62
7
 10
0.6663264762379115
 20
6.181759369492982
 30
0
 11
0.7231574440903072
 21
6.238590337345377
 31
0
  0
LINE
  8
0
 62
7
 10
0.7352894784462718
 20
6.038590337345378
 30
0
 11
0.9352894784462715
 21
6.238590337345377
 31
0
  0
LINE
  8
0
 62
7
 10
0.9474215128022361
 20
6.038590337345378
 30
0
 11
1.018826476237999
 21
6.10999530078114
 31
0
  0
ENDBLK
  8
0
  0
BLOCK
  8
0
  2
*X2
 70
1
 10
0
 20
0
 30
0
  0
LINE
  8
0
 62
7
  6
DASHED
 10
2.918826476237999
 20
6.206873008755444
 30
0
 11
2.950543804827933
 21
6.238590337345379
 31
0
  0
LINE
  8
0
 62
7
  6
DASHED
 10
2.962675839183896
 20
6.038590337345377
 30
0
 11
3.162675839183898
 21
6.238590337345379
 31
0
  0
LINE
  8
0
 62
7
  6
DASHED
 10
3.17480787353986
 20
6.038590337345377
 30
0
 11
3.271326476237999
 21
6.135108940043515
 31
0
  0
LINE
  8
0
 62
7
 10
2.918826476237999
 20
6.100806991577462
 30
0
 11
3.056609822005914
 21
6.238590337345377
 31
0
  0
LINE
  8
0
 62
7
 10
3.068741856361878
 20
6.038590337345377
 30
0
 11
3.268741856361879
 21
6.238590337345377
 31
0
  0
ENDBLK
  8
0
  0
BLOCK
  8
0
  2
*D0
 70
1
 10
0
 20
0
 30
0
  0
LINE
  8
0
 62
7
 10
0.42709647566364
 20
5.46986457039592
 30
0
 11
0.42709647566364
 21
6.238590337345376
 31
0
  0
LINE
  8
0
 62
7
 10
0.42709647566364
 20
3.488590337345377
 30
0
 11
0.42709647566364
 21
4.28986457039592
 31
0
  0
LINE
  8
0
 62
7
 10
0.6663264762379113
 20
6.238590337345376
 30
0
 11
0.37709647566364
 21
6.238590337345376
 31
0
  0
LINE
  8
0
 62
7
 10
0.6663264762379113
 20
3.488590337345377
 30
0
 11
0.37709647566364
 21
3.488590337345377
 31
0
  0
LINE
  8
0
 62
7
 10
0.4624518147229674
 20
6.203234998286049
 30
0
 11
0.3917411366043126
 21
6.273945676404703
 31
0
  0
LINE
  8
0
 62
7
 10
0.3917411366043126
 20
3.523945676404705
 30
0
 11
0.4624518147229674
 21
3.45323499828605
 31
0
  0
TEXT
  8
0
 62
7
 10
0.40209647566364
 20
4.75986457039592
 30
0
 40
0.1
  1
275
 50
90
 41
0.9
  0
TEXT
  8
0
 62
7
 10
0.55209647566364
 20
4.53986457039592
 30
0
 40
0.1
  1
(260-280)
 50
90
 41
0.9
  0
ENDBLK
  8
0
  0
BLOCK
  8
0
  2
*D1
 70
1
 10
0
 20
0
 30
0
  0
LINE
  8
0
 62
7
 10
2.33038450291527
 20
6.774688199566111
 30
0
 11
2.918826476237999
 21
6.774688199566111
 31
0
  0
LINE
  8
0
 62
7
 10
1.018826476237999
 20
6.774688199566111
 30
0
 11
1.67538450291527
 21
6.774688199566111
 31
0
  0
LINE
  8
0
 62
7
 10
2.918826476237999
 20
6.238590337345377
 30
0
 11
2.918826476237999
 21
6.82468819956611
 31
0
  0
LINE
  8
0
 62
7
 10
1.018826476237999
 20
6.238590337345377
 30
0
 11
1.018826476237999
 21
6.82468819956611
 31
0
  0
LINE
  8
0
 62
7
 10
1.054181815297326
 20
6.810043538625438
 30
0
 11
0.9834711371786716
 21
6.739332860506783
 31
0
  0
LINE
  8
0
 62
7
 10
2.883471137178672
 20
6.739332860506783
 30
0
 11
2.954181815297327
 21
6.810043538625438
 31
0
  0
TEXT
  8
0
 62
7
 10
1.92538450291527
 20
6.729688199566111
 30
0
 40
0.1
  1
1,9
 41
0.9
  0
ENDBLK
  8
0
  0
BLOCK
  8
0
  2
*D2
 70
1
 10
0
 20
0
 30
0
  0
LINE
  8
0
 62
7
 10
2.19982050000051
 20
2.42622355462187
 30
0
 11
2.843826476238
 21
2.42622355462187
 31
0
  0
LINE
  8
0
 62
7
 10
1.093826476237999
 20
2.42622355462187
 30
0
 11
1.75482050000051
 21
2.42622355462187
 31
0
  0
LINE
  8
0
 62
7
 10
2.843826476238
 20
1.118590337345377
 30
0
 11
2.843826476238
 21
2.47622355462187
 31
0
  0
LINE
  8
0
 62
7
 10
1.093826476237999
 20
1.118590337345377
 30
0
 11
1.093826476237999
 21
2.47622355462187
 31
0
  0
LINE
  8
0
 62
7
 10
1.129181815297327
 20
2.461578893681197
 30
0
 11
1.058471137178672
 21
2.390868215562543
 31
0
  0
LINE
  8
0
 62
7
 10
2.808471137178672
 20
2.390868215562543
 30
0
 11
2.879181815297327
 21
2.461578893681197
 31
0
  0
TEXT
  8
0
 62
7
 10
1.85482050000051
 20
2.38122355462187
 30
0
 40
0.1
  1
1,75
 41
0.9
  0
ENDBLK
  8
0
  0
BLOCK
  8
0
  2
*D3
 70
1
 10
0
 20
0
 30
0
  0
LINE
  8
0
 62
7
 10
3.173155266446431
 20
1.2993624578665
 30
0
 11
3.173155266446431
 21
2.068590337345377
 31
0
  0
LINE
  8
0
 62
7
 10
3.173155266446431
 20
0.1685903373453764
 30
0
 11
3.173155266446431
 21
0.9443624578665
 31
0
  0
LINE
  8
0
 62
7
 10
1.968826476238
 20
2.068590337345377
 30
0
 11
3.223155266446431
 21
2.068590337345377
 31
0
  0
LINE
  8
0
 62
7
 10
1.968826476238
 20
0.1685903373453764
 30
0
 11
3.223155266446431
 21
0.1685903373453764
 31
0
  0
LINE
  8
0
 62
7
 10
3.208510605505758
 20
2.03323499828605
 30
0
 11
3.137799927387104
 21
2.103945676404705
 31
0
  0
LINE
  8
0
 62
7
 10
3.137799927387104
 20
0.2039456764047038
 30
0
 11
3.208510605505758
 21
0.1332349982860491
 31
0
  0
TEXT
  8
0
 62
7
 10
3.218155266446431
 20
1.0443624578665
 30
0
 40
0.1
  1
1,9
 50
90
 41
0.9
  0
ENDBLK
  8
0
  0
BLOCK
  8
0
  2
*D4
 70
1
 10
0
 20
0
 30
0
  0
LINE
  8
0
 62
7
 10
4.99484025916925
 20
2.41751937463314
 30
0
 11
5.618826476238013
 21
2.41751937463314
 31
0
  0
LINE
  8
0
 62
7
 10
3.718826476237999
 20
2.41751937463314
 30
0
 11
4.33984025916925
 21
2.41751937463314
 31
0
  0
LINE
  8
0
 62
7
 10
5.618826476238013
 20
2.068590337345377
 30
0
 11
5.618826476238013
 21
2.46751937463314
 31
0
  0
LINE
  8
0
 62
7
 10
3.718826476237999
 20
2.068590337345377
 30
0
 11
3.718826476237999
 21
2.46751937463314
 31
0
  0
LINE
  8
0
 62
7
 10
3.754181815297327
 20
2.452874713692467
 30
0
 11
3.683471137178672
 21
2.382164035573813
 31
0
  0
LINE
  8
0
 62
7
 10
5.583471137178686
 20
2.382164035573813
 30
0
 11
5.65418181529734
 21
2.452874713692467
 31
0
  0
TEXT
  8
0
 62
7
 10
4.58984025916925
 20
2.37251937463314
 30
0
 40
0.1
  1
1,9
 41
0.9
  0
ENDBLK
  8
0
  0
ENDSEC
  0
SECTION
  2
ENTITIES
  0
INSERT
  8
0
  2
*X0
 10
0
 20
0
 30
0
  0
INSERT
  8
0
  2
*X1
 10
0
 20
0
 30
0
  0
INSERT
  8
0
  2
*X2
 10
0
 20
0
 30
0
  0
POINT
  8
0
 62
7
  6
DASHED
 10
1.968826476237999
 20
1.118590337345377
 30
0
  0
LINE
  8
0
 62
7
 10
2.4966168888642
 20
6.273590337345377
 30
0
 11
1.441036063611799
 21
6.273590337345377
 31
0
  0
LINE
  8
0
 62
7
 10
1.441036063611799
 20
6.338590337345376
 30
0
 11
1.441036063611799
 21
6.273590337345377
 31
0
  0
LINE
  8
0
 62
7
 10
1.441036063611799
 20
6.338590337345376
 30
0
 11
2.4966168888642
 21
6.338590337345376
 31
0
  0
LINE
  8
0
 62
7
 10
2.4966168888642
 20
6.338590337345376
 30
0
 11
2.4966168888642
 21
6.273590337345377
 31
0
  0
LINE
  8
0
 62
7
 10
1.898026476237981
 20
3.588590337345377
 30
0
 11
1.898026476237981
 21
3.603590337345377
 31
0
  0
LINE
  8
0
 62
7
 10
1.898026476237981
 20
3.603590337345377
 30
0
 11
1.918026476237981
 21
3.603590337345377
 31
0
  0
LINE
  8
0
 62
7
 10
1.918026476237981
 20
3.603590337345377
 30
0
 11
1.918026476237981
 21
3.645018908773899
 31
0
  0
LINE
  8
0
 62
7
 10
1.918026476237981
 20
3.645018908773899
 30
0
 11
1.908026476237981
 21
3.645018908773899
 31
0
  0
LINE
  8
0
 62
7
 10
1.908026476237981
 20
3.645018908773899
 30
0
 11
1.908026476237981
 21
3.705018908773899
 31
0
  0
LINE
  8
0
 62
7
 10
1.908026476237981
 20
3.705018908773899
 30
0
 11
1.898026476237981
 21
3.705018908773899
 31
0
  0
LINE
  8
0
 62
7
 10
1.898026476237981
 20
3.705018908773899
 30
0
 11
1.898026476237981
 21
3.720018908773898
 31
0
  0
LINE
  8
0
 62
7
 10
1.898026476237981
 20
3.720018908773898
 30
0
 11
2.039626476238016
 21
3.720018908773898
 31
0
  0
LINE
  8
0
 62
7
 10
2.039626476238016
 20
3.720018908773898
 30
0
 11
2.039626476238016
 21
3.705018908773899
 31
0
  0
LINE
  8
0
 62
7
 10
2.039626476238016
 20
3.705018908773899
 30
0
 11
2.029626476238016
 21
3.705018908773899
 31
0
  0
LINE
  8
0
 62
7
 10
2.029626476238016
 20
3.705018908773899
 30
0
 11
2.029626476238016
 21
3.645018908773899
 31
0
  0
LINE
  8
0
 62
7
 10
2.029626476238016
 20
3.645018908773899
 30
0
 11
2.019626476238016
 21
3.645018908773899
 31
0
  0
LINE
  8
0
 62
7
 10
2.019626476238016
 20
3.645018908773899
 30
0
 11
2.019626476238016
 21
3.603590337345377
 31
0
  0
LINE
  8
0
 62
7
 10
2.019626476238016
 20
3.603590337345377
 30
0
 11
2.039626476238016
 21
3.603590337345377
 31
0
  0
LINE
  8
0
 62
7
 10
2.039626476238016
 20
3.603590337345377
 30
0
 11
2.039626476238016
 21
3.588590337345377
 31
0
  0
LINE
  8
0
 62
7
 10
1.898026476237981
 20
3.603590337345377
 30
0
 11
2.039626476238016
 21
3.603590337345377
 31
0
  0
LINE
  8
0
 62
7
 10
2.029626476238016
 20
3.645018908773899
 30
0
 11
1.908026476237981
 21
3.645018908773899
 31
0
  0
LINE
  8
0
 62
7
 10
1.898026476237981
 20
3.705018908773899
 30
0
 11
2.039626476238016
 21
3.705018908773899
 31
0
  0
LINE
  8
0
 62
7
  6
DASHDOT
 10
1.676749164621899
 20
3.805018908773899
 30
0
 11
1.676749164621899
 21
3.388590337345377
 31
0
  0
LINE
  8
0
 62
7
 10
1.968826476237999
 20
3.785018908773898
 30
0
 11
1.898026476237981
 21
3.785018908773898
 31
0
  0
LINE
  8
0
 62
7
 10
1.3286241560505
 20
3.785018908773898
 30
0
 11
1.3286241560505
 21
3.720018908773898
 31
0
  0
LINE
  8
0
 62
7
 10
1.3286241560505
 20
3.720018908773898
 30
0
 11
2.085169536504109
 21
3.720018908773898
 31
0
  0
LINE
  8
0
 62
7
 10
2.085169536504109
 20
3.720018908773898
 30
0
 11
2.085169536504109
 21
3.785018908773898
 31
0
  0
LINE
  8
0
 62
7
 10
2.085169536504109
 20
3.785018908773898
 30
0
 11
2.039626476238016
 21
3.785018908773898
 31
0
  0
LINE
  8
0
 62
7
 10
1.898026476237981
 20
3.785018908773898
 30
0
 11
1.898026476237981
 21
3.800018908773898
 31
0
  0
LINE
  8
0
 62
7
 10
1.898026476237981
 20
3.800018908773898
 30
0
 11
1.918026476237981
 21
3.800018908773898
 31
0
  0
LINE
  8
0
 62
7
 10
1.918026476237981
 20
3.800018908773898
 30
0
 11
1.918026476237981
 21
3.841447480202478
 31
0
  0
LINE
  8
0
 62
7
 10
1.918026476237981
 20
3.841447480202478
 30
0
 11
1.908026476237981
 21
3.841447480202478
 31
0
  0
LINE
  8
0
 62
7
 10
1.908026476237981
 20
3.841447480202478
 30
0
 11
1.908026476237981
 21
3.901447480202478
 31
0
  0
LINE
  8
0
 62
7
 10
1.908026476237981
 20
3.901447480202478
 30
0
 11
1.898026476237981
 21
3.901447480202478
 31
0
  0
LINE
  8
0
 62
7
 10
1.898026476237981
 20
3.901447480202478
 30
0
 11
1.898026476237981
 21
3.916447480202478
 31
0
  0
LINE
  8
0
 62
7
 10
1.898026476237981
 20
3.916447480202478
 30
0
 11
2.039626476238016
 21
3.916447480202478
 31
0
  0
LINE
  8
0
 62
7
 10
2.039626476238016
 20
3.916447480202478
 30
0
 11
2.039626476238016
 21
3.901447480202478
 31
0
  0
LINE
  8
0
 62
7
 10
2.039626476238016
 20
3.901447480202478
 30
0
 11
2.029626476238016
 21
3.901447480202478
 31
0
  0
LINE
  8
0
 62
7
 10
2.029626476238016
 20
3.901447480202478
 30
0
 11
2.029626476238016
 21
3.841447480202478
 31
0
  0
LINE
  8
0
 62
7
 10
2.029626476238016
 20
3.841447480202478
 30
0
 11
2.019626476238016
 21
3.841447480202478
 31
0
  0
LINE
  8
0
 62
7
 10
2.019626476238016
 20
3.841447480202478
 30
0
 11
2.019626476238016
 21
3.800018908773898
 31
0
  0
LINE
  8
0
 62
7
 10
2.019626476238016
 20
3.800018908773898
 30
0
 11
2.039626476238016
 21
3.800018908773898
 31
0
  0
LINE
  8
0
 62
7
 10
2.039626476238016
 20
3.800018908773898
 30
0
 11
2.039626476238016
 21
3.785018908773898
 31
0
  0
LINE
  8
0
 62
7
 10
2.039626476238016
 20
3.785018908773898
 30
0
 11
1.968826476237999
 21
3.785018908773898
 31
0
  0
LINE
  8
0
 62
7
 10
1.898026476237981
 20
3.800018908773898
 30
0
 11
2.039626476238016
 21
3.800018908773898
 31
0
  0
LINE
  8
0
 62
7
 10
2.029626476238016
 20
3.841447480202478
 30
0
 11
1.908026476237981
 21
3.841447480202478
 31
0
  0
LINE
  8
0
 62
7
 10
1.898026476237981
 20
3.901447480202478
 30
0
 11
2.039626476238016
 21
3.901447480202478
 31
0
  0
LINE
  8
0
 62
7
 10
1.898026476237981
 20
3.785018908773898
 30
0
 11
1.3286241560505
 21
3.785018908773898
 31
0
  0
LINE
  8
0
 62
7
 10
1.968826476237999
 20
3.981447480202478
 30
0
 11
1.898026476237981
 21
3.981447480202478
 31
0
  0
LINE
  8
0
 62
7
 10
1.143720346663002
 20
3.981447480202478
 30
0
 11
1.143720346663002
 21
3.916447480202478
 31
0
  0
LINE
  8
0
 62
7
 10
1.143720346663002
 20
3.916447480202478
 30
0
 11
2.088952401673189
 21
3.916447480202478
 31
0
  0
LINE
  8
0
 62
7
 10
2.088952401673189
 20
3.916447480202478
 30
0
 11
2.088952401673189
 21
3.981447480202478
 31
0
  0
LINE
  8
0
 62
7
 10
2.088952401673189
 20
3.981447480202478
 30
0
 11
2.039626476238016
 21
3.981447480202478
 31
0
  0
LINE
  8
0
 62
7
 10
1.898026476237981
 20
3.981447480202478
 30
0
 11
1.898026476237981
 21
3.996447480202479
 31
0
  0
LINE
  8
0
 62
7
 10
1.898026476237981
 20
3.996447480202479
 30
0
 11
1.918026476237981
 21
3.996447480202479
 31
0
  0
LINE
  8
0
 62
7
 10
1.918026476237981
 20
3.996447480202479
 30
0
 11
1.918026476237981
 21
4.037876051631116
 31
0
  0
LINE
  8
0
 62
7
 10
1.918026476237981
 20
4.037876051631116
 30
0
 11
1.908026476237981
 21
4.037876051631116
 31
0
  0
LINE
  8
0
 62
7
 10
1.908026476237981
 20
4.037876051631116
 30
0
 11
1.908026476237981
 21
4.097876051631117
 31
0
  0
LINE
  8
0
 62
7
 10
1.908026476237981
 20
4.097876051631117
 30
0
 11
1.898026476237981
 21
4.097876051631117
 31
0
  0
LINE
  8
0
 62
7
 10
1.898026476237981
 20
4.097876051631117
 30
0
 11
1.898026476237981
 21
4.112876051631116
 31
0
  0
LINE
  8
0
 62
7
 10
1.898026476237981
 20
4.112876051631116
 30
0
 11
2.039626476238016
 21
4.112876051631116
 31
0
  0
LINE
  8
0
 62
7
 10
2.039626476238016
 20
4.112876051631116
 30
0
 11
2.039626476238016
 21
4.097876051631117
 31
0
  0
LINE
  8
0
 62
7
 10
2.039626476238016
 20
4.097876051631117
 30
0
 11
2.029626476238016
 21
4.097876051631117
 31
0
  0
LINE
  8
0
 62
7
 10
2.029626476238016
 20
4.097876051631117
 30
0
 11
2.029626476238016
 21
4.037876051631116
 31
0
  0
LINE
  8
0
 62
7
 10
2.029626476238016
 20
4.037876051631116
 30
0
 11
2.019626476238016
 21
4.037876051631116
 31
0
  0
LINE
  8
0
 62
7
 10
2.019626476238016
 20
4.037876051631116
 30
0
 11
2.019626476238016
 21
3.996447480202479
 31
0
  0
LINE
  8
0
 62
7
 10
2.019626476238016
 20
3.996447480202479
 30
0
 11
2.039626476238016
 21
3.996447480202479
 31
0
  0
LINE
  8
0
 62
7
 10
2.039626476238016
 20
3.996447480202479
 30
0
 11
2.039626476238016
 21
3.981447480202478
 31
0
  0
LINE
  8
0
 62
7
 10
2.039626476238016
 20
3.981447480202478
 30
0
 11
1.968826476237999
 21
3.981447480202478
 31
0
  0
LINE
  8
0
 62
7
 10
1.898026476237981
 20
3.996447480202479
 30
0
 11
2.039626476238016
 21
3.996447480202479
 31
0
  0
LINE
  8
0
 62
7
 10
2.029626476238016
 20
4.037876051631116
 30
0
 11
1.908026476237981
 21
4.037876051631116
 31
0
  0
LINE
  8
0
 62
7
 10
1.898026476237981
 20
4.097876051631117
 30
0
 11
2.039626476238016
 21
4.097876051631117
 31
0
  0
LINE
  8
0
 62
7
 10
1.898026476237981
 20
3.981447480202478
 30
0
 11
1.143720346663002
 21
3.981447480202478
 31
0
  0
LINE
  8
0
 62
7
 10
1.968826476237999
 20
4.177876051631116
 30
0
 11
1.898026476237981
 21
4.177876051631116
 31
0
  0
LINE
  8
0
 62
7
 10
1.096055007525516
 20
4.177876051631116
 30
0
 11
1.096055007525516
 21
4.112876051631116
 31
0
  0
LINE
  8
0
 62
7
 10
1.096055007525516
 20
4.112876051631116
 30
0
 11
2.072754930187599
 21
4.112876051631116
 31
0
  0
LINE
  8
0
 62
7
 10
2.072754930187599
 20
4.112876051631116
 30
0
 11
2.072754930187599
 21
4.177876051631116
 31
0
  0
LINE
  8
0
 62
7
 10
2.072754930187599
 20
4.177876051631116
 30
0
 11
2.039626476238016
 21
4.177876051631116
 31
0
  0
LINE
  8
0
 62
7
 10
1.898026476237981
 20
4.177876051631116
 30
0
 11
1.898026476237981
 21
4.192876051631116
 31
0
  0
LINE
  8
0
 62
7
 10
1.898026476237981
 20
4.192876051631116
 30
0
 11
1.918026476237981
 21
4.192876051631116
 31
0
  0
LINE
  8
0
 62
7
 10
1.918026476237981
 20
4.192876051631116
 30
0
 11
1.918026476237981
 21
4.234304623059697
 31
0
  0
LINE
  8
0
 62
7
 10
1.918026476237981
 20
4.234304623059697
 30
0
 11
1.908026476237981
 21
4.234304623059697
 31
0
  0
LINE
  8
0
 62
7
 10
1.908026476237981
 20
4.234304623059697
 30
0
 11
1.908026476237981
 21
4.294304623059697
 31
0
  0
LINE
  8
0
 62
7
 10
1.908026476237981
 20
4.294304623059697
 30
0
 11
1.898026476237981
 21
4.294304623059697
 31
0
  0
LINE
  8
0
 62
7
 10
1.898026476237981
 20
4.294304623059697
 30
0
 11
1.898026476237981
 21
4.309304623059697
 31
0
  0
LINE
  8
0
 62
7
 10
1.898026476237981
 20
4.309304623059697
 30
0
 11
2.039626476238016
 21
4.309304623059697
 31
0
  0
LINE
  8
0
 62
7
 10
2.039626476238016
 20
4.309304623059697
 30
0
 11
2.039626476238016
 21
4.294304623059697
 31
0
  0
LINE
  8
0
 62
7
 10
2.039626476238016
 20
4.294304623059697
 30
0
 11
2.029626476238016
 21
4.294304623059697
 31
0
  0
LINE
  8
0
 62
7
 10
2.029626476238016
 20
4.294304623059697
 30
0
 11
2.029626476238016
 21
4.234304623059697
 31
0
  0
LINE
  8
0
 62
7
 10
2.029626476238016
 20
4.234304623059697
 30
0
 11
2.019626476238016
 21
4.234304623059697
 31
0
  0
LINE
  8
0
 62
7
 10
2.019626476238016
 20
4.234304623059697
 30
0
 11
2.019626476238016
 21
4.192876051631116
 31
0
  0
LINE
  8
0
 62
7
 10
2.019626476238016
 20
4.192876051631116
 30
0
 11
2.039626476238016
 21
4.192876051631116
 31
0
  0
LINE
  8
0
 62
7
 10
2.039626476238016
 20
4.192876051631116
 30
0
 11
2.039626476238016
 21
4.177876051631116
 31
0
  0
LINE
  8
0
 62
7
 10
2.039626476238016
 20
4.177876051631116
 30
0
 11
1.968826476237999
 21
4.177876051631116
 31
0
  0
LINE
  8
0
 62
7
 10
1.898026476237981
 20
4.192876051631116
 30
0
 11
2.039626476238016
 21
4.192876051631116
 31
0
  0
LINE
  8
0
 62
7
 10
2.029626476238016
 20
4.234304623059697
 30
0
 11
1.908026476237981
 21
4.234304623059697
 31
0
  0
LINE
  8
0
 62
7
 10
1.898026476237981
 20
4.294304623059697
 30
0
 11
2.039626476238016
 21
4.294304623059697
 31
0
  0
LINE
  8
0
 62
7
 10
1.898026476237981
 20
4.177876051631116
 30
0
 11
1.096055007525516
 21
4.177876051631116
 31
0
  0
LINE
  8
0
 62
7
 10
1.968826476237999
 20
4.374304623059697
 30
0
 11
1.898026476237981
 21
4.374304623059697
 31
0
  0
LINE
  8
0
 62
7
 10
1.0938783948005
 20
4.374304623059697
 30
0
 11
1.0938783948005
 21
4.309304623059697
 31
0
  0
LINE
  8
0
 62
7
 10
1.0938783948005
 20
4.309304623059697
 30
0
 11
2.076326119872596
 21
4.309304623059697
 31
0
  0
LINE
  8
0
 62
7
 10
2.076326119872596
 20
4.309304623059697
 30
0
 11
2.076326119872596
 21
4.374304623059697
 31
0
  0
LINE
  8
0
 62
7
 10
2.076326119872596
 20
4.374304623059697
 30
0
 11
2.039626476238016
 21
4.374304623059697
 31
0
  0
LINE
  8
0
 62
7
 10
1.898026476237981
 20
4.374304623059697
 30
0
 11
1.898026476237981
 21
4.389304623059696
 31
0
  0
LINE
  8
0
 62
7
 10
1.898026476237981
 20
4.389304623059696
 30
0
 11
1.918026476237981
 21
4.389304623059696
 31
0
  0
LINE
  8
0
 62
7
 10
1.918026476237981
 20
4.389304623059696
 30
0
 11
1.918026476237981
 21
4.430733194488218
 31
0
  0
LINE
  8
0
 62
7
 10
1.918026476237981
 20
4.430733194488218
 30
0
 11
1.908026476237981
 21
4.430733194488218
 31
0
  0
LINE
  8
0
 62
7
 10
1.908026476237981
 20
4.430733194488218
 30
0
 11
1.908026476237981
 21
4.490733194488217
 31
0
  0
LINE
  8
0
 62
7
 10
1.908026476237981
 20
4.490733194488217
 30
0
 11
1.898026476237981
 21
4.490733194488217
 31
0
  0
LINE
  8
0
 62
7
 10
1.898026476237981
 20
4.490733194488217
 30
0
 11
1.898026476237981
 21
4.505733194488218
 31
0
  0
LINE
  8
0
 62
7
 10
1.898026476237981
 20
4.505733194488218
 30
0
 11
2.039626476238016
 21
4.505733194488218
 31
0
  0
LINE
  8
0
 62
7
 10
2.039626476238016
 20
4.505733194488218
 30
0
 11
2.039626476238016
 21
4.490733194488217
 31
0
  0
LINE
  8
0
 62
7
 10
2.039626476238016
 20
4.490733194488217
 30
0
 11
2.029626476238016
 21
4.490733194488217
 31
0
  0
LINE
  8
0
 62
7
 10
2.029626476238016
 20
4.490733194488217
 30
0
 11
2.029626476238016
 21
4.430733194488218
 31
0
  0
LINE
  8
0
 62
7
 10
2.029626476238016
 20
4.430733194488218
 30
0
 11
2.019626476238016
 21
4.430733194488218
 31
0
  0
LINE
  8
0
 62
7
 10
2.019626476238016
 20
4.430733194488218
 30
0
 11
2.019626476238016
 21
4.389304623059696
 31
0
  0
LINE
  8
0
 62
7
 10
2.019626476238016
 20
4.389304623059696
 30
0
 11
2.039626476238016
 21
4.389304623059696
 31
0
  0
LINE
  8
0
 62
7
 10
2.039626476238016
 20
4.389304623059696
 30
0
 11
2.039626476238016
 21
4.374304623059697
 31
0
  0
LINE
  8
0
 62
7
 10
2.039626476238016
 20
4.374304623059697
 30
0
 11
1.968826476237999
 21
4.374304623059697
 31
0
  0
LINE
  8
0
 62
7
 10
1.898026476237981
 20
4.389304623059696
 30
0
 11
2.039626476238016
 21
4.389304623059696
 31
0
  0
LINE
  8
0
 62
7
 10
2.029626476238016
 20
4.430733194488218
 30
0
 11
1.908026476237981
 21
4.430733194488218
 31
0
  0
LINE
  8
0
 62
7
 10
1.898026476237981
 20
4.490733194488217
 30
0
 11
2.039626476238016
 21
4.490733194488217
 31
0
  0
LINE
  8
0
 62
7
 10
1.898026476237981
 20
4.374304623059697
 30
0
 11
1.0938783948005
 21
4.374304623059697
 31
0
  0
LINE
  8
0
 62
7
 10
1.968826476237999
 20
4.570733194488217
 30
0
 11
1.898026476237981
 21
4.570733194488217
 31
0
  0
LINE
  8
0
 62
7
 10
1.162836995088001
 20
4.570733194488217
 30
0
 11
1.162836995088001
 21
4.505733194488218
 31
0
  0
LINE
  8
0
 62
7
 10
1.162836995088001
 20
4.505733194488218
 30
0
 11
2.0896725701119
 21
4.505733194488218
 31
0
  0
LINE
  8
0
 62
7
 10
2.0896725701119
 20
4.505733194488218
 30
0
 11
2.0896725701119
 21
4.570733194488217
 31
0
  0
LINE
  8
0
 62
7
 10
2.0896725701119
 20
4.570733194488217
 30
0
 11
2.039626476238016
 21
4.570733194488217
 31
0
  0
LINE
  8
0
 62
7
 10
1.898026476237981
 20
4.570733194488217
 30
0
 11
1.898026476237981
 21
4.585733194488217
 31
0
  0
LINE
  8
0
 62
7
 10
1.898026476237981
 20
4.585733194488217
 30
0
 11
1.918026476237981
 21
4.585733194488217
 31
0
  0
LINE
  8
0
 62
7
 10
1.918026476237981
 20
4.585733194488217
 30
0
 11
1.918026476237981
 21
4.627161765916798
 31
0
  0
LINE
  8
0
 62
7
 10
1.918026476237981
 20
4.627161765916798
 30
0
 11
1.908026476237981
 21
4.627161765916798
 31
0
  0
LINE
  8
0
 62
7
 10
1.908026476237981
 20
4.627161765916798
 30
0
 11
1.908026476237981
 21
4.687161765916797
 31
0
  0
LINE
  8
0
 62
7
 10
1.908026476237981
 20
4.687161765916797
 30
0
 11
1.898026476237981
 21
4.687161765916797
 31
0
  0
LINE
  8
0
 62
7
 10
1.898026476237981
 20
4.687161765916797
 30
0
 11
1.898026476237981
 21
4.702161765916798
 31
0
  0
LINE
  8
0
 62
7
 10
1.898026476237981
 20
4.702161765916798
 30
0
 11
2.039626476238016
 21
4.702161765916798
 31
0
  0
LINE
  8
0
 62
7
 10
2.039626476238016
 20
4.702161765916798
 30
0
 11
2.039626476238016
 21
4.687161765916797
 31
0
  0
LINE
  8
0
 62
7
 10
2.039626476238016
 20
4.687161765916797
 30
0
 11
2.029626476238016
 21
4.687161765916797
 31
0
  0
LINE
  8
0
 62
7
 10
2.029626476238016
 20
4.687161765916797
 30
0
 11
2.029626476238016
 21
4.627161765916798
 31
0
  0
LINE
  8
0
 62
7
 10
2.029626476238016
 20
4.627161765916798
 30
0
 11
2.019626476238016
 21
4.627161765916798
 31
0
  0
LINE
  8
0
 62
7
 10
2.019626476238016
 20
4.627161765916798
 30
0
 11
2.019626476238016
 21
4.585733194488217
 31
0
  0
LINE
  8
0
 62
7
 10
2.019626476238016
 20
4.585733194488217
 30
0
 11
2.039626476238016
 21
4.585733194488217
 31
0
  0
LINE
  8
0
 62
7
 10
2.039626476238016
 20
4.585733194488217
 30
0
 11
2.039626476238016
 21
4.570733194488217
 31
0
  0
LINE
  8
0
 62
7
 10
2.039626476238016
 20
4.570733194488217
 30
0
 11
1.968826476237999
 21
4.570733194488217
 31
0
  0
LINE
  8
0
 62
7
 10
1.898026476237981
 20
4.585733194488217
 30
0
 11
2.039626476238016
 21
4.585733194488217
 31
0
  0
LINE
  8
0
 62
7
 10
2.029626476238016
 20
4.627161765916798
 30
0
 11
1.908026476237981
 21
4.627161765916798
 31
0
  0
LINE
  8
0
 62
7
 10
1.898026476237981
 20
4.687161765916797
 30
0
 11
2.039626476238016
 21
4.687161765916797
 31
0
  0
LINE
  8
0
 62
7
 10
1.898026476237981
 20
4.570733194488217
 30
0
 11
1.162836995088001
 21
4.570733194488217
 31
0
  0
LINE
  8
0
 62
7
 10
1.968826476237999
 20
4.767161765916797
 30
0
 11
1.898026476237981
 21
4.767161765916797
 31
0
  0
LINE
  8
0
 62
7
 10
1.365854426750506
 20
4.767161765916797
 30
0
 11
1.365854426750506
 21
4.702161765916798
 31
0
  0
LINE
  8
0
 62
7
 10
1.365854426750506
 20
4.702161765916798
 30
0
 11
2.082918899318205
 21
4.702161765916798
 31
0
  0
LINE
  8
0
 62
7
 10
2.082918899318205
 20
4.702161765916798
 30
0
 11
2.082918899318205
 21
4.767161765916797
 31
0
  0
LINE
  8
0
 62
7
 10
2.082918899318205
 20
4.767161765916797
 30
0
 11
2.039626476238016
 21
4.767161765916797
 31
0
  0
LINE
  8
0
 62
7
 10
1.898026476237981
 20
4.767161765916797
 30
0
 11
1.898026476237981
 21
4.782161765916797
 31
0
  0
LINE
  8
0
 62
7
 10
1.898026476237981
 20
4.782161765916797
 30
0
 11
1.918026476237981
 21
4.782161765916797
 31
0
  0
LINE
  8
0
 62
7
 10
1.918026476237981
 20
4.782161765916797
 30
0
 11
1.918026476237981
 21
4.823590337345378
 31
0
  0
LINE
  8
0
 62
7
 10
1.918026476237981
 20
4.823590337345378
 30
0
 11
1.908026476237981
 21
4.823590337345378
 31
0
  0
LINE
  8
0
 62
7
 10
1.908026476237981
 20
4.823590337345378
 30
0
 11
1.908026476237981
 21
4.883590337345378
 31
0
  0
LINE
  8
0
 62
7
 10
1.908026476237981
 20
4.883590337345378
 30
0
 11
1.898026476237981
 21
4.883590337345378
 31
0
  0
LINE
  8
0
 62
7
 10
1.898026476237981
 20
4.883590337345378
 30
0
 11
1.898026476237981
 21
4.898590337345378
 31
0
  0
LINE
  8
0
 62
7
 10
1.898026476237981
 20
4.898590337345378
 30
0
 11
2.039626476238016
 21
4.898590337345378
 31
0
  0
LINE
  8
0
 62
7
 10
2.039626476238016
 20
4.898590337345378
 30
0
 11
2.039626476238016
 21
4.883590337345378
 31
0
  0
LINE
  8
0
 62
7
 10
2.039626476238016
 20
4.883590337345378
 30
0
 11
2.029626476238016
 21
4.883590337345378
 31
0
  0
LINE
  8
0
 62
7
 10
2.029626476238016
 20
4.883590337345378
 30
0
 11
2.029626476238016
 21
4.823590337345378
 31
0
  0
LINE
  8
0
 62
7
 10
2.029626476238016
 20
4.823590337345378
 30
0
 11
2.019626476238016
 21
4.823590337345378
 31
0
  0
LINE
  8
0
 62
7
 10
2.019626476238016
 20
4.823590337345378
 30
0
 11
2.019626476238016
 21
4.782161765916797
 31
0
  0
LINE
  8
0
 62
7
 10
2.019626476238016
 20
4.782161765916797
 30
0
 11
2.039626476238016
 21
4.782161765916797
 31
0
  0
LINE
  8
0
 62
7
 10
2.039626476238016
 20
4.782161765916797
 30
0
 11
2.039626476238016
 21
4.767161765916797
 31
0
  0
LINE
  8
0
 62
7
 10
2.039626476238016
 20
4.767161765916797
 30
0
 11
1.968826476237999
 21
4.767161765916797
 31
0
  0
LINE
  8
0
 62
7
 10
1.898026476237981
 20
4.782161765916797
 30
0
 11
2.039626476238016
 21
4.782161765916797
 31
0
  0
LINE
  8
0
 62
7
 10
2.029626476238016
 20
4.823590337345378
 30
0
 11
1.908026476237981
 21
4.823590337345378
 31
0
  0
LINE
  8
0
 62
7
 10
1.898026476237981
 20
4.883590337345378
 30
0
 11
2.039626476238016
 21
4.883590337345378
 31
0
  0
LINE
  8
0
 62
7
 10
1.898026476237981
 20
4.767161765916797
 30
0
 11
1.365854426750506
 21
4.767161765916797
 31
0
  0
LINE
  8
0
 62
7
 10
1.968826476237999
 20
4.963590337345378
 30
0
 11
1.898026476237981
 21
4.963590337345378
 31
0
  0
LINE
  8
0
 62
7
 10
1.669163152663008
 20
4.963590337345378
 30
0
 11
1.669163152663008
 21
4.898590337345378
 31
0
  0
LINE
  8
0
 62
7
 10
1.669163152663008
 20
4.898590337345378
 30
0
 11
2.093912355862994
 21
4.898590337345378
 31
0
  0
LINE
  8
0
 62
7
 10
2.093912355862994
 20
4.898590337345378
 30
0
 11
2.093912355862994
 21
4.963590337345378
 31
0
  0
LINE
  8
0
 62
7
 10
2.093912355862994
 20
4.963590337345378
 30
0
 11
2.039626476238016
 21
4.963590337345378
 31
0
  0
LINE
  8
0
 62
7
 10
1.898026476237981
 20
4.963590337345378
 30
0
 11
1.898026476237981
 21
4.978590337345378
 31
0
  0
LINE
  8
0
 62
7
 10
1.898026476237981
 20
4.963590337345378
 30
0
 11
1.669163152663008
 21
4.963590337345378
 31
0
  0
LINE
  8
0
 62
7
 10
1.898026476237981
 20
4.978590337345378
 30
0
 11
1.918026476237981
 21
4.978590337345378
 31
0
  0
LINE
  8
0
 62
7
 10
1.918026476237981
 20
4.978590337345378
 30
0
 11
1.918026476237981
 21
5.020018908773899
 31
0
  0
LINE
  8
0
 62
7
 10
1.918026476237981
 20
5.020018908773899
 30
0
 11
1.908026476237981
 21
5.020018908773899
 31
0
  0
LINE
  8
0
 62
7
 10
1.908026476237981
 20
5.020018908773899
 30
0
 11
1.908026476237981
 21
5.080018908773899
 31
0
  0
LINE
  8
0
 62
7
 10
1.908026476237981
 20
5.080018908773899
 30
0
 11
1.898026476237981
 21
5.080018908773899
 31
0
  0
LINE
  8
0
 62
7
 10
1.898026476237981
 20
5.080018908773899
 30
0
 11
1.898026476237981
 21
5.095018908773898
 31
0
  0
LINE
  8
0
 62
7
 10
1.898026476237981
 20
5.095018908773898
 30
0
 11
2.039626476238016
 21
5.095018908773898
 31
0
  0
LINE
  8
0
 62
7
 10
2.039626476238016
 20
5.095018908773898
 30
0
 11
2.039626476238016
 21
5.080018908773899
 31
0
  0
LINE
  8
0
 62
7
 10
2.039626476238016
 20
5.080018908773899
 30
0
 11
2.029626476238016
 21
5.080018908773899
 31
0
  0
LINE
  8
0
 62
7
 10
2.029626476238016
 20
5.080018908773899
 30
0
 11
2.029626476238016
 21
5.020018908773899
 31
0
  0
LINE
  8
0
 62
7
 10
2.029626476238016
 20
5.020018908773899
 30
0
 11
2.019626476238016
 21
5.020018908773899
 31
0
  0
LINE
  8
0
 62
7
 10
2.019626476238016
 20
5.020018908773899
 30
0
 11
2.019626476238016
 21
4.978590337345378
 31
0
  0
LINE
  8
0
 62
7
 10
2.019626476238016
 20
4.978590337345378
 30
0
 11
2.039626476238016
 21
4.978590337345378
 31
0
  0
LINE
  8
0
 62
7
 10
2.039626476238016
 20
4.978590337345378
 30
0
 11
2.039626476238016
 21
4.963590337345378
 31
0
  0
LINE
  8
0
 62
7
 10
2.039626476238016
 20
4.963590337345378
 30
0
 11
1.968826476237999
 21
4.963590337345378
 31
0
  0
LINE
  8
0
 62
7
 10
1.898026476237981
 20
4.978590337345378
 30
0
 11
2.039626476238016
 21
4.978590337345378
 31
0
  0
LINE
  8
0
 62
7
 10
2.029626476238016
 20
5.020018908773899
 30
0
 11
1.908026476237981
 21
5.020018908773899
 31
0
  0
LINE
  8
0
 62
7
 10
1.898026476237981
 20
5.080018908773899
 30
0
 11
2.039626476238016
 21
5.080018908773899
 31
0
  0
LINE
  8
0
 62
7
 10
1.968826476237999
 20
5.1600189087739
 30
0
 11
1.898026476237981
 21
5.1600189087739
 31
0
  0
LINE
  8
0
 62
7
 10
1.865473593441304
 20
5.1600189087739
 30
0
 11
1.865473593441304
 21
5.095018908773898
 31
0
  0
LINE
  8
0
 62
7
 10
1.865473593441304
 20
5.095018908773898
 30
0
 11
2.429277783812984
 21
5.095018908773898
 31
0
  0
LINE
  8
0
 62
7
 10
2.429277783812984
 20
5.095018908773898
 30
0
 11
2.429277783812984
 21
5.1600189087739
 31
0
  0
LINE
  8
0
 62
7
 10
1.898026476237981
 20
5.1600189087739
 30
0
 11
1.898026476237981
 21
5.175018908773899
 31
0
  0
LINE
  8
0
 62
7
 10
1.898026476237981
 20
5.1600189087739
 30
0
 11
1.865473593441304
 21
5.1600189087739
 31
0
  0
LINE
  8
0
 62
7
 10
1.898026476237981
 20
5.175018908773899
 30
0
 11
1.918026476237981
 21
5.175018908773899
 31
0
  0
LINE
  8
0
 62
7
 10
1.918026476237981
 20
5.175018908773899
 30
0
 11
1.918026476237981
 21
5.216447480202478
 31
0
  0
LINE
  8
0
 62
7
 10
1.918026476237981
 20
5.216447480202478
 30
0
 11
1.908026476237981
 21
5.216447480202478
 31
0
  0
LINE
  8
0
 62
7
 10
1.908026476237981
 20
5.216447480202478
 30
0
 11
1.908026476237981
 21
5.276447480202478
 31
0
  0
LINE
  8
0
 62
7
 10
1.908026476237981
 20
5.276447480202478
 30
0
 11
1.898026476237981
 21
5.276447480202478
 31
0
  0
LINE
  8
0
 62
7
 10
1.898026476237981
 20
5.276447480202478
 30
0
 11
1.898026476237981
 21
5.291447480202478
 31
0
  0
LINE
  8
0
 62
7
 10
1.898026476237981
 20
5.291447480202478
 30
0
 11
2.039626476238016
 21
5.291447480202478
 31
0
  0
LINE
  8
0
 62
7
 10
2.039626476238016
 20
5.291447480202478
 30
0
 11
2.039626476238016
 21
5.276447480202478
 31
0
  0
LINE
  8
0
 62
7
 10
2.039626476238016
 20
5.276447480202478
 30
0
 11
2.029626476238016
 21
5.276447480202478
 31
0
  0
LINE
  8
0
 62
7
 10
2.029626476238016
 20
5.276447480202478
 30
0
 11
2.029626476238016
 21
5.216447480202478
 31
0
  0
LINE
  8
0
 62
7
 10
2.029626476238016
 20
5.216447480202478
 30
0
 11
2.019626476238016
 21
5.216447480202478
 31
0
  0
LINE
  8
0
 62
7
 10
2.019626476238016
 20
5.216447480202478
 30
0
 11
2.019626476238016
 21
5.175018908773899
 31
0
  0
LINE
  8
0
 62
7
 10
2.019626476238016
 20
5.175018908773899
 30
0
 11
2.039626476238016
 21
5.175018908773899
 31
0
  0
LINE
  8
0
 62
7
 10
2.039626476238016
 20
5.175018908773899
 30
0
 11
2.039626476238016
 21
5.1600189087739
 31
0
  0
LINE
  8
0
 62
7
 10
2.039626476238016
 20
5.1600189087739
 30
0
 11
1.968826476237999
 21
5.1600189087739
 31
0
  0
LINE
  8
0
 62
7
 10
1.898026476237981
 20
5.175018908773899
 30
0
 11
2.039626476238016
 21
5.175018908773899
 31
0
  0
LINE
  8
0
 62
7
 10
2.029626476238016
 20
5.216447480202478
 30
0
 11
1.908026476237981
 21
5.216447480202478
 31
0
  0
LINE
  8
0
 62
7
 10
1.898026476237981
 20
5.276447480202478
 30
0
 11
2.039626476238016
 21
5.276447480202478
 31
0
  0
LINE
  8
0
 62
7
 10
2.429277783812984
 20
5.1600189087739
 30
0
 11
2.039626476238016
 21
5.1600189087739
 31
0
  0
LINE
  8
0
 62
7
 10
1.968826476237999
 20
5.356447480202479
 30
0
 11
1.898026476237981
 21
5.356447480202479
 31
0
  0
LINE
  8
0
 62
7
 10
1.848848345801613
 20
5.356447480202479
 30
0
 11
1.848848345801613
 21
5.291447480202478
 31
0
  0
LINE
  8
0
 62
7
 10
1.848848345801613
 20
5.291447480202478
 30
0
 11
2.688057145125495
 21
5.291447480202478
 31
0
  0
LINE
  8
0
 62
7
 10
2.688057145125495
 20
5.291447480202478
 30
0
 11
2.688057145125495
 21
5.356447480202479
 31
0
  0
LINE
  8
0
 62
7
 10
1.898026476237981
 20
5.356447480202479
 30
0
 11
1.898026476237981
 21
5.371447480202479
 31
0
  0
LINE
  8
0
 62
7
 10
1.898026476237981
 20
5.356447480202479
 30
0
 11
1.848848345801613
 21
5.356447480202479
 31
0
  0
LINE
  8
0
 62
7
 10
1.898026476237981
 20
5.371447480202479
 30
0
 11
1.918026476237981
 21
5.371447480202479
 31
0
  0
LINE
  8
0
 62
7
 10
1.918026476237981
 20
5.371447480202479
 30
0
 11
1.918026476237981
 21
5.412876051631116
 31
0
  0
LINE
  8
0
 62
7
 10
1.918026476237981
 20
5.412876051631116
 30
0
 11
1.908026476237981
 21
5.412876051631116
 31
0
  0
LINE
  8
0
 62
7
 10
1.908026476237981
 20
5.412876051631116
 30
0
 11
1.908026476237981
 21
5.472876051631117
 31
0
  0
LINE
  8
0
 62
7
 10
1.908026476237981
 20
5.472876051631117
 30
0
 11
1.898026476237981
 21
5.472876051631117
 31
0
  0
LINE
  8
0
 62
7
 10
1.898026476237981
 20
5.472876051631117
 30
0
 11
1.898026476237981
 21
5.487876051631116
 31
0
  0
LINE
  8
0
 62
7
 10
1.898026476237981
 20
5.487876051631116
 30
0
 11
2.039626476238016
 21
5.487876051631116
 31
0
  0
LINE
  8
0
 62
7
 10
2.039626476238016
 20
5.487876051631116
 30
0
 11
2.039626476238016
 21
5.472876051631117
 31
0
  0
LINE
  8
0
 62
7
 10
2.039626476238016
 20
5.472876051631117
 30
0
 11
2.029626476238016
 21
5.472876051631117
 31
0
  0
LINE
  8
0
 62
7
 10
2.029626476238016
 20
5.472876051631117
 30
0
 11
2.029626476238016
 21
5.412876051631116
 31
0
  0
LINE
  8
0
 62
7
 10
2.029626476238016
 20
5.412876051631116
 30
0
 11
2.019626476238016
 21
5.412876051631116
 31
0
  0
LINE
  8
0
 62
7
 10
2.019626476238016
 20
5.412876051631116
 30
0
 11
2.019626476238016
 21
5.371447480202479
 31
0
  0
LINE
  8
0
 62
7
 10
2.019626476238016
 20
5.371447480202479
 30
0
 11
2.039626476238016
 21
5.371447480202479
 31
0
  0
LINE
  8
0
 62
7
 10
2.039626476238016
 20
5.371447480202479
 30
0
 11
2.039626476238016
 21
5.356447480202479
 31
0
  0
LINE
  8
0
 62
7
 10
2.039626476238016
 20
5.356447480202479
 30
0
 11
1.968826476237999
 21
5.356447480202479
 31
0
  0
LINE
  8
0
 62
7
 10
1.898026476237981
 20
5.371447480202479
 30
0
 11
2.039626476238016
 21
5.371447480202479
 31
0
  0
LINE
  8
0
 62
7
 10
2.029626476238016
 20
5.412876051631116
 30
0
 11
1.908026476237981
 21
5.412876051631116
 31
0
  0
LINE
  8
0
 62
7
 10
1.898026476237981
 20
5.472876051631117
 30
0
 11
2.039626476238016
 21
5.472876051631117
 31
0
  0
LINE
  8
0
 62
7
 10
2.688057145125495
 20
5.356447480202479
 30
0
 11
2.039626476238016
 21
5.356447480202479
 31
0
  0
LINE
  8
0
 62
7
 10
1.968826476237999
 20
5.552876051631117
 30
0
 11
1.898026476237981
 21
5.552876051631117
 31
0
  0
LINE
  8
0
 62
7
 10
1.852178852342593
 20
5.552876051631117
 30
0
 11
1.852178852342593
 21
5.487876051631116
 31
0
  0
LINE
  8
0
 62
7
 10
1.852178852342593
 20
5.487876051631116
 30
0
 11
2.827208117750503
 21
5.487876051631116
 31
0
  0
LINE
  8
0
 62
7
 10
2.827208117750503
 20
5.487876051631116
 30
0
 11
2.827208117750503
 21
5.552876051631117
 31
0
  0
LINE
  8
0
 62
7
 10
1.898026476237981
 20
5.552876051631117
 30
0
 11
1.898026476237981
 21
5.567876051631116
 31
0
  0
LINE
  8
0
 62
7
 10
1.898026476237981
 20
5.552876051631117
 30
0
 11
1.852178852342593
 21
5.552876051631117
 31
0
  0
LINE
  8
0
 62
7
 10
1.898026476237981
 20
5.567876051631116
 30
0
 11
1.918026476237981
 21
5.567876051631116
 31
0
  0
LINE
  8
0
 62
7
 10
1.918026476237981
 20
5.567876051631116
 30
0
 11
1.918026476237981
 21
5.609304623059697
 31
0
  0
LINE
  8
0
 62
7
 10
1.918026476237981
 20
5.609304623059697
 30
0
 11
1.908026476237981
 21
5.609304623059697
 31
0
  0
LINE
  8
0
 62
7
 10
1.908026476237981
 20
5.609304623059697
 30
0
 11
1.908026476237981
 21
5.669304623059697
 31
0
  0
LINE
  8
0
 62
7
 10
1.908026476237981
 20
5.669304623059697
 30
0
 11
1.898026476237981
 21
5.669304623059697
 31
0
  0
LINE
  8
0
 62
7
 10
1.898026476237981
 20
5.669304623059697
 30
0
 11
1.898026476237981
 21
5.684304623059697
 31
0
  0
LINE
  8
0
 62
7
 10
1.898026476237981
 20
5.684304623059697
 30
0
 11
2.039626476238016
 21
5.684304623059697
 31
0
  0
LINE
  8
0
 62
7
 10
2.039626476238016
 20
5.684304623059697
 30
0
 11
2.039626476238016
 21
5.669304623059697
 31
0
  0
LINE
  8
0
 62
7
 10
2.039626476238016
 20
5.669304623059697
 30
0
 11
2.029626476238016
 21
5.669304623059697
 31
0
  0
LINE
  8
0
 62
7
 10
2.029626476238016
 20
5.669304623059697
 30
0
 11
2.029626476238016
 21
5.609304623059697
 31
0
  0
LINE
  8
0
 62
7
 10
2.029626476238016
 20
5.609304623059697
 30
0
 11
2.019626476238016
 21
5.609304623059697
 31
0
  0
LINE
  8
0
 62
7
 10
2.019626476238016
 20
5.609304623059697
 30
0
 11
2.019626476238016
 21
5.567876051631116
 31
0
  0
LINE
  8
0
 62
7
 10
2.019626476238016
 20
5.567876051631116
 30
0
 11
2.039626476238016
 21
5.567876051631116
 31
0
  0
LINE
  8
0
 62
7
 10
2.039626476238016
 20
5.567876051631116
 30
0
 11
2.039626476238016
 21
5.552876051631117
 31
0
  0
LINE
  8
0
 62
7
 10
2.039626476238016
 20
5.552876051631117
 30
0
 11
1.968826476237999
 21
5.552876051631117
 31
0
  0
LINE
  8
0
 62
7
 10
1.898026476237981
 20
5.567876051631116
 30
0
 11
2.039626476238016
 21
5.567876051631116
 31
0
  0
LINE
  8
0
 62
7
 10
2.029626476238016
 20
5.609304623059697
 30
0
 11
1.908026476237981
 21
5.609304623059697
 31
0
  0
LINE
  8
0
 62
7
 10
1.898026476237981
 20
5.669304623059697
 30
0
 11
2.039626476238016
 21
5.669304623059697
 31
0
  0
LINE
  8
0
 62
7
 10
2.827208117750503
 20
5.552876051631117
 30
0
 11
2.039626476238016
 21
5.552876051631117
 31
0
  0
LINE
  8
0
 62
7
 10
1.968826476237999
 20
5.749304623059697
 30
0
 11
1.898026476237981
 21
5.749304623059697
 31
0
  0
LINE
  8
0
 62
7
 10
1.874911155676411
 20
5.749304623059697
 30
0
 11
1.874911155676411
 21
5.684304623059697
 31
0
  0
LINE
  8
0
 62
7
 10
1.874911155676411
 20
5.684304623059697
 30
0
 11
2.823585961975506
 21
5.684304623059697
 31
0
  0
LINE
  8
0
 62
7
 10
2.823585961975506
 20
5.684304623059697
 30
0
 11
2.823585961975506
 21
5.749304623059697
 31
0
  0
LINE
  8
0
 62
7
 10
1.898026476237981
 20
5.749304623059697
 30
0
 11
1.898026476237981
 21
5.764304623059697
 31
0
  0
LINE
  8
0
 62
7
 10
1.898026476237981
 20
5.749304623059697
 30
0
 11
1.874911155676411
 21
5.749304623059697
 31
0
  0
LINE
  8
0
 62
7
 10
1.898026476237981
 20
5.764304623059697
 30
0
 11
1.918026476237981
 21
5.764304623059697
 31
0
  0
LINE
  8
0
 62
7
 10
1.918026476237981
 20
5.764304623059697
 30
0
 11
1.918026476237981
 21
5.805733194488218
 31
0
  0
LINE
  8
0
 62
7
 10
1.918026476237981
 20
5.805733194488218
 30
0
 11
1.908026476237981
 21
5.805733194488218
 31
0
  0
LINE
  8
0
 62
7
 10
1.908026476237981
 20
5.805733194488218
 30
0
 11
1.908026476237981
 21
5.865733194488218
 31
0
  0
LINE
  8
0
 62
7
 10
1.908026476237981
 20
5.865733194488218
 30
0
 11
1.898026476237981
 21
5.865733194488218
 31
0
  0
LINE
  8
0
 62
7
 10
1.898026476237981
 20
5.865733194488218
 30
0
 11
1.898026476237981
 21
5.880733194488218
 31
0
  0
LINE
  8
0
 62
7
 10
1.898026476237981
 20
5.880733194488218
 30
0
 11
2.039626476238016
 21
5.880733194488218
 31
0
  0
LINE
  8
0
 62
7
 10
2.039626476238016
 20
5.880733194488218
 30
0
 11
2.039626476238016
 21
5.865733194488218
 31
0
  0
LINE
  8
0
 62
7
 10
2.039626476238016
 20
5.865733194488218
 30
0
 11
2.029626476238016
 21
5.865733194488218
 31
0
  0
LINE
  8
0
 62
7
 10
2.029626476238016
 20
5.865733194488218
 30
0
 11
2.029626476238016
 21
5.805733194488218
 31
0
  0
LINE
  8
0
 62
7
 10
2.029626476238016
 20
5.805733194488218
 30
0
 11
2.019626476238016
 21
5.805733194488218
 31
0
  0
LINE
  8
0
 62
7
 10
2.019626476238016
 20
5.805733194488218
 30
0
 11
2.019626476238016
 21
5.764304623059697
 31
0
  0
LINE
  8
0
 62
7
 10
2.019626476238016
 20
5.764304623059697
 30
0
 11
2.039626476238016
 21
5.764304623059697
 31
0
  0
LINE
  8
0
 62
7
 10
2.039626476238016
 20
5.764304623059697
 30
0
 11
2.039626476238016
 21
5.749304623059697
 31
0
  0
LINE
  8
0
 62
7
 10
2.039626476238016
 20
5.749304623059697
 30
0
 11
1.968826476237999
 21
5.749304623059697
 31
0
  0
LINE
  8
0
 62
7
 10
1.898026476237981
 20
5.764304623059697
 30
0
 11
2.039626476238016
 21
5.764304623059697
 31
0
  0
LINE
  8
0
 62
7
 10
2.029626476238016
 20
5.805733194488218
 30
0
 11
1.908026476237981
 21
5.805733194488218
 31
0
  0
LINE
  8
0
 62
7
 10
1.898026476237981
 20
5.865733194488218
 30
0
 11
2.039626476238016
 21
5.865733194488218
 31
0
  0
LINE
  8
0
 62
7
 10
2.823585961975506
 20
5.749304623059697
 30
0
 11
2.039626476238016
 21
5.749304623059697
 31
0
  0
LINE
  8
0
 62
7
 10
1.968826476237999
 20
5.945733194488217
 30
0
 11
1.898026476237981
 21
5.945733194488217
 31
0
  0
LINE
  8
0
 62
7
 10
1.854424425853707
 20
5.945733194488217
 30
0
 11
1.854424425853707
 21
5.880733194488218
 31
0
  0
LINE
  8
0
 62
7
 10
1.854424425853707
 20
5.880733194488218
 30
0
 11
2.836072466600513
 21
5.880733194488218
 31
0
  0
LINE
  8
0
 62
7
 10
2.836072466600513
 20
5.880733194488218
 30
0
 11
2.836072466600513
 21
5.945733194488217
 31
0
  0
LINE
  8
0
 62
7
 10
1.898026476237981
 20
5.945733194488217
 30
0
 11
1.898026476237981
 21
5.960733194488217
 31
0
  0
LINE
  8
0
 62
7
 10
1.898026476237981
 20
5.945733194488217
 30
0
 11
1.854424425853707
 21
5.945733194488217
 31
0
  0
LINE
  8
0
 62
7
 10
1.898026476237981
 20
5.960733194488217
 30
0
 11
1.918026476237981
 21
5.960733194488217
 31
0
  0
LINE
  8
0
 62
7
 10
1.918026476237981
 20
5.960733194488217
 30
0
 11
1.918026476237981
 21
6.002161765916799
 31
0
  0
LINE
  8
0
 62
7
 10
1.918026476237981
 20
6.002161765916799
 30
0
 11
1.908026476237981
 21
6.002161765916799
 31
0
  0
LINE
  8
0
 62
7
 10
1.908026476237981
 20
6.002161765916799
 30
0
 11
1.908026476237981
 21
6.062161765916798
 31
0
  0
LINE
  8
0
 62
7
 10
1.908026476237981
 20
6.062161765916798
 30
0
 11
1.898026476237981
 21
6.062161765916798
 31
0
  0
LINE
  8
0
 62
7
 10
1.898026476237981
 20
6.062161765916798
 30
0
 11
1.898026476237981
 21
6.077161765916799
 31
0
  0
LINE
  8
0
 62
7
 10
1.898026476237981
 20
6.077161765916799
 30
0
 11
2.039626476238016
 21
6.077161765916799
 31
0
  0
LINE
  8
0
 62
7
 10
2.039626476238016
 20
6.077161765916799
 30
0
 11
2.039626476238016
 21
6.062161765916798
 31
0
  0
LINE
  8
0
 62
7
 10
2.039626476238016
 20
6.062161765916798
 30
0
 11
2.029626476238016
 21
6.062161765916798
 31
0
  0
LINE
  8
0
 62
7
 10
2.029626476238016
 20
6.062161765916798
 30
0
 11
2.029626476238016
 21
6.002161765916799
 31
0
  0
LINE
  8
0
 62
7
 10
2.029626476238016
 20
6.002161765916799
 30
0
 11
2.019626476238016
 21
6.002161765916799
 31
0
  0
LINE
  8
0
 62
7
 10
2.019626476238016
 20
6.002161765916799
 30
0
 11
2.019626476238016
 21
5.960733194488217
 31
0
  0
LINE
  8
0
 62
7
 10
2.019626476238016
 20
5.960733194488217
 30
0
 11
2.039626476238016
 21
5.960733194488217
 31
0
  0
LINE
  8
0
 62
7
 10
2.039626476238016
 20
5.960733194488217
 30
0
 11
2.039626476238016
 21
5.945733194488217
 31
0
  0
LINE
  8
0
 62
7
 10
2.039626476238016
 20
5.945733194488217
 30
0
 11
1.968826476237999
 21
5.945733194488217
 31
0
  0
LINE
  8
0
 62
7
 10
1.898026476237981
 20
5.960733194488217
 30
0
 11
2.039626476238016
 21
5.960733194488217
 31
0
  0
LINE
  8
0
 62
7
 10
2.029626476238016
 20
6.002161765916799
 30
0
 11
1.908026476237981
 21
6.002161765916799
 31
0
  0
LINE
  8
0
 62
7
 10
1.898026476237981
 20
6.062161765916798
 30
0
 11
2.039626476238016
 21
6.062161765916798
 31
0
  0
LINE
  8
0
 62
7
 10
2.836072466600513
 20
5.945733194488217
 30
0
 11
2.039626476238016
 21
5.945733194488217
 31
0
  0
LINE
  8
0
 62
7
 10
1.968826476237999
 20
6.142161765916798
 30
0
 11
1.898026476237981
 21
6.142161765916798
 31
0
  0
LINE
  8
0
 62
7
 10
1.848047485102987
 20
6.142161765916798
 30
0
 11
1.848047485102987
 21
6.077161765916799
 31
0
  0
LINE
  8
0
 62
7
 10
1.848047485102987
 20
6.077161765916799
 30
0
 11
2.717542251125503
 21
6.077161765916799
 31
0
  0
LINE
  8
0
 62
7
 10
2.717542251125503
 20
6.077161765916799
 30
0
 11
2.717542251125503
 21
6.142161765916798
 31
0
  0
LINE
  8
0
 62
7
 10
1.898026476237981
 20
6.142161765916798
 30
0
 11
1.898026476237981
 21
6.157161765916798
 31
0
  0
LINE
  8
0
 62
7
 10
1.898026476237981
 20
6.142161765916798
 30
0
 11
1.848047485102987
 21
6.142161765916798
 31
0
  0
LINE
  8
0
 62
7
 10
1.898026476237981
 20
6.157161765916798
 30
0
 11
1.918026476237981
 21
6.157161765916798
 31
0
  0
LINE
  8
0
 62
7
 10
1.918026476237981
 20
6.157161765916798
 30
0
 11
1.918026476237981
 21
6.198590337345377
 31
0
  0
LINE
  8
0
 62
7
 10
1.918026476237981
 20
6.198590337345377
 30
0
 11
1.908026476237981
 21
6.198590337345377
 31
0
  0
LINE
  8
0
 62
7
 10
1.908026476237981
 20
6.198590337345377
 30
0
 11
1.908026476237981
 21
6.258590337345377
 31
0
  0
LINE
  8
0
 62
7
 10
1.908026476237981
 20
6.258590337345377
 30
0
 11
1.898026476237981
 21
6.258590337345377
 31
0
  0
LINE
  8
0
 62
7
 10
1.898026476237981
 20
6.258590337345377
 30
0
 11
1.898026476237981
 21
6.273590337345377
 31
0
  0
LINE
  8
0
 62
7
 10
1.898026476237981
 20
6.273590337345377
 30
0
 11
2.039626476238016
 21
6.273590337345377
 31
0
  0
LINE
  8
0
 62
7
 10
2.039626476238016
 20
6.273590337345377
 30
0
 11
2.039626476238016
 21
6.258590337345377
 31
0
  0
LINE
  8
0
 62
7
 10
2.039626476238016
 20
6.258590337345377
 30
0
 11
2.029626476238016
 21
6.258590337345377
 31
0
  0
LINE
  8
0
 62
7
 10
2.029626476238016
 20
6.258590337345377
 30
0
 11
2.029626476238016
 21
6.198590337345377
 31
0
  0
LINE
  8
0
 62
7
 10
2.029626476238016
 20
6.198590337345377
 30
0
 11
2.019626476238016
 21
6.198590337345377
 31
0
  0
LINE
  8
0
 62
7
 10
2.019626476238016
 20
6.198590337345377
 30
0
 11
2.019626476238016
 21
6.157161765916798
 31
0
  0
LINE
  8
0
 62
7
 10
2.019626476238016
 20
6.157161765916798
 30
0
 11
2.039626476238016
 21
6.157161765916798
 31
0
  0
LINE
  8
0
 62
7
 10
2.039626476238016
 20
6.157161765916798
 30
0
 11
2.039626476238016
 21
6.142161765916798
 31
0
  0
LINE
  8
0
 62
7
 10
2.039626476238016
 20
6.142161765916798
 30
0
 11
1.968826476237999
 21
6.142161765916798
 31
0
  0
LINE
  8
0
 62
7
 10
1.898026476237981
 20
6.157161765916798
 30
0
 11
2.039626476238016
 21
6.157161765916798
 31
0
  0
LINE
  8
0
 62
7
 10
2.029626476238016
 20
6.198590337345377
 30
0
 11
1.908026476237981
 21
6.198590337345377
 31
0
  0
LINE
  8
0
 62
7
 10
1.898026476237981
 20
6.258590337345377
 30
0
 11
2.039626476238016
 21
6.258590337345377
 31
0
  0
LINE
  8
0
 62
7
 10
2.717542251125503
 20
6.142161765916798
 30
0
 11
2.039626476238016
 21
6.142161765916798
 31
0
  0
LINE
  8
0
 62
7
  6
DASHDOT
 10
1.968826476237999
 20
3.388590337345377
 30
0
 11
1.968826476237999
 21
6.538590337345378
 31
0
  0
LINE
  8
0
 62
7
 10
4.615278092779103
 20
1.027041593649192
 30
0
 11
4.04762957391431
 21
2.038590337345377
 31
0
  0
LINE
  8
0
 62
7
 10
4.04762957391431
 20
2.038590337345377
 30
0
 11
5.2900233785616
 21
2.038590337345377
 31
0
  0
LINE
  8
0
 62
7
 10
5.2900233785616
 20
2.038590337345377
 30
0
 11
4.722374859696894
 21
1.027041593649192
 31
0
  0
LINE
  8
0
 62
7
 10
4.615278092779103
 20
1.027041593649192
 30
0
 11
4.722374859696894
 21
1.027041593649192
 31
0
  0
LINE
  8
0
 62
7
  6
DASHDOT
 10
2.843826476238
 20
1.118590337345377
 30
0
 11
1.093826476237999
 21
1.118590337345377
 31
0
  0
LINE
  8
0
 62
7
  6
DASHDOT
 10
2.918826476237999
 20
1.118590337345377
 30
0
 11
2.843826476238
 21
1.118590337345377
 31
0
  0
LINE
  8
0
 62
7
 10
4.8163918363126
 20
1.060234113696788
 30
0
 11
5.536072466633908
 21
1.234820248049189
 31
0
  0
LINE
  8
0
 62
7
 10
5.536072466633908
 20
1.234820248049189
 30
0
 11
5.405410590268002
 21
1.562216682116705
 31
0
  0
LINE
  8
0
 62
7
 10
4.797814443768091
 20
1.1015595628382
 30
0
 11
5.417542251159699
 21
1.571414462567773
 31
0
  0
LINE
  8
0
 62
7
 10
5.417542251159699
 20
1.571414462567773
 30
0
 11
5.167029044158495
 21
1.819414632111206
 31
0
  0
LINE
  8
0
 62
7
 10
5.162988844251901
 20
1.580379564339994
 30
0
 11
5.016126633863403
 21
1.395949822008377
 31
0
  0
LINE
  8
0
 62
7
 10
5.018989972395197
 20
1.555609245356172
 30
0
 11
5.162988844251901
 21
1.580379564339994
 31
0
  0
LINE
  8
0
 62
7
 10
5.016126633863403
 20
1.395949822008377
 30
0
 11
5.018989972395197
 21
1.555609245356172
 31
0
  0
LINE
  8
0
 62
7
  6
DASHDOT
 10
1.968826476237999
 20
0.1
 30
0
 11
1.968826476237999
 21
0.1685903373453766
 31
0
  0
LINE
  8
0
 62
7
  6
DASHDOT
 10
1.968826476237999
 20
0.1685903373453766
 30
0
 11
1.968826476237999
 21
2.068590337345377
 31
0
  0
LINE
  8
0
 62
7
  6
DASHDOT
 10
1.093826476237999
 20
1.118590337345377
 30
0
 11
1.018826476237999
 21
1.118590337345377
 31
0
  0
LINE
  8
0
 62
7
  6
DASHDOT
 10
2.98526109247579
 20
1.118590337345377
 30
0
 11
2.918826476237999
 21
1.118590337345377
 31
0
  0
LINE
  8
0
 62
7
  6
DASHED
 10
1.875435269483103
 20
1.122274385504687
 30
0
 11
1.881219860111189
 21
1.087733309249277
 31
0
  0
LINE
  8
0
 62
7
  6
DASHED
 10
1.884672977091395
 20
1.159255780799809
 30
0
 11
1.871246564420697
 21
1.105505706059776
 31
0
  0
LINE
  8
0
 62
7
  6
DASHED
 10
1.90790779013341
 20
1.189473363474681
 30
0
 11
1.859474212144094
 21
1.126484018800984
 31
0
  0
LINE
  8
0
 62
7
  6
DASHED
 10
1.941275102488697
 20
1.207901095457084
 30
0
 11
1.843948577978212
 21
1.154150673806085
 31
0
  0
LINE
  8
0
 62
7
 10
2.717542251159699
 20
1.571414462567773
 30
0
 11
2.467029044158495
 21
1.819414632111206
 31
0
  0
LINE
  8
0
 62
7
 10
2.836072466633894
 20
1.234820248049189
 30
0
 11
2.705410590268002
 21
1.562216682116705
 31
0
  0
LINE
  8
0
 62
7
 10
2.810355161948217
 20
0.8788937142427022
 30
0
 11
2.821277379302106
 21
1.231231132272194
 31
0
  0
LINE
  8
0
 62
7
 10
2.644667851749197
 20
0.5628355036756839
 30
0
 11
2.795357489369897
 21
0.881510234536807
 31
0
  0
LINE
  8
0
 62
7
 10
2.366569018731214
 20
0.3392150298773195
 30
0
 11
2.631962130770291
 21
0.5712224587622914
 31
0
  0
LINE
  8
0
 62
7
 10
2.022314359048003
 20
0.2452266980790883
 30
0
 11
2.358268569866807
 21
0.3519774320754221
 31
0
  0
LINE
  8
0
 62
7
 10
1.669163152664813
 20
0.2965034243580885
 30
0
 11
2.019799781549198
 21
0.2602417991849943
 31
0
  0
LINE
  8
0
 62
7
 10
1.365854426716309
 20
0.4845164398416819
 30
0
 11
1.672852691842098
 21
0.3112737886688848
 31
0
  0
LINE
  8
0
 62
7
 10
1.162836995086109
 20
0.7779938660299814
 30
0
 11
1.375134407922713
 21
0.4965853383010835
 31
0
  0
LINE
  8
0
 62
7
 10
1.093878394766391
 20
1.128122112062381
 30
0
 11
1.176163895156496
 21
0.785353899707203
 31
0
  0
LINE
  8
0
 62
7
 10
1.475766199530888
 20
1.810251077475405
 30
0
 11
1.391180658670986
 21
1.755525028082077
 31
0
  0
LINE
  8
0
 62
7
 10
1.379811226523802
 20
1.765649867531291
 30
0
 11
1.184914780298306
 21
1.471921547098405
 31
0
  0
LINE
  8
0
 62
7
 10
1.170448390045494
 20
1.47666495455202
 30
0
 11
1.109035573545814
 21
1.129549099331896
 31
0
  0
LINE
  8
0
 62
7
 10
1.093878394766391
 20
1.128122112062381
 30
0
 11
1.820183070961095
 21
1.196500768922386
 31
0
  0
LINE
  8
0
 62
7
 10
1.379811226523802
 20
1.765649867531291
 30
0
 11
1.621651796002494
 21
1.550283180211496
 31
0
  0
LINE
  8
0
 62
7
 10
1.170448390045494
 20
1.47666495455202
 30
0
 11
1.774023009944998
 21
1.278757923090685
 31
0
  0
LINE
  8
0
 62
7
 10
1.890493728541304
 20
1.071207290686871
 30
0
 11
1.441036063611799
 21
1.872140123583726
 31
0
  0
LINE
  8
0
 62
7
 10
1.890493728541304
 20
1.071207290686871
 30
0
 11
2.366569018731214
 21
0.3392150298773195
 31
0
  0
LINE
  8
0
 62
7
  6
DASHED
 10
1.820183070961095
 20
1.196500768922386
 30
0
 11
1.97922498701411
 21
1.211473924074206
 31
0
  0
LINE
  8
0
 62
7
  6
DASHED
 10
1.774023009944998
 20
1.278757923090685
 30
0
 11
2.015445305292407
 21
1.199597586944088
 31
0
  0
LINE
  8
0
 62
7
  6
DASHED
 10
1.621651796002494
 20
1.550283180211496
 30
0
 11
2.043911594658304
 21
1.174247454605997
 31
0
  0
LINE
  8
0
 62
7
 10
2.462988844251901
 20
1.580379564339994
 30
0
 11
2.316126633863402
 21
1.395949822008377
 31
0
  0
LINE
  8
0
 62
7
 10
2.318989972395182
 20
1.555609245356172
 30
0
 11
2.462988844251901
 21
1.580379564339994
 31
0
  0
LINE
  8
0
 62
7
 10
2.316126633863402
 20
1.395949822008377
 30
0
 11
2.318989972395182
 21
1.555609245356172
 31
0
  0
LINE
  8
0
 62
7
 10
2.039294033040905
 20
1.057191533218691
 30
0
 11
2.4966168888642
 21
1.872140123583726
 31
0
  0
LINE
  8
0
 62
7
 10
2.008919308519719
 20
1.034162530850212
 30
0
 11
2.717542251159699
 21
1.571414462567773
 31
0
  0
LINE
  8
0
 62
7
 10
1.971876012800902
 20
1.025176258980791
 30
0
 11
2.836072466633894
 21
1.234820248049189
 31
0
  0
LINE
  8
0
 62
7
 10
1.934325492959208
 20
1.031727388611471
 30
0
 11
2.810355161948217
 21
0.8788937142427022
 31
0
  0
LINE
  8
0
 62
7
 10
1.902513461777213
 20
1.052726281722688
 30
0
 11
2.644667851749197
 21
0.5628355036756839
 31
0
  0
LINE
  8
0
 62
7
 10
1.881219860111189
 20
1.087733309249277
 30
0
 11
2.022314359048003
 21
0.2452266980790883
 31
0
  0
LINE
  8
0
 62
7
 10
1.871246564420697
 20
1.105505706059776
 30
0
 11
1.669163152664813
 21
0.2965034243580885
 31
0
  0
LINE
  8
0
 62
7
 10
1.859474212144094
 20
1.126484018800984
 30
0
 11
1.365854426716309
 21
0.4845164398416819
 31
0
  0
LINE
  8
0
 62
7
 10
1.843948577978212
 20
1.154150673806085
 30
0
 11
1.162836995086109
 21
0.7779938660299814
 31
0
  0
LINE
  8
0
 62
7
  6
DASHED
 10
2.071476727726898
 20
1.114541043164587
 30
0
 11
1.687143947035686
 21
1.947010492062895
 31
0
  0
LINE
  8
0
 62
7
  6
DASHED
 10
1.687143947035686
 20
1.947010492062895
 30
0
 11
1.475766199530888
 21
1.810251077475405
 31
0
  0
LINE
  8
0
 62
7
  6
DASHDOT
 10
1.018826476237999
 20
1.118590337345377
 30
0
 11
0.9361876684734018
 21
1.118590337345377
 31
0
  0
LINE
  8
0
 62
7
  6
DASHDOT
 10
1.968826476237999
 20
2.068590337345377
 30
0
 11
1.968826476237999
 21
2.116945095054689
 31
0
  0
LINE
  8
0
 62
7
  6
DASHDOT
 10
5.618826476238013
 20
0.1685903373453766
 30
0
 11
5.618826476238013
 21
2.068590337345377
 31
0
  0
LINE
  8
0
 62
7
  6
DASHDOT
 10
5.618826476238013
 20
2.068590337345377
 30
0
 11
3.718826476238
 21
2.068590337345377
 31
0
  0
LINE
  8
0
 62
7
  6
DASHDOT
 10
3.718826476238
 20
2.068590337345377
 30
0
 11
3.718826476238
 21
0.1685903373453766
 31
0
  0
LINE
  8
0
 62
7
  6
DASHDOT
 10
3.718826476238
 20
0.1685903373453766
 30
0
 11
5.618826476238013
 21
0.1685903373453766
 31
0
  0
LINE
  8
0
 62
7
  6
DASHDOT
 10
3.793826476237999
 20
1.118590337345377
 30
0
 11
3.659898287443911
 21
1.118590337345377
 31
0
  0
LINE
  8
0
 62
7
  6
DASHDOT
 10
5.676252171523899
 20
1.118590337345377
 30
0
 11
5.543826476238014
 21
1.118590337345377
 31
0
  0
LINE
  8
0
 62
7
  6
DASHDOT
 10
5.543826476238014
 20
1.118590337345377
 30
0
 11
3.793826476237999
 21
1.118590337345377
 31
0
  0
LINE
  8
0
 62
7
  6
DASHDOT
 10
4.668826476238013
 20
2.068590337345377
 30
0
 11
4.668826476238013
 21
2.127338249232678
 31
0
  0
LINE
  8
0
 62
7
  6
DASHDOT
 10
4.668826476238013
 20
1.993590337345377
 30
0
 11
4.668826476238013
 21
2.068590337345377
 31
0
  0
LINE
  8
0
 62
7
  6
DASHDOT
 10
4.668826476238013
 20
0.1185870361028065
 30
0
 11
4.668826476238013
 21
1.993590337345377
 31
0
  0
LINE
  8
0
 62
7
 10
2.918826476237999
 20
6.038590337345377
 30
0
 11
3.271326476237999
 21
6.038590337345377
 31
0
  0
LINE
  8
0
 62
7
 10
2.918826476237999
 20
6.238590337345377
 30
0
 11
2.918826476237999
 21
6.038590337345377
 31
0
  0
LINE
  8
0
 62
7
 10
3.271326476237999
 20
6.338590337345376
 30
0
 11
0.6913264762379113
 21
6.338590337345376
 31
0
  0
LINE
  8
0
 62
7
 10
0.6913264762379113
 20
3.588590337345377
 30
0
 11
3.271326476237999
 21
3.588590337345377
 31
0
  0
LINE
  8
0
 62
7
  6
DASHDOT
 10
0.6663264762379113
 20
6.338590337345376
 30
0
 11
0.6663264762379113
 21
6.238590337345377
 31
0
  0
LINE
  8
0
 62
7
  6
DASHDOT
 10
0.6663264762379113
 20
6.238590337345377
 30
0
 11
0.6663264762379113
 21
6.038590337345377
 31
0
  0
LINE
  8
0
 62
7
  6
DASHDOT
 10
3.271326476237999
 20
6.338590337345376
 30
0
 11
3.271326476237999
 21
6.238590337345377
 31
0
  0
LINE
  8
0
 62
7
  6
DASHDOT
 10
3.271326476237999
 20
6.238590337345377
 30
0
 11
3.271326476237999
 21
6.038590337345377
 31
0
  0
LINE
  8
0
 62
7
  6
DASHDOT
 10
3.271326476237999
 20
3.588590337345377
 30
0
 11
3.271326476237999
 21
3.488590337345377
 31
0
  0
LINE
  8
0
 62
7
  6
DASHDOT
 10
3.271326476237999
 20
3.488590337345377
 30
0
 11
3.271326476237999
 21
3.288590337345378
 31
0
  0
LINE
  8
0
 62
7
  6
DASHDOT
 10
0.6663264762379113
 20
3.588590337345377
 30
0
 11
0.6663264762379113
 21
3.488590337345377
 31
0
  0
LINE
  8
0
 62
7
  6
DASHDOT
 10
0.6663264762379113
 20
3.488590337345377
 30
0
 11
0.6663264762379113
 21
3.288590337345378
 31
0
  0
LINE
  8
0
 62
7
  6
DASHDOT
 10
0.6663264762379113
 20
6.388590337345377
 30
0
 11
0.6663264762379113
 21
6.338590337345376
 31
0
  0
LINE
  8
0
 62
7
  6
DASHDOT
 10
3.271326476237999
 20
6.388590337345377
 30
0
 11
3.271326476237999
 21
6.338590337345376
 31
0
  0
LINE
  8
0
 62
7
  6
DASHDOT
 10
0.6663264762379113
 20
3.638590337345377
 30
0
 11
0.6663264762379113
 21
3.588590337345377
 31
0
  0
LINE
  8
0
 62
7
  6
DASHDOT
 10
3.271326476237999
 20
3.638590337345377
 30
0
 11
3.271326476237999
 21
3.588590337345377
 31
0
  0
LINE
  8
0
 62
7
  6
DASHDOT
 10
0.6663264762379113
 20
6.038590337345377
 30
0
 11
0.6663264762379113
 21
5.988590337345377
 31
0
  0
LINE
  8
0
 62
7
  6
DASHDOT
 10
0.6663264762379113
 20
3.288590337345378
 30
0
 11
0.6663264762379113
 21
3.238590337345377
 31
0
  0
LINE
  8
0
 62
7
  6
DASHDOT
 10
3.271326476237999
 20
6.038590337345377
 30
0
 11
3.271326476237999
 21
5.988590337345377
 31
0
  0
LINE
  8
0
 62
7
  6
DASHDOT
 10
3.271326476237999
 20
3.288590337345378
 30
0
 11
3.271326476237999
 21
3.238590337345377
 31
0
  0
LINE
  8
0
 62
7
 10
1.018826476237999
 20
6.238590337345377
 30
0
 11
0.9988264762379988
 21
6.238590337345377
 31
0
  0
LINE
  8
0
 62
7
 10
1.018826476237999
 20
6.038590337345377
 30
0
 11
0.9988264762379988
 21
6.038590337345377
 31
0
  0
LINE
  8
0
 62
7
 10
0.9988264762379988
 20
6.038590337345377
 30
0
 11
0.6913264762379113
 21
6.038590337345377
 31
0
  0
LINE
  8
0
 62
7
  6
DASHED
 10
1.018826476237999
 20
6.238590337345377
 30
0
 11
2.918826476237999
 21
6.238590337345377
 31
0
  0
LINE
  8
0
 62
7
  6
DASHED
 10
1.018826476237999
 20
6.038590337345377
 30
0
 11
2.918826476237999
 21
6.038590337345377
 31
0
  0
LINE
  8
0
 62
7
 10
0.6913264762379113
 20
3.488590337345377
 30
0
 11
3.271326476237999
 21
3.488590337345377
 31
0
  0
LINE
  8
0
 62
7
 10
2.918826476237999
 20
6.238590337345377
 30
0
 11
3.271326476237999
 21
6.238590337345377
 31
0
  0
LINE
  8
0
 62
7
 10
2.918826476237999
 20
6.238590337345377
 30
0
 11
3.271326476237999
 21
6.238590337345377
 31
0
  0
LINE
  8
0
 62
7
 10
0.6663264762379113
 20
3.488590337345377
 30
0
 11
0.6913264762379113
 21
3.488590337345377
 31
0
  0
LINE
  8
0
 62
7
 10
0.9988264762379988
 20
6.238590337345377
 30
0
 11
0.6913264762379113
 21
6.238590337345377
 31
0
  0
LINE
  8
0
 62
7
 10
0.6663264762379113
 20
6.338590337345376
 30
0
 11
0.6913264762379113
 21
6.338590337345376
 31
0
  0
LINE
  8
0
 62
7
 10
0.6663264762379113
 20
3.588590337345377
 30
0
 11
0.6913264762379113
 21
3.588590337345377
 31
0
  0
LINE
  8
0
 62
7
 10
1.018826476237999
 20
6.038590337345377
 30
0
 11
1.018826476237999
 21
6.238590337345377
 31
0
  0
LINE
  8
0
 62
7
 10
0.6663264762379113
 20
6.238590337345377
 30
0
 11
1.018826476237999
 21
6.238590337345377
 31
0
  0
LINE
  8
0
 62
7
 10
0.6663264762379113
 20
6.038590337345377
 30
0
 11
1.018826476237999
 21
6.038590337345377
 31
0
  0
LINE
  8
0
 62
7
 10
0.6663264762379113
 20
3.288590337345378
 30
0
 11
3.271326476237999
 21
3.288590337345378
 31
0
  0
LINE
  8
0
 62
7
  6
DASHED
 10
0.6913264762379113
 20
6.038590337345377
 30
0
 11
1.018826476237999
 21
6.038590337345377
 31
0
  0
LINE
  8
0
 62
7
  6
DASHED
 10
0.6913264762379113
 20
6.238590337345377
 30
0
 11
1.018826476237999
 21
6.238590337345377
 31
0
  0
LINE
  8
0
 62
7
 10
1.630969859424065
 20
0.5478421960700063
 30
0
 11
1.548631429163979
 21
0.5185539709907598
 31
0
  0
LINE
  8
0
 62
7
 10
1.630969859424065
 20
0.5478421960700063
 30
0
 11
1.610885870926977
 21
0.6328639433930721
 31
0
  0
LINE
  8
0
 62
7
 10
1.664483114282528
 20
0.5597630421237255
 30
0
 11
1.682927146049977
 21
0.5936294892818105
 31
0
  0
LINE
  8
0
 62
7
 10
1.664483114282528
 20
0.5597630421237255
 30
0
 11
1.630969859424065
 21
0.5478421960700063
 31
0
  0
LINE
  8
0
 62
7
 10
1.620672704286957
 20
0.4793195168795055
 30
0
 11
1.664483114282528
 21
0.5597630421237255
 31
0
  0
LINE
  8
0
 62
7
 10
1.487041931673779
 20
0.6540993075514336
 30
0
 11
1.538490364922047
 21
0.7037010143940343
 31
0
  0
LINE
  8
0
 62
7
 10
1.487041931673779
 20
0.6540993075514336
 30
0
 11
1.438182567005926
 21
0.7050468074199371
 31
0
  0
LINE
  8
0
 62
7
 10
1.444784883475739
 20
0.6133590636914078
 30
0
 11
1.387884983625947
 21
0.6723774097443811
 31
0
  0
LINE
  8
0
 62
7
 10
1.538490364922047
 20
0.7037010143940343
 30
0
 11
1.481590465072226
 21
0.762719360447044
 31
0
  0
LINE
  8
0
 62
7
 10
1.444784883475739
 20
0.6133590636914078
 30
0
 11
1.487041931673779
 21
0.6540993075514336
 31
0
  0
LINE
  8
0
 62
7
 10
1.433927150479954
 20
0.8517476302965143
 30
0
 11
1.317453079335468
 21
0.7936427590646337
 31
0
  0
LINE
  8
0
 62
7
 10
1.280841449964217
 20
0.8670325701715837
 30
0
 11
1.397315521108707
 21
0.9251374414034791
 31
0
  0
LINE
  8
0
 62
7
 10
1.397315521108707
 20
0.9251374414034791
 30
0
 11
1.317453079335468
 21
0.7936427590646337
 31
0
  0
LINE
  8
0
 62
7
 10
1.378541161352008
 20
1.024327056946815
 30
0
 11
1.250006817689926
 21
1.003801272937104
 31
0
  0
LINE
  8
0
 62
7
 10
1.237073609496096
 20
1.084790209868945
 30
0
 11
1.365607953158145
 21
1.10531599387867
 31
0
  0
LINE
  8
0
 62
7
 10
1.365607953158145
 20
1.10531599387867
 30
0
 11
1.250006817689926
 21
1.003801272937104
 31
0
  0
LINE
  8
0
 62
7
 10
1.371115909508204
 20
1.218566360104873
 30
0
 11
1.383103217131928
 21
1.236987266067335
 31
0
  0
LINE
  8
0
 62
7
 10
1.363444760757586
 20
1.213845660318497
 30
0
 11
1.371115909508204
 21
1.218566360104873
 31
0
  0
LINE
  8
0
 62
7
 10
1.340582246908856
 20
1.210991489973087
 30
0
 11
1.363444760757586
 21
1.213845660318497
 31
0
  0
LINE
  8
0
 62
7
 10
1.287964373007715
 20
1.218714588670045
 30
0
 11
1.340582246908856
 21
1.210991489973087
 31
0
  0
LINE
  8
0
 62
7
 10
1.267016773481268
 20
1.227621877062295
 30
0
 11
1.287964373007715
 21
1.218714588670045
 31
0
  0
LINE
  8
0
 62
7
 10
1.255945921454175
 20
1.244712153434186
 30
0
 11
1.267016773481268
 21
1.227621877062295
 31
0
  0
LINE
  8
0
 62
7
 10
1.254374324254935
 20
1.256258922200053
 30
0
 11
1.255945921454175
 21
1.244712153434186
 31
0
  0
LINE
  8
0
 62
7
 10
1.319825148459146
 20
1.297008859939582
 30
0
 11
1.315624866711685
 21
1.268392121502016
 31
0
  0
LINE
  8
0
 62
7
 10
1.390392738358158
 20
1.286651154065366
 30
0
 11
1.319825148459146
 21
1.297008859939582
 31
0
  0
LINE
  8
0
 62
7
 10
1.383103217131928
 20
1.236987266067335
 30
0
 11
1.390392738358158
 21
1.286651154065366
 31
0
  0
LINE
  8
0
 62
7
 10
1.261718042664979
 20
1.306292058435625
 30
0
 11
1.254374324254935
 21
1.256258922200053
 31
0
  0
LINE
  8
0
 62
7
 10
1.436732366102668
 20
1.399255122060015
 30
0
 11
1.444093637358044
 21
1.40506046945128
 31
0
  0
LINE
  8
0
 62
7
 10
1.423961376109557
 20
1.392524331319932
 30
0
 11
1.436732366102668
 21
1.399255122060015
 31
0
  0
LINE
  8
0
 62
7
 10
1.408681279562217
 20
1.391736947193065
 30
0
 11
1.423961376109557
 21
1.392524331319932
 31
0
  0
LINE
  8
0
 62
7
 10
1.395293454722367
 20
1.395214923164065
 30
0
 11
1.408681279562217
 21
1.391736947193065
 31
0
  0
LINE
  8
0
 62
7
 10
1.348319896805595
 20
1.419466628774462
 30
0
 11
1.395293454722367
 21
1.395214923164065
 31
0
  0
LINE
  8
0
 62
7
 10
1.338465596634385
 20
1.427988194642035
 30
0
 11
1.348319896805595
 21
1.419466628774462
 31
0
  0
LINE
  8
0
 62
7
 10
1.334630813334268
 20
1.436165358725986
 30
0
 11
1.338465596634385
 21
1.427988194642035
 31
0
  0
LINE
  8
0
 62
7
 10
1.331032715995789
 20
1.443600592982293
 30
0
 11
1.334630813334268
 21
1.436165358725986
 31
0
  0
LINE
  8
0
 62
7
 10
1.327987670439536
 20
1.455708156197994
 30
0
 11
1.331032715995789
 21
1.443600592982293
 31
0
  0
LINE
  8
0
 62
7
 10
1.329067049115376
 20
1.465996210666512
 30
0
 11
1.327987670439536
 21
1.455708156197994
 31
0
  0
LINE
  8
0
 62
7
 10
1.337024640018899
 20
1.481409409358188
 30
0
 11
1.329067049115376
 21
1.465996210666512
 31
0
  0
LINE
  8
0
 62
7
 10
1.344897404007978
 20
1.487260547437545
 30
0
 11
1.337024640018899
 21
1.481409409358188
 31
0
  0
LINE
  8
0
 62
7
 10
1.354700674688036
 20
1.493044594331463
 30
0
 11
1.344897404007978
 21
1.487260547437545
 31
0
  0
LINE
  8
0
 62
7
 10
1.372585493620947
 20
1.495275998185425
 30
0
 11
1.354700674688036
 21
1.493044594331463
 31
0
  0
LINE
  8
0
 62
7
 10
1.386223547600686
 20
1.492882880995458
 30
0
 11
1.372585493620947
 21
1.495275998185425
 31
0
  0
LINE
  8
0
 62
7
 10
1.433686413412586
 20
1.468378553451556
 30
0
 11
1.386223547600686
 21
1.492882880995458
 31
0
  0
LINE
  8
0
 62
7
 10
1.443424763395928
 20
1.459632401612507
 30
0
 11
1.433686413412586
 21
1.468378553451556
 31
0
  0
LINE
  8
0
 62
7
 10
1.448119819505577
 20
1.451320958575547
 30
0
 11
1.443424763395928
 21
1.459632401612507
 31
0
  0
LINE
  8
0
 62
7
 10
1.452680596662205
 20
1.442149242729
 30
0
 11
1.448119819505577
 21
1.451320958575547
 31
0
  0
LINE
  8
0
 62
7
 10
1.453792314596067
 20
1.432899023831953
 30
0
 11
1.452680596662205
 21
1.442149242729
 31
0
  0
LINE
  8
0
 62
7
 10
1.452682783095068
 20
1.421696937880144
 30
0
 11
1.453792314596067
 21
1.432899023831953
 31
0
  0
LINE
  8
0
 62
7
 10
1.444093637358044
 20
1.40506046945128
 30
0
 11
1.452682783095068
 21
1.421696937880144
 31
0
  0
LINE
  8
0
 62
7
 10
1.470546578186055
 20
1.647107088039142
 30
0
 11
1.498619447119807
 21
1.676952574687486
 31
0
  0
LINE
  8
0
 62
7
 10
1.565358164204496
 20
1.557926661562749
 30
0
 11
1.470546578186055
 21
1.647107088039142
 31
0
  0
LINE
  8
0
 62
7
 10
1.441927010146996
 20
1.616680381819388
 30
0
 11
1.470546578186055
 21
1.647107088039142
 31
0
  0
LINE
  8
0
 62
7
 10
1.60813045918283
 20
1.752247561899414
 30
0
 11
1.642519504653057
 21
1.774523840652633
 31
0
  0
LINE
  8
0
 62
7
 10
1.678896580173598
 20
1.643002235089676
 30
0
 11
1.60813045918283
 21
1.752247561899414
 31
0
  0
LINE
  8
0
 62
7
 10
1.573071711572888
 20
1.729537468501367
 30
0
 11
1.60813045918283
 21
1.752247561899414
 31
0
  0
LINE
  8
0
 62
7
 10
2.459328684599666
 20
1.656443304628418
 30
0
 11
2.489603399390799
 21
1.628833873490439
 31
0
  0
LINE
  8
0
 62
7
 10
2.371620483151906
 20
1.56026816902341
 30
0
 11
2.459328684599666
 21
1.656443304628418
 31
0
  0
LINE
  8
0
 62
7
 10
2.428464391325146
 20
1.684590409751116
 30
0
 11
2.459328684599666
 21
1.656443304628418
 31
0
  0
LINE
  8
0
 62
7
 10
2.565296198161406
 20
1.411637024816024
 30
0
 11
2.541184538887377
 21
1.451661608045091
 31
0
  0
LINE
  8
0
 62
7
 10
2.565296198161406
 20
1.411637024816024
 30
0
 11
2.526845190484929
 21
1.348159069666093
 31
0
  0
LINE
  8
0
 62
7
 10
2.541184538887377
 20
1.451661608045091
 30
0
 11
2.597979196588396
 21
1.484712018345723
 31
0
  0
LINE
  8
0
 62
7
 10
2.569278262326156
 20
1.405026925661281
 30
0
 11
2.565296198161406
 21
1.411637024816024
 31
0
  0
LINE
  8
0
 62
7
 10
2.57731436742255
 20
1.395049466269346
 30
0
 11
2.569278262326156
 21
1.405026925661281
 31
0
  0
LINE
  8
0
 62
7
 10
2.586881825915785
 20
1.390104462739924
 30
0
 11
2.57731436742255
 21
1.395049466269346
 31
0
  0
LINE
  8
0
 62
7
 10
2.595167944322406
 20
1.391740758936408
 30
0
 11
2.586881825915785
 21
1.390104462739924
 31
0
  0
LINE
  8
0
 62
7
 10
2.60462243447439
 20
1.392464148850122
 30
0
 11
2.595167944322406
 21
1.391740758936408
 31
0
  0
LINE
  8
0
 62
7
 10
2.617096624944688
 20
1.400041794419856
 30
0
 11
2.60462243447439
 21
1.392464148850122
 31
0
  0
LINE
  8
0
 62
7
 10
2.627021612936908
 20
1.414737186650375
 30
0
 11
2.617096624944688
 21
1.400041794419856
 31
0
  0
LINE
  8
0
 62
7
 10
2.628280010404328
 20
1.424070682918304
 30
0
 11
2.627021612936908
 21
1.414737186650375
 31
0
  0
LINE
  8
0
 62
7
 10
2.626189901139987
 20
1.436234032930741
 30
0
 11
2.628280010404328
 21
1.424070682918304
 31
0
  0
LINE
  8
0
 62
7
 10
2.597979196588396
 20
1.484712018345723
 30
0
 11
2.626189901139987
 21
1.436234032930741
 31
0
  0
LINE
  8
0
 62
7
 10
2.485478472642186
 20
1.419244679760581
 30
0
 11
2.541184538887377
 21
1.451661608045091
 31
0
  0
LINE
  8
0
 62
7
 10
2.621538110220948
 20
1.266359708337164
 30
0
 11
2.551836847882398
 21
1.250579827671856
 31
0
  0
LINE
  8
0
 62
7
 10
2.621538110220948
 20
1.266359708337164
 30
0
 11
2.636942467918221
 21
1.197471458086977
 31
0
  0
LINE
  8
0
 62
7
 10
2.678787076149427
 20
1.279320475764515
 30
0
 11
2.696888744149416
 21
1.199363653733052
 31
0
  0
LINE
  8
0
 62
7
 10
2.551836847882398
 20
1.250579827671856
 30
0
 11
2.569938515882365
 21
1.170623005640409
 31
0
  0
LINE
  8
0
 62
7
 10
2.678787076149427
 20
1.279320475764515
 30
0
 11
2.621538110220948
 21
1.266359708337164
 31
0
  0
LINE
  8
0
 62
7
 10
2.628278519941534
 20
0.9970750818391244
 30
0
 11
2.624193350493697
 21
1.007907602133724
 31
0
  0
LINE
  8
0
 62
7
 10
2.631355952070236
 20
0.987430158258656
 30
0
 11
2.628278519941534
 21
0.9970750818391244
 31
0
  0
LINE
  8
0
 62
7
 10
2.639912463957415
 20
0.983966553137827
 30
0
 11
2.631355952070236
 21
0.987430158258656
 31
0
  0
LINE
  8
0
 62
7
 10
2.649202296409447
 20
0.9793378337276227
 30
0
 11
2.639912463957415
 21
0.983966553137827
 31
0
  0
LINE
  8
0
 62
7
 10
2.661344080862786
 20
0.9791718573176258
 30
0
 11
2.649202296409447
 21
0.9793378337276227
 31
0
  0
LINE
  8
0
 62
7
 10
2.677732383512089
 20
0.9836306285401225
 30
0
 11
2.661344080862786
 21
0.9791718573176258
 31
0
  0
LINE
  8
0
 62
7
 10
2.685928520725627
 20
0.9926281894757549
 30
0
 11
2.677732383512089
 21
0.9836306285401225
 31
0
  0
LINE
  8
0
 62
7
 10
2.689797540479838
 20
1.003914073488827
 30
0
 11
2.685928520725627
 21
0.9926281894757549
 31
0
  0
LINE
  8
0
 62
7
 10
2.694323061160006
 20
1.059151830556343
 30
0
 11
2.689797540479838
 21
1.003914073488827
 31
0
  0
LINE
  8
0
 62
7
 10
2.628831283295705
 20
1.064517442971534
 30
0
 11
2.694323061160006
 21
1.059151830556343
 31
0
  0
LINE
  8
0
 62
7
 10
2.628831283295705
 20
1.064517442971534
 30
0
 11
2.624193350493697
 21
1.007907602133724
 31
0
  0
LINE
  8
0
 62
7
 10
2.564594795853038
 20
1.069780211913923
 30
0
 11
2.628831283295705
 21
1.064517442971534
 31
0
  0
LINE
  8
0
 62
7
 10
2.561545422906325
 20
0.8050186461390905
 30
0
 11
2.560894624408647
 21
0.81657756333176
 31
0
  0
LINE
  8
0
 62
7
 10
2.561590739368299
 20
0.7948947592473116
 30
0
 11
2.561545422906325
 21
0.8050186461390905
 31
0
  0
LINE
  8
0
 62
7
 10
2.568715853381065
 20
0.7890259257675053
 30
0
 11
2.561590739368299
 21
0.7948947592473116
 31
0
  0
LINE
  8
0
 62
7
 10
2.576191385387436
 20
0.781825755520432
 30
0
 11
2.568715853381065
 21
0.7890259257675053
 31
0
  0
LINE
  8
0
 62
7
 10
2.587725283834978
 20
0.7780284321892532
 30
0
 11
2.576191385387436
 21
0.781825755520432
 31
0
  0
LINE
  8
0
 62
7
 10
2.604696562466644
 20
0.7773705521504372
 30
0
 11
2.587725283834978
 21
0.7780284321892532
 31
0
  0
LINE
  8
0
 62
7
 10
2.615212565260015
 20
0.7834980682266678
 30
0
 11
2.604696562466644
 21
0.7773705521504372
 31
0
  0
LINE
  8
0
 62
7
 10
2.622286188671875
 20
0.7931055831832555
 30
0
 11
2.615212565260015
 21
0.7834980682266678
 31
0
  0
LINE
  8
0
 62
7
 10
2.643158814363895
 20
0.8444478040156238
 30
0
 11
2.622286188671875
 21
0.7931055831832555
 31
0
  0
LINE
  8
0
 62
7
 10
2.582285717766188
 20
0.8691951043738947
 30
0
 11
2.643158814363895
 21
0.8444478040156238
 31
0
  0
LINE
  8
0
 62
7
 10
2.582285717766188
 20
0.8691951043738947
 30
0
 11
2.560894624408647
 21
0.81657756333176
 31
0
  0
LINE
  8
0
 62
7
 10
2.52257938465522
 20
0.8934680696306743
 30
0
 11
2.582285717766188
 21
0.8691951043738947
 31
0
  0
LINE
  8
0
 62
7
 10
2.484747133680096
 20
0.692334382120701
 30
0
 11
2.429653399758399
 21
0.7378530715566367
 31
0
  0
LINE
  8
0
 62
7
 10
2.484747133680096
 20
0.692334382120701
 30
0
 11
2.439642353330237
 21
0.6380348052513791
 31
0
  0
LINE
  8
0
 62
7
 10
2.529998240910198
 20
0.6549477148897922
 30
0
 11
2.477782117009087
 21
0.5917477134776482
 31
0
  0
LINE
  8
0
 62
7
 10
2.429653399758399
 20
0.7378530715566367
 30
0
 11
2.377437275857294
 21
0.6746530701444636
 31
0
  0
LINE
  8
0
 62
7
 10
2.529998240910198
 20
0.6549477148897922
 30
0
 11
2.484747133680096
 21
0.692334382120701
 31
0
  0
LINE
  8
0
 62
7
 10
3.826426476238013
 20
0.3288995564274811
 30
0
 11
3.826426476238013
 21
0.4488995564274811
 31
0
  0
LINE
  8
0
 62
7
 10
3.902026476238013
 20
0.4488995564274811
 30
0
 11
3.848026476238013
 21
0.3888995564274811
 31
0
  0
LINE
  8
0
 62
7
 10
3.848026476238013
 20
0.3888995564274811
 30
0
 11
3.902026476238013
 21
0.3288995564274811
 31
0
  0
LINE
  8
0
 62
7
 10
3.848026476238013
 20
0.3888995564274811
 30
0
 11
3.826426476238013
 21
0.3648995564274811
 31
0
  0
LINE
  8
0
 62
7
 10
4.010026476238013
 20
0.4488995564274811
 30
0
 11
3.934426476238013
 21
0.4488995564274811
 31
0
  0
LINE
  8
0
 62
7
 10
3.934426476238013
 20
0.4488995564274811
 30
0
 11
3.934426476238013
 21
0.3888995564274811
 31
0
  0
LINE
  8
0
 62
7
 10
3.934426476238013
 20
0.3288995564274811
 30
0
 11
4.010026476238013
 21
0.3288995564274811
 31
0
  0
LINE
  8
0
 62
7
 10
3.999226476238015
 20
0.3888995564274811
 30
0
 11
3.934426476238013
 21
0.3888995564274811
 31
0
  0
LINE
  8
0
 62
7
 10
3.934426476238013
 20
0.3888995564274811
 30
0
 11
3.934426476238013
 21
0.3288995564274811
 31
0
  0
LINE
  8
0
 62
7
 10
4.042426476238013
 20
0.3288995564274811
 30
0
 11
4.042426476238013
 21
0.4488995564274811
 31
0
  0
LINE
  8
0
 62
7
 10
4.042426476238013
 20
0.4488995564274811
 30
0
 11
4.118026476238014
 21
0.3288995564274811
 31
0
  0
LINE
  8
0
 62
7
 10
4.118026476238014
 20
0.3288995564274811
 30
0
 11
4.118026476238014
 21
0.4488995564274811
 31
0
  0
LINE
  8
0
 62
7
 10
4.150426476238014
 20
0.3288995564274811
 30
0
 11
4.150426476238014
 21
0.4488995564274811
 31
0
  0
LINE
  8
0
 62
7
 10
4.150426476238014
 20
0.4488995564274811
 30
0
 11
4.226026476238014
 21
0.3288995564274811
 31
0
  0
LINE
  8
0
 62
7
 10
4.226026476238014
 20
0.3288995564274811
 30
0
 11
4.226026476238014
 21
0.4488995564274811
 31
0
  0
LINE
  8
0
 62
7
 10
4.334026476238014
 20
0.4128995564274812
 30
0
 11
4.331326476238013
 21
0.4248995564274811
 31
0
  0
LINE
  8
0
 62
7
 10
4.331326476238013
 20
0.4248995564274811
 30
0
 11
4.325926476238013
 21
0.4338995564274812
 31
0
  0
LINE
  8
0
 62
7
 10
4.325926476238013
 20
0.4338995564274812
 30
0
 11
4.320526476238014
 21
0.4398995564274811
 31
0
  0
LINE
  8
0
 62
7
 10
4.320526476238014
 20
0.4398995564274811
 30
0
 11
4.312426476238015
 21
0.4458995564274812
 31
0
  0
LINE
  8
0
 62
7
 10
4.312426476238015
 20
0.4458995564274812
 30
0
 11
4.304326476238014
 21
0.4488995564274811
 31
0
  0
LINE
  8
0
 62
7
 10
4.304326476238014
 20
0.4488995564274811
 30
0
 11
4.288126476238014
 21
0.4488995564274811
 31
0
  0
LINE
  8
0
 62
7
 10
4.288126476238014
 20
0.4488995564274811
 30
0
 11
4.280026476238014
 21
0.4458995564274812
 31
0
  0
LINE
  8
0
 62
7
 10
4.280026476238014
 20
0.4458995564274812
 30
0
 11
4.271926476238013
 21
0.4398995564274811
 31
0
  0
LINE
  8
0
 62
7
 10
4.271926476238013
 20
0.4398995564274811
 30
0
 11
4.266526476238014
 21
0.4338995564274812
 31
0
  0
LINE
  8
0
 62
7
 10
4.266526476238014
 20
0.4338995564274812
 30
0
 11
4.261126476238014
 21
0.4248995564274811
 31
0
  0
LINE
  8
0
 62
7
 10
4.261126476238014
 20
0.4248995564274811
 30
0
 11
4.258426476238014
 21
0.4128995564274812
 31
0
  0
LINE
  8
0
 62
7
 10
4.258426476238014
 20
0.4128995564274812
 30
0
 11
4.258426476238014
 21
0.3648995564274811
 31
0
  0
LINE
  8
0
 62
7
 10
4.258426476238014
 20
0.3648995564274811
 30
0
 11
4.261126476238014
 21
0.3528995564274811
 31
0
  0
LINE
  8
0
 62
7
 10
4.261126476238014
 20
0.3528995564274811
 30
0
 11
4.266526476238014
 21
0.3438995564274812
 31
0
  0
LINE
  8
0
 62
7
 10
4.266526476238014
 20
0.3438995564274812
 30
0
 11
4.271926476238013
 21
0.337899556427481
 31
0
  0
LINE
  8
0
 62
7
 10
4.271926476238013
 20
0.337899556427481
 30
0
 11
4.280026476238014
 21
0.3318995564274811
 31
0
  0
LINE
  8
0
 62
7
 10
4.280026476238014
 20
0.3318995564274811
 30
0
 11
4.288126476238014
 21
0.3288995564274811
 31
0
  0
LINE
  8
0
 62
7
 10
4.288126476238014
 20
0.3288995564274811
 30
0
 11
4.304326476238014
 21
0.3288995564274811
 31
0
  0
LINE
  8
0
 62
7
 10
4.304326476238014
 20
0.3288995564274811
 30
0
 11
4.312426476238015
 21
0.3318995564274811
 31
0
  0
LINE
  8
0
 62
7
 10
4.312426476238015
 20
0.3318995564274811
 30
0
 11
4.320526476238014
 21
0.337899556427481
 31
0
  0
LINE
  8
0
 62
7
 10
4.320526476238014
 20
0.337899556427481
 30
0
 11
4.325926476238013
 21
0.3438995564274812
 31
0
  0
LINE
  8
0
 62
7
 10
4.325926476238013
 20
0.3438995564274812
 30
0
 11
4.331326476238013
 21
0.3528995564274811
 31
0
  0
LINE
  8
0
 62
7
 10
4.331326476238013
 20
0.3528995564274811
 30
0
 11
4.334026476238014
 21
0.3648995564274811
 31
0
  0
LINE
  8
0
 62
7
 10
4.334026476238014
 20
0.3648995564274811
 30
0
 11
4.334026476238014
 21
0.3888995564274811
 31
0
  0
LINE
  8
0
 62
7
 10
4.334026476238014
 20
0.3888995564274811
 30
0
 11
4.301626476238015
 21
0.3888995564274811
 31
0
  0
LINE
  8
0
 62
7
 10
4.412326476238014
 20
0.4488995564274811
 30
0
 11
4.396126476238015
 21
0.4488995564274811
 31
0
  0
LINE
  8
0
 62
7
 10
4.396126476238015
 20
0.4488995564274811
 30
0
 11
4.388026476238013
 21
0.4458995564274812
 31
0
  0
LINE
  8
0
 62
7
 10
4.388026476238013
 20
0.4458995564274812
 30
0
 11
4.379926476238015
 21
0.4398995564274811
 31
0
  0
LINE
  8
0
 62
7
 10
4.379926476238015
 20
0.4398995564274811
 30
0
 11
4.374526476238014
 21
0.4338995564274812
 31
0
  0
LINE
  8
0
 62
7
 10
4.374526476238014
 20
0.4338995564274812
 30
0
 11
4.369126476238015
 21
0.4248995564274811
 31
0
  0
LINE
  8
0
 62
7
 10
4.369126476238015
 20
0.4248995564274811
 30
0
 11
4.366426476238014
 21
0.4128995564274812
 31
0
  0
LINE
  8
0
 62
7
 10
4.366426476238014
 20
0.4128995564274812
 30
0
 11
4.366426476238014
 21
0.3648995564274811
 31
0
  0
LINE
  8
0
 62
7
 10
4.366426476238014
 20
0.3648995564274811
 30
0
 11
4.369126476238015
 21
0.3528995564274811
 31
0
  0
LINE
  8
0
 62
7
 10
4.369126476238015
 20
0.3528995564274811
 30
0
 11
4.374526476238014
 21
0.3438995564274812
 31
0
  0
LINE
  8
0
 62
7
 10
4.374526476238014
 20
0.3438995564274812
 30
0
 11
4.379926476238015
 21
0.337899556427481
 31
0
  0
LINE
  8
0
 62
7
 10
4.379926476238015
 20
0.337899556427481
 30
0
 11
4.388026476238013
 21
0.3318995564274811
 31
0
  0
LINE
  8
0
 62
7
 10
4.388026476238013
 20
0.3318995564274811
 30
0
 11
4.396126476238015
 21
0.3288995564274811
 31
0
  0
LINE
  8
0
 62
7
 10
4.396126476238015
 20
0.3288995564274811
 30
0
 11
4.412326476238014
 21
0.3288995564274811
 31
0
  0
LINE
  8
0
 62
7
 10
4.412326476238014
 20
0.3288995564274811
 30
0
 11
4.420426476238013
 21
0.3318995564274811
 31
0
  0
LINE
  8
0
 62
7
 10
4.420426476238013
 20
0.3318995564274811
 30
0
 11
4.428526476238014
 21
0.337899556427481
 31
0
  0
LINE
  8
0
 62
7
 10
4.428526476238014
 20
0.337899556427481
 30
0
 11
4.433926476238013
 21
0.3438995564274812
 31
0
  0
LINE
  8
0
 62
7
 10
4.433926476238013
 20
0.3438995564274812
 30
0
 11
4.439326476238015
 21
0.3528995564274811
 31
0
  0
LINE
  8
0
 62
7
 10
4.439326476238015
 20
0.3528995564274811
 30
0
 11
4.442026476238015
 21
0.3648995564274811
 31
0
  0
LINE
  8
0
 62
7
 10
4.442026476238015
 20
0.3648995564274811
 30
0
 11
4.442026476238015
 21
0.4128995564274812
 31
0
  0
LINE
  8
0
 62
7
 10
4.442026476238015
 20
0.4128995564274812
 30
0
 11
4.439326476238015
 21
0.4248995564274811
 31
0
  0
LINE
  8
0
 62
7
 10
4.439326476238015
 20
0.4248995564274811
 30
0
 11
4.433926476238013
 21
0.4338995564274812
 31
0
  0
LINE
  8
0
 62
7
 10
4.433926476238013
 20
0.4338995564274812
 30
0
 11
4.428526476238014
 21
0.4398995564274811
 31
0
  0
LINE
  8
0
 62
7
 10
4.428526476238014
 20
0.4398995564274811
 30
0
 11
4.420426476238013
 21
0.4458995564274812
 31
0
  0
LINE
  8
0
 62
7
 10
4.420426476238013
 20
0.4458995564274812
 30
0
 11
4.412326476238014
 21
0.4488995564274811
 31
0
  0
LINE
  8
0
 62
7
 10
4.463626476238015
 20
0.4488995564274811
 30
0
 11
4.501426476238014
 21
0.4488995564274811
 31
0
  0
LINE
  8
0
 62
7
 10
4.501426476238014
 20
0.4488995564274811
 30
0
 11
4.501426476238014
 21
0.3288995564274811
 31
0
  0
LINE
  8
0
 62
7
 10
4.501426476238014
 20
0.4488995564274811
 30
0
 11
4.539226476238015
 21
0.4488995564274811
 31
0
  0
LINE
  8
0
 62
7
 10
4.571626476238015
 20
0.4488995564274811
 30
0
 11
4.609426476238013
 21
0.4488995564274811
 31
0
  0
LINE
  8
0
 62
7
 10
4.609426476238013
 20
0.4488995564274811
 30
0
 11
4.609426476238013
 21
0.3288995564274811
 31
0
  0
LINE
  8
0
 62
7
 10
4.609426476238013
 20
0.4488995564274811
 30
0
 11
4.647226476238013
 21
0.4488995564274811
 31
0
  0
LINE
  8
0
 62
7
 10
4.766026476238014
 20
0.3708995564274811
 30
0
 11
4.820026476238013
 21
0.3708995564274811
 31
0
  0
LINE
  8
0
 62
7
 10
4.928026476238013
 20
0.4488995564274811
 30
0
 11
4.965826476238014
 21
0.4488995564274811
 31
0
  0
LINE
  8
0
 62
7
 10
4.965826476238014
 20
0.4488995564274811
 30
0
 11
4.965826476238014
 21
0.3288995564274811
 31
0
  0
LINE
  8
0
 62
7
 10
4.965826476238014
 20
0.4488995564274811
 30
0
 11
5.003626476238015
 21
0.4488995564274811
 31
0
  0
LINE
  8
0
 62
7
 10
5.036026476238014
 20
0.3288995564274811
 30
0
 11
5.036026476238014
 21
0.4488995564274811
 31
0
  0
LINE
  8
0
 62
7
 10
5.036026476238014
 20
0.4488995564274811
 30
0
 11
5.087326476238013
 21
0.4488995564274811
 31
0
  0
LINE
  8
0
 62
7
 10
5.087326476238013
 20
0.4488995564274811
 30
0
 11
5.098126476238015
 21
0.4458995564274812
 31
0
  0
LINE
  8
0
 62
7
 10
5.098126476238015
 20
0.4458995564274812
 30
0
 11
5.106226476238014
 21
0.4398995564274811
 31
0
  0
LINE
  8
0
 62
7
 10
5.106226476238014
 20
0.4398995564274811
 30
0
 11
5.108926476238013
 21
0.4338995564274812
 31
0
  0
LINE
  8
0
 62
7
 10
5.108926476238013
 20
0.4338995564274812
 30
0
 11
5.111626476238015
 21
0.4248995564274811
 31
0
  0
LINE
  8
0
 62
7
 10
5.111626476238015
 20
0.4248995564274811
 30
0
 11
5.111626476238015
 21
0.4128995564274812
 31
0
  0
LINE
  8
0
 62
7
 10
5.111626476238015
 20
0.4128995564274812
 30
0
 11
5.108926476238013
 21
0.4038995564274812
 31
0
  0
LINE
  8
0
 62
7
 10
5.108926476238013
 20
0.4038995564274812
 30
0
 11
5.106226476238014
 21
0.3978995564274811
 31
0
  0
LINE
  8
0
 62
7
 10
5.106226476238014
 20
0.3978995564274811
 30
0
 11
5.098126476238015
 21
0.3918995564274811
 31
0
  0
LINE
  8
0
 62
7
 10
5.098126476238015
 20
0.3918995564274811
 30
0
 11
5.087326476238013
 21
0.3888995564274811
 31
0
  0
LINE
  8
0
 62
7
 10
5.087326476238013
 20
0.3888995564274811
 30
0
 11
5.079226476238013
 21
0.3888995564274811
 31
0
  0
LINE
  8
0
 62
7
 10
5.079226476238013
 20
0.3888995564274811
 30
0
 11
5.111626476238015
 21
0.3288995564274811
 31
0
  0
LINE
  8
0
 62
7
 10
5.079226476238013
 20
0.3888995564274811
 30
0
 11
5.036026476238014
 21
0.3888995564274811
 31
0
  0
LINE
  8
0
 62
7
 10
5.208826476238014
 20
0.4488995564274811
 30
0
 11
5.133226476238014
 21
0.4488995564274811
 31
0
  0
LINE
  8
0
 62
7
 10
5.133226476238014
 20
0.4488995564274811
 30
0
 11
5.133226476238014
 21
0.3888995564274811
 31
0
  0
LINE
  8
0
 62
7
 10
5.133226476238014
 20
0.3288995564274811
 30
0
 11
5.208826476238014
 21
0.3288995564274811
 31
0
  0
LINE
  8
0
 62
7
 10
5.198026476238014
 20
0.3888995564274811
 30
0
 11
5.133226476238014
 21
0.3888995564274811
 31
0
  0
LINE
  8
0
 62
7
 10
5.133226476238014
 20
0.3888995564274811
 30
0
 11
5.133226476238014
 21
0.3288995564274811
 31
0
  0
LINE
  8
0
 62
7
 10
5.241226476238013
 20
0.3288995564274811
 30
0
 11
5.241226476238013
 21
0.3888995564274811
 31
0
  0
LINE
  8
0
 62
7
 10
5.241226476238013
 20
0.4488995564274811
 30
0
 11
5.292526476238013
 21
0.4488995564274811
 31
0
  0
LINE
  8
0
 62
7
 10
5.292526476238013
 20
0.4488995564274811
 30
0
 11
5.303326476238014
 21
0.4458995564274812
 31
0
  0
LINE
  8
0
 62
7
 10
5.303326476238014
 20
0.4458995564274812
 30
0
 11
5.311426476238013
 21
0.4398995564274811
 31
0
  0
LINE
  8
0
 62
7
 10
5.311426476238013
 20
0.4398995564274811
 30
0
 11
5.314126476238012
 21
0.4338995564274812
 31
0
  0
LINE
  8
0
 62
7
 10
5.314126476238012
 20
0.4338995564274812
 30
0
 11
5.316826476238013
 21
0.4248995564274811
 31
0
  0
LINE
  8
0
 62
7
 10
5.316826476238013
 20
0.4248995564274811
 30
0
 11
5.316826476238013
 21
0.4128995564274812
 31
0
  0
LINE
  8
0
 62
7
 10
5.316826476238013
 20
0.4128995564274812
 30
0
 11
5.314126476238012
 21
0.4038995564274812
 31
0
  0
LINE
  8
0
 62
7
 10
5.314126476238012
 20
0.4038995564274812
 30
0
 11
5.311426476238013
 21
0.3978995564274811
 31
0
  0
LINE
  8
0
 62
7
 10
5.311426476238013
 20
0.3978995564274811
 30
0
 11
5.303326476238014
 21
0.3918995564274811
 31
0
  0
LINE
  8
0
 62
7
 10
5.303326476238014
 20
0.3918995564274811
 30
0
 11
5.292526476238013
 21
0.3888995564274811
 31
0
  0
LINE
  8
0
 62
7
 10
5.292526476238013
 20
0.3888995564274811
 30
0
 11
5.241226476238013
 21
0.3888995564274811
 31
0
  0
LINE
  8
0
 62
7
 10
5.241226476238013
 20
0.3888995564274811
 30
0
 11
5.241226476238013
 21
0.4488995564274811
 31
0
  0
LINE
  8
0
 62
7
 10
5.338426476238014
 20
0.3288995564274811
 30
0
 11
5.338426476238014
 21
0.3888995564274811
 31
0
  0
LINE
  8
0
 62
7
 10
5.338426476238014
 20
0.4488995564274811
 30
0
 11
5.389726476238015
 21
0.4488995564274811
 31
0
  0
LINE
  8
0
 62
7
 10
5.389726476238015
 20
0.4488995564274811
 30
0
 11
5.400526476238014
 21
0.4458995564274812
 31
0
  0
LINE
  8
0
 62
7
 10
5.400526476238014
 20
0.4458995564274812
 30
0
 11
5.408626476238013
 21
0.4398995564274811
 31
0
  0
LINE
  8
0
 62
7
 10
5.408626476238013
 20
0.4398995564274811
 30
0
 11
5.411326476238013
 21
0.4338995564274812
 31
0
  0
LINE
  8
0
 62
7
 10
5.411326476238013
 20
0.4338995564274812
 30
0
 11
5.414026476238014
 21
0.4248995564274811
 31
0
  0
LINE
  8
0
 62
7
 10
5.414026476238014
 20
0.4248995564274811
 30
0
 11
5.414026476238014
 21
0.4128995564274812
 31
0
  0
LINE
  8
0
 62
7
 10
5.414026476238014
 20
0.4128995564274812
 30
0
 11
5.411326476238013
 21
0.4038995564274812
 31
0
  0
LINE
  8
0
 62
7
 10
5.411326476238013
 20
0.4038995564274812
 30
0
 11
5.408626476238013
 21
0.3978995564274811
 31
0
  0
LINE
  8
0
 62
7
 10
5.408626476238013
 20
0.3978995564274811
 30
0
 11
5.400526476238014
 21
0.3918995564274811
 31
0
  0
LINE
  8
0
 62
7
 10
5.400526476238014
 20
0.3918995564274811
 30
0
 11
5.389726476238015
 21
0.3888995564274811
 31
0
  0
LINE
  8
0
 62
7
 10
5.389726476238015
 20
0.3888995564274811
 30
0
 11
5.338426476238014
 21
0.3888995564274811
 31
0
  0
LINE
  8
0
 62
7
 10
5.338426476238014
 20
0.3888995564274811
 30
0
 11
5.338426476238014
 21
0.4488995564274811
 31
0
  0
LINE
  8
0
 62
7
 10
5.511226476238015
 20
0.4488995564274811
 30
0
 11
5.435626476238014
 21
0.4488995564274811
 31
0
  0
LINE
  8
0
 62
7
 10
5.435626476238014
 20
0.4488995564274811
 30
0
 11
5.435626476238014
 21
0.3888995564274811
 31
0
  0
LINE
  8
0
 62
7
 10
5.435626476238014
 20
0.3288995564274811
 30
0
 11
5.511226476238015
 21
0.3288995564274811
 31
0
  0
LINE
  8
0
 62
7
 10
5.500426476238014
 20
0.3888995564274811
 30
0
 11
5.435626476238014
 21
0.3888995564274811
 31
0
  0
LINE
  8
0
 62
7
 10
5.435626476238014
 20
0.3888995564274811
 30
0
 11
5.435626476238014
 21
0.3288995564274811
 31
0
  0
LINE
  8
0
 62
7
 10
1.7
 20
-0.08000000000000002
 30
0
 11
1.7756
 21
-0.08000000000000002
 31
0
  0
LINE
  8
0
 62
7
 10
1.7756
 20
-0.08000000000000002
 30
0
 11
1.7
 21
-0.2
 31
0
  0
LINE
  8
0
 62
7
 10
1.7
 20
-0.2
 30
0
 11
1.7756
 21
-0.2
 31
0
  0
LINE
  8
0
 62
7
 10
1.8809
 20
-0.09200000000000003
 30
0
 11
1.8728
 21
-0.08600000000000001
 31
0
  0
LINE
  8
0
 62
7
 10
1.8728
 20
-0.08600000000000001
 30
0
 11
1.8647
 21
-0.08300000000000002
 31
0
  0
LINE
  8
0
 62
7
 10
1.8647
 20
-0.08300000000000002
 30
0
 11
1.8512
 21
-0.08000000000000002
 31
0
  0
LINE
  8
0
 62
7
 10
1.8512
 20
-0.08000000000000002
 30
0
 11
1.8404
 21
-0.08000000000000002
 31
0
  0
LINE
  8
0
 62
7
 10
1.8404
 20
-0.08000000000000002
 30
0
 11
1.8296
 21
-0.08300000000000002
 31
0
  0
LINE
  8
0
 62
7
 10
1.8296
 20
-0.08300000000000002
 30
0
 11
1.8215
 21
-0.08600000000000001
 31
0
  0
LINE
  8
0
 62
7
 10
1.8215
 20
-0.08600000000000001
 30
0
 11
1.8134
 21
-0.09200000000000003
 31
0
  0
LINE
  8
0
 62
7
 10
1.8134
 20
-0.09200000000000003
 30
0
 11
1.8107
 21
-0.101
 31
0
  0
LINE
  8
0
 62
7
 10
1.8107
 20
-0.101
 30
0
 11
1.8107
 21
-0.107
 31
0
  0
LINE
  8
0
 62
7
 10
1.8107
 20
-0.107
 30
0
 11
1.8134
 21
-0.116
 31
0
  0
LINE
  8
0
 62
7
 10
1.8134
 20
-0.116
 30
0
 11
1.8215
 21
-0.122
 31
0
  0
LINE
  8
0
 62
7
 10
1.8215
 20
-0.122
 30
0
 11
1.8674
 21
-0.143
 31
0
  0
LINE
  8
0
 62
7
 10
1.8674
 20
-0.143
 30
0
 11
1.8755
 21
-0.149
 31
0
  0
LINE
  8
0
 62
7
 10
1.8755
 20
-0.149
 30
0
 11
1.8809
 21
-0.158
 31
0
  0
LINE
  8
0
 62
7
 10
1.8809
 20
-0.158
 30
0
 11
1.8836
 21
-0.167
 31
0
  0
LINE
  8
0
 62
7
 10
1.8836
 20
-0.167
 30
0
 11
1.8836
 21
-0.173
 31
0
  0
LINE
  8
0
 62
7
 10
1.8836
 20
-0.173
 30
0
 11
1.8809
 21
-0.182
 31
0
  0
LINE
  8
0
 62
7
 10
1.8809
 20
-0.182
 30
0
 11
1.8755
 21
-0.191
 31
0
  0
LINE
  8
0
 62
7
 10
1.8755
 20
-0.191
 30
0
 11
1.8674
 21
-0.197
 31
0
  0
LINE
  8
0
 62
7
 10
1.8674
 20
-0.197
 30
0
 11
1.8539
 21
-0.2
 31
0
  0
LINE
  8
0
 62
7
 10
1.8539
 20
-0.2
 30
0
 11
1.8377
 21
-0.2
 31
0
  0
LINE
  8
0
 62
7
 10
1.8377
 20
-0.2
 30
0
 11
1.8242
 21
-0.197
 31
0
  0
LINE
  8
0
 62
7
 10
1.8242
 20
-0.197
 30
0
 11
1.8134
 21
-0.191
 31
0
  0
LINE
  8
0
 62
7
 10
1.8134
 20
-0.191
 30
0
 11
1.808
 21
-0.185
 31
0
  0
LINE
  8
0
 62
7
 10
1.9052
 20
-0.2
 30
0
 11
1.9052
 21
-0.08000000000000002
 31
0
  0
LINE
  8
0
 62
7
 10
1.9052
 20
-0.08000000000000002
 30
0
 11
1.9565
 21
-0.08000000000000002
 31
0
  0
LINE
  8
0
 62
7
 10
1.9565
 20
-0.08000000000000002
 30
0
 11
1.9673
 21
-0.08300000000000002
 31
0
  0
LINE
  8
0
 62
7
 10
1.9673
 20
-0.08300000000000002
 30
0
 11
1.9754
 21
-0.08900000000000001
 31
0
  0
LINE
  8
0
 62
7
 10
1.9754
 20
-0.08900000000000001
 30
0
 11
1.9781
 21
-0.09500000000000001
 31
0
  0
LINE
  8
0
 62
7
 10
1.9781
 20
-0.09500000000000001
 30
0
 11
1.9808
 21
-0.104
 31
0
  0
LINE
  8
0
 62
7
 10
1.9808
 20
-0.104
 30
0
 11
1.9808
 21
-0.116
 31
0
  0
LINE
  8
0
 62
7
 10
1.9808
 20
-0.116
 30
0
 11
1.9781
 21
-0.125
 31
0
  0
LINE
  8
0
 62
7
 10
1.9781
 20
-0.125
 30
0
 11
1.9754
 21
-0.131
 31
0
  0
LINE
  8
0
 62
7
 10
1.9754
 20
-0.131
 30
0
 11
1.9673
 21
-0.137
 31
0
  0
LINE
  8
0
 62
7
 10
1.9673
 20
-0.137
 30
0
 11
1.9565
 21
-0.14
 31
0
  0
LINE
  8
0
 62
7
 10
1.9565
 20
-0.14
 30
0
 11
1.9484
 21
-0.14
 31
0
  0
LINE
  8
0
 62
7
 10
1.9484
 20
-0.14
 30
0
 11
1.9808
 21
-0.2
 31
0
  0
LINE
  8
0
 62
7
 10
1.9484
 20
-0.14
 30
0
 11
1.9052
 21
-0.14
 31
0
  0
LINE
  8
0
 62
7
 10
2.0024
 20
-0.116
 30
0
 11
2.0348
 21
-0.08000000000000002
 31
0
  0
LINE
  8
0
 62
7
 10
2.0348
 20
-0.08000000000000002
 30
0
 11
2.0348
 21
-0.2
 31
0
  0
LINE
  8
0
 62
7
 10
2.0672
 20
-0.09200000000000003
 30
0
 11
2.0672
 21
-0.08000000000000002
 31
0
  0
LINE
  8
0
 62
7
 10
2.0672
 20
-0.08000000000000002
 30
0
 11
2.132
 21
-0.08000000000000002
 31
0
  0
LINE
  8
0
 62
7
 10
2.132
 20
-0.08000000000000002
 30
0
 11
2.078
 21
-0.2
 31
0
  0
LINE
  8
0
 62
7
 10
2.2238
 20
-0.08000000000000002
 30
0
 11
2.1644
 21
-0.08000000000000002
 31
0
  0
LINE
  8
0
 62
7
 10
2.1644
 20
-0.08000000000000002
 30
0
 11
2.1644
 21
-0.14
 31
0
  0
LINE
  8
0
 62
7
 10
2.1644
 20
-0.14
 30
0
 11
2.1698
 21
-0.131
 31
0
  0
LINE
  8
0
 62
7
 10
2.1698
 20
-0.131
 30
0
 11
2.1779
 21
-0.125
 31
0
  0
LINE
  8
0
 62
7
 10
2.1779
 20
-0.125
 30
0
 11
2.1887
 21
-0.122
 31
0
  0
LINE
  8
0
 62
7
 10
2.1887
 20
-0.122
 30
0
 11
2.2049
 21
-0.122
 31
0
  0
LINE
  8
0
 62
7
 10
2.2049
 20
-0.122
 30
0
 11
2.213
 21
-0.125
 31
0
  0
LINE
  8
0
 62
7
 10
2.213
 20
-0.125
 30
0
 11
2.221100000000001
 21
-0.131
 31
0
  0
LINE
  8
0
 62
7
 10
2.221100000000001
 20
-0.131
 30
0
 11
2.2265
 21
-0.14
 31
0
  0
LINE
  8
0
 62
7
 10
2.2265
 20
-0.14
 30
0
 11
2.2292
 21
-0.152
 31
0
  0
LINE
  8
0
 62
7
 10
2.2292
 20
-0.152
 30
0
 11
2.2292
 21
-0.17
 31
0
  0
LINE
  8
0
 62
7
 10
2.2292
 20
-0.17
 30
0
 11
2.2265
 21
-0.182
 31
0
  0
LINE
  8
0
 62
7
 10
2.2265
 20
-0.182
 30
0
 11
2.221100000000001
 21
-0.191
 31
0
  0
LINE
  8
0
 62
7
 10
2.221100000000001
 20
-0.191
 30
0
 11
2.213
 21
-0.197
 31
0
  0
LINE
  8
0
 62
7
 10
2.213
 20
-0.197
 30
0
 11
2.2049
 21
-0.2
 31
0
  0
LINE
  8
0
 62
7
 10
2.2049
 20
-0.2
 30
0
 11
2.1887
 21
-0.2
 31
0
  0
LINE
  8
0
 62
7
 10
2.1887
 20
-0.2
 30
0
 11
2.1779
 21
-0.197
 31
0
  0
LINE
  8
0
 62
7
 10
2.1779
 20
-0.197
 30
0
 11
2.1698
 21
-0.191
 31
0
  0
LINE
  8
0
 62
7
 10
2.1698
 20
-0.191
 30
0
 11
2.1644
 21
-0.182
 31
0
  0
LINE
  8
0
 62
7
 10
2.3264
 20
-0.2
 30
0
 11
2.2616
 21
-0.2
 31
0
  0
LINE
  8
0
 62
7
 10
2.2616
 20
-0.2
 30
0
 11
2.2616
 21
-0.08000000000000002
 31
0
  0
LINE
  8
0
 62
7
 10
2.3588
 20
-0.098
 30
0
 11
2.3642
 21
-0.08900000000000001
 31
0
  0
LINE
  8
0
 62
7
 10
2.3642
 20
-0.08900000000000001
 30
0
 11
2.3723
 21
-0.08300000000000002
 31
0
  0
LINE
  8
0
 62
7
 10
2.3723
 20
-0.08300000000000002
 30
0
 11
2.383100000000001
 21
-0.08000000000000002
 31
0
  0
LINE
  8
0
 62
7
 10
2.383100000000001
 20
-0.08000000000000002
 30
0
 11
2.3993
 21
-0.08000000000000002
 31
0
  0
LINE
  8
0
 62
7
 10
2.3993
 20
-0.08000000000000002
 30
0
 11
2.4074
 21
-0.08300000000000002
 31
0
  0
LINE
  8
0
 62
7
 10
2.4074
 20
-0.08300000000000002
 30
0
 11
2.4155
 21
-0.08900000000000001
 31
0
  0
LINE
  8
0
 62
7
 10
2.4155
 20
-0.08900000000000001
 30
0
 11
2.4209
 21
-0.098
 31
0
  0
LINE
  8
0
 62
7
 10
2.4209
 20
-0.098
 30
0
 11
2.4236
 21
-0.11
 31
0
  0
LINE
  8
0
 62
7
 10
2.4236
 20
-0.11
 30
0
 11
2.4236
 21
-0.119
 31
0
  0
LINE
  8
0
 62
7
 10
2.4236
 20
-0.119
 30
0
 11
2.4209
 21
-0.128
 31
0
  0
LINE
  8
0
 62
7
 10
2.4209
 20
-0.128
 30
0
 11
2.4155
 21
-0.134
 31
0
  0
LINE
  8
0
 62
7
 10
2.4155
 20
-0.134
 30
0
 11
2.402
 21
-0.14
 31
0
  0
LINE
  8
0
 62
7
 10
2.383100000000001
 20
-0.14
 30
0
 11
2.402
 21
-0.14
 31
0
  0
LINE
  8
0
 62
7
 10
2.402
 20
-0.14
 30
0
 11
2.4155
 21
-0.146
 31
0
  0
LINE
  8
0
 62
7
 10
2.4155
 20
-0.146
 30
0
 11
2.4209
 21
-0.152
 31
0
  0
LINE
  8
0
 62
7
 10
2.4209
 20
-0.152
 30
0
 11
2.4236
 21
-0.161
 31
0
  0
LINE
  8
0
 62
7
 10
2.4236
 20
-0.161
 30
0
 11
2.4236
 21
-0.17
 31
0
  0
LINE
  8
0
 62
7
 10
2.4236
 20
-0.17
 30
0
 11
2.4209
 21
-0.182
 31
0
  0
LINE
  8
0
 62
7
 10
2.4209
 20
-0.182
 30
0
 11
2.4155
 21
-0.191
 31
0
  0
LINE
  8
0
 62
7
 10
2.4155
 20
-0.191
 30
0
 11
2.4074
 21
-0.197
 31
0
  0
LINE
  8
0
 62
7
 10
2.4074
 20
-0.197
 30
0
 11
2.3993
 21
-0.2
 31
0
  0
LINE
  8
0
 62
7
 10
2.3993
 20
-0.2
 30
0
 11
2.383100000000001
 21
-0.2
 31
0
  0
LINE
  8
0
 62
7
 10
2.383100000000001
 20
-0.2
 30
0
 11
2.3723
 21
-0.197
 31
0
  0
LINE
  8
0
 62
7
 10
2.3723
 20
-0.197
 30
0
 11
2.3642
 21
-0.191
 31
0
  0
LINE
  8
0
 62
7
 10
2.3642
 20
-0.191
 30
0
 11
2.3588
 21
-0.182
 31
0
  0
LINE
  8
0
 62
7
 10
3.9
 20
-0.2
 30
0
 11
3.9
 21
-0.1
 31
0
  0
LINE
  8
0
 62
7
 10
3.9
 20
-0.1
 30
0
 11
3.963000000000001
 21
-0.2
 31
0
  0
LINE
  8
0
 62
7
 10
3.963000000000001
 20
-0.2
 30
0
 11
3.963000000000001
 21
-0.1
 31
0
  0
LINE
  8
0
 62
7
 10
4.044
 20
-0.2
 30
0
 11
3.99
 21
-0.2
 31
0
  0
LINE
  8
0
 62
7
 10
3.99
 20
-0.2
 30
0
 11
3.99
 21
-0.1
 31
0
  0
LINE
  8
0
 62
7
 10
4.071000000000001
 20
-0.15
 30
0
 11
4.107
 21
-0.15
 31
0
  0
LINE
  8
0
 62
7
 10
4.107
 20
-0.15
 30
0
 11
4.1115
 21
-0.15
 31
0
  0
LINE
  8
0
 62
7
 10
4.1115
 20
-0.15
 30
0
 11
4.1205
 21
-0.155
 31
0
  0
LINE
  8
0
 62
7
 10
4.1205
 20
-0.155
 30
0
 11
4.125
 21
-0.16
 31
0
  0
LINE
  8
0
 62
7
 10
4.125
 20
-0.16
 30
0
 11
4.1295
 21
-0.17
 31
0
  0
LINE
  8
0
 62
7
 10
4.1295
 20
-0.17
 30
0
 11
4.1295
 21
-0.18
 31
0
  0
LINE
  8
0
 62
7
 10
4.1295
 20
-0.18
 30
0
 11
4.125
 21
-0.19
 31
0
  0
LINE
  8
0
 62
7
 10
4.125
 20
-0.19
 30
0
 11
4.1205
 21
-0.195
 31
0
  0
LINE
  8
0
 62
7
 10
4.1205
 20
-0.195
 30
0
 11
4.1115
 21
-0.2
 31
0
  0
LINE
  8
0
 62
7
 10
4.1115
 20
-0.2
 30
0
 11
4.071000000000001
 21
-0.2
 31
0
  0
LINE
  8
0
 62
7
 10
4.071000000000001
 20
-0.2
 30
0
 11
4.071000000000001
 21
-0.15
 31
0
  0
LINE
  8
0
 62
7
 10
4.071000000000001
 20
-0.1
 30
0
 11
4.10475
 21
-0.1
 31
0
  0
LINE
  8
0
 62
7
 10
4.10475
 20
-0.1
 30
0
 11
4.116000000000001
 21
-0.1025
 31
0
  0
LINE
  8
0
 62
7
 10
4.116000000000001
 20
-0.1025
 30
0
 11
4.12275
 21
-0.11
 31
0
  0
LINE
  8
0
 62
7
 10
4.12275
 20
-0.11
 30
0
 11
4.125
 21
-0.12
 31
0
  0
LINE
  8
0
 62
7
 10
4.125
 20
-0.12
 30
0
 11
4.125
 21
-0.13
 31
0
  0
LINE
  8
0
 62
7
 10
4.125
 20
-0.13
 30
0
 11
4.1205
 21
-0.14
 31
0
  0
LINE
  8
0
 62
7
 10
4.1205
 20
-0.14
 30
0
 11
4.11375
 21
-0.1475
 31
0
  0
LINE
  8
0
 62
7
 10
4.11375
 20
-0.1475
 30
0
 11
4.107
 21
-0.15
 31
0
  0
LINE
  8
0
 62
7
 10
4.071000000000001
 20
-0.15
 30
0
 11
4.071000000000001
 21
-0.1
 31
0
  0
LINE
  8
0
 62
7
 10
4.27125
 20
-0.1475
 30
0
 11
4.264500000000001
 21
-0.1375
 31
0
  0
LINE
  8
0
 62
7
 10
4.264500000000001
 20
-0.1375
 30
0
 11
4.257750000000001
 21
-0.1325
 31
0
  0
LINE
  8
0
 62
7
 10
4.257750000000001
 20
-0.1325
 30
0
 11
4.251
 21
-0.13
 31
0
  0
LINE
  8
0
 62
7
 10
4.251
 20
-0.13
 30
0
 11
4.242
 21
-0.13
 31
0
  0
LINE
  8
0
 62
7
 10
4.242
 20
-0.13
 30
0
 11
4.23525
 21
-0.1325
 31
0
  0
LINE
  8
0
 62
7
 10
4.23525
 20
-0.1325
 30
0
 11
4.2285
 21
-0.1375
 31
0
  0
LINE
  8
0
 62
7
 10
4.2285
 20
-0.1375
 30
0
 11
4.22175
 21
-0.1475
 31
0
  0
LINE
  8
0
 62
7
 10
4.22175
 20
-0.1475
 30
0
 11
4.2195
 21
-0.155
 31
0
  0
LINE
  8
0
 62
7
 10
4.2195
 20
-0.155
 30
0
 11
4.2195
 21
-0.175
 31
0
  0
LINE
  8
0
 62
7
 10
4.2195
 20
-0.175
 30
0
 11
4.22175
 21
-0.1825
 31
0
  0
LINE
  8
0
 62
7
 10
4.22175
 20
-0.1825
 30
0
 11
4.2285
 21
-0.1925
 31
0
  0
LINE
  8
0
 62
7
 10
4.2285
 20
-0.1925
 30
0
 11
4.23525
 21
-0.1975
 31
0
  0
LINE
  8
0
 62
7
 10
4.23525
 20
-0.1975
 30
0
 11
4.242
 21
-0.2
 31
0
  0
LINE
  8
0
 62
7
 10
4.242
 20
-0.2
 30
0
 11
4.251
 21
-0.2
 31
0
  0
LINE
  8
0
 62
7
 10
4.251
 20
-0.2
 30
0
 11
4.257750000000001
 21
-0.1975
 31
0
  0
LINE
  8
0
 62
7
 10
4.257750000000001
 20
-0.1975
 30
0
 11
4.264500000000001
 21
-0.1925
 31
0
  0
LINE
  8
0
 62
7
 10
4.264500000000001
 20
-0.1925
 30
0
 11
4.27125
 21
-0.1825
 31
0
  0
LINE
  8
0
 62
7
 10
4.34325
 20
-0.155
 30
0
 11
4.341
 21
-0.1475
 31
0
  0
LINE
  8
0
 62
7
 10
4.341
 20
-0.1475
 30
0
 11
4.33425
 21
-0.1375
 31
0
  0
LINE
  8
0
 62
7
 10
4.33425
 20
-0.1375
 30
0
 11
4.3275
 21
-0.1325
 31
0
  0
LINE
  8
0
 62
7
 10
4.3275
 20
-0.1325
 30
0
 11
4.32075
 21
-0.13
 31
0
  0
LINE
  8
0
 62
7
 10
4.32075
 20
-0.13
 30
0
 11
4.31175
 21
-0.13
 31
0
  0
LINE
  8
0
 62
7
 10
4.31175
 20
-0.13
 30
0
 11
4.305000000000001
 21
-0.1325
 31
0
  0
LINE
  8
0
 62
7
 10
4.305000000000001
 20
-0.1325
 30
0
 11
4.29825
 21
-0.1375
 31
0
  0
LINE
  8
0
 62
7
 10
4.29825
 20
-0.1375
 30
0
 11
4.2915
 21
-0.1475
 31
0
  0
LINE
  8
0
 62
7
 10
4.2915
 20
-0.1475
 30
0
 11
4.28925
 21
-0.155
 31
0
  0
LINE
  8
0
 62
7
 10
4.28925
 20
-0.155
 30
0
 11
4.28925
 21
-0.175
 31
0
  0
LINE
  8
0
 62
7
 10
4.28925
 20
-0.175
 30
0
 11
4.2915
 21
-0.1825
 31
0
  0
LINE
  8
0
 62
7
 10
4.2915
 20
-0.1825
 30
0
 11
4.29825
 21
-0.1925
 31
0
  0
LINE
  8
0
 62
7
 10
4.29825
 20
-0.1925
 30
0
 11
4.305000000000001
 21
-0.1975
 31
0
  0
LINE
  8
0
 62
7
 10
4.305000000000001
 20
-0.1975
 30
0
 11
4.31175
 21
-0.2
 31
0
  0
LINE
  8
0
 62
7
 10
4.31175
 20
-0.2
 30
0
 11
4.32075
 21
-0.2
 31
0
  0
LINE
  8
0
 62
7
 10
4.32075
 20
-0.2
 30
0
 11
4.3275
 21
-0.1975
 31
0
  0
LINE
  8
0
 62
7
 10
4.3275
 20
-0.1975
 30
0
 11
4.33425
 21
-0.1925
 31
0
  0
LINE
  8
0
 62
7
 10
4.33425
 20
-0.1925
 30
0
 11
4.341
 21
-0.1825
 31
0
  0
LINE
  8
0
 62
7
 10
4.341
 20
-0.1825
 30
0
 11
4.34325
 21
-0.175
 31
0
  0
LINE
  8
0
 62
7
 10
4.34325
 20
-0.13
 30
0
 11
4.34325
 21
-0.155
 31
0
  0
LINE
  8
0
 62
7
 10
4.34325
 20
-0.1975
 30
0
 11
4.3455
 21
-0.2
 31
0
  0
LINE
  8
0
 62
7
 10
4.3455
 20
-0.2
 30
0
 11
4.34775
 21
-0.2
 31
0
  0
LINE
  8
0
 62
7
 10
4.34325
 20
-0.175
 30
0
 11
4.34325
 21
-0.1975
 31
0
  0
LINE
  8
0
 62
7
 10
4.34325
 20
-0.155
 30
0
 11
4.34325
 21
-0.175
 31
0
  0
LINE
  8
0
 62
7
 10
4.36575
 20
-0.2
 30
0
 11
4.36575
 21
-0.1975
 31
0
  0
LINE
  8
0
 62
7
 10
4.36575
 20
-0.1975
 30
0
 11
4.368
 21
-0.1975
 31
0
  0
LINE
  8
0
 62
7
 10
4.368
 20
-0.1975
 30
0
 11
4.368
 21
-0.2
 31
0
  0
LINE
  8
0
 62
7
 10
4.368
 20
-0.2
 30
0
 11
4.36575
 21
-0.2
 31
0
  0
LINE
  8
0
 62
7
 10
4.469250000000001
 20
-0.16
 30
0
 11
4.471500000000001
 21
-0.15
 31
0
  0
LINE
  8
0
 62
7
 10
4.471500000000001
 20
-0.15
 30
0
 11
4.476
 21
-0.1425
 31
0
  0
LINE
  8
0
 62
7
 10
4.476
 20
-0.1425
 30
0
 11
4.48275
 21
-0.1375
 31
0
  0
LINE
  8
0
 62
7
 10
4.48275
 20
-0.1375
 30
0
 11
4.4895
 21
-0.135
 31
0
  0
LINE
  8
0
 62
7
 10
4.4895
 20
-0.135
 30
0
 11
4.503
 21
-0.135
 31
0
  0
LINE
  8
0
 62
7
 10
4.503
 20
-0.135
 30
0
 11
4.50975
 21
-0.1375
 31
0
  0
LINE
  8
0
 62
7
 10
4.50975
 20
-0.1375
 30
0
 11
4.5165
 21
-0.1425
 31
0
  0
LINE
  8
0
 62
7
 10
4.5165
 20
-0.1425
 30
0
 11
4.521
 21
-0.15
 31
0
  0
LINE
  8
0
 62
7
 10
4.521
 20
-0.15
 30
0
 11
4.52325
 21
-0.16
 31
0
  0
LINE
  8
0
 62
7
 10
4.52325
 20
-0.16
 30
0
 11
4.52325
 21
-0.175
 31
0
  0
LINE
  8
0
 62
7
 10
4.52325
 20
-0.175
 30
0
 11
4.521
 21
-0.185
 31
0
  0
LINE
  8
0
 62
7
 10
4.521
 20
-0.185
 30
0
 11
4.5165
 21
-0.1925
 31
0
  0
LINE
  8
0
 62
7
 10
4.5165
 20
-0.1925
 30
0
 11
4.50975
 21
-0.1975
 31
0
  0
LINE
  8
0
 62
7
 10
4.50975
 20
-0.1975
 30
0
 11
4.503
 21
-0.2
 31
0
  0
LINE
  8
0
 62
7
 10
4.503
 20
-0.2
 30
0
 11
4.4895
 21
-0.2
 31
0
  0
LINE
  8
0
 62
7
 10
4.4895
 20
-0.2
 30
0
 11
4.48275
 21
-0.1975
 31
0
  0
LINE
  8
0
 62
7
 10
4.48275
 20
-0.1975
 30
0
 11
4.476
 21
-0.1925
 31
0
  0
LINE
  8
0
 62
7
 10
4.476
 20
-0.1925
 30
0
 11
4.471500000000001
 21
-0.185
 31
0
  0
LINE
  8
0
 62
7
 10
4.471500000000001
 20
-0.185
 30
0
 11
4.469250000000001
 21
-0.175
 31
0
  0
LINE
  8
0
 62
7
 10
4.469250000000001
 20
-0.175
 30
0
 11
4.469250000000001
 21
-0.16
 31
0
  0
LINE
  8
0
 62
7
 10
4.469250000000001
 20
-0.125
 30
0
 11
4.471500000000001
 21
-0.115
 31
0
  0
LINE
  8
0
 62
7
 10
4.471500000000001
 20
-0.115
 30
0
 11
4.476
 21
-0.1075
 31
0
  0
LINE
  8
0
 62
7
 10
4.476
 20
-0.1075
 30
0
 11
4.48275
 21
-0.1025
 31
0
  0
LINE
  8
0
 62
7
 10
4.48275
 20
-0.1025
 30
0
 11
4.4895
 21
-0.1
 31
0
  0
LINE
  8
0
 62
7
 10
4.4895
 20
-0.1
 30
0
 11
4.503
 21
-0.1
 31
0
  0
LINE
  8
0
 62
7
 10
4.503
 20
-0.1
 30
0
 11
4.50975
 21
-0.1025
 31
0
  0
LINE
  8
0
 62
7
 10
4.50975
 20
-0.1025
 30
0
 11
4.5165
 21
-0.1075
 31
0
  0
LINE
  8
0
 62
7
 10
4.5165
 20
-0.1075
 30
0
 11
4.521
 21
-0.115
 31
0
  0
LINE
  8
0
 62
7
 10
4.469250000000001
 20
-0.16
 30
0
 11
4.469250000000001
 21
-0.125
 31
0
  0
LINE
  8
0
 62
7
 10
4.55025
 20
-0.11
 30
0
 11
4.55025
 21
-0.1
 31
0
  0
LINE
  8
0
 62
7
 10
4.55025
 20
-0.1
 30
0
 11
4.60425
 21
-0.1
 31
0
  0
LINE
  8
0
 62
7
 10
4.60425
 20
-0.1
 30
0
 11
4.55925
 21
-0.2
 31
0
  0
LINE
  8
0
 62
7
 10
4.755000000000001
 20
-0.1475
 30
0
 11
4.748250000000001
 21
-0.1375
 31
0
  0
LINE
  8
0
 62
7
 10
4.748250000000001
 20
-0.1375
 30
0
 11
4.7415
 21
-0.1325
 31
0
  0
LINE
  8
0
 62
7
 10
4.7415
 20
-0.1325
 30
0
 11
4.734750000000001
 21
-0.13
 31
0
  0
LINE
  8
0
 62
7
 10
4.734750000000001
 20
-0.13
 30
0
 11
4.725750000000001
 21
-0.13
 31
0
  0
LINE
  8
0
 62
7
 10
4.725750000000001
 20
-0.13
 30
0
 11
4.719
 21
-0.1325
 31
0
  0
LINE
  8
0
 62
7
 10
4.719
 20
-0.1325
 30
0
 11
4.71225
 21
-0.1375
 31
0
  0
LINE
  8
0
 62
7
 10
4.71225
 20
-0.1375
 30
0
 11
4.7055
 21
-0.1475
 31
0
  0
LINE
  8
0
 62
7
 10
4.7055
 20
-0.1475
 30
0
 11
4.70325
 21
-0.155
 31
0
  0
LINE
  8
0
 62
7
 10
4.70325
 20
-0.155
 30
0
 11
4.70325
 21
-0.175
 31
0
  0
LINE
  8
0
 62
7
 10
4.70325
 20
-0.175
 30
0
 11
4.7055
 21
-0.1825
 31
0
  0
LINE
  8
0
 62
7
 10
4.7055
 20
-0.1825
 30
0
 11
4.71225
 21
-0.1925
 31
0
  0
LINE
  8
0
 62
7
 10
4.71225
 20
-0.1925
 30
0
 11
4.719
 21
-0.1975
 31
0
  0
LINE
  8
0
 62
7
 10
4.719
 20
-0.1975
 30
0
 11
4.725750000000001
 21
-0.2
 31
0
  0
LINE
  8
0
 62
7
 10
4.725750000000001
 20
-0.2
 30
0
 11
4.734750000000001
 21
-0.2
 31
0
  0
LINE
  8
0
 62
7
 10
4.734750000000001
 20
-0.2
 30
0
 11
4.7415
 21
-0.1975
 31
0
  0
LINE
  8
0
 62
7
 10
4.7415
 20
-0.1975
 30
0
 11
4.748250000000001
 21
-0.1925
 31
0
  0
LINE
  8
0
 62
7
 10
4.748250000000001
 20
-0.1925
 30
0
 11
4.755000000000001
 21
-0.1825
 31
0
  0
LINE
  8
0
 62
7
 10
4.8135
 20
-0.155
 30
0
 11
4.8135
 21
-0.2
 31
0
  0
LINE
  8
0
 62
7
 10
4.773000000000001
 20
-0.13
 30
0
 11
4.773000000000001
 21
-0.155
 31
0
  0
LINE
  8
0
 62
7
 10
4.773000000000001
 20
-0.2
 30
0
 11
4.773000000000001
 21
-0.155
 31
0
  0
LINE
  8
0
 62
7
 10
4.773000000000001
 20
-0.155
 30
0
 11
4.77525
 21
-0.1425
 31
0
  0
LINE
  8
0
 62
7
 10
4.77525
 20
-0.1425
 30
0
 11
4.7775
 21
-0.1375
 31
0
  0
LINE
  8
0
 62
7
 10
4.7775
 20
-0.1375
 30
0
 11
4.782
 21
-0.1325
 31
0
  0
LINE
  8
0
 62
7
 10
4.782
 20
-0.1325
 30
0
 11
4.78875
 21
-0.13
 31
0
  0
LINE
  8
0
 62
7
 10
4.78875
 20
-0.13
 30
0
 11
4.79775
 21
-0.13
 31
0
  0
LINE
  8
0
 62
7
 10
4.79775
 20
-0.13
 30
0
 11
4.804500000000001
 21
-0.1325
 31
0
  0
LINE
  8
0
 62
7
 10
4.804500000000001
 20
-0.1325
 30
0
 11
4.809000000000001
 21
-0.1375
 31
0
  0
LINE
  8
0
 62
7
 10
4.809000000000001
 20
-0.1375
 30
0
 11
4.811250000000001
 21
-0.1425
 31
0
  0
LINE
  8
0
 62
7
 10
4.811250000000001
 20
-0.1425
 30
0
 11
4.8135
 21
-0.155
 31
0
  0
LINE
  8
0
 62
7
 10
4.8135
 20
-0.155
 30
0
 11
4.81575
 21
-0.1425
 31
0
  0
LINE
  8
0
 62
7
 10
4.81575
 20
-0.1425
 30
0
 11
4.818000000000001
 21
-0.1375
 31
0
  0
LINE
  8
0
 62
7
 10
4.818000000000001
 20
-0.1375
 30
0
 11
4.822500000000001
 21
-0.1325
 31
0
  0
LINE
  8
0
 62
7
 10
4.822500000000001
 20
-0.1325
 30
0
 11
4.829250000000001
 21
-0.13
 31
0
  0
LINE
  8
0
 62
7
 10
4.829250000000001
 20
-0.13
 30
0
 11
4.83825
 21
-0.13
 31
0
  0
LINE
  8
0
 62
7
 10
4.83825
 20
-0.13
 30
0
 11
4.845000000000001
 21
-0.1325
 31
0
  0
LINE
  8
0
 62
7
 10
4.849500000000001
 20
-0.1375
 30
0
 11
4.845000000000001
 21
-0.1325
 31
0
  0
LINE
  8
0
 62
7
 10
4.845000000000001
 20
-0.1325
 30
0
 11
4.849500000000001
 21
-0.1375
 31
0
  0
LINE
  8
0
 62
7
 10
4.849500000000001
 20
-0.1375
 30
0
 11
4.85175
 21
-0.1425
 31
0
  0
LINE
  8
0
 62
7
 10
4.85175
 20
-0.1425
 30
0
 11
4.854
 21
-0.155
 31
0
  0
LINE
  8
0
 62
7
 10
4.854
 20
-0.155
 30
0
 11
4.854
 21
-0.2
 31
0
  0
LINE
  8
0
 62
7
 10
4.944
 20
-0.175
 30
0
 11
4.94625
 21
-0.1825
 31
0
  0
LINE
  8
0
 62
7
 10
4.94625
 20
-0.1825
 30
0
 11
4.953
 21
-0.1925
 31
0
  0
LINE
  8
0
 62
7
 10
4.953
 20
-0.1925
 30
0
 11
4.959750000000001
 21
-0.1975
 31
0
  0
LINE
  8
0
 62
7
 10
4.959750000000001
 20
-0.1975
 30
0
 11
4.9665
 21
-0.2
 31
0
  0
LINE
  8
0
 62
7
 10
4.9665
 20
-0.2
 30
0
 11
4.9755
 21
-0.2
 31
0
  0
LINE
  8
0
 62
7
 10
4.9755
 20
-0.2
 30
0
 11
4.982250000000001
 21
-0.1975
 31
0
  0
LINE
  8
0
 62
7
 10
4.982250000000001
 20
-0.1975
 30
0
 11
4.989000000000001
 21
-0.1925
 31
0
  0
LINE
  8
0
 62
7
 10
4.989000000000001
 20
-0.1925
 30
0
 11
4.995750000000001
 21
-0.1825
 31
0
  0
LINE
  8
0
 62
7
 10
4.995750000000001
 20
-0.1825
 30
0
 11
4.998000000000001
 21
-0.175
 31
0
  0
LINE
  8
0
 62
7
 10
4.998000000000001
 20
-0.175
 30
0
 11
4.998000000000001
 21
-0.155
 31
0
  0
LINE
  8
0
 62
7
 10
4.998000000000001
 20
-0.155
 30
0
 11
4.995750000000001
 21
-0.1475
 31
0
  0
LINE
  8
0
 62
7
 10
4.995750000000001
 20
-0.1475
 30
0
 11
4.989000000000001
 21
-0.1375
 31
0
  0
LINE
  8
0
 62
7
 10
4.989000000000001
 20
-0.1375
 30
0
 11
4.982250000000001
 21
-0.1325
 31
0
  0
LINE
  8
0
 62
7
 10
4.982250000000001
 20
-0.1325
 30
0
 11
4.9755
 21
-0.13
 31
0
  0
LINE
  8
0
 62
7
 10
4.9755
 20
-0.13
 30
0
 11
4.9665
 21
-0.13
 31
0
  0
LINE
  8
0
 62
7
 10
4.9665
 20
-0.13
 30
0
 11
4.959750000000001
 21
-0.1325
 31
0
  0
LINE
  8
0
 62
7
 10
4.959750000000001
 20
-0.1325
 30
0
 11
4.953
 21
-0.1375
 31
0
  0
LINE
  8
0
 62
7
 10
4.953
 20
-0.1375
 30
0
 11
4.94625
 21
-0.1475
 31
0
  0
LINE
  8
0
 62
7
 10
4.94625
 20
-0.1475
 30
0
 11
4.944
 21
-0.155
 31
0
  0
LINE
  8
0
 62
7
 10
4.944
 20
-0.1
 30
0
 11
4.944
 21
-0.155
 31
0
  0
LINE
  8
0
 62
7
 10
4.944
 20
-0.155
 30
0
 11
4.944
 21
-0.2
 31
0
  0
LINE
  8
0
 62
7
 10
5.07
 20
-0.1825
 30
0
 11
5.06325
 21
-0.1925
 31
0
  0
LINE
  8
0
 62
7
 10
5.06325
 20
-0.1925
 30
0
 11
5.0565
 21
-0.1975
 31
0
  0
LINE
  8
0
 62
7
 10
5.0565
 20
-0.1975
 30
0
 11
5.0475
 21
-0.2
 31
0
  0
LINE
  8
0
 62
7
 10
5.0475
 20
-0.2
 30
0
 11
5.0385
 21
-0.2
 31
0
  0
LINE
  8
0
 62
7
 10
5.0385
 20
-0.2
 30
0
 11
5.031750000000001
 21
-0.1975
 31
0
  0
LINE
  8
0
 62
7
 10
5.031750000000001
 20
-0.1975
 30
0
 11
5.025
 21
-0.1925
 31
0
  0
LINE
  8
0
 62
7
 10
5.025
 20
-0.1925
 30
0
 11
5.018250000000001
 21
-0.1825
 31
0
  0
LINE
  8
0
 62
7
 10
5.018250000000001
 20
-0.1825
 30
0
 11
5.016000000000001
 21
-0.175
 31
0
  0
LINE
  8
0
 62
7
 10
5.016000000000001
 20
-0.175
 30
0
 11
5.016000000000001
 21
-0.165
 31
0
  0
LINE
  8
0
 62
7
 10
5.016000000000001
 20
-0.155
 30
0
 11
5.018250000000001
 21
-0.1475
 31
0
  0
LINE
  8
0
 62
7
 10
5.018250000000001
 20
-0.1475
 30
0
 11
5.025
 21
-0.1375
 31
0
  0
LINE
  8
0
 62
7
 10
5.025
 20
-0.1375
 30
0
 11
5.031750000000001
 21
-0.1325
 31
0
  0
LINE
  8
0
 62
7
 10
5.031750000000001
 20
-0.1325
 30
0
 11
5.0385
 21
-0.13
 31
0
  0
LINE
  8
0
 62
7
 10
5.0385
 20
-0.13
 30
0
 11
5.0475
 21
-0.13
 31
0
  0
LINE
  8
0
 62
7
 10
5.0475
 20
-0.13
 30
0
 11
5.054250000000001
 21
-0.1325
 31
0
  0
LINE
  8
0
 62
7
 10
5.054250000000001
 20
-0.1325
 30
0
 11
5.061
 21
-0.1375
 31
0
  0
LINE
  8
0
 62
7
 10
5.061
 20
-0.1375
 30
0
 11
5.06775
 21
-0.1475
 31
0
  0
LINE
  8
0
 62
7
 10
5.06775
 20
-0.1475
 30
0
 11
5.07
 21
-0.155
 31
0
  0
LINE
  8
0
 62
7
 10
5.07
 20
-0.155
 30
0
 11
5.07
 21
-0.165
 31
0
  0
LINE
  8
0
 62
7
 10
5.07
 20
-0.165
 30
0
 11
5.016000000000001
 21
-0.165
 31
0
  0
LINE
  8
0
 62
7
 10
5.016000000000001
 20
-0.165
 30
0
 11
5.016000000000001
 21
-0.155
 31
0
  0
LINE
  8
0
 62
7
 10
5.088000000000001
 20
-0.1
 30
0
 11
5.088000000000001
 21
-0.105
 31
0
  0
LINE
  8
0
 62
7
 10
5.088000000000001
 20
-0.13
 30
0
 11
5.088000000000001
 21
-0.2
 31
0
  0
LINE
  8
0
 62
7
 10
5.178000000000001
 20
-0.1
 30
0
 11
5.178000000000001
 21
-0.15
 31
0
  0
LINE
  8
0
 62
7
 10
5.178000000000001
 20
-0.15
 30
0
 11
5.241000000000001
 21
-0.15
 31
0
  0
LINE
  8
0
 62
7
 10
5.241000000000001
 20
-0.1
 30
0
 11
5.241000000000001
 21
-0.15
 31
0
  0
LINE
  8
0
 62
7
 10
5.241000000000001
 20
-0.15
 30
0
 11
5.241000000000001
 21
-0.2
 31
0
  0
LINE
  8
0
 62
7
 10
5.178000000000001
 20
-0.15
 30
0
 11
5.178000000000001
 21
-0.2
 31
0
  0
LINE
  8
0
 62
7
 10
5.322
 20
-0.155
 30
0
 11
5.31975
 21
-0.1475
 31
0
  0
LINE
  8
0
 62
7
 10
5.31975
 20
-0.1475
 30
0
 11
5.313000000000001
 21
-0.1375
 31
0
  0
LINE
  8
0
 62
7
 10
5.313000000000001
 20
-0.1375
 30
0
 11
5.30625
 21
-0.1325
 31
0
  0
LINE
  8
0
 62
7
 10
5.30625
 20
-0.1325
 30
0
 11
5.299500000000001
 21
-0.13
 31
0
  0
LINE
  8
0
 62
7
 10
5.299500000000001
 20
-0.13
 30
0
 11
5.290500000000002
 21
-0.13
 31
0
  0
LINE
  8
0
 62
7
 10
5.290500000000002
 20
-0.13
 30
0
 11
5.28375
 21
-0.1325
 31
0
  0
LINE
  8
0
 62
7
 10
5.28375
 20
-0.1325
 30
0
 11
5.277000000000001
 21
-0.1375
 31
0
  0
LINE
  8
0
 62
7
 10
5.277000000000001
 20
-0.1375
 30
0
 11
5.270250000000001
 21
-0.1475
 31
0
  0
LINE
  8
0
 62
7
 10
5.270250000000001
 20
-0.1475
 30
0
 11
5.268000000000001
 21
-0.155
 31
0
  0
LINE
  8
0
 62
7
 10
5.268000000000001
 20
-0.155
 30
0
 11
5.268000000000001
 21
-0.175
 31
0
  0
LINE
  8
0
 62
7
 10
5.268000000000001
 20
-0.175
 30
0
 11
5.270250000000001
 21
-0.1825
 31
0
  0
LINE
  8
0
 62
7
 10
5.270250000000001
 20
-0.1825
 30
0
 11
5.277000000000001
 21
-0.1925
 31
0
  0
LINE
  8
0
 62
7
 10
5.277000000000001
 20
-0.1925
 30
0
 11
5.28375
 21
-0.1975
 31
0
  0
LINE
  8
0
 62
7
 10
5.28375
 20
-0.1975
 30
0
 11
5.290500000000002
 21
-0.2
 31
0
  0
LINE
  8
0
 62
7
 10
5.290500000000002
 20
-0.2
 30
0
 11
5.299500000000001
 21
-0.2
 31
0
  0
LINE
  8
0
 62
7
 10
5.299500000000001
 20
-0.2
 30
0
 11
5.30625
 21
-0.1975
 31
0
  0
LINE
  8
0
 62
7
 10
5.30625
 20
-0.1975
 30
0
 11
5.313000000000001
 21
-0.1925
 31
0
  0
LINE
  8
0
 62
7
 10
5.313000000000001
 20
-0.1925
 30
0
 11
5.31975
 21
-0.1825
 31
0
  0
LINE
  8
0
 62
7
 10
5.31975
 20
-0.1825
 30
0
 11
5.322
 21
-0.175
 31
0
  0
LINE
  8
0
 62
7
 10
5.322
 20
-0.175
 30
0
 11
5.322
 21
-0.155
 31
0
  0
LINE
  8
0
 62
7
 10
5.34
 20
-0.1
 30
0
 11
5.34
 21
-0.185
 31
0
  0
LINE
  8
0
 62
7
 10
5.34
 20
-0.185
 30
0
 11
5.34225
 21
-0.1975
 31
0
  0
LINE
  8
0
 62
7
 10
5.34225
 20
-0.1975
 30
0
 11
5.346750000000001
 21
-0.2
 31
0
  0
LINE
  8
0
 62
7
 10
5.346750000000001
 20
-0.2
 30
0
 11
5.349
 21
-0.2
 31
0
  0
LINE
  8
0
 62
7
 10
5.367000000000001
 20
-0.13
 30
0
 11
5.421
 21
-0.13
 31
0
  0
LINE
  8
0
 62
7
 10
5.421
 20
-0.13
 30
0
 11
5.367000000000001
 21
-0.2
 31
0
  0
LINE
  8
0
 62
7
 10
5.367000000000001
 20
-0.2
 30
0
 11
5.421
 21
-0.2
 31
0
  0
LINE
  8
0
 62
7
 10
5.502000000000001
 20
-0.145
 30
0
 11
5.4975
 21
-0.1375
 31
0
  0
LINE
  8
0
 62
7
 10
5.4975
 20
-0.1375
 30
0
 11
5.49075
 21
-0.1325
 31
0
  0
LINE
  8
0
 62
7
 10
5.49075
 20
-0.1325
 30
0
 11
5.479500000000001
 21
-0.13
 31
0
  0
LINE
  8
0
 62
7
 10
5.479500000000001
 20
-0.13
 30
0
 11
5.470500000000001
 21
-0.13
 31
0
  0
LINE
  8
0
 62
7
 10
5.470500000000001
 20
-0.13
 30
0
 11
5.461500000000001
 21
-0.1325
 31
0
  0
LINE
  8
0
 62
7
 10
5.461500000000001
 20
-0.1325
 30
0
 11
5.454750000000001
 21
-0.1375
 31
0
  0
LINE
  8
0
 62
7
 10
5.454750000000001
 20
-0.1375
 30
0
 11
5.45025
 21
-0.1425
 31
0
  0
LINE
  8
0
 62
7
 10
5.45025
 20
-0.1425
 30
0
 11
5.448000000000001
 21
-0.1475
 31
0
  0
LINE
  8
0
 62
7
 10
5.448000000000001
 20
-0.1475
 30
0
 11
5.448000000000001
 21
-0.1525
 31
0
  0
LINE
  8
0
 62
7
 10
5.448000000000001
 20
-0.1525
 30
0
 11
5.45025
 21
-0.1575
 31
0
  0
LINE
  8
0
 62
7
 10
5.45025
 20
-0.1575
 30
0
 11
5.454750000000001
 21
-0.16
 31
0
  0
LINE
  8
0
 62
7
 10
5.454750000000001
 20
-0.16
 30
0
 11
5.49525
 21
-0.17
 31
0
  0
LINE
  8
0
 62
7
 10
5.49525
 20
-0.17
 30
0
 11
5.499750000000001
 21
-0.1725
 31
0
  0
LINE
  8
0
 62
7
 10
5.499750000000001
 20
-0.1725
 30
0
 11
5.502000000000001
 21
-0.1775
 31
0
  0
LINE
  8
0
 62
7
 10
5.502000000000001
 20
-0.1775
 30
0
 11
5.502000000000001
 21
-0.1825
 31
0
  0
LINE
  8
0
 62
7
 10
5.502000000000001
 20
-0.1825
 30
0
 11
5.499750000000001
 21
-0.1875
 31
0
  0
LINE
  8
0
 62
7
 10
5.499750000000001
 20
-0.1875
 30
0
 11
5.49525
 21
-0.1925
 31
0
  0
LINE
  8
0
 62
7
 10
5.49525
 20
-0.1925
 30
0
 11
5.4885
 21
-0.1975
 31
0
  0
LINE
  8
0
 62
7
 10
5.4885
 20
-0.1975
 30
0
 11
5.479500000000001
 21
-0.2
 31
0
  0
LINE
  8
0
 62
7
 10
5.479500000000001
 20
-0.2
 30
0
 11
5.470500000000001
 21
-0.2
 31
0
  0
LINE
  8
0
 62
7
 10
5.470500000000001
 20
-0.2
 30
0
 11
5.459250000000001
 21
-0.1975
 31
0
  0
LINE
  8
0
 62
7
 10
5.459250000000001
 20
-0.1975
 30
0
 11
5.452500000000001
 21
-0.1925
 31
0
  0
LINE
  8
0
 62
7
 10
5.452500000000001
 20
-0.1925
 30
0
 11
5.448000000000001
 21
-0.185
 31
0
  0
LINE
  8
0
 62
7
 10
5.529
 20
-0.1
 30
0
 11
5.529
 21
-0.185
 31
0
  0
LINE
  8
0
 62
7
 10
5.529
 20
-0.185
 30
0
 11
5.53125
 21
-0.1975
 31
0
  0
LINE
  8
0
 62
7
 10
5.53125
 20
-0.1975
 30
0
 11
5.53575
 21
-0.2
 31
0
  0
LINE
  8
0
 62
7
 10
5.53575
 20
-0.2
 30
0
 11
5.538000000000001
 21
-0.2
 31
0
  0
LINE
  8
0
 62
7
 10
5.52
 20
-0.13
 30
0
 11
5.538000000000001
 21
-0.13
 31
0
  0
LINE
  8
0
 62
7
 10
5.61
 20
-0.13
 30
0
 11
5.61
 21
-0.175
 31
0
  0
LINE
  8
0
 62
7
 10
5.556000000000001
 20
-0.13
 30
0
 11
5.556000000000001
 21
-0.175
 31
0
  0
LINE
  8
0
 62
7
 10
5.556000000000001
 20
-0.175
 30
0
 11
5.558250000000001
 21
-0.1825
 31
0
  0
LINE
  8
0
 62
7
 10
5.558250000000001
 20
-0.1825
 30
0
 11
5.565
 21
-0.1925
 31
0
  0
LINE
  8
0
 62
7
 10
5.565
 20
-0.1925
 30
0
 11
5.571750000000002
 21
-0.1975
 31
0
  0
LINE
  8
0
 62
7
 10
5.571750000000002
 20
-0.1975
 30
0
 11
5.578500000000001
 21
-0.2
 31
0
  0
LINE
  8
0
 62
7
 10
5.578500000000001
 20
-0.2
 30
0
 11
5.5875
 21
-0.2
 31
0
  0
LINE
  8
0
 62
7
 10
5.5875
 20
-0.2
 30
0
 11
5.594250000000001
 21
-0.1975
 31
0
  0
LINE
  8
0
 62
7
 10
5.594250000000001
 20
-0.1975
 30
0
 11
5.601
 21
-0.1925
 31
0
  0
LINE
  8
0
 62
7
 10
5.601
 20
-0.1925
 30
0
 11
5.60775
 21
-0.1825
 31
0
  0
LINE
  8
0
 62
7
 10
5.60775
 20
-0.1825
 30
0
 11
5.61
 21
-0.175
 31
0
  0
LINE
  8
0
 62
7
 10
5.61
 20
-0.175
 30
0
 11
5.61
 21
-0.2
 31
0
  0
LINE
  8
0
 62
7
 10
5.628000000000001
 20
-0.135
 30
0
 11
5.655000000000001
 21
-0.135
 31
0
  0
LINE
  8
0
 62
7
 10
5.637
 20
-0.2
 30
0
 11
5.637
 21
-0.1175
 31
0
  0
LINE
  8
0
 62
7
 10
5.637
 20
-0.1175
 30
0
 11
5.639250000000001
 21
-0.1075
 31
0
  0
LINE
  8
0
 62
7
 10
5.639250000000001
 20
-0.1075
 30
0
 11
5.643750000000001
 21
-0.1025
 31
0
  0
LINE
  8
0
 62
7
 10
5.643750000000001
 20
-0.1025
 30
0
 11
5.650500000000001
 21
-0.1
 31
0
  0
LINE
  8
0
 62
7
 10
5.650500000000001
 20
-0.1
 30
0
 11
5.655000000000001
 21
-0.1
 31
0
  0
LINE
  8
0
 62
7
 10
5.727
 20
-0.1825
 30
0
 11
5.72025
 21
-0.1925
 31
0
  0
LINE
  8
0
 62
7
 10
5.72025
 20
-0.1925
 30
0
 11
5.7135
 21
-0.1975
 31
0
  0
LINE
  8
0
 62
7
 10
5.7135
 20
-0.1975
 30
0
 11
5.7045
 21
-0.2
 31
0
  0
LINE
  8
0
 62
7
 10
5.7045
 20
-0.2
 30
0
 11
5.695500000000002
 21
-0.2
 31
0
  0
LINE
  8
0
 62
7
 10
5.695500000000002
 20
-0.2
 30
0
 11
5.688750000000001
 21
-0.1975
 31
0
  0
LINE
  8
0
 62
7
 10
5.688750000000001
 20
-0.1975
 30
0
 11
5.682
 21
-0.1925
 31
0
  0
LINE
  8
0
 62
7
 10
5.682
 20
-0.1925
 30
0
 11
5.67525
 21
-0.1825
 31
0
  0
LINE
  8
0
 62
7
 10
5.67525
 20
-0.1825
 30
0
 11
5.673000000000002
 21
-0.175
 31
0
  0
LINE
  8
0
 62
7
 10
5.673000000000002
 20
-0.175
 30
0
 11
5.673000000000002
 21
-0.165
 31
0
  0
LINE
  8
0
 62
7
 10
5.673000000000002
 20
-0.155
 30
0
 11
5.67525
 21
-0.1475
 31
0
  0
LINE
  8
0
 62
7
 10
5.67525
 20
-0.1475
 30
0
 11
5.682
 21
-0.1375
 31
0
  0
LINE
  8
0
 62
7
 10
5.682
 20
-0.1375
 30
0
 11
5.688750000000001
 21
-0.1325
 31
0
  0
LINE
  8
0
 62
7
 10
5.688750000000001
 20
-0.1325
 30
0
 11
5.695500000000002
 21
-0.13
 31
0
  0
LINE
  8
0
 62
7
 10
5.695500000000002
 20
-0.13
 30
0
 11
5.7045
 21
-0.13
 31
0
  0
LINE
  8
0
 62
7
 10
5.7045
 20
-0.13
 30
0
 11
5.711250000000001
 21
-0.1325
 31
0
  0
LINE
  8
0
 62
7
 10
5.711250000000001
 20
-0.1325
 30
0
 11
5.718000000000001
 21
-0.1375
 31
0
  0
LINE
  8
0
 62
7
 10
5.718000000000001
 20
-0.1375
 30
0
 11
5.72475
 21
-0.1475
 31
0
  0
LINE
  8
0
 62
7
 10
5.72475
 20
-0.1475
 30
0
 11
5.727
 21
-0.155
 31
0
  0
LINE
  8
0
 62
7
 10
5.727
 20
-0.155
 30
0
 11
5.727
 21
-0.165
 31
0
  0
LINE
  8
0
 62
7
 10
5.727
 20
-0.165
 30
0
 11
5.673000000000002
 21
-0.165
 31
0
  0
LINE
  8
0
 62
7
 10
5.673000000000002
 20
-0.165
 30
0
 11
5.673000000000002
 21
-0.155
 31
0
  0
LINE
  8
0
 62
7
 10
5.745000000000001
 20
-0.155
 30
0
 11
5.747250000000001
 21
-0.1475
 31
0
  0
LINE
  8
0
 62
7
 10
5.747250000000001
 20
-0.1475
 30
0
 11
5.754
 21
-0.1375
 31
0
  0
LINE
  8
0
 62
7
 10
5.754
 20
-0.1375
 30
0
 11
5.760750000000001
 21
-0.1325
 31
0
  0
LINE
  8
0
 62
7
 10
5.760750000000001
 20
-0.1325
 30
0
 11
5.767500000000001
 21
-0.13
 31
0
  0
LINE
  8
0
 62
7
 10
5.767500000000001
 20
-0.13
 30
0
 11
5.7765
 21
-0.13
 31
0
  0
LINE
  8
0
 62
7
 10
5.7765
 20
-0.13
 30
0
 11
5.783250000000001
 21
-0.1325
 31
0
  0
LINE
  8
0
 62
7
 10
5.783250000000001
 20
-0.1325
 30
0
 11
5.79
 21
-0.1375
 31
0
  0
LINE
  8
0
 62
7
 10
5.79
 20
-0.1375
 30
0
 11
5.796750000000001
 21
-0.1475
 31
0
  0
LINE
  8
0
 62
7
 10
5.796750000000001
 20
-0.1475
 30
0
 11
5.799
 21
-0.155
 31
0
  0
LINE
  8
0
 62
7
 10
5.799
 20
-0.155
 30
0
 11
5.799
 21
-0.2
 31
0
  0
LINE
  8
0
 62
7
 10
5.745000000000001
 20
-0.13
 30
0
 11
5.745000000000001
 21
-0.155
 31
0
  0
LINE
  8
0
 62
7
 10
5.745000000000001
 20
-0.155
 30
0
 11
5.745000000000001
 21
-0.2
 31
0
  0
LINE
  8
0
 62
7
 10
3.9
 20
-0.35
 30
0
 11
3.9
 21
-0.25
 31
0
  0
LINE
  8
0
 62
7
 10
3.9
 20
-0.25
 30
0
 11
3.963000000000001
 21
-0.35
 31
0
  0
LINE
  8
0
 62
7
 10
3.963000000000001
 20
-0.35
 30
0
 11
3.963000000000001
 21
-0.25
 31
0
  0
LINE
  8
0
 62
7
 10
4.044
 20
-0.35
 30
0
 11
3.99
 21
-0.35
 31
0
  0
LINE
  8
0
 62
7
 10
3.99
 20
-0.35
 30
0
 11
3.99
 21
-0.25
 31
0
  0
LINE
  8
0
 62
7
 10
4.071000000000001
 20
-0.3
 30
0
 11
4.107
 21
-0.3
 31
0
  0
LINE
  8
0
 62
7
 10
4.107
 20
-0.3
 30
0
 11
4.1115
 21
-0.3
 31
0
  0
LINE
  8
0
 62
7
 10
4.1115
 20
-0.3
 30
0
 11
4.1205
 21
-0.305
 31
0
  0
LINE
  8
0
 62
7
 10
4.1205
 20
-0.305
 30
0
 11
4.125
 21
-0.3100000000000001
 31
0
  0
LINE
  8
0
 62
7
 10
4.125
 20
-0.3100000000000001
 30
0
 11
4.1295
 21
-0.3200000000000001
 31
0
  0
LINE
  8
0
 62
7
 10
4.1295
 20
-0.3200000000000001
 30
0
 11
4.1295
 21
-0.3300000000000001
 31
0
  0
LINE
  8
0
 62
7
 10
4.1295
 20
-0.3300000000000001
 30
0
 11
4.125
 21
-0.34
 31
0
  0
LINE
  8
0
 62
7
 10
4.125
 20
-0.34
 30
0
 11
4.1205
 21
-0.345
 31
0
  0
LINE
  8
0
 62
7
 10
4.1205
 20
-0.345
 30
0
 11
4.1115
 21
-0.35
 31
0
  0
LINE
  8
0
 62
7
 10
4.1115
 20
-0.35
 30
0
 11
4.071000000000001
 21
-0.35
 31
0
  0
LINE
  8
0
 62
7
 10
4.071000000000001
 20
-0.35
 30
0
 11
4.071000000000001
 21
-0.3
 31
0
  0
LINE
  8
0
 62
7
 10
4.071000000000001
 20
-0.25
 30
0
 11
4.10475
 21
-0.25
 31
0
  0
LINE
  8
0
 62
7
 10
4.10475
 20
-0.25
 30
0
 11
4.116000000000001
 21
-0.2525
 31
0
  0
LINE
  8
0
 62
7
 10
4.116000000000001
 20
-0.2525
 30
0
 11
4.12275
 21
-0.26
 31
0
  0
LINE
  8
0
 62
7
 10
4.12275
 20
-0.26
 30
0
 11
4.125
 21
-0.27
 31
0
  0
LINE
  8
0
 62
7
 10
4.125
 20
-0.27
 30
0
 11
4.125
 21
-0.28
 31
0
  0
LINE
  8
0
 62
7
 10
4.125
 20
-0.28
 30
0
 11
4.1205
 21
-0.29
 31
0
  0
LINE
  8
0
 62
7
 10
4.1205
 20
-0.29
 30
0
 11
4.11375
 21
-0.2975
 31
0
  0
LINE
  8
0
 62
7
 10
4.11375
 20
-0.2975
 30
0
 11
4.107
 21
-0.3
 31
0
  0
LINE
  8
0
 62
7
 10
4.071000000000001
 20
-0.3
 30
0
 11
4.071000000000001
 21
-0.25
 31
0
  0
LINE
  8
0
 62
7
 10
4.27125
 20
-0.2975
 30
0
 11
4.264500000000001
 21
-0.2875
 31
0
  0
LINE
  8
0
 62
7
 10
4.264500000000001
 20
-0.2875
 30
0
 11
4.257750000000001
 21
-0.2825
 31
0
  0
LINE
  8
0
 62
7
 10
4.257750000000001
 20
-0.2825
 30
0
 11
4.251
 21
-0.28
 31
0
  0
LINE
  8
0
 62
7
 10
4.251
 20
-0.28
 30
0
 11
4.242
 21
-0.28
 31
0
  0
LINE
  8
0
 62
7
 10
4.242
 20
-0.28
 30
0
 11
4.23525
 21
-0.2825
 31
0
  0
LINE
  8
0
 62
7
 10
4.23525
 20
-0.2825
 30
0
 11
4.2285
 21
-0.2875
 31
0
  0
LINE
  8
0
 62
7
 10
4.2285
 20
-0.2875
 30
0
 11
4.22175
 21
-0.2975
 31
0
  0
LINE
  8
0
 62
7
 10
4.22175
 20
-0.2975
 30
0
 11
4.2195
 21
-0.305
 31
0
  0
LINE
  8
0
 62
7
 10
4.2195
 20
-0.305
 30
0
 11
4.2195
 21
-0.325
 31
0
  0
LINE
  8
0
 62
7
 10
4.2195
 20
-0.325
 30
0
 11
4.22175
 21
-0.3325
 31
0
  0
LINE
  8
0
 62
7
 10
4.22175
 20
-0.3325
 30
0
 11
4.2285
 21
-0.3425
 31
0
  0
LINE
  8
0
 62
7
 10
4.2285
 20
-0.3425
 30
0
 11
4.23525
 21
-0.3475
 31
0
  0
LINE
  8
0
 62
7
 10
4.23525
 20
-0.3475
 30
0
 11
4.242
 21
-0.35
 31
0
  0
LINE
  8
0
 62
7
 10
4.242
 20
-0.35
 30
0
 11
4.251
 21
-0.35
 31
0
  0
LINE
  8
0
 62
7
 10
4.251
 20
-0.35
 30
0
 11
4.257750000000001
 21
-0.3475
 31
0
  0
LINE
  8
0
 62
7
 10
4.257750000000001
 20
-0.3475
 30
0
 11
4.264500000000001
 21
-0.3425
 31
0
  0
LINE
  8
0
 62
7
 10
4.264500000000001
 20
-0.3425
 30
0
 11
4.27125
 21
-0.3325
 31
0
  0
LINE
  8
0
 62
7
 10
4.34325
 20
-0.305
 30
0
 11
4.341
 21
-0.2975
 31
0
  0
LINE
  8
0
 62
7
 10
4.341
 20
-0.2975
 30
0
 11
4.33425
 21
-0.2875
 31
0
  0
LINE
  8
0
 62
7
 10
4.33425
 20
-0.2875
 30
0
 11
4.3275
 21
-0.2825
 31
0
  0
LINE
  8
0
 62
7
 10
4.3275
 20
-0.2825
 30
0
 11
4.32075
 21
-0.28
 31
0
  0
LINE
  8
0
 62
7
 10
4.32075
 20
-0.28
 30
0
 11
4.31175
 21
-0.28
 31
0
  0
LINE
  8
0
 62
7
 10
4.31175
 20
-0.28
 30
0
 11
4.305000000000001
 21
-0.2825
 31
0
  0
LINE
  8
0
 62
7
 10
4.305000000000001
 20
-0.2825
 30
0
 11
4.29825
 21
-0.2875
 31
0
  0
LINE
  8
0
 62
7
 10
4.29825
 20
-0.2875
 30
0
 11
4.2915
 21
-0.2975
 31
0
  0
LINE
  8
0
 62
7
 10
4.2915
 20
-0.2975
 30
0
 11
4.28925
 21
-0.305
 31
0
  0
LINE
  8
0
 62
7
 10
4.28925
 20
-0.305
 30
0
 11
4.28925
 21
-0.325
 31
0
  0
LINE
  8
0
 62
7
 10
4.28925
 20
-0.325
 30
0
 11
4.2915
 21
-0.3325
 31
0
  0
LINE
  8
0
 62
7
 10
4.2915
 20
-0.3325
 30
0
 11
4.29825
 21
-0.3425
 31
0
  0
LINE
  8
0
 62
7
 10
4.29825
 20
-0.3425
 30
0
 11
4.305000000000001
 21
-0.3475
 31
0
  0
LINE
  8
0
 62
7
 10
4.305000000000001
 20
-0.3475
 30
0
 11
4.31175
 21
-0.35
 31
0
  0
LINE
  8
0
 62
7
 10
4.31175
 20
-0.35
 30
0
 11
4.32075
 21
-0.35
 31
0
  0
LINE
  8
0
 62
7
 10
4.32075
 20
-0.35
 30
0
 11
4.3275
 21
-0.3475
 31
0
  0
LINE
  8
0
 62
7
 10
4.3275
 20
-0.3475
 30
0
 11
4.33425
 21
-0.3425
 31
0
  0
LINE
  8
0
 62
7
 10
4.33425
 20
-0.3425
 30
0
 11
4.341
 21
-0.3325
 31
0
  0
LINE
  8
0
 62
7
 10
4.341
 20
-0.3325
 30
0
 11
4.34325
 21
-0.325
 31
0
  0
LINE
  8
0
 62
7
 10
4.34325
 20
-0.28
 30
0
 11
4.34325
 21
-0.305
 31
0
  0
LINE
  8
0
 62
7
 10
4.34325
 20
-0.3475
 30
0
 11
4.3455
 21
-0.35
 31
0
  0
LINE
  8
0
 62
7
 10
4.3455
 20
-0.35
 30
0
 11
4.34775
 21
-0.35
 31
0
  0
LINE
  8
0
 62
7
 10
4.34325
 20
-0.325
 30
0
 11
4.34325
 21
-0.3475
 31
0
  0
LINE
  8
0
 62
7
 10
4.34325
 20
-0.305
 30
0
 11
4.34325
 21
-0.325
 31
0
  0
LINE
  8
0
 62
7
 10
4.36575
 20
-0.35
 30
0
 11
4.36575
 21
-0.3475
 31
0
  0
LINE
  8
0
 62
7
 10
4.36575
 20
-0.3475
 30
0
 11
4.368
 21
-0.3475
 31
0
  0
LINE
  8
0
 62
7
 10
4.368
 20
-0.3475
 30
0
 11
4.368
 21
-0.35
 31
0
  0
LINE
  8
0
 62
7
 10
4.368
 20
-0.35
 30
0
 11
4.36575
 21
-0.35
 31
0
  0
LINE
  8
0
 62
7
 10
4.469250000000001
 20
-0.3100000000000001
 30
0
 11
4.471500000000001
 21
-0.3
 31
0
  0
LINE
  8
0
 62
7
 10
4.471500000000001
 20
-0.3
 30
0
 11
4.476
 21
-0.2925
 31
0
  0
LINE
  8
0
 62
7
 10
4.476
 20
-0.2925
 30
0
 11
4.48275
 21
-0.2875
 31
0
  0
LINE
  8
0
 62
7
 10
4.48275
 20
-0.2875
 30
0
 11
4.4895
 21
-0.285
 31
0
  0
LINE
  8
0
 62
7
 10
4.4895
 20
-0.285
 30
0
 11
4.503
 21
-0.285
 31
0
  0
LINE
  8
0
 62
7
 10
4.503
 20
-0.285
 30
0
 11
4.50975
 21
-0.2875
 31
0
  0
LINE
  8
0
 62
7
 10
4.50975
 20
-0.2875
 30
0
 11
4.5165
 21
-0.2925
 31
0
  0
LINE
  8
0
 62
7
 10
4.5165
 20
-0.2925
 30
0
 11
4.521
 21
-0.3
 31
0
  0
LINE
  8
0
 62
7
 10
4.521
 20
-0.3
 30
0
 11
4.52325
 21
-0.3100000000000001
 31
0
  0
LINE
  8
0
 62
7
 10
4.52325
 20
-0.3100000000000001
 30
0
 11
4.52325
 21
-0.325
 31
0
  0
LINE
  8
0
 62
7
 10
4.52325
 20
-0.325
 30
0
 11
4.521
 21
-0.335
 31
0
  0
LINE
  8
0
 62
7
 10
4.521
 20
-0.335
 30
0
 11
4.5165
 21
-0.3425
 31
0
  0
LINE
  8
0
 62
7
 10
4.5165
 20
-0.3425
 30
0
 11
4.50975
 21
-0.3475
 31
0
  0
LINE
  8
0
 62
7
 10
4.50975
 20
-0.3475
 30
0
 11
4.503
 21
-0.35
 31
0
  0
LINE
  8
0
 62
7
 10
4.503
 20
-0.35
 30
0
 11
4.4895
 21
-0.35
 31
0
  0
LINE
  8
0
 62
7
 10
4.4895
 20
-0.35
 30
0
 11
4.48275
 21
-0.3475
 31
0
  0
LINE
  8
0
 62
7
 10
4.48275
 20
-0.3475
 30
0
 11
4.476
 21
-0.3425
 31
0
  0
LINE
  8
0
 62
7
 10
4.476
 20
-0.3425
 30
0
 11
4.471500000000001
 21
-0.335
 31
0
  0
LINE
  8
0
 62
7
 10
4.471500000000001
 20
-0.335
 30
0
 11
4.469250000000001
 21
-0.325
 31
0
  0
LINE
  8
0
 62
7
 10
4.469250000000001
 20
-0.325
 30
0
 11
4.469250000000001
 21
-0.3100000000000001
 31
0
  0
LINE
  8
0
 62
7
 10
4.469250000000001
 20
-0.275
 30
0
 11
4.471500000000001
 21
-0.265
 31
0
  0
LINE
  8
0
 62
7
 10
4.471500000000001
 20
-0.265
 30
0
 11
4.476
 21
-0.2575
 31
0
  0
LINE
  8
0
 62
7
 10
4.476
 20
-0.2575
 30
0
 11
4.48275
 21
-0.2525
 31
0
  0
LINE
  8
0
 62
7
 10
4.48275
 20
-0.2525
 30
0
 11
4.4895
 21
-0.25
 31
0
  0
LINE
  8
0
 62
7
 10
4.4895
 20
-0.25
 30
0
 11
4.503
 21
-0.25
 31
0
  0
LINE
  8
0
 62
7
 10
4.503
 20
-0.25
 30
0
 11
4.50975
 21
-0.2525
 31
0
  0
LINE
  8
0
 62
7
 10
4.50975
 20
-0.2525
 30
0
 11
4.5165
 21
-0.2575
 31
0
  0
LINE
  8
0
 62
7
 10
4.5165
 20
-0.2575
 30
0
 11
4.521
 21
-0.265
 31
0
  0
LINE
  8
0
 62
7
 10
4.469250000000001
 20
-0.3100000000000001
 30
0
 11
4.469250000000001
 21
-0.275
 31
0
  0
LINE
  8
0
 62
7
 10
4.59975
 20
-0.25
 30
0
 11
4.55025
 21
-0.25
 31
0
  0
LINE
  8
0
 62
7
 10
4.55025
 20
-0.25
 30
0
 11
4.55025
 21
-0.3
 31
0
  0
LINE
  8
0
 62
7
 10
4.55025
 20
-0.3
 30
0
 11
4.55475
 21
-0.2925
 31
0
  0
LINE
  8
0
 62
7
 10
4.55475
 20
-0.2925
 30
0
 11
4.561500000000001
 21
-0.2875
 31
0
  0
LINE
  8
0
 62
7
 10
4.561500000000001
 20
-0.2875
 30
0
 11
4.5705
 21
-0.285
 31
0
  0
LINE
  8
0
 62
7
 10
4.5705
 20
-0.285
 30
0
 11
4.584000000000001
 21
-0.285
 31
0
  0
LINE
  8
0
 62
7
 10
4.584000000000001
 20
-0.285
 30
0
 11
4.59075
 21
-0.2875
 31
0
  0
LINE
  8
0
 62
7
 10
4.59075
 20
-0.2875
 30
0
 11
4.5975
 21
-0.2925
 31
0
  0
LINE
  8
0
 62
7
 10
4.5975
 20
-0.2925
 30
0
 11
4.602
 21
-0.3
 31
0
  0
LINE
  8
0
 62
7
 10
4.602
 20
-0.3
 30
0
 11
4.60425
 21
-0.3100000000000001
 31
0
  0
LINE
  8
0
 62
7
 10
4.60425
 20
-0.3100000000000001
 30
0
 11
4.60425
 21
-0.325
 31
0
  0
LINE
  8
0
 62
7
 10
4.60425
 20
-0.325
 30
0
 11
4.602
 21
-0.335
 31
0
  0
LINE
  8
0
 62
7
 10
4.602
 20
-0.335
 30
0
 11
4.5975
 21
-0.3425
 31
0
  0
LINE
  8
0
 62
7
 10
4.5975
 20
-0.3425
 30
0
 11
4.59075
 21
-0.3475
 31
0
  0
LINE
  8
0
 62
7
 10
4.59075
 20
-0.3475
 30
0
 11
4.584000000000001
 21
-0.35
 31
0
  0
LINE
  8
0
 62
7
 10
4.584000000000001
 20
-0.35
 30
0
 11
4.5705
 21
-0.35
 31
0
  0
LINE
  8
0
 62
7
 10
4.5705
 20
-0.35
 30
0
 11
4.561500000000001
 21
-0.3475
 31
0
  0
LINE
  8
0
 62
7
 10
4.561500000000001
 20
-0.3475
 30
0
 11
4.55475
 21
-0.3425
 31
0
  0
LINE
  8
0
 62
7
 10
4.55475
 20
-0.3425
 30
0
 11
4.55025
 21
-0.335
 31
0
  0
LINE
  8
0
 62
7
 10
4.755000000000001
 20
-0.2975
 30
0
 11
4.748250000000001
 21
-0.2875
 31
0
  0
LINE
  8
0
 62
7
 10
4.748250000000001
 20
-0.2875
 30
0
 11
4.7415
 21
-0.2825
 31
0
  0
LINE
  8
0
 62
7
 10
4.7415
 20
-0.2825
 30
0
 11
4.734750000000001
 21
-0.28
 31
0
  0
LINE
  8
0
 62
7
 10
4.734750000000001
 20
-0.28
 30
0
 11
4.725750000000001
 21
-0.28
 31
0
  0
LINE
  8
0
 62
7
 10
4.725750000000001
 20
-0.28
 30
0
 11
4.719
 21
-0.2825
 31
0
  0
LINE
  8
0
 62
7
 10
4.719
 20
-0.2825
 30
0
 11
4.71225
 21
-0.2875
 31
0
  0
LINE
  8
0
 62
7
 10
4.71225
 20
-0.2875
 30
0
 11
4.7055
 21
-0.2975
 31
0
  0
LINE
  8
0
 62
7
 10
4.7055
 20
-0.2975
 30
0
 11
4.70325
 21
-0.305
 31
0
  0
LINE
  8
0
 62
7
 10
4.70325
 20
-0.305
 30
0
 11
4.70325
 21
-0.325
 31
0
  0
LINE
  8
0
 62
7
 10
4.70325
 20
-0.325
 30
0
 11
4.7055
 21
-0.3325
 31
0
  0
LINE
  8
0
 62
7
 10
4.7055
 20
-0.3325
 30
0
 11
4.71225
 21
-0.3425
 31
0
  0
LINE
  8
0
 62
7
 10
4.71225
 20
-0.3425
 30
0
 11
4.719
 21
-0.3475
 31
0
  0
LINE
  8
0
 62
7
 10
4.719
 20
-0.3475
 30
0
 11
4.725750000000001
 21
-0.35
 31
0
  0
LINE
  8
0
 62
7
 10
4.725750000000001
 20
-0.35
 30
0
 11
4.734750000000001
 21
-0.35
 31
0
  0
LINE
  8
0
 62
7
 10
4.734750000000001
 20
-0.35
 30
0
 11
4.7415
 21
-0.3475
 31
0
  0
LINE
  8
0
 62
7
 10
4.7415
 20
-0.3475
 30
0
 11
4.748250000000001
 21
-0.3425
 31
0
  0
LINE
  8
0
 62
7
 10
4.748250000000001
 20
-0.3425
 30
0
 11
4.755000000000001
 21
-0.3325
 31
0
  0
LINE
  8
0
 62
7
 10
4.8135
 20
-0.305
 30
0
 11
4.8135
 21
-0.35
 31
0
  0
LINE
  8
0
 62
7
 10
4.773000000000001
 20
-0.28
 30
0
 11
4.773000000000001
 21
-0.305
 31
0
  0
LINE
  8
0
 62
7
 10
4.773000000000001
 20
-0.35
 30
0
 11
4.773000000000001
 21
-0.305
 31
0
  0
LINE
  8
0
 62
7
 10
4.773000000000001
 20
-0.305
 30
0
 11
4.77525
 21
-0.2925
 31
0
  0
LINE
  8
0
 62
7
 10
4.77525
 20
-0.2925
 30
0
 11
4.7775
 21
-0.2875
 31
0
  0
LINE
  8
0
 62
7
 10
4.7775
 20
-0.2875
 30
0
 11
4.782
 21
-0.2825
 31
0
  0
LINE
  8
0
 62
7
 10
4.782
 20
-0.2825
 30
0
 11
4.78875
 21
-0.28
 31
0
  0
LINE
  8
0
 62
7
 10
4.78875
 20
-0.28
 30
0
 11
4.79775
 21
-0.28
 31
0
  0
LINE
  8
0
 62
7
 10
4.79775
 20
-0.28
 30
0
 11
4.804500000000001
 21
-0.2825
 31
0
  0
LINE
  8
0
 62
7
 10
4.804500000000001
 20
-0.2825
 30
0
 11
4.809000000000001
 21
-0.2875
 31
0
  0
LINE
  8
0
 62
7
 10
4.809000000000001
 20
-0.2875
 30
0
 11
4.811250000000001
 21
-0.2925
 31
0
  0
LINE
  8
0
 62
7
 10
4.811250000000001
 20
-0.2925
 30
0
 11
4.8135
 21
-0.305
 31
0
  0
LINE
  8
0
 62
7
 10
4.8135
 20
-0.305
 30
0
 11
4.81575
 21
-0.2925
 31
0
  0
LINE
  8
0
 62
7
 10
4.81575
 20
-0.2925
 30
0
 11
4.818000000000001
 21
-0.2875
 31
0
  0
LINE
  8
0
 62
7
 10
4.818000000000001
 20
-0.2875
 30
0
 11
4.822500000000001
 21
-0.2825
 31
0
  0
LINE
  8
0
 62
7
 10
4.822500000000001
 20
-0.2825
 30
0
 11
4.829250000000001
 21
-0.28
 31
0
  0
LINE
  8
0
 62
7
 10
4.829250000000001
 20
-0.28
 30
0
 11
4.83825
 21
-0.28
 31
0
  0
LINE
  8
0
 62
7
 10
4.83825
 20
-0.28
 30
0
 11
4.845000000000001
 21
-0.2825
 31
0
  0
LINE
  8
0
 62
7
 10
4.849500000000001
 20
-0.2875
 30
0
 11
4.845000000000001
 21
-0.2825
 31
0
  0
LINE
  8
0
 62
7
 10
4.845000000000001
 20
-0.2825
 30
0
 11
4.849500000000001
 21
-0.2875
 31
0
  0
LINE
  8
0
 62
7
 10
4.849500000000001
 20
-0.2875
 30
0
 11
4.85175
 21
-0.2925
 31
0
  0
LINE
  8
0
 62
7
 10
4.85175
 20
-0.2925
 30
0
 11
4.854
 21
-0.305
 31
0
  0
LINE
  8
0
 62
7
 10
4.854
 20
-0.305
 30
0
 11
4.854
 21
-0.35
 31
0
  0
LINE
  8
0
 62
7
 10
4.944
 20
-0.325
 30
0
 11
4.94625
 21
-0.3325
 31
0
  0
LINE
  8
0
 62
7
 10
4.94625
 20
-0.3325
 30
0
 11
4.953
 21
-0.3425
 31
0
  0
LINE
  8
0
 62
7
 10
4.953
 20
-0.3425
 30
0
 11
4.959750000000001
 21
-0.3475
 31
0
  0
LINE
  8
0
 62
7
 10
4.959750000000001
 20
-0.3475
 30
0
 11
4.9665
 21
-0.35
 31
0
  0
LINE
  8
0
 62
7
 10
4.9665
 20
-0.35
 30
0
 11
4.9755
 21
-0.35
 31
0
  0
LINE
  8
0
 62
7
 10
4.9755
 20
-0.35
 30
0
 11
4.982250000000001
 21
-0.3475
 31
0
  0
LINE
  8
0
 62
7
 10
4.982250000000001
 20
-0.3475
 30
0
 11
4.989000000000001
 21
-0.3425
 31
0
  0
LINE
  8
0
 62
7
 10
4.989000000000001
 20
-0.3425
 30
0
 11
4.995750000000001
 21
-0.3325
 31
0
  0
LINE
  8
0
 62
7
 10
4.995750000000001
 20
-0.3325
 30
0
 11
4.998000000000001
 21
-0.325
 31
0
  0
LINE
  8
0
 62
7
 10
4.998000000000001
 20
-0.325
 30
0
 11
4.998000000000001
 21
-0.305
 31
0
  0
LINE
  8
0
 62
7
 10
4.998000000000001
 20
-0.305
 30
0
 11
4.995750000000001
 21
-0.2975
 31
0
  0
LINE
  8
0
 62
7
 10
4.995750000000001
 20
-0.2975
 30
0
 11
4.989000000000001
 21
-0.2875
 31
0
  0
LINE
  8
0
 62
7
 10
4.989000000000001
 20
-0.2875
 30
0
 11
4.982250000000001
 21
-0.2825
 31
0
  0
LINE
  8
0
 62
7
 10
4.982250000000001
 20
-0.2825
 30
0
 11
4.9755
 21
-0.28
 31
0
  0
LINE
  8
0
 62
7
 10
4.9755
 20
-0.28
 30
0
 11
4.9665
 21
-0.28
 31
0
  0
LINE
  8
0
 62
7
 10
4.9665
 20
-0.28
 30
0
 11
4.959750000000001
 21
-0.2825
 31
0
  0
LINE
  8
0
 62
7
 10
4.959750000000001
 20
-0.2825
 30
0
 11
4.953
 21
-0.2875
 31
0
  0
LINE
  8
0
 62
7
 10
4.953
 20
-0.2875
 30
0
 11
4.94625
 21
-0.2975
 31
0
  0
LINE
  8
0
 62
7
 10
4.94625
 20
-0.2975
 30
0
 11
4.944
 21
-0.305
 31
0
  0
LINE
  8
0
 62
7
 10
4.944
 20
-0.25
 30
0
 11
4.944
 21
-0.305
 31
0
  0
LINE
  8
0
 62
7
 10
4.944
 20
-0.305
 30
0
 11
4.944
 21
-0.35
 31
0
  0
LINE
  8
0
 62
7
 10
5.07
 20
-0.3325
 30
0
 11
5.06325
 21
-0.3425
 31
0
  0
LINE
  8
0
 62
7
 10
5.06325
 20
-0.3425
 30
0
 11
5.0565
 21
-0.3475
 31
0
  0
LINE
  8
0
 62
7
 10
5.0565
 20
-0.3475
 30
0
 11
5.0475
 21
-0.35
 31
0
  0
LINE
  8
0
 62
7
 10
5.0475
 20
-0.35
 30
0
 11
5.0385
 21
-0.35
 31
0
  0
LINE
  8
0
 62
7
 10
5.0385
 20
-0.35
 30
0
 11
5.031750000000001
 21
-0.3475
 31
0
  0
LINE
  8
0
 62
7
 10
5.031750000000001
 20
-0.3475
 30
0
 11
5.025
 21
-0.3425
 31
0
  0
LINE
  8
0
 62
7
 10
5.025
 20
-0.3425
 30
0
 11
5.018250000000001
 21
-0.3325
 31
0
  0
LINE
  8
0
 62
7
 10
5.018250000000001
 20
-0.3325
 30
0
 11
5.016000000000001
 21
-0.325
 31
0
  0
LINE
  8
0
 62
7
 10
5.016000000000001
 20
-0.325
 30
0
 11
5.016000000000001
 21
-0.315
 31
0
  0
LINE
  8
0
 62
7
 10
5.016000000000001
 20
-0.305
 30
0
 11
5.018250000000001
 21
-0.2975
 31
0
  0
LINE
  8
0
 62
7
 10
5.018250000000001
 20
-0.2975
 30
0
 11
5.025
 21
-0.2875
 31
0
  0
LINE
  8
0
 62
7
 10
5.025
 20
-0.2875
 30
0
 11
5.031750000000001
 21
-0.2825
 31
0
  0
LINE
  8
0
 62
7
 10
5.031750000000001
 20
-0.2825
 30
0
 11
5.0385
 21
-0.28
 31
0
  0
LINE
  8
0
 62
7
 10
5.0385
 20
-0.28
 30
0
 11
5.0475
 21
-0.28
 31
0
  0
LINE
  8
0
 62
7
 10
5.0475
 20
-0.28
 30
0
 11
5.054250000000001
 21
-0.2825
 31
0
  0
LINE
  8
0
 62
7
 10
5.054250000000001
 20
-0.2825
 30
0
 11
5.061
 21
-0.2875
 31
0
  0
LINE
  8
0
 62
7
 10
5.061
 20
-0.2875
 30
0
 11
5.06775
 21
-0.2975
 31
0
  0
LINE
  8
0
 62
7
 10
5.06775
 20
-0.2975
 30
0
 11
5.07
 21
-0.305
 31
0
  0
LINE
  8
0
 62
7
 10
5.07
 20
-0.305
 30
0
 11
5.07
 21
-0.315
 31
0
  0
LINE
  8
0
 62
7
 10
5.07
 20
-0.315
 30
0
 11
5.016000000000001
 21
-0.315
 31
0
  0
LINE
  8
0
 62
7
 10
5.016000000000001
 20
-0.315
 30
0
 11
5.016000000000001
 21
-0.305
 31
0
  0
LINE
  8
0
 62
7
 10
5.088000000000001
 20
-0.25
 30
0
 11
5.088000000000001
 21
-0.2550000000000001
 31
0
  0
LINE
  8
0
 62
7
 10
5.088000000000001
 20
-0.28
 30
0
 11
5.088000000000001
 21
-0.35
 31
0
  0
LINE
  8
0
 62
7
 10
5.23875
 20
-0.26
 30
0
 11
5.232
 21
-0.2550000000000001
 31
0
  0
LINE
  8
0
 62
7
 10
5.232
 20
-0.2550000000000001
 30
0
 11
5.22525
 21
-0.2525
 31
0
  0
LINE
  8
0
 62
7
 10
5.22525
 20
-0.2525
 30
0
 11
5.214
 21
-0.25
 31
0
  0
LINE
  8
0
 62
7
 10
5.214
 20
-0.25
 30
0
 11
5.205000000000001
 21
-0.25
 31
0
  0
LINE
  8
0
 62
7
 10
5.205000000000001
 20
-0.25
 30
0
 11
5.196000000000001
 21
-0.2525
 31
0
  0
LINE
  8
0
 62
7
 10
5.196000000000001
 20
-0.2525
 30
0
 11
5.189250000000001
 21
-0.2550000000000001
 31
0
  0
LINE
  8
0
 62
7
 10
5.189250000000001
 20
-0.2550000000000001
 30
0
 11
5.182500000000001
 21
-0.26
 31
0
  0
LINE
  8
0
 62
7
 10
5.182500000000001
 20
-0.26
 30
0
 11
5.180250000000001
 21
-0.2675
 31
0
  0
LINE
  8
0
 62
7
 10
5.180250000000001
 20
-0.2675
 30
0
 11
5.180250000000001
 21
-0.2725
 31
0
  0
LINE
  8
0
 62
7
 10
5.180250000000001
 20
-0.2725
 30
0
 11
5.182500000000001
 21
-0.28
 31
0
  0
LINE
  8
0
 62
7
 10
5.182500000000001
 20
-0.28
 30
0
 11
5.189250000000001
 21
-0.285
 31
0
  0
LINE
  8
0
 62
7
 10
5.189250000000001
 20
-0.285
 30
0
 11
5.2275
 21
-0.3025
 31
0
  0
LINE
  8
0
 62
7
 10
5.2275
 20
-0.3025
 30
0
 11
5.234250000000001
 21
-0.3075000000000001
 31
0
  0
LINE
  8
0
 62
7
 10
5.234250000000001
 20
-0.3075000000000001
 30
0
 11
5.23875
 21
-0.315
 31
0
  0
LINE
  8
0
 62
7
 10
5.23875
 20
-0.315
 30
0
 11
5.241000000000001
 21
-0.3225
 31
0
  0
LINE
  8
0
 62
7
 10
5.241000000000001
 20
-0.3225
 30
0
 11
5.241000000000001
 21
-0.3275
 31
0
  0
LINE
  8
0
 62
7
 10
5.241000000000001
 20
-0.3275
 30
0
 11
5.23875
 21
-0.335
 31
0
  0
LINE
  8
0
 62
7
 10
5.23875
 20
-0.335
 30
0
 11
5.234250000000001
 21
-0.3425
 31
0
  0
LINE
  8
0
 62
7
 10
5.234250000000001
 20
-0.3425
 30
0
 11
5.2275
 21
-0.3475
 31
0
  0
LINE
  8
0
 62
7
 10
5.2275
 20
-0.3475
 30
0
 11
5.21625
 21
-0.35
 31
0
  0
LINE
  8
0
 62
7
 10
5.21625
 20
-0.35
 30
0
 11
5.202750000000001
 21
-0.35
 31
0
  0
LINE
  8
0
 62
7
 10
5.202750000000001
 20
-0.35
 30
0
 11
5.1915
 21
-0.3475
 31
0
  0
LINE
  8
0
 62
7
 10
5.1915
 20
-0.3475
 30
0
 11
5.182500000000001
 21
-0.3425
 31
0
  0
LINE
  8
0
 62
7
 10
5.182500000000001
 20
-0.3425
 30
0
 11
5.178000000000001
 21
-0.3375
 31
0
  0
LINE
  8
0
 62
7
 10
5.268000000000001
 20
-0.25
 30
0
 11
5.268000000000001
 21
-0.335
 31
0
  0
LINE
  8
0
 62
7
 10
5.268000000000001
 20
-0.335
 30
0
 11
5.270250000000001
 21
-0.3475
 31
0
  0
LINE
  8
0
 62
7
 10
5.270250000000001
 20
-0.3475
 30
0
 11
5.274750000000001
 21
-0.35
 31
0
  0
LINE
  8
0
 62
7
 10
5.274750000000001
 20
-0.35
 30
0
 11
5.277000000000001
 21
-0.35
 31
0
  0
LINE
  8
0
 62
7
 10
5.259
 20
-0.28
 30
0
 11
5.277000000000001
 21
-0.28
 31
0
  0
LINE
  8
0
 62
7
 10
5.349
 20
-0.3325
 30
0
 11
5.34225
 21
-0.3425
 31
0
  0
LINE
  8
0
 62
7
 10
5.34225
 20
-0.3425
 30
0
 11
5.335500000000001
 21
-0.3475
 31
0
  0
LINE
  8
0
 62
7
 10
5.335500000000001
 20
-0.3475
 30
0
 11
5.3265
 21
-0.35
 31
0
  0
LINE
  8
0
 62
7
 10
5.3265
 20
-0.35
 30
0
 11
5.317500000000001
 21
-0.35
 31
0
  0
LINE
  8
0
 62
7
 10
5.317500000000001
 20
-0.35
 30
0
 11
5.310750000000001
 21
-0.3475
 31
0
  0
LINE
  8
0
 62
7
 10
5.310750000000001
 20
-0.3475
 30
0
 11
5.304
 21
-0.3425
 31
0
  0
LINE
  8
0
 62
7
 10
5.304
 20
-0.3425
 30
0
 11
5.297250000000001
 21
-0.3325
 31
0
  0
LINE
  8
0
 62
7
 10
5.297250000000001
 20
-0.3325
 30
0
 11
5.295000000000001
 21
-0.325
 31
0
  0
LINE
  8
0
 62
7
 10
5.295000000000001
 20
-0.325
 30
0
 11
5.295000000000001
 21
-0.315
 31
0
  0
LINE
  8
0
 62
7
 10
5.295000000000001
 20
-0.305
 30
0
 11
5.297250000000001
 21
-0.2975
 31
0
  0
LINE
  8
0
 62
7
 10
5.297250000000001
 20
-0.2975
 30
0
 11
5.304
 21
-0.2875
 31
0
  0
LINE
  8
0
 62
7
 10
5.304
 20
-0.2875
 30
0
 11
5.310750000000001
 21
-0.2825
 31
0
  0
LINE
  8
0
 62
7
 10
5.310750000000001
 20
-0.2825
 30
0
 11
5.317500000000001
 21
-0.28
 31
0
  0
LINE
  8
0
 62
7
 10
5.317500000000001
 20
-0.28
 30
0
 11
5.3265
 21
-0.28
 31
0
  0
LINE
  8
0
 62
7
 10
5.3265
 20
-0.28
 30
0
 11
5.33325
 21
-0.2825
 31
0
  0
LINE
  8
0
 62
7
 10
5.33325
 20
-0.2825
 30
0
 11
5.34
 21
-0.2875
 31
0
  0
LINE
  8
0
 62
7
 10
5.34
 20
-0.2875
 30
0
 11
5.346750000000001
 21
-0.2975
 31
0
  0
LINE
  8
0
 62
7
 10
5.346750000000001
 20
-0.2975
 30
0
 11
5.349
 21
-0.305
 31
0
  0
LINE
  8
0
 62
7
 10
5.349
 20
-0.305
 30
0
 11
5.349
 21
-0.315
 31
0
  0
LINE
  8
0
 62
7
 10
5.349
 20
-0.315
 30
0
 11
5.295000000000001
 21
-0.315
 31
0
  0
LINE
  8
0
 62
7
 10
5.295000000000001
 20
-0.315
 30
0
 11
5.295000000000001
 21
-0.305
 31
0
  0
LINE
  8
0
 62
7
 10
5.367000000000001
 20
-0.25
 30
0
 11
5.367000000000001
 21
-0.2550000000000001
 31
0
  0
LINE
  8
0
 62
7
 10
5.367000000000001
 20
-0.28
 30
0
 11
5.367000000000001
 21
-0.35
 31
0
  0
LINE
  8
0
 62
7
 10
5.385000000000001
 20
-0.305
 30
0
 11
5.387250000000001
 21
-0.2975
 31
0
  0
LINE
  8
0
 62
7
 10
5.387250000000001
 20
-0.2975
 30
0
 11
5.394
 21
-0.2875
 31
0
  0
LINE
  8
0
 62
7
 10
5.394
 20
-0.2875
 30
0
 11
5.40075
 21
-0.2825
 31
0
  0
LINE
  8
0
 62
7
 10
5.40075
 20
-0.2825
 30
0
 11
5.407500000000001
 21
-0.28
 31
0
  0
LINE
  8
0
 62
7
 10
5.407500000000001
 20
-0.28
 30
0
 11
5.4165
 21
-0.28
 31
0
  0
LINE
  8
0
 62
7
 10
5.4165
 20
-0.28
 30
0
 11
5.42325
 21
-0.2825
 31
0
  0
LINE
  8
0
 62
7
 10
5.42325
 20
-0.2825
 30
0
 11
5.430000000000001
 21
-0.2875
 31
0
  0
LINE
  8
0
 62
7
 10
5.430000000000001
 20
-0.2875
 30
0
 11
5.436750000000001
 21
-0.2975
 31
0
  0
LINE
  8
0
 62
7
 10
5.436750000000001
 20
-0.2975
 30
0
 11
5.439
 21
-0.305
 31
0
  0
LINE
  8
0
 62
7
 10
5.439
 20
-0.305
 30
0
 11
5.439
 21
-0.35
 31
0
  0
LINE
  8
0
 62
7
 10
5.385000000000001
 20
-0.28
 30
0
 11
5.385000000000001
 21
-0.305
 31
0
  0
LINE
  8
0
 62
7
 10
5.385000000000001
 20
-0.305
 30
0
 11
5.385000000000001
 21
-0.35
 31
0
  0
LINE
  8
0
 62
7
 10
5.511
 20
-0.295
 30
0
 11
5.5065
 21
-0.2875
 31
0
  0
LINE
  8
0
 62
7
 10
5.5065
 20
-0.2875
 30
0
 11
5.499750000000001
 21
-0.2825
 31
0
  0
LINE
  8
0
 62
7
 10
5.499750000000001
 20
-0.2825
 30
0
 11
5.4885
 21
-0.28
 31
0
  0
LINE
  8
0
 62
7
 10
5.4885
 20
-0.28
 30
0
 11
5.479500000000001
 21
-0.28
 31
0
  0
LINE
  8
0
 62
7
 10
5.479500000000001
 20
-0.28
 30
0
 11
5.470500000000001
 21
-0.2825
 31
0
  0
LINE
  8
0
 62
7
 10
5.470500000000001
 20
-0.2825
 30
0
 11
5.463750000000001
 21
-0.2875
 31
0
  0
LINE
  8
0
 62
7
 10
5.463750000000001
 20
-0.2875
 30
0
 11
5.459250000000001
 21
-0.2925
 31
0
  0
LINE
  8
0
 62
7
 10
5.459250000000001
 20
-0.2925
 30
0
 11
5.457000000000001
 21
-0.2975
 31
0
  0
LINE
  8
0
 62
7
 10
5.457000000000001
 20
-0.2975
 30
0
 11
5.457000000000001
 21
-0.3025
 31
0
  0
LINE
  8
0
 62
7
 10
5.457000000000001
 20
-0.3025
 30
0
 11
5.459250000000001
 21
-0.3075000000000001
 31
0
  0
LINE
  8
0
 62
7
 10
5.459250000000001
 20
-0.3075000000000001
 30
0
 11
5.463750000000001
 21
-0.3100000000000001
 31
0
  0
LINE
  8
0
 62
7
 10
5.463750000000001
 20
-0.3100000000000001
 30
0
 11
5.504250000000002
 21
-0.3200000000000001
 31
0
  0
LINE
  8
0
 62
7
 10
5.504250000000002
 20
-0.3200000000000001
 30
0
 11
5.50875
 21
-0.3225
 31
0
  0
LINE
  8
0
 62
7
 10
5.50875
 20
-0.3225
 30
0
 11
5.511
 21
-0.3275
 31
0
  0
LINE
  8
0
 62
7
 10
5.511
 20
-0.3275
 30
0
 11
5.511
 21
-0.3325
 31
0
  0
LINE
  8
0
 62
7
 10
5.511
 20
-0.3325
 30
0
 11
5.50875
 21
-0.3375
 31
0
  0
LINE
  8
0
 62
7
 10
5.50875
 20
-0.3375
 30
0
 11
5.504250000000002
 21
-0.3425
 31
0
  0
LINE
  8
0
 62
7
 10
5.504250000000002
 20
-0.3425
 30
0
 11
5.4975
 21
-0.3475
 31
0
  0
LINE
  8
0
 62
7
 10
5.4975
 20
-0.3475
 30
0
 11
5.4885
 21
-0.35
 31
0
  0
LINE
  8
0
 62
7
 10
5.4885
 20
-0.35
 30
0
 11
5.479500000000001
 21
-0.35
 31
0
  0
LINE
  8
0
 62
7
 10
5.479500000000001
 20
-0.35
 30
0
 11
5.468250000000001
 21
-0.3475
 31
0
  0
LINE
  8
0
 62
7
 10
5.468250000000001
 20
-0.3475
 30
0
 11
5.461500000000001
 21
-0.3425
 31
0
  0
LINE
  8
0
 62
7
 10
5.461500000000001
 20
-0.3425
 30
0
 11
5.457000000000001
 21
-0.335
 31
0
  0
LINE
  8
0
 62
7
 10
5.538000000000001
 20
-0.25
 30
0
 11
5.538000000000001
 21
-0.335
 31
0
  0
LINE
  8
0
 62
7
 10
5.538000000000001
 20
-0.335
 30
0
 11
5.54025
 21
-0.3475
 31
0
  0
LINE
  8
0
 62
7
 10
5.54025
 20
-0.3475
 30
0
 11
5.544750000000001
 21
-0.35
 31
0
  0
LINE
  8
0
 62
7
 10
5.544750000000001
 20
-0.35
 30
0
 11
5.547000000000001
 21
-0.35
 31
0
  0
LINE
  8
0
 62
7
 10
5.529
 20
-0.28
 30
0
 11
5.547000000000001
 21
-0.28
 31
0
  0
LINE
  8
0
 62
7
 10
5.619
 20
-0.28
 30
0
 11
5.619
 21
-0.325
 31
0
  0
LINE
  8
0
 62
7
 10
5.565
 20
-0.28
 30
0
 11
5.565
 21
-0.325
 31
0
  0
LINE
  8
0
 62
7
 10
5.565
 20
-0.325
 30
0
 11
5.56725
 21
-0.3325
 31
0
  0
LINE
  8
0
 62
7
 10
5.56725
 20
-0.3325
 30
0
 11
5.574000000000001
 21
-0.3425
 31
0
  0
LINE
  8
0
 62
7
 10
5.574000000000001
 20
-0.3425
 30
0
 11
5.580750000000001
 21
-0.3475
 31
0
  0
LINE
  8
0
 62
7
 10
5.580750000000001
 20
-0.3475
 30
0
 11
5.5875
 21
-0.35
 31
0
  0
LINE
  8
0
 62
7
 10
5.5875
 20
-0.35
 30
0
 11
5.596500000000001
 21
-0.35
 31
0
  0
LINE
  8
0
 62
7
 10
5.596500000000001
 20
-0.35
 30
0
 11
5.60325
 21
-0.3475
 31
0
  0
LINE
  8
0
 62
7
 10
5.60325
 20
-0.3475
 30
0
 11
5.61
 21
-0.3425
 31
0
  0
LINE
  8
0
 62
7
 10
5.61
 20
-0.3425
 30
0
 11
5.616750000000001
 21
-0.3325
 31
0
  0
LINE
  8
0
 62
7
 10
5.616750000000001
 20
-0.3325
 30
0
 11
5.619
 21
-0.325
 31
0
  0
LINE
  8
0
 62
7
 10
5.619
 20
-0.325
 30
0
 11
5.619
 21
-0.35
 31
0
  0
LINE
  8
0
 62
7
 10
5.637
 20
-0.285
 30
0
 11
5.664000000000001
 21
-0.285
 31
0
  0
LINE
  8
0
 62
7
 10
5.646000000000001
 20
-0.35
 30
0
 11
5.646000000000001
 21
-0.2675
 31
0
  0
LINE
  8
0
 62
7
 10
5.646000000000001
 20
-0.2675
 30
0
 11
5.648250000000001
 21
-0.2575
 31
0
  0
LINE
  8
0
 62
7
 10
5.648250000000001
 20
-0.2575
 30
0
 11
5.652750000000001
 21
-0.2525
 31
0
  0
LINE
  8
0
 62
7
 10
5.652750000000001
 20
-0.2525
 30
0
 11
5.6595
 21
-0.25
 31
0
  0
LINE
  8
0
 62
7
 10
5.6595
 20
-0.25
 30
0
 11
5.664000000000001
 21
-0.25
 31
0
  0
LINE
  8
0
 62
7
 10
5.736000000000001
 20
-0.3325
 30
0
 11
5.729250000000001
 21
-0.3425
 31
0
  0
LINE
  8
0
 62
7
 10
5.729250000000001
 20
-0.3425
 30
0
 11
5.7225
 21
-0.3475
 31
0
  0
LINE
  8
0
 62
7
 10
5.7225
 20
-0.3475
 30
0
 11
5.7135
 21
-0.35
 31
0
  0
LINE
  8
0
 62
7
 10
5.7135
 20
-0.35
 30
0
 11
5.7045
 21
-0.35
 31
0
  0
LINE
  8
0
 62
7
 10
5.7045
 20
-0.35
 30
0
 11
5.69775
 21
-0.3475
 31
0
  0
LINE
  8
0
 62
7
 10
5.69775
 20
-0.3475
 30
0
 11
5.691000000000001
 21
-0.3425
 31
0
  0
LINE
  8
0
 62
7
 10
5.691000000000001
 20
-0.3425
 30
0
 11
5.684250000000001
 21
-0.3325
 31
0
  0
LINE
  8
0
 62
7
 10
5.684250000000001
 20
-0.3325
 30
0
 11
5.682
 21
-0.325
 31
0
  0
LINE
  8
0
 62
7
 10
5.682
 20
-0.325
 30
0
 11
5.682
 21
-0.315
 31
0
  0
LINE
  8
0
 62
7
 10
5.682
 20
-0.305
 30
0
 11
5.684250000000001
 21
-0.2975
 31
0
  0
LINE
  8
0
 62
7
 10
5.684250000000001
 20
-0.2975
 30
0
 11
5.691000000000001
 21
-0.2875
 31
0
  0
LINE
  8
0
 62
7
 10
5.691000000000001
 20
-0.2875
 30
0
 11
5.69775
 21
-0.2825
 31
0
  0
LINE
  8
0
 62
7
 10
5.69775
 20
-0.2825
 30
0
 11
5.7045
 21
-0.28
 31
0
  0
LINE
  8
0
 62
7
 10
5.7045
 20
-0.28
 30
0
 11
5.7135
 21
-0.28
 31
0
  0
LINE
  8
0
 62
7
 10
5.7135
 20
-0.28
 30
0
 11
5.72025
 21
-0.2825
 31
0
  0
LINE
  8
0
 62
7
 10
5.72025
 20
-0.2825
 30
0
 11
5.727
 21
-0.2875
 31
0
  0
LINE
  8
0
 62
7
 10
5.727
 20
-0.2875
 30
0
 11
5.733750000000001
 21
-0.2975
 31
0
  0
LINE
  8
0
 62
7
 10
5.733750000000001
 20
-0.2975
 30
0
 11
5.736000000000001
 21
-0.305
 31
0
  0
LINE
  8
0
 62
7
 10
5.736000000000001
 20
-0.305
 30
0
 11
5.736000000000001
 21
-0.315
 31
0
  0
LINE
  8
0
 62
7
 10
5.736000000000001
 20
-0.315
 30
0
 11
5.682
 21
-0.315
 31
0
  0
LINE
  8
0
 62
7
 10
5.682
 20
-0.315
 30
0
 11
5.682
 21
-0.305
 31
0
  0
LINE
  8
0
 62
7
 10
5.754
 20
-0.305
 30
0
 11
5.756250000000001
 21
-0.2975
 31
0
  0
LINE
  8
0
 62
7
 10
5.756250000000001
 20
-0.2975
 30
0
 11
5.763000000000002
 21
-0.2875
 31
0
  0
LINE
  8
0
 62
7
 10
5.763000000000002
 20
-0.2875
 30
0
 11
5.76975
 21
-0.2825
 31
0
  0
LINE
  8
0
 62
7
 10
5.76975
 20
-0.2825
 30
0
 11
5.7765
 21
-0.28
 31
0
  0
LINE
  8
0
 62
7
 10
5.7765
 20
-0.28
 30
0
 11
5.785500000000002
 21
-0.28
 31
0
  0
LINE
  8
0
 62
7
 10
5.785500000000002
 20
-0.28
 30
0
 11
5.79225
 21
-0.2825
 31
0
  0
LINE
  8
0
 62
7
 10
5.79225
 20
-0.2825
 30
0
 11
5.799
 21
-0.2875
 31
0
  0
LINE
  8
0
 62
7
 10
5.799
 20
-0.2875
 30
0
 11
5.805750000000001
 21
-0.2975
 31
0
  0
LINE
  8
0
 62
7
 10
5.805750000000001
 20
-0.2975
 30
0
 11
5.808000000000002
 21
-0.305
 31
0
  0
LINE
  8
0
 62
7
 10
5.808000000000002
 20
-0.305
 30
0
 11
5.808000000000002
 21
-0.35
 31
0
  0
LINE
  8
0
 62
7
 10
5.754
 20
-0.28
 30
0
 11
5.754
 21
-0.305
 31
0
  0
LINE
  8
0
 62
7
 10
5.754
 20
-0.305
 30
0
 11
5.754
 21
-0.35
 31
0
  0
ARC
  8
0
 62
7
 10
4.668826476238013
 20
1.118590337345377
 30
0
 40
0.559999999999919
 50
335.6563134147943
 51
340.6997949671617
  0
ARC
  8
0
 62
7
 10
4.668826476238013
 20
1.118590337345377
 30
0
 40
0.5600000000000015
 50
27.76418528147851
 51
51.29638043864082
  0
ARC
  8
0
 62
7
 10
4.668826476238013
 20
1.118590337345377
 30
0
 40
0.5599999999999922
 50
4.231990124326106
 51
27.76418528147851
  0
ARC
  8
0
 62
7
 10
4.668826476238013
 20
1.118590337345377
 30
0
 40
0.5600000000000281
 50
340.6997949671617
 51
4.231990124326106
  0
ARC
  8
0
 62
7
 10
1.968826476237999
 20
1.118590337345377
 30
0
 40
0.5600000000000139
 50
27.76418528147784
 51
51.29638043864091
  0
ARC
  8
0
 62
7
 10
1.968826476237999
 20
1.118590337345377
 30
0
 40
0.5600000000000204
 50
4.231990124325893
 51
27.76418528147784
  0
ARC
  8
0
 62
7
 10
1.968826476237999
 20
1.118590337345377
 30
0
 40
0.5600000000000547
 50
340.6997949671627
 51
4.231990124325893
  0
ARC
  8
0
 62
7
 10
1.968826476237999
 20
1.118590337345377
 30
0
 40
0.559999999999969
 50
317.1675998100041
 51
340.6997949671627
  0
ARC
  8
0
 62
7
 10
1.968826476237999
 20
1.118590337345377
 30
0
 40
0.5599999999999452
 50
293.6354046528473
 51
317.1675998100041
  0
ARC
  8
0
 62
7
 10
1.968826476237999
 20
1.118590337345377
 30
0
 40
0.560000000000034
 50
270.1032094956848
 51
293.6354046528473
  0
ARC
  8
0
 62
7
 10
1.968826476237999
 20
1.118590337345377
 30
0
 40
0.5599999999999771
 50
246.5710143385207
 51
270.1032094956848
  0
ARC
  8
0
 62
7
 10
1.968826476237999
 20
1.118590337345377
 30
0
 40
0.5599999999999158
 50
223.0388191813638
 51
246.5710143385207
  0
ARC
  8
0
 62
7
 10
1.968826476237999
 20
1.118590337345377
 30
0
 40
0.5599999999999863
 50
199.5066240242012
 51
223.0388191813638
  0
ARC
  8
0
 62
7
 10
1.968826476237999
 20
1.118590337345377
 30
0
 40
0.5599999999999808
 50
175.9744288670437
 51
199.5066240242012
  0
ARC
  8
0
 62
7
 10
1.968826476237999
 20
1.118590337345377
 30
0
 40
0.5599999999999972
 50
152.4422337098923
 51
175.9744288670437
  0
ARC
  8
0
 62
7
 10
1.968826476237999
 20
1.118590337345377
 30
0
 40
0.5600000000000344
 50
128.9100385527268
 51
152.4422337098923
  0
ARC
  8
0
 62
7
  6
DASHED
 10
1.968826476237999
 20
1.118590337345377
 30
0
 40
0.5600000000000875
 50
105.3778433955694
 51
128.9100385527268
  0
ARC
  8
0
 62
7
 10
1.968826476237999
 20
1.118590337345377
 30
0
 40
0.9199999999999984
 50
54.99238997110507
 51
125.0076100288949
  0
ARC
  8
0
 62
7
  6
DASHDOT
 10
1.968826476237999
 20
1.118590337345377
 30
0
 40
0.95
 50
90
 51
180
  0
ARC
  8
0
 62
7
  6
DASHDOT
 10
1.968826476237999
 20
1.118590337345377
 30
0
 40
0.95
 50
180
 51
270
  0
ARC
  8
0
 62
7
  6
DASHDOT
 10
1.968826476237999
 20
1.118590337345377
 30
0
 40
0.9500000000000004
 50
270
 51
90
  0
CIRCLE
  8
0
 62
7
  6
DASHED
 10
1.820323841423902
 20
1.658541230902716
 30
0
 40
0.06000000000000005
  0
DIMENSION
  8
0
  6
CONTINUOUS
 62
7
  2
*D1
  3
DMST_1
 10
2.918826476237999
 20
6.774688199566111
 30
0
 11
2.00288450291527
 21
6.774688199566111
 31
0
 12
0
 22
0
 32
0
 70
0
 13
1.018826476237999
 23
6.238590337345377
 33
0
 14
2.918826476237999
 24
6.238590337345377
 34
0
 53
0
  0
DIMENSION
  8
0
  6
CONTINUOUS
 62
7
  2
*D2
  3
DMST_2
 10
2.843826476238
 20
2.42622355462187
 30
0
 11
1.97732050000051
 21
2.42622355462187
 31
0
 12
0
 22
0
 32
0
 70
0
 13
1.093826476237999
 23
1.118590337345377
 33
0
 14
2.843826476238
 24
1.118590337345377
 34
0
 53
0
  0
DIMENSION
  8
0
  6
CONTINUOUS
 62
7
  2
*D3
  3
DMST_2
 10
3.173155266446431
 20
2.068590337345377
 30
0
 11
3.173155266446431
 21
1.1218624578665
 31
0
 12
0
 22
0
 32
0
 70
0
 13
1.968826476237999
 23
0.1685903373453766
 33
0
 14
1.968826476237999
 24
2.068590337345377
 34
0
 50
90
 53
0
  0
DIMENSION
  8
0
  6
CONTINUOUS
 62
7
  2
*D4
  3
DMST_1
 10
3.718826476237999
 20
2.41751937463314
 30
0
 11
4.66734025916925
 21
2.41751937463314
 31
0
 12
0
 22
0
 32
0
 70
0
 13
5.618826476238013
 23
2.068590337345377
 33
0
 14
3.718826476238
 24
2.068590337345377
 34
0
 53
0
  0
INSERT
  8
0
  2
*D0
 10
0
 20
0
 30
0
  0
ENDSEC
  0
EOF
