  0
SECTION
  2
HEADER
  9
$ACADVER
  1
AC1009
  9
$INSBASE
 10
0
 20
0
  9
$EXTMIN
 10
0.1
 20
-0.35
  9
$EXTMAX
 10
5.45819279837605
 20
6.78186951711955
  9
$LIMMIN
 10
0.1
 20
-0.35
  9
$LIMMAX
 10
5.45819279837605
 20
6.78186951711955
  9
$VIEWCTR
 10
10
 20
10
  9
$VIEWSIZE
 40
10
  9
$SNAPMODE
 70
0
  9
$SNAPUNIT
 10
1
 20
1
  9
$SNAPBASE
 10
0
 20
0
  9
$SNAPANG
 50
0
  9
$SNAPSTYLE
 70
0
  9
$SNAPISOPAIR
 70
0
  9
$GRIDMODE
 70
0
  9
$GRIDUNIT
 10
0
 20
0
  9
$ORTHOMODE
 70
0
  9
$REGENMODE
 70
1
  9
$FILLMODE
 70
1
  9
$QTEXTMODE
 70
0
  9
$DRAGMODE
 70
2
  9
$LTSCALE
 40
1
  9
$OSMODE
 70
0
  9
$ATTMODE
 70
1
  9
$TEXTSIZE
 40
3.5
  9
$TRACEWID
 40
0.5
  9
$TEXTSTYLE
  7
STANDARD
  9
$CLAYER
  8
0
  9
$CELTYPE
  6
BYLAYER
  9
$CECOLOR
 62
256
  9
$DIMSCALE
 40
1
  9
$DIMASZ
 40
0.18
  9
$DIMEXO
 40
0.0625
  9
$DIMDLI
 40
0.38
  9
$DIMRND
 40
0
  9
$DIMDLE
 40
0
  9
$DIMEXE
 40
0.18
  9
$DIMTP
 40
0
  9
$DIMTM
 40
0
  9
$DIMTXT
 40
0.18
  9
$DIMCEN
 40
0.09
  9
$DIMTSZ
 40
0
  9
$DIMTOL
 70
0
  9
$DIMLIM
 70
0
  9
$DIMTIH
 70
1
  9
$DIMTOH
 70
1
  9
$DIMSE1
 70
0
  9
$DIMSE2
 70
0
  9
$DIMTAD
 70
0
  9
$DIMZIN
 70
0
  9
$DIMBLK
  1

  9
$DIMASO
 70
1
  9
$DIMSHO
 70
1
  9
$DIMPOST
  1

  9
$DIMAPOST
  1

  9
$DIMALT
 70
0
  9
$DIMALTD
 70
2
  9
$DIMALTF
 40
25.4
  9
$DIMLFAC
 40
1
  9
$DIMTOFL
 70
0
  9
$DIMTVP
 40
0
  9
$DIMTIX
 70
0
  9
$DIMSOXD
 70
0
  9
$DIMSAH
 70
0
  9
$DIMBLK1
  1

  9
$DIMBLK2
  1

  9
$DIMSTYLE
  2
*UNNAMED
  9
$DIMCLRD
 70
0
  9
$DIMCLRE
 70
0
  9
$DIMCLRT
 70
0
  9
$DIMTFAC
 40
1
  9
$DIMGAP
 40
0.09
  9
$LUNITS
 70
2
  9
$LUPREC
 70
4
  9
$AXISMODE
 70
0
  9
$AXISUNIT
 10
0
 20
0
  9
$SKETCHINC
 40
0.1
  9
$FILLETRAD
 40
2
  9
$AUNITS
 70
0
  9
$AUPREC
 70
0
  9
$MENU
  1
ACAD
  9
$ELEVATION
 40
0
  9
$THICKNESS
 40
0
  9
$VIEWDIR
 10
0
 20
0
 30
1
  9
$LIMCHECK
 70
0
  9
$BLIPMODE
 70
1
  9
$CHAMFERA
 40
0
  9
$CHAMFERB
 40
0
  9
$FASTZOOM
 70
1
  9
$SKPOLY
 70
0
  9
$ANGBASE
 50
0
  9
$ANGDIR
 70
0
  9
$PDMODE
 70
0
  9
$PDSIZE
 40
0
  9
$PLINEWID
 40
0
  9
$COORDS
 70
2
  0
ENDSEC
  0
SECTION
  2
TABLES
  0
TABLE
  2
DIMSTYLE
 70
2
  0
DIMSTYLE
  2
DMST_1
 70
0
  3

  4

  5

  6

  7

 40
1
 41
0.1
 42
0
 43
0.7
 44
0.2
 45
0
 46
0
 47
0
 48
0
140
0.1
141
0
142
0.1
143
25.4
144
1
145
0
146
1
147
0.25
 71
0
 72
0
 73
0
 74
0
 75
0
 76
0
 77
0
 78
9
170
0
171
2
172
0
173
0
174
0
175
0
176
7
177
7
178
7
  0
DIMSTYLE
  2
DMST_2
 70
0
  3

  4

  5

  6

  7

 40
1
 41
0.1
 42
0
 43
0.7
 44
0.1
 45
0
 46
0
 47
0
 48
0
140
0.1
141
0
142
0.1
143
25.4
144
1
145
0
146
1
147
0.1
 71
0
 72
0
 73
0
 74
0
 75
0
 76
0
 77
0
 78
9
170
0
171
2
172
0
173
0
174
0
175
0
176
7
177
7
178
7
  0
ENDTAB
  0
TABLE
  2
LTYPE
 70
9
  0
LTYPE
  2
CONTINUOUS
 70
64
  3
Solid line
 72
65
 73
0
 40
0
  0
LTYPE
  2
BORDER
 70
64
  3
__ __ . __ __ .
 72
65
 73
6
 40
0.3284413593410319
 49
0.09384038838315197
 49
-0.04692019419157598
 49
0.09384038838315197
 49
-0.04692019419157598
 49
0
 49
-0.04692019419157598
  0
LTYPE
  2
CENTER
 70
64
  3
____ _ ____ _
 72
65
 73
4
 40
0.3753615535326079
 49
0.2346009709578799
 49
-0.04692019419157598
 49
0.04692019419157598
 49
-0.04692019419157598
  0
LTYPE
  2
DASHDOT
 70
64
  3
__ . __ . __ .
 72
65
 73
4
 40
0.1876807767663039
 49
0.09384038838315197
 49
-0.04692019419157598
 49
0
 49
-0.04692019419157598
  0
LTYPE
  2
DASHED
 70
64
  3
__ __ __ __ __
 72
65
 73
2
 40
0.140760582574728
 49
0.09384038838315197
 49
-0.04692019419157598
  0
LTYPE
  2
DIVIDE
 70
64
  3
__ . . __ . . 
 72
65
 73
6
 40
0.2346009709578799
 49
0.09384038838315197
 49
-0.04692019419157598
 49
0
 49
-0.04692019419157598
 49
0
 49
-0.04692019419157598
  0
LTYPE
  2
DOT
 70
64
  3
..............
 72
65
 73
4
 40
0.09384038838315197
 49
0
 49
-0.04692019419157598
 49
0
 49
-0.04692019419157598
  0
LTYPE
  2
HIDDEN
 70
64
  3
_ _ _ _ _ _ _
 72
65
 73
2
 40
0.07038029128736398
 49
0.04692019419157598
 49
-0.02346009709578799
  0
LTYPE
  2
PHANTOM
 70
64
  3
_____ _ _ _____ _ _ 
 72
65
 73
6
 40
0.4692019419157598
 49
0.2346009709578799
 49
-0.04692019419157598
 49
0.04692019419157598
 49
-0.04692019419157598
 49
0.04692019419157598
 49
-0.04692019419157598
  0
ENDTAB
  0
TABLE
  2
LAYER
 70
2
  0
LAYER
  2
0
 70
0
 62
7
  6
CONTINUOUS
  0
ENDTAB
  0
TABLE
  2
STYLE
 70
4
  0
STYLE
  2
STANDARD
 70
0
 40
0
 41
1
 50
0
 71
0
 42
3.5
  3
txt
  4

  0
STYLE
  2
SIMPLEX
 70
0
 40
0
 41
1
 50
0
 71
0
 42
3.5
  3
simplex
  4

  0
STYLE
  2
COMPLEX
 70
0
 40
0
 41
1
 50
0
 71
0
 42
3.5
  3
complex
  4

  0
STYLE
  2
ITALIC
 70
0
 40
0
 41
1
 50
0
 71
0
 42
3.5
  3
italic
  4

  0
ENDTAB
  0
TABLE
  2
VIEW
 70
0
  0
ENDTAB
  0
ENDSEC
  0
SECTION
  2
BLOCKS
  0
BLOCK
  8
0
  2
*X0
 70
1
 10
0
 20
0
 30
0
  0
LINE
  8
0
 62
7
  6
DASHED
 10
2.504925695285987
 20
3.459519849887826
 30
0
 11
2.53399618274354
 21
3.488590337345377
 31
0
  0
LINE
  8
0
 62
7
  6
DASHED
 10
2.546128217099506
 20
3.288590337345378
 30
0
 11
2.746128217099504
 21
3.488590337345377
 31
0
  0
LINE
  8
0
 62
7
  6
DASHED
 10
2.758260251455471
 20
3.288590337345378
 30
0
 11
2.958260251455469
 21
3.488590337345377
 31
0
  0
LINE
  8
0
 62
7
  6
DASHED
 10
2.970392285811435
 20
3.288590337345378
 30
0
 11
3.170392285811433
 21
3.488590337345377
 31
0
  0
LINE
  8
0
 62
7
  6
DASHED
 10
3.182524320167399
 20
3.288590337345378
 30
0
 11
3.382524320167397
 21
3.488590337345377
 31
0
  0
LINE
  8
0
 62
7
  6
DASHED
 10
3.394656354523363
 20
3.288590337345378
 30
0
 11
3.594656354523361
 21
3.488590337345377
 31
0
  0
LINE
  8
0
 62
7
  6
DASHED
 10
3.606788388879328
 20
3.288590337345378
 30
0
 11
3.806788388879326
 21
3.488590337345377
 31
0
  0
LINE
  8
0
 62
7
  6
DASHED
 10
3.818920423235292
 20
3.288590337345378
 30
0
 11
4.01892042323529
 21
3.488590337345377
 31
0
  0
LINE
  8
0
 62
7
  6
DASHED
 10
4.031052457591256
 20
3.288590337345378
 30
0
 11
4.231052457591254
 21
3.488590337345377
 31
0
  0
LINE
  8
0
 62
7
  6
DASHED
 10
4.24318449194722
 20
3.288590337345378
 30
0
 11
4.443184491947218
 21
3.488590337345377
 31
0
  0
LINE
  8
0
 62
7
  6
DASHED
 10
4.455316526303184
 20
3.288590337345378
 30
0
 11
4.655316526303181
 21
3.488590337345377
 31
0
  0
LINE
  8
0
 62
7
  6
DASHED
 10
4.667448560659148
 20
3.288590337345378
 30
0
 11
4.867448560659145
 21
3.488590337345377
 31
0
  0
LINE
  8
0
 62
7
  6
DASHED
 10
4.879580595015112
 20
3.288590337345378
 30
0
 11
5.079580595015109
 21
3.488590337345377
 31
0
  0
LINE
  8
0
 62
7
  6
DASHED
 10
5.091712629371075
 20
3.288590337345378
 30
0
 11
5.109925695285988
 21
3.306803403260291
 31
0
  0
LINE
  8
0
 62
7
 10
2.504925695285987
 20
3.353453832709844
 30
0
 11
2.640062199921522
 21
3.488590337345377
 31
0
  0
LINE
  8
0
 62
7
 10
2.652194234277487
 20
3.288590337345378
 30
0
 11
2.852194234277486
 21
3.488590337345377
 31
0
  0
LINE
  8
0
 62
7
 10
2.864326268633452
 20
3.288590337345378
 30
0
 11
3.06432626863345
 21
3.488590337345377
 31
0
  0
LINE
  8
0
 62
7
 10
3.076458302989416
 20
3.288590337345378
 30
0
 11
3.276458302989415
 21
3.488590337345377
 31
0
  0
LINE
  8
0
 62
7
 10
3.28859033734538
 20
3.288590337345378
 30
0
 11
3.488590337345379
 21
3.488590337345377
 31
0
  0
LINE
  8
0
 62
7
 10
3.500722371701344
 20
3.288590337345378
 30
0
 11
3.700722371701343
 21
3.488590337345377
 31
0
  0
LINE
  8
0
 62
7
 10
3.712854406057309
 20
3.288590337345378
 30
0
 11
3.912854406057308
 21
3.488590337345377
 31
0
  0
LINE
  8
0
 62
7
 10
3.924986440413273
 20
3.288590337345378
 30
0
 11
4.124986440413272
 21
3.488590337345377
 31
0
  0
LINE
  8
0
 62
7
 10
4.137118474769237
 20
3.288590337345378
 30
0
 11
4.337118474769236
 21
3.488590337345377
 31
0
  0
LINE
  8
0
 62
7
 10
4.349250509125201
 20
3.288590337345378
 30
0
 11
4.5492505091252
 21
3.488590337345377
 31
0
  0
LINE
  8
0
 62
7
 10
4.561382543481165
 20
3.288590337345378
 30
0
 11
4.761382543481163
 21
3.488590337345377
 31
0
  0
LINE
  8
0
 62
7
 10
4.773514577837129
 20
3.288590337345378
 30
0
 11
4.973514577837127
 21
3.488590337345377
 31
0
  0
LINE
  8
0
 62
7
 10
4.985646612193093
 20
3.288590337345378
 30
0
 11
5.109925695285988
 21
3.412869420438273
 31
0
  0
ENDBLK
  8
0
  0
BLOCK
  8
0
  2
*X1
 70
1
 10
0
 20
0
 30
0
  0
LINE
  8
0
 62
7
  6
DASHED
 10
4.757425695285943
 20
6.136283918599709
 30
0
 11
4.859732114031611
 21
6.238590337345377
 31
0
  0
LINE
  8
0
 62
7
  6
DASHED
 10
4.871864148387575
 20
6.038590337345377
 30
0
 11
5.071864148387575
 21
6.238590337345377
 31
0
  0
LINE
  8
0
 62
7
  6
DASHED
 10
5.083996182743538
 20
6.038590337345377
 30
0
 11
5.109925695285988
 21
6.064519849887827
 31
0
  0
LINE
  8
0
 62
7
 10
4.765798131209593
 20
6.038590337345377
 30
0
 11
4.965798131209593
 21
6.238590337345377
 31
0
  0
LINE
  8
0
 62
7
 10
4.977930165565557
 20
6.038590337345377
 30
0
 11
5.109925695285988
 21
6.170585867065808
 31
0
  0
ENDBLK
  8
0
  0
BLOCK
  8
0
  2
*X2
 70
1
 10
0
 20
0
 30
0
  0
LINE
  8
0
 62
7
  6
DASHED
 10
2.504925695285987
 20
6.21723629651536
 30
0
 11
2.526279736116003
 21
6.238590337345377
 31
0
  0
LINE
  8
0
 62
7
  6
DASHED
 10
2.538411770471967
 20
6.038590337345377
 30
0
 11
2.738411770471967
 21
6.238590337345377
 31
0
  0
LINE
  8
0
 62
7
  6
DASHED
 10
2.750543804827931
 20
6.038590337345377
 30
0
 11
2.857425695285988
 21
6.145472227803434
 31
0
  0
LINE
  8
0
 62
7
 10
2.504925695285988
 20
6.111170279337379
 30
0
 11
2.632345753293985
 21
6.238590337345377
 31
0
  0
LINE
  8
0
 62
7
 10
2.644477787649949
 20
6.038590337345378
 30
0
 11
2.84447778764995
 21
6.238590337345377
 31
0
  0
LINE
  8
0
 62
7
 10
2.856609822005914
 20
6.038590337345378
 30
0
 11
2.857425695285987
 21
6.039406210625451
 31
0
  0
ENDBLK
  8
0
  0
BLOCK
  8
0
  2
*D0
 70
1
 10
0
 20
0
 30
0
  0
LINE
  8
0
 62
7
 10
5.33319279837605
 20
5.517104423939339
 30
0
 11
5.33319279837605
 21
6.238590337345377
 31
0
  0
LINE
  8
0
 62
7
 10
5.33319279837605
 20
3.488590337345377
 30
0
 11
5.33319279837605
 21
4.33710442393934
 31
0
  0
LINE
  8
0
 62
7
 10
5.109925695285987
 20
6.238590337345377
 30
0
 11
5.38319279837605
 21
6.238590337345377
 31
0
  0
LINE
  8
0
 62
7
 10
5.109925695285987
 20
3.488590337345377
 30
0
 11
5.38319279837605
 21
3.488590337345377
 31
0
  0
LINE
  8
0
 62
7
 10
5.368548137435377
 20
6.20323499828605
 30
0
 11
5.297837459316723
 21
6.273945676404704
 31
0
  0
LINE
  8
0
 62
7
 10
5.297837459316723
 20
3.523945676404704
 30
0
 11
5.368548137435377
 21
3.45323499828605
 31
0
  0
TEXT
  8
0
 62
7
 10
5.30819279837605
 20
4.807104423939339
 30
0
 40
0.1
  1
275
 50
90
 41
0.9
  0
TEXT
  8
0
 62
7
 10
5.45819279837605
 20
4.58710442393934
 30
0
 40
0.1
  1
(260-280)
 50
90
 41
0.9
  0
ENDBLK
  8
0
  0
BLOCK
  8
0
  2
*D1
 70
1
 10
0
 20
0
 30
0
  0
LINE
  8
0
 62
7
 10
4.16359461138163
 20
6.726869517119551
 30
0
 11
4.757425695285987
 21
6.726869517119551
 31
0
  0
LINE
  8
0
 62
7
 10
2.857425695285988
 20
6.726869517119551
 30
0
 11
3.50859461138163
 21
6.726869517119551
 31
0
  0
LINE
  8
0
 62
7
 10
4.757425695285987
 20
6.238590337345378
 30
0
 11
4.757425695285987
 21
6.776869517119551
 31
0
  0
LINE
  8
0
 62
7
 10
2.857425695285988
 20
6.238590337345378
 30
0
 11
2.857425695285988
 21
6.776869517119551
 31
0
  0
LINE
  8
0
 62
7
 10
4.72207035622666
 20
6.691514178060224
 30
0
 11
4.792781034345315
 21
6.762224856178879
 31
0
  0
LINE
  8
0
 62
7
 10
2.892781034345315
 20
6.762224856178879
 30
0
 11
2.82207035622666
 21
6.691514178060224
 31
0
  0
TEXT
  8
0
 62
7
 10
3.75859461138163
 20
6.681869517119551
 30
0
 40
0.1
  1
1,9
 41
0.9
  0
ENDBLK
  8
0
  0
BLOCK
  8
0
  2
*D2
 70
1
 10
0
 20
0
 30
0
  0
LINE
  8
0
 62
7
 10
4.0378307599735
 20
2.38837942165544
 30
0
 11
4.6824256952859
 21
2.38837942165544
 31
0
  0
LINE
  8
0
 62
7
 10
2.9324256952859
 20
2.38837942165544
 30
0
 11
3.5928307599735
 21
2.38837942165544
 31
0
  0
LINE
  8
0
 62
7
 10
4.6824256952859
 20
1.118590337345377
 30
0
 11
4.6824256952859
 21
2.43837942165544
 31
0
  0
LINE
  8
0
 62
7
 10
2.9324256952859
 20
1.118590337345377
 30
0
 11
2.9324256952859
 21
2.43837942165544
 31
0
  0
LINE
  8
0
 62
7
 10
4.647070356226573
 20
2.353024082596113
 30
0
 11
4.717781034345228
 21
2.423734760714767
 31
0
  0
LINE
  8
0
 62
7
 10
2.967781034345228
 20
2.423734760714767
 30
0
 11
2.897070356226573
 21
2.353024082596113
 31
0
  0
TEXT
  8
0
 62
7
 10
3.6928307599735
 20
2.34337942165544
 30
0
 40
0.1
  1
1,75
 41
0.9
  0
ENDBLK
  8
0
  0
BLOCK
  8
0
  2
*D3
 70
1
 10
0
 20
0
 30
0
  0
LINE
  8
0
 62
7
 10
5.172003909342151
 20
1.24950349454526
 30
0
 11
5.172003909342151
 21
2.068590337345377
 31
0
  0
LINE
  8
0
 62
7
 10
5.172003909342151
 20
0.1685903373453764
 30
0
 11
5.172003909342151
 21
0.8945034945452599
 31
0
  0
LINE
  8
0
 62
7
 10
3.807425695285901
 20
2.068590337345377
 30
0
 11
5.222003909342151
 21
2.068590337345377
 31
0
  0
LINE
  8
0
 62
7
 10
3.807425695285901
 20
0.1685903373453764
 30
0
 11
5.222003909342151
 21
0.1685903373453764
 31
0
  0
LINE
  8
0
 62
7
 10
5.207359248401478
 20
2.03323499828605
 30
0
 11
5.136648570282824
 21
2.103945676404705
 31
0
  0
LINE
  8
0
 62
7
 10
5.136648570282824
 20
0.2039456764047038
 30
0
 11
5.207359248401478
 21
0.1332349982860491
 31
0
  0
TEXT
  8
0
 62
7
 10
5.217003909342151
 20
0.9945034945452599
 30
0
 40
0.1
  1
1,9
 50
90
 41
0.9
  0
ENDBLK
  8
0
  0
BLOCK
  8
0
  2
*D4
 70
1
 10
0
 20
0
 30
0
  0
LINE
  8
0
 62
7
 10
1.45634927607519
 20
2.48240627359188
 30
0
 11
2.057425695285987
 21
2.48240627359188
 31
0
  0
LINE
  8
0
 62
7
 10
0.1574256952859869
 20
2.48240627359188
 30
0
 11
0.8013492760751899
 21
2.48240627359188
 31
0
  0
LINE
  8
0
 62
7
 10
2.057425695285987
 20
2.068590337345377
 30
0
 11
2.057425695285987
 21
2.53240627359188
 31
0
  0
LINE
  8
0
 62
7
 10
0.1574256952859869
 20
2.068590337345377
 30
0
 11
0.1574256952859869
 21
2.53240627359188
 31
0
  0
LINE
  8
0
 62
7
 10
2.02207035622666
 20
2.447050934532553
 30
0
 11
2.092781034345314
 21
2.517761612651207
 31
0
  0
LINE
  8
0
 62
7
 10
0.1927810343453143
 20
2.517761612651207
 30
0
 11
0.1220703562266595
 21
2.447050934532553
 31
0
  0
TEXT
  8
0
 62
7
 10
1.05134927607519
 20
2.43740627359188
 30
0
 40
0.1
  1
1,9
 41
0.9
  0
ENDBLK
  8
0
  0
ENDSEC
  0
SECTION
  2
ENTITIES
  0
INSERT
  8
0
  2
*X0
 10
0
 20
0
 30
0
  0
INSERT
  8
0
  2
*X1
 10
0
 20
0
 30
0
  0
INSERT
  8
0
  2
*X2
 10
0
 20
0
 30
0
  0
POINT
  8
0
 62
7
  6
DASHED
 10
3.8074256952859
 20
1.118590337345377
 30
0
  0
LINE
  8
0
 62
7
 10
3.469569078472022
 20
0.5478421960700652
 30
0
 11
3.387230648211947
 21
0.518553970990819
 31
0
  0
LINE
  8
0
 62
7
 10
3.469569078472022
 20
0.5478421960700652
 30
0
 11
3.449485089974929
 21
0.6328639433931386
 31
0
  0
LINE
  8
0
 62
7
 10
3.503082333330488
 20
0.5597630421238136
 30
0
 11
3.521526365097948
 21
0.5936294892818551
 31
0
  0
LINE
  8
0
 62
7
 10
3.503082333330488
 20
0.5597630421238136
 30
0
 11
3.469569078472022
 21
0.5478421960700652
 31
0
  0
LINE
  8
0
 62
7
 10
3.459271923334936
 20
0.4793195168795647
 30
0
 11
3.503082333330488
 21
0.5597630421238136
 31
0
  0
LINE
  8
0
 62
7
 10
3.325641150721742
 20
0.6540993075515145
 30
0
 11
3.37708958397001
 21
0.7037010143941154
 31
0
  0
LINE
  8
0
 62
7
 10
3.325641150721742
 20
0.6540993075515145
 30
0
 11
3.276781786053894
 21
0.7050468074200036
 31
0
  0
LINE
  8
0
 62
7
 10
3.28338410252372
 20
0.6133590636914596
 30
0
 11
3.226484202673906
 21
0.6723774097444257
 31
0
  0
LINE
  8
0
 62
7
 10
3.37708958397001
 20
0.7037010143941154
 30
0
 11
3.320189684120196
 21
0.7627193604471104
 31
0
  0
LINE
  8
0
 62
7
 10
3.28338410252372
 20
0.6133590636914596
 30
0
 11
3.325641150721742
 21
0.6540993075515145
 31
0
  0
LINE
  8
0
 62
7
 10
3.272526369527928
 20
0.8517476302965662
 30
0
 11
3.156052298383424
 21
0.7936427590646782
 31
0
  0
LINE
  8
0
 62
7
 10
3.119440669012183
 20
0.8670325701716357
 30
0
 11
3.235914740156659
 21
0.9251374414035237
 31
0
  0
LINE
  8
0
 62
7
 10
3.235914740156659
 20
0.9251374414035237
 30
0
 11
3.156052298383424
 21
0.7936427590646782
 31
0
  0
LINE
  8
0
 62
7
 10
3.217140380399987
 20
1.024327056946873
 30
0
 11
3.088606036737897
 21
1.003801272937155
 31
0
  0
LINE
  8
0
 62
7
 10
3.075672828544062
 20
1.08479020986901
 30
0
 11
3.204207172206123
 21
1.105315993878758
 31
0
  0
LINE
  8
0
 62
7
 10
3.204207172206123
 20
1.105315993878758
 30
0
 11
3.088606036737897
 21
1.003801272937155
 31
0
  0
LINE
  8
0
 62
7
 10
3.20971512855617
 20
1.218566360104946
 30
0
 11
3.221702436179898
 21
1.236987266067416
 31
0
  0
LINE
  8
0
 62
7
 10
3.20204397980556
 20
1.213845660318562
 30
0
 11
3.20971512855617
 21
1.218566360104946
 31
0
  0
LINE
  8
0
 62
7
 10
3.179181465956835
 20
1.210991489973152
 30
0
 11
3.20204397980556
 21
1.213845660318562
 31
0
  0
LINE
  8
0
 62
7
 10
3.126563592055682
 20
1.218714588670118
 30
0
 11
3.179181465956835
 21
1.210991489973152
 31
0
  0
LINE
  8
0
 62
7
 10
3.105615992529245
 20
1.227621877062367
 30
0
 11
3.126563592055682
 21
1.218714588670118
 31
0
  0
LINE
  8
0
 62
7
 10
3.094545140502146
 20
1.24471215343423
 30
0
 11
3.105615992529245
 21
1.227621877062367
 31
0
  0
LINE
  8
0
 62
7
 10
3.092973543302899
 20
1.256258922200126
 30
0
 11
3.094545140502146
 21
1.24471215343423
 31
0
  0
LINE
  8
0
 62
7
 10
3.15842436750712
 20
1.297008859939641
 30
0
 11
3.154224085759648
 21
1.268392121502082
 31
0
  0
LINE
  8
0
 62
7
 10
3.228991957406121
 20
1.286651154065447
 30
0
 11
3.15842436750712
 21
1.297008859939641
 31
0
  0
LINE
  8
0
 62
7
 10
3.221702436179898
 20
1.236987266067416
 30
0
 11
3.228991957406121
 21
1.286651154065447
 31
0
  0
LINE
  8
0
 62
7
 10
3.10031726171296
 20
1.306292058435676
 30
0
 11
3.092973543302899
 21
1.256258922200126
 31
0
  0
LINE
  8
0
 62
7
 10
3.275331585150635
 20
1.399255122060073
 30
0
 11
3.282692856406022
 21
1.40506046945136
 31
0
  0
LINE
  8
0
 62
7
 10
3.262560595157513
 20
1.392524331320019
 30
0
 11
3.275331585150635
 21
1.399255122060073
 31
0
  0
LINE
  8
0
 62
7
 10
3.247280498610184
 20
1.391736947193131
 30
0
 11
3.262560595157513
 21
1.392524331320019
 31
0
  0
LINE
  8
0
 62
7
 10
3.23389267377033
 20
1.395214923164109
 30
0
 11
3.247280498610184
 21
1.391736947193131
 31
0
  0
LINE
  8
0
 62
7
 10
3.186919115853569
 20
1.419466628774535
 30
0
 11
3.23389267377033
 21
1.395214923164109
 31
0
  0
LINE
  8
0
 62
7
 10
3.177064815682345
 20
1.427988194642123
 30
0
 11
3.186919115853569
 21
1.419466628774535
 31
0
  0
LINE
  8
0
 62
7
 10
3.173230032382228
 20
1.436165358726052
 30
0
 11
3.177064815682345
 21
1.427988194642123
 31
0
  0
LINE
  8
0
 62
7
 10
3.16963193504377
 20
1.443600592982373
 30
0
 11
3.173230032382228
 21
1.436165358726052
 31
0
  0
LINE
  8
0
 62
7
 10
3.166586889487502
 20
1.45570815619806
 30
0
 11
3.16963193504377
 21
1.443600592982373
 31
0
  0
LINE
  8
0
 62
7
 10
3.167666268163346
 20
1.465996210666577
 30
0
 11
3.166586889487502
 21
1.45570815619806
 31
0
  0
LINE
  8
0
 62
7
 10
3.175623859066851
 20
1.481409409358253
 30
0
 11
3.167666268163346
 21
1.465996210666577
 31
0
  0
LINE
  8
0
 62
7
 10
3.183496623055937
 20
1.487260547437589
 30
0
 11
3.175623859066851
 21
1.481409409358253
 31
0
  0
LINE
  8
0
 62
7
 10
3.19329989373601
 20
1.493044594331528
 30
0
 11
3.183496623055937
 21
1.487260547437589
 31
0
  0
LINE
  8
0
 62
7
 10
3.211184712668926
 20
1.495275998185505
 30
0
 11
3.19329989373601
 21
1.493044594331528
 31
0
  0
LINE
  8
0
 62
7
 10
3.22482276664865
 20
1.492882880995516
 30
0
 11
3.211184712668926
 21
1.495275998185505
 31
0
  0
LINE
  8
0
 62
7
 10
3.272285632460539
 20
1.468378553451621
 30
0
 11
3.22482276664865
 21
1.492882880995516
 31
0
  0
LINE
  8
0
 62
7
 10
3.282023982443891
 20
1.459632401612587
 30
0
 11
3.272285632460539
 21
1.468378553451621
 31
0
  0
LINE
  8
0
 62
7
 10
3.286719038553551
 20
1.451320958575612
 30
0
 11
3.282023982443891
 21
1.459632401612587
 31
0
  0
LINE
  8
0
 62
7
 10
3.291279815710164
 20
1.442149242729065
 30
0
 11
3.286719038553551
 21
1.451320958575612
 31
0
  0
LINE
  8
0
 62
7
 10
3.29239153364404
 20
1.432899023831997
 30
0
 11
3.291279815710164
 21
1.442149242729065
 31
0
  0
LINE
  8
0
 62
7
 10
3.291282002143024
 20
1.421696937880188
 30
0
 11
3.29239153364404
 21
1.432899023831997
 31
0
  0
LINE
  8
0
 62
7
 10
3.282692856406022
 20
1.40506046945136
 30
0
 11
3.291282002143024
 21
1.421696937880188
 31
0
  0
LINE
  8
0
 62
7
 10
3.309145797234014
 20
1.647107088039222
 30
0
 11
3.33721866616777
 21
1.676952574687544
 31
0
  0
LINE
  8
0
 62
7
 10
3.403957383252463
 20
1.557926661562815
 30
0
 11
3.309145797234014
 21
1.647107088039222
 31
0
  0
LINE
  8
0
 62
7
 10
3.280526229194962
 20
1.616680381819431
 30
0
 11
3.309145797234014
 21
1.647107088039222
 31
0
  0
LINE
  8
0
 62
7
 10
3.446729678230811
 20
1.75224756189948
 30
0
 11
3.481118723701031
 21
1.774523840652721
 31
0
  0
LINE
  8
0
 62
7
 10
3.517495799221551
 20
1.64300223508972
 30
0
 11
3.446729678230811
 21
1.75224756189948
 31
0
  0
LINE
  8
0
 62
7
 10
3.411670930620851
 20
1.729537468501425
 30
0
 11
3.446729678230811
 21
1.75224756189948
 31
0
  0
LINE
  8
0
 62
7
 10
4.297927903647636
 20
1.656443304628483
 30
0
 11
4.328202618438766
 21
1.628833873490512
 31
0
  0
LINE
  8
0
 62
7
 10
4.210219702199873
 20
1.560268169023475
 30
0
 11
4.297927903647636
 21
1.656443304628483
 31
0
  0
LINE
  8
0
 62
7
 10
4.267063610373109
 20
1.684590409751167
 30
0
 11
4.297927903647636
 21
1.656443304628483
 31
0
  0
LINE
  8
0
 62
7
 10
4.40389541720938
 20
1.411637024816067
 30
0
 11
4.379783757935352
 21
1.451661608045164
 31
0
  0
LINE
  8
0
 62
7
 10
4.40389541720938
 20
1.411637024816067
 30
0
 11
4.365444409532895
 21
1.348159069666173
 31
0
  0
LINE
  8
0
 62
7
 10
4.379783757935352
 20
1.451661608045164
 30
0
 11
4.436578415636366
 21
1.484712018345774
 31
0
  0
LINE
  8
0
 62
7
 10
4.407877481374118
 20
1.405026925661368
 30
0
 11
4.40389541720938
 21
1.411637024816067
 31
0
  0
LINE
  8
0
 62
7
 10
4.415913586470517
 20
1.395049466269411
 30
0
 11
4.407877481374118
 21
1.405026925661368
 31
0
  0
LINE
  8
0
 62
7
 10
4.425481044963743
 20
1.390104462740012
 30
0
 11
4.415913586470517
 21
1.395049466269411
 31
0
  0
LINE
  8
0
 62
7
 10
4.433767163370372
 20
1.391740758936474
 30
0
 11
4.425481044963743
 21
1.390104462740012
 31
0
  0
LINE
  8
0
 62
7
 10
4.443221653522357
 20
1.39246414885018
 30
0
 11
4.433767163370372
 21
1.391740758936474
 31
0
  0
LINE
  8
0
 62
7
 10
4.455695843992653
 20
1.400041794419929
 30
0
 11
4.443221653522357
 21
1.39246414885018
 31
0
  0
LINE
  8
0
 62
7
 10
4.465620831984867
 20
1.414737186650455
 30
0
 11
4.455695843992653
 21
1.400041794419929
 31
0
  0
LINE
  8
0
 62
7
 10
4.466879229452301
 20
1.424070682918362
 30
0
 11
4.465620831984867
 21
1.414737186650455
 31
0
  0
LINE
  8
0
 62
7
 10
4.464789120187969
 20
1.436234032930806
 30
0
 11
4.466879229452301
 21
1.424070682918362
 31
0
  0
LINE
  8
0
 62
7
 10
4.436578415636366
 20
1.484712018345774
 30
0
 11
4.464789120187969
 21
1.436234032930806
 31
0
  0
LINE
  8
0
 62
7
 10
4.324077691690166
 20
1.419244679760654
 30
0
 11
4.379783757935352
 21
1.451661608045164
 31
0
  0
LINE
  8
0
 62
7
 10
4.460137329268924
 20
1.26635970833723
 30
0
 11
4.390436066930372
 21
1.250579827671929
 31
0
  0
LINE
  8
0
 62
7
 10
4.460137329268924
 20
1.26635970833723
 30
0
 11
4.475541686966186
 21
1.197471458087035
 31
0
  0
LINE
  8
0
 62
7
 10
4.517386295197401
 20
1.279320475764573
 30
0
 11
4.535487963197389
 21
1.199363653733104
 31
0
  0
LINE
  8
0
 62
7
 10
4.390436066930372
 20
1.250579827671929
 30
0
 11
4.408537734930331
 21
1.17062300564046
 31
0
  0
LINE
  8
0
 62
7
 10
4.517386295197401
 20
1.279320475764573
 30
0
 11
4.460137329268924
 21
1.26635970833723
 31
0
  0
LINE
  8
0
 62
7
 10
4.466877738989497
 20
0.997075081839168
 30
0
 11
4.462792569541649
 21
1.007907602133811
 31
0
  0
LINE
  8
0
 62
7
 10
4.469955171118214
 20
0.9874301582587068
 30
0
 11
4.466877738989497
 21
0.997075081839168
 31
0
  0
LINE
  8
0
 62
7
 10
4.478511683005389
 20
0.9839665531378705
 30
0
 11
4.469955171118214
 21
0.9874301582587068
 31
0
  0
LINE
  8
0
 62
7
 10
4.487801515457409
 20
0.9793378337277101
 30
0
 11
4.478511683005389
 21
0.9839665531378705
 31
0
  0
LINE
  8
0
 62
7
 10
4.499943299910739
 20
0.979171857317677
 30
0
 11
4.487801515457409
 21
0.9793378337277101
 31
0
  0
LINE
  8
0
 62
7
 10
4.516331602560051
 20
0.9836306285401806
 30
0
 11
4.499943299910739
 21
0.979171857317677
 31
0
  0
LINE
  8
0
 62
7
 10
4.524527739773608
 20
0.9926281894757996
 30
0
 11
4.516331602560051
 21
0.9836306285401806
 31
0
  0
LINE
  8
0
 62
7
 10
4.528396759527809
 20
1.003914073488908
 30
0
 11
4.524527739773608
 21
0.9926281894757996
 31
0
  0
LINE
  8
0
 62
7
 10
4.532922280207961
 20
1.059151830556395
 30
0
 11
4.528396759527809
 21
1.003914073488908
 31
0
  0
LINE
  8
0
 62
7
 10
4.467430502343677
 20
1.064517442971584
 30
0
 11
4.532922280207961
 21
1.059151830556395
 31
0
  0
LINE
  8
0
 62
7
 10
4.467430502343677
 20
1.064517442971584
 30
0
 11
4.462792569541649
 21
1.007907602133811
 31
0
  0
LINE
  8
0
 62
7
 10
4.40319401490099
 20
1.069780211913982
 30
0
 11
4.467430502343677
 21
1.064517442971584
 31
0
  0
LINE
  8
0
 62
7
 10
4.400144641954292
 20
0.8050186461391569
 30
0
 11
4.3994938434566
 21
0.8165775633318116
 31
0
  0
LINE
  8
0
 62
7
 10
4.400189958416262
 20
0.7948947592473707
 30
0
 11
4.400144641954292
 21
0.8050186461391569
 31
0
  0
LINE
  8
0
 62
7
 10
4.407315072429031
 20
0.7890259257675498
 30
0
 11
4.400189958416262
 21
0.7948947592473707
 31
0
  0
LINE
  8
0
 62
7
 10
4.414790604435416
 20
0.7818257555204911
 30
0
 11
4.407315072429031
 21
0.7890259257675498
 31
0
  0
LINE
  8
0
 62
7
 10
4.426324502882941
 20
0.7780284321893123
 30
0
 11
4.414790604435416
 21
0.7818257555204911
 31
0
  0
LINE
  8
0
 62
7
 10
4.443295781514622
 20
0.7773705521505037
 30
0
 11
4.426324502882941
 21
0.7780284321893123
 31
0
  0
LINE
  8
0
 62
7
 10
4.453811784307982
 20
0.7834980682267343
 30
0
 11
4.443295781514622
 21
0.7773705521505037
 31
0
  0
LINE
  8
0
 62
7
 10
4.460885407719834
 20
0.793105583183322
 30
0
 11
4.453811784307982
 21
0.7834980682267343
 31
0
  0
LINE
  8
0
 62
7
 10
4.481758033411854
 20
0.844447804015712
 30
0
 11
4.460885407719834
 21
0.793105583183322
 31
0
  0
LINE
  8
0
 62
7
 10
4.420884936814153
 20
0.8691951043739682
 30
0
 11
4.481758033411854
 21
0.844447804015712
 31
0
  0
LINE
  8
0
 62
7
 10
4.420884936814153
 20
0.8691951043739682
 30
0
 11
4.3994938434566
 21
0.8165775633318116
 31
0
  0
LINE
  8
0
 62
7
 10
4.3611786037032
 20
0.8934680696307334
 30
0
 11
4.420884936814153
 21
0.8691951043739682
 31
0
  0
LINE
  8
0
 62
7
 10
4.323346352728071
 20
0.6923343821207527
 30
0
 11
4.268252618806364
 21
0.7378530715567178
 31
0
  0
LINE
  8
0
 62
7
 10
4.323346352728071
 20
0.6923343821207527
 30
0
 11
4.278241572378189
 21
0.6380348052514601
 31
0
  0
LINE
  8
0
 62
7
 10
4.368597459958154
 20
0.6549477148898587
 30
0
 11
4.31638133605705
 21
0.5917477134777001
 31
0
  0
LINE
  8
0
 62
7
 10
4.268252618806364
 20
0.7378530715567178
 30
0
 11
4.21603649490526
 21
0.6746530701445299
 31
0
  0
LINE
  8
0
 62
7
 10
4.368597459958154
 20
0.6549477148898587
 30
0
 11
4.323346352728071
 21
0.6923343821207527
 31
0
  0
LINE
  8
0
 62
7
 10
4.3352161079121
 20
6.273590337345377
 30
0
 11
3.2796352826597
 21
6.273590337345377
 31
0
  0
LINE
  8
0
 62
7
 10
4.3352161079121
 20
6.273590337345377
 30
0
 11
4.3352161079121
 21
6.338590337345376
 31
0
  0
LINE
  8
0
 62
7
 10
3.2796352826597
 20
6.338590337345376
 30
0
 11
4.3352161079121
 21
6.338590337345376
 31
0
  0
LINE
  8
0
 62
7
 10
3.2796352826597
 20
6.273590337345377
 30
0
 11
3.2796352826597
 21
6.338590337345376
 31
0
  0
LINE
  8
0
 62
7
 10
3.878225695285903
 20
3.603590337345377
 30
0
 11
3.878225695285903
 21
3.588590337345377
 31
0
  0
LINE
  8
0
 62
7
 10
3.858225695285904
 20
3.603590337345377
 30
0
 11
3.878225695285903
 21
3.603590337345377
 31
0
  0
LINE
  8
0
 62
7
 10
3.858225695285904
 20
3.645018908773899
 30
0
 11
3.858225695285904
 21
3.603590337345377
 31
0
  0
LINE
  8
0
 62
7
 10
3.868225695285903
 20
3.645018908773899
 30
0
 11
3.858225695285904
 21
3.645018908773899
 31
0
  0
LINE
  8
0
 62
7
 10
3.868225695285903
 20
3.705018908773899
 30
0
 11
3.868225695285903
 21
3.645018908773899
 31
0
  0
LINE
  8
0
 62
7
 10
3.878225695285903
 20
3.705018908773899
 30
0
 11
3.868225695285903
 21
3.705018908773899
 31
0
  0
LINE
  8
0
 62
7
 10
3.878225695285903
 20
3.720018908773898
 30
0
 11
3.878225695285903
 21
3.705018908773899
 31
0
  0
LINE
  8
0
 62
7
 10
3.736625695285911
 20
3.720018908773898
 30
0
 11
3.878225695285903
 21
3.720018908773898
 31
0
  0
LINE
  8
0
 62
7
 10
3.736625695285911
 20
3.705018908773899
 30
0
 11
3.736625695285911
 21
3.720018908773898
 31
0
  0
LINE
  8
0
 62
7
 10
3.746625695285911
 20
3.705018908773899
 30
0
 11
3.736625695285911
 21
3.705018908773899
 31
0
  0
LINE
  8
0
 62
7
 10
3.746625695285911
 20
3.645018908773899
 30
0
 11
3.746625695285911
 21
3.705018908773899
 31
0
  0
LINE
  8
0
 62
7
 10
3.756625695285912
 20
3.645018908773899
 30
0
 11
3.746625695285911
 21
3.645018908773899
 31
0
  0
LINE
  8
0
 62
7
 10
3.756625695285912
 20
3.603590337345377
 30
0
 11
3.756625695285912
 21
3.645018908773899
 31
0
  0
LINE
  8
0
 62
7
 10
3.736625695285911
 20
3.603590337345377
 30
0
 11
3.756625695285912
 21
3.603590337345377
 31
0
  0
LINE
  8
0
 62
7
 10
3.736625695285911
 20
3.588590337345377
 30
0
 11
3.736625695285911
 21
3.603590337345377
 31
0
  0
LINE
  8
0
 62
7
 10
3.736625695285911
 20
3.603590337345377
 30
0
 11
3.878225695285903
 21
3.603590337345377
 31
0
  0
LINE
  8
0
 62
7
 10
3.868225695285903
 20
3.645018908773899
 30
0
 11
3.746625695285911
 21
3.645018908773899
 31
0
  0
LINE
  8
0
 62
7
 10
3.736625695285911
 20
3.705018908773899
 30
0
 11
3.878225695285903
 21
3.705018908773899
 31
0
  0
LINE
  8
0
 62
7
  6
DASHDOT
 10
4.099503006902
 20
3.388590337345377
 30
0
 11
4.099503006902
 21
3.805018908773899
 31
0
  0
LINE
  8
0
 62
7
 10
3.878225695285903
 20
3.785018908773898
 30
0
 11
3.807425695285988
 21
3.785018908773898
 31
0
  0
LINE
  8
0
 62
7
 10
4.447628015473398
 20
3.720018908773898
 30
0
 11
4.447628015473398
 21
3.785018908773898
 31
0
  0
LINE
  8
0
 62
7
 10
3.691082635019804
 20
3.720018908773898
 30
0
 11
4.447628015473398
 21
3.720018908773898
 31
0
  0
LINE
  8
0
 62
7
 10
3.691082635019804
 20
3.785018908773898
 30
0
 11
3.691082635019804
 21
3.720018908773898
 31
0
  0
LINE
  8
0
 62
7
 10
3.736625695285911
 20
3.785018908773898
 30
0
 11
3.691082635019804
 21
3.785018908773898
 31
0
  0
LINE
  8
0
 62
7
 10
3.878225695285903
 20
3.800018908773898
 30
0
 11
3.878225695285903
 21
3.785018908773898
 31
0
  0
LINE
  8
0
 62
7
 10
3.858225695285904
 20
3.800018908773898
 30
0
 11
3.878225695285903
 21
3.800018908773898
 31
0
  0
LINE
  8
0
 62
7
 10
3.858225695285904
 20
3.841447480202478
 30
0
 11
3.858225695285904
 21
3.800018908773898
 31
0
  0
LINE
  8
0
 62
7
 10
3.868225695285903
 20
3.841447480202478
 30
0
 11
3.858225695285904
 21
3.841447480202478
 31
0
  0
LINE
  8
0
 62
7
 10
3.868225695285903
 20
3.901447480202478
 30
0
 11
3.868225695285903
 21
3.841447480202478
 31
0
  0
LINE
  8
0
 62
7
 10
3.878225695285903
 20
3.901447480202478
 30
0
 11
3.868225695285903
 21
3.901447480202478
 31
0
  0
LINE
  8
0
 62
7
 10
3.878225695285903
 20
3.916447480202478
 30
0
 11
3.878225695285903
 21
3.901447480202478
 31
0
  0
LINE
  8
0
 62
7
 10
3.736625695285911
 20
3.916447480202478
 30
0
 11
3.878225695285903
 21
3.916447480202478
 31
0
  0
LINE
  8
0
 62
7
 10
3.736625695285911
 20
3.901447480202478
 30
0
 11
3.736625695285911
 21
3.916447480202478
 31
0
  0
LINE
  8
0
 62
7
 10
3.746625695285911
 20
3.901447480202478
 30
0
 11
3.736625695285911
 21
3.901447480202478
 31
0
  0
LINE
  8
0
 62
7
 10
3.746625695285911
 20
3.841447480202478
 30
0
 11
3.746625695285911
 21
3.901447480202478
 31
0
  0
LINE
  8
0
 62
7
 10
3.756625695285912
 20
3.841447480202478
 30
0
 11
3.746625695285911
 21
3.841447480202478
 31
0
  0
LINE
  8
0
 62
7
 10
3.756625695285912
 20
3.800018908773898
 30
0
 11
3.756625695285912
 21
3.841447480202478
 31
0
  0
LINE
  8
0
 62
7
 10
3.736625695285911
 20
3.800018908773898
 30
0
 11
3.756625695285912
 21
3.800018908773898
 31
0
  0
LINE
  8
0
 62
7
 10
3.736625695285911
 20
3.785018908773898
 30
0
 11
3.736625695285911
 21
3.800018908773898
 31
0
  0
LINE
  8
0
 62
7
 10
3.807425695285988
 20
3.785018908773898
 30
0
 11
3.736625695285911
 21
3.785018908773898
 31
0
  0
LINE
  8
0
 62
7
 10
3.736625695285911
 20
3.800018908773898
 30
0
 11
3.878225695285903
 21
3.800018908773898
 31
0
  0
LINE
  8
0
 62
7
 10
3.868225695285903
 20
3.841447480202478
 30
0
 11
3.746625695285911
 21
3.841447480202478
 31
0
  0
LINE
  8
0
 62
7
 10
3.736625695285911
 20
3.901447480202478
 30
0
 11
3.878225695285903
 21
3.901447480202478
 31
0
  0
LINE
  8
0
 62
7
 10
4.447628015473398
 20
3.785018908773898
 30
0
 11
3.878225695285903
 21
3.785018908773898
 31
0
  0
LINE
  8
0
 62
7
 10
3.878225695285903
 20
3.981447480202478
 30
0
 11
3.807425695285988
 21
3.981447480202478
 31
0
  0
LINE
  8
0
 62
7
 10
4.632531824860984
 20
3.916447480202478
 30
0
 11
4.632531824860984
 21
3.981447480202478
 31
0
  0
LINE
  8
0
 62
7
 10
3.687299769850695
 20
3.916447480202478
 30
0
 11
4.632531824860984
 21
3.916447480202478
 31
0
  0
LINE
  8
0
 62
7
 10
3.687299769850695
 20
3.981447480202478
 30
0
 11
3.687299769850695
 21
3.916447480202478
 31
0
  0
LINE
  8
0
 62
7
 10
3.736625695285911
 20
3.981447480202478
 30
0
 11
3.687299769850695
 21
3.981447480202478
 31
0
  0
LINE
  8
0
 62
7
 10
3.878225695285903
 20
3.996447480202479
 30
0
 11
3.878225695285903
 21
3.981447480202478
 31
0
  0
LINE
  8
0
 62
7
 10
3.858225695285904
 20
3.996447480202479
 30
0
 11
3.878225695285903
 21
3.996447480202479
 31
0
  0
LINE
  8
0
 62
7
 10
3.858225695285904
 20
4.037876051631116
 30
0
 11
3.858225695285904
 21
3.996447480202479
 31
0
  0
LINE
  8
0
 62
7
 10
3.868225695285903
 20
4.037876051631116
 30
0
 11
3.858225695285904
 21
4.037876051631116
 31
0
  0
LINE
  8
0
 62
7
 10
3.868225695285903
 20
4.097876051631117
 30
0
 11
3.868225695285903
 21
4.037876051631116
 31
0
  0
LINE
  8
0
 62
7
 10
3.878225695285903
 20
4.097876051631117
 30
0
 11
3.868225695285903
 21
4.097876051631117
 31
0
  0
LINE
  8
0
 62
7
 10
3.878225695285903
 20
4.112876051631116
 30
0
 11
3.878225695285903
 21
4.097876051631117
 31
0
  0
LINE
  8
0
 62
7
 10
3.736625695285911
 20
4.112876051631116
 30
0
 11
3.878225695285903
 21
4.112876051631116
 31
0
  0
LINE
  8
0
 62
7
 10
3.736625695285911
 20
4.097876051631117
 30
0
 11
3.736625695285911
 21
4.112876051631116
 31
0
  0
LINE
  8
0
 62
7
 10
3.746625695285911
 20
4.097876051631117
 30
0
 11
3.736625695285911
 21
4.097876051631117
 31
0
  0
LINE
  8
0
 62
7
 10
3.746625695285911
 20
4.037876051631116
 30
0
 11
3.746625695285911
 21
4.097876051631117
 31
0
  0
LINE
  8
0
 62
7
 10
3.756625695285912
 20
4.037876051631116
 30
0
 11
3.746625695285911
 21
4.037876051631116
 31
0
  0
LINE
  8
0
 62
7
 10
3.756625695285912
 20
3.996447480202479
 30
0
 11
3.756625695285912
 21
4.037876051631116
 31
0
  0
LINE
  8
0
 62
7
 10
3.736625695285911
 20
3.996447480202479
 30
0
 11
3.756625695285912
 21
3.996447480202479
 31
0
  0
LINE
  8
0
 62
7
 10
3.736625695285911
 20
3.981447480202478
 30
0
 11
3.736625695285911
 21
3.996447480202479
 31
0
  0
LINE
  8
0
 62
7
 10
3.807425695285988
 20
3.981447480202478
 30
0
 11
3.736625695285911
 21
3.981447480202478
 31
0
  0
LINE
  8
0
 62
7
 10
3.736625695285911
 20
3.996447480202479
 30
0
 11
3.878225695285903
 21
3.996447480202479
 31
0
  0
LINE
  8
0
 62
7
 10
3.868225695285903
 20
4.037876051631116
 30
0
 11
3.746625695285911
 21
4.037876051631116
 31
0
  0
LINE
  8
0
 62
7
 10
3.736625695285911
 20
4.097876051631117
 30
0
 11
3.878225695285903
 21
4.097876051631117
 31
0
  0
LINE
  8
0
 62
7
 10
4.632531824860984
 20
3.981447480202478
 30
0
 11
3.878225695285903
 21
3.981447480202478
 31
0
  0
LINE
  8
0
 62
7
 10
3.878225695285903
 20
4.177876051631116
 30
0
 11
3.807425695285988
 21
4.177876051631116
 31
0
  0
LINE
  8
0
 62
7
 10
4.680197163998397
 20
4.112876051631116
 30
0
 11
4.680197163998397
 21
4.177876051631116
 31
0
  0
LINE
  8
0
 62
7
 10
3.703497241336299
 20
4.112876051631116
 30
0
 11
4.680197163998397
 21
4.112876051631116
 31
0
  0
LINE
  8
0
 62
7
 10
3.703497241336299
 20
4.177876051631116
 30
0
 11
3.703497241336299
 21
4.112876051631116
 31
0
  0
LINE
  8
0
 62
7
 10
3.736625695285911
 20
4.177876051631116
 30
0
 11
3.703497241336299
 21
4.177876051631116
 31
0
  0
LINE
  8
0
 62
7
 10
3.878225695285903
 20
4.192876051631116
 30
0
 11
3.878225695285903
 21
4.177876051631116
 31
0
  0
LINE
  8
0
 62
7
 10
3.858225695285904
 20
4.192876051631116
 30
0
 11
3.878225695285903
 21
4.192876051631116
 31
0
  0
LINE
  8
0
 62
7
 10
3.858225695285904
 20
4.234304623059697
 30
0
 11
3.858225695285904
 21
4.192876051631116
 31
0
  0
LINE
  8
0
 62
7
 10
3.868225695285903
 20
4.234304623059697
 30
0
 11
3.858225695285904
 21
4.234304623059697
 31
0
  0
LINE
  8
0
 62
7
 10
3.868225695285903
 20
4.294304623059697
 30
0
 11
3.868225695285903
 21
4.234304623059697
 31
0
  0
LINE
  8
0
 62
7
 10
3.878225695285903
 20
4.294304623059697
 30
0
 11
3.868225695285903
 21
4.294304623059697
 31
0
  0
LINE
  8
0
 62
7
 10
3.878225695285903
 20
4.309304623059697
 30
0
 11
3.878225695285903
 21
4.294304623059697
 31
0
  0
LINE
  8
0
 62
7
 10
3.736625695285911
 20
4.309304623059697
 30
0
 11
3.878225695285903
 21
4.309304623059697
 31
0
  0
LINE
  8
0
 62
7
 10
3.736625695285911
 20
4.294304623059697
 30
0
 11
3.736625695285911
 21
4.309304623059697
 31
0
  0
LINE
  8
0
 62
7
 10
3.746625695285911
 20
4.294304623059697
 30
0
 11
3.736625695285911
 21
4.294304623059697
 31
0
  0
LINE
  8
0
 62
7
 10
3.746625695285911
 20
4.234304623059697
 30
0
 11
3.746625695285911
 21
4.294304623059697
 31
0
  0
LINE
  8
0
 62
7
 10
3.756625695285912
 20
4.234304623059697
 30
0
 11
3.746625695285911
 21
4.234304623059697
 31
0
  0
LINE
  8
0
 62
7
 10
3.756625695285912
 20
4.192876051631116
 30
0
 11
3.756625695285912
 21
4.234304623059697
 31
0
  0
LINE
  8
0
 62
7
 10
3.736625695285911
 20
4.192876051631116
 30
0
 11
3.756625695285912
 21
4.192876051631116
 31
0
  0
LINE
  8
0
 62
7
 10
3.736625695285911
 20
4.177876051631116
 30
0
 11
3.736625695285911
 21
4.192876051631116
 31
0
  0
LINE
  8
0
 62
7
 10
3.807425695285988
 20
4.177876051631116
 30
0
 11
3.736625695285911
 21
4.177876051631116
 31
0
  0
LINE
  8
0
 62
7
 10
3.736625695285911
 20
4.192876051631116
 30
0
 11
3.878225695285903
 21
4.192876051631116
 31
0
  0
LINE
  8
0
 62
7
 10
3.868225695285903
 20
4.234304623059697
 30
0
 11
3.746625695285911
 21
4.234304623059697
 31
0
  0
LINE
  8
0
 62
7
 10
3.736625695285911
 20
4.294304623059697
 30
0
 11
3.878225695285903
 21
4.294304623059697
 31
0
  0
LINE
  8
0
 62
7
 10
4.680197163998397
 20
4.177876051631116
 30
0
 11
3.878225695285903
 21
4.177876051631116
 31
0
  0
LINE
  8
0
 62
7
 10
3.878225695285903
 20
4.374304623059697
 30
0
 11
3.807425695285988
 21
4.374304623059697
 31
0
  0
LINE
  8
0
 62
7
 10
4.682373776723398
 20
4.309304623059697
 30
0
 11
4.682373776723398
 21
4.374304623059697
 31
0
  0
LINE
  8
0
 62
7
 10
3.699926051651303
 20
4.309304623059697
 30
0
 11
4.682373776723398
 21
4.309304623059697
 31
0
  0
LINE
  8
0
 62
7
 10
3.699926051651303
 20
4.374304623059697
 30
0
 11
3.699926051651303
 21
4.309304623059697
 31
0
  0
LINE
  8
0
 62
7
 10
3.736625695285911
 20
4.374304623059697
 30
0
 11
3.699926051651303
 21
4.374304623059697
 31
0
  0
LINE
  8
0
 62
7
 10
3.878225695285903
 20
4.389304623059696
 30
0
 11
3.878225695285903
 21
4.374304623059697
 31
0
  0
LINE
  8
0
 62
7
 10
3.858225695285904
 20
4.389304623059696
 30
0
 11
3.878225695285903
 21
4.389304623059696
 31
0
  0
LINE
  8
0
 62
7
 10
3.858225695285904
 20
4.430733194488218
 30
0
 11
3.858225695285904
 21
4.389304623059696
 31
0
  0
LINE
  8
0
 62
7
 10
3.868225695285903
 20
4.430733194488218
 30
0
 11
3.858225695285904
 21
4.430733194488218
 31
0
  0
LINE
  8
0
 62
7
 10
3.868225695285903
 20
4.490733194488217
 30
0
 11
3.868225695285903
 21
4.430733194488218
 31
0
  0
LINE
  8
0
 62
7
 10
3.878225695285903
 20
4.490733194488217
 30
0
 11
3.868225695285903
 21
4.490733194488217
 31
0
  0
LINE
  8
0
 62
7
 10
3.878225695285903
 20
4.505733194488218
 30
0
 11
3.878225695285903
 21
4.490733194488217
 31
0
  0
LINE
  8
0
 62
7
 10
3.736625695285911
 20
4.505733194488218
 30
0
 11
3.878225695285903
 21
4.505733194488218
 31
0
  0
LINE
  8
0
 62
7
 10
3.736625695285911
 20
4.490733194488217
 30
0
 11
3.736625695285911
 21
4.505733194488218
 31
0
  0
LINE
  8
0
 62
7
 10
3.746625695285911
 20
4.490733194488217
 30
0
 11
3.736625695285911
 21
4.490733194488217
 31
0
  0
LINE
  8
0
 62
7
 10
3.746625695285911
 20
4.430733194488218
 30
0
 11
3.746625695285911
 21
4.490733194488217
 31
0
  0
LINE
  8
0
 62
7
 10
3.756625695285912
 20
4.430733194488218
 30
0
 11
3.746625695285911
 21
4.430733194488218
 31
0
  0
LINE
  8
0
 62
7
 10
3.756625695285912
 20
4.389304623059696
 30
0
 11
3.756625695285912
 21
4.430733194488218
 31
0
  0
LINE
  8
0
 62
7
 10
3.736625695285911
 20
4.389304623059696
 30
0
 11
3.756625695285912
 21
4.389304623059696
 31
0
  0
LINE
  8
0
 62
7
 10
3.736625695285911
 20
4.374304623059697
 30
0
 11
3.736625695285911
 21
4.389304623059696
 31
0
  0
LINE
  8
0
 62
7
 10
3.807425695285988
 20
4.374304623059697
 30
0
 11
3.736625695285911
 21
4.374304623059697
 31
0
  0
LINE
  8
0
 62
7
 10
3.736625695285911
 20
4.389304623059696
 30
0
 11
3.878225695285903
 21
4.389304623059696
 31
0
  0
LINE
  8
0
 62
7
 10
3.868225695285903
 20
4.430733194488218
 30
0
 11
3.746625695285911
 21
4.430733194488218
 31
0
  0
LINE
  8
0
 62
7
 10
3.736625695285911
 20
4.490733194488217
 30
0
 11
3.878225695285903
 21
4.490733194488217
 31
0
  0
LINE
  8
0
 62
7
 10
4.682373776723398
 20
4.374304623059697
 30
0
 11
3.878225695285903
 21
4.374304623059697
 31
0
  0
LINE
  8
0
 62
7
 10
3.878225695285903
 20
4.570733194488217
 30
0
 11
3.807425695285988
 21
4.570733194488217
 31
0
  0
LINE
  8
0
 62
7
 10
4.613415176435898
 20
4.505733194488218
 30
0
 11
4.613415176435898
 21
4.570733194488217
 31
0
  0
LINE
  8
0
 62
7
 10
3.686579601411999
 20
4.505733194488218
 30
0
 11
4.613415176435898
 21
4.505733194488218
 31
0
  0
LINE
  8
0
 62
7
 10
3.686579601411999
 20
4.570733194488217
 30
0
 11
3.686579601411999
 21
4.505733194488218
 31
0
  0
LINE
  8
0
 62
7
 10
3.736625695285911
 20
4.570733194488217
 30
0
 11
3.686579601411999
 21
4.570733194488217
 31
0
  0
LINE
  8
0
 62
7
 10
3.878225695285903
 20
4.585733194488217
 30
0
 11
3.878225695285903
 21
4.570733194488217
 31
0
  0
LINE
  8
0
 62
7
 10
3.858225695285904
 20
4.585733194488217
 30
0
 11
3.878225695285903
 21
4.585733194488217
 31
0
  0
LINE
  8
0
 62
7
 10
3.858225695285904
 20
4.627161765916798
 30
0
 11
3.858225695285904
 21
4.585733194488217
 31
0
  0
LINE
  8
0
 62
7
 10
3.868225695285903
 20
4.627161765916798
 30
0
 11
3.858225695285904
 21
4.627161765916798
 31
0
  0
LINE
  8
0
 62
7
 10
3.868225695285903
 20
4.687161765916797
 30
0
 11
3.868225695285903
 21
4.627161765916798
 31
0
  0
LINE
  8
0
 62
7
 10
3.878225695285903
 20
4.687161765916797
 30
0
 11
3.868225695285903
 21
4.687161765916797
 31
0
  0
LINE
  8
0
 62
7
 10
3.878225695285903
 20
4.702161765916798
 30
0
 11
3.878225695285903
 21
4.687161765916797
 31
0
  0
LINE
  8
0
 62
7
 10
3.736625695285911
 20
4.702161765916798
 30
0
 11
3.878225695285903
 21
4.702161765916798
 31
0
  0
LINE
  8
0
 62
7
 10
3.736625695285911
 20
4.687161765916797
 30
0
 11
3.736625695285911
 21
4.702161765916798
 31
0
  0
LINE
  8
0
 62
7
 10
3.746625695285911
 20
4.687161765916797
 30
0
 11
3.736625695285911
 21
4.687161765916797
 31
0
  0
LINE
  8
0
 62
7
 10
3.746625695285911
 20
4.627161765916798
 30
0
 11
3.746625695285911
 21
4.687161765916797
 31
0
  0
LINE
  8
0
 62
7
 10
3.756625695285912
 20
4.627161765916798
 30
0
 11
3.746625695285911
 21
4.627161765916798
 31
0
  0
LINE
  8
0
 62
7
 10
3.756625695285912
 20
4.585733194488217
 30
0
 11
3.756625695285912
 21
4.627161765916798
 31
0
  0
LINE
  8
0
 62
7
 10
3.736625695285911
 20
4.585733194488217
 30
0
 11
3.756625695285912
 21
4.585733194488217
 31
0
  0
LINE
  8
0
 62
7
 10
3.736625695285911
 20
4.570733194488217
 30
0
 11
3.736625695285911
 21
4.585733194488217
 31
0
  0
LINE
  8
0
 62
7
 10
3.807425695285988
 20
4.570733194488217
 30
0
 11
3.736625695285911
 21
4.570733194488217
 31
0
  0
LINE
  8
0
 62
7
 10
3.736625695285911
 20
4.585733194488217
 30
0
 11
3.878225695285903
 21
4.585733194488217
 31
0
  0
LINE
  8
0
 62
7
 10
3.868225695285903
 20
4.627161765916798
 30
0
 11
3.746625695285911
 21
4.627161765916798
 31
0
  0
LINE
  8
0
 62
7
 10
3.736625695285911
 20
4.687161765916797
 30
0
 11
3.878225695285903
 21
4.687161765916797
 31
0
  0
LINE
  8
0
 62
7
 10
4.613415176435898
 20
4.570733194488217
 30
0
 11
3.878225695285903
 21
4.570733194488217
 31
0
  0
LINE
  8
0
 62
7
 10
3.878225695285903
 20
4.767161765916797
 30
0
 11
3.807425695285988
 21
4.767161765916797
 31
0
  0
LINE
  8
0
 62
7
 10
4.410397744773393
 20
4.702161765916798
 30
0
 11
4.410397744773393
 21
4.767161765916797
 31
0
  0
LINE
  8
0
 62
7
 10
3.693333272205695
 20
4.702161765916798
 30
0
 11
4.410397744773393
 21
4.702161765916798
 31
0
  0
LINE
  8
0
 62
7
 10
3.693333272205695
 20
4.767161765916797
 30
0
 11
3.693333272205695
 21
4.702161765916798
 31
0
  0
LINE
  8
0
 62
7
 10
3.736625695285911
 20
4.767161765916797
 30
0
 11
3.693333272205695
 21
4.767161765916797
 31
0
  0
LINE
  8
0
 62
7
 10
3.878225695285903
 20
4.782161765916797
 30
0
 11
3.878225695285903
 21
4.767161765916797
 31
0
  0
LINE
  8
0
 62
7
 10
3.858225695285904
 20
4.782161765916797
 30
0
 11
3.878225695285903
 21
4.782161765916797
 31
0
  0
LINE
  8
0
 62
7
 10
3.858225695285904
 20
4.823590337345378
 30
0
 11
3.858225695285904
 21
4.782161765916797
 31
0
  0
LINE
  8
0
 62
7
 10
3.868225695285903
 20
4.823590337345378
 30
0
 11
3.858225695285904
 21
4.823590337345378
 31
0
  0
LINE
  8
0
 62
7
 10
3.868225695285903
 20
4.883590337345378
 30
0
 11
3.868225695285903
 21
4.823590337345378
 31
0
  0
LINE
  8
0
 62
7
 10
3.878225695285903
 20
4.883590337345378
 30
0
 11
3.868225695285903
 21
4.883590337345378
 31
0
  0
LINE
  8
0
 62
7
 10
3.878225695285903
 20
4.898590337345378
 30
0
 11
3.878225695285903
 21
4.883590337345378
 31
0
  0
LINE
  8
0
 62
7
 10
3.736625695285911
 20
4.898590337345378
 30
0
 11
3.878225695285903
 21
4.898590337345378
 31
0
  0
LINE
  8
0
 62
7
 10
3.736625695285911
 20
4.883590337345378
 30
0
 11
3.736625695285911
 21
4.898590337345378
 31
0
  0
LINE
  8
0
 62
7
 10
3.746625695285911
 20
4.883590337345378
 30
0
 11
3.736625695285911
 21
4.883590337345378
 31
0
  0
LINE
  8
0
 62
7
 10
3.746625695285911
 20
4.823590337345378
 30
0
 11
3.746625695285911
 21
4.883590337345378
 31
0
  0
LINE
  8
0
 62
7
 10
3.756625695285912
 20
4.823590337345378
 30
0
 11
3.746625695285911
 21
4.823590337345378
 31
0
  0
LINE
  8
0
 62
7
 10
3.756625695285912
 20
4.782161765916797
 30
0
 11
3.756625695285912
 21
4.823590337345378
 31
0
  0
LINE
  8
0
 62
7
 10
3.736625695285911
 20
4.782161765916797
 30
0
 11
3.756625695285912
 21
4.782161765916797
 31
0
  0
LINE
  8
0
 62
7
 10
3.736625695285911
 20
4.767161765916797
 30
0
 11
3.736625695285911
 21
4.782161765916797
 31
0
  0
LINE
  8
0
 62
7
 10
3.807425695285988
 20
4.767161765916797
 30
0
 11
3.736625695285911
 21
4.767161765916797
 31
0
  0
LINE
  8
0
 62
7
 10
3.736625695285911
 20
4.782161765916797
 30
0
 11
3.878225695285903
 21
4.782161765916797
 31
0
  0
LINE
  8
0
 62
7
 10
3.868225695285903
 20
4.823590337345378
 30
0
 11
3.746625695285911
 21
4.823590337345378
 31
0
  0
LINE
  8
0
 62
7
 10
3.736625695285911
 20
4.883590337345378
 30
0
 11
3.878225695285903
 21
4.883590337345378
 31
0
  0
LINE
  8
0
 62
7
 10
4.410397744773393
 20
4.767161765916797
 30
0
 11
3.878225695285903
 21
4.767161765916797
 31
0
  0
LINE
  8
0
 62
7
 10
3.878225695285903
 20
4.963590337345378
 30
0
 11
3.807425695285988
 21
4.963590337345378
 31
0
  0
LINE
  8
0
 62
7
 10
4.107089018860905
 20
4.898590337345378
 30
0
 11
4.107089018860905
 21
4.963590337345378
 31
0
  0
LINE
  8
0
 62
7
 10
3.682339815660991
 20
4.898590337345378
 30
0
 11
4.107089018860905
 21
4.898590337345378
 31
0
  0
LINE
  8
0
 62
7
 10
3.682339815660991
 20
4.963590337345378
 30
0
 11
3.682339815660991
 21
4.898590337345378
 31
0
  0
LINE
  8
0
 62
7
 10
3.736625695285911
 20
4.963590337345378
 30
0
 11
3.682339815660991
 21
4.963590337345378
 31
0
  0
LINE
  8
0
 62
7
 10
3.878225695285903
 20
4.978590337345378
 30
0
 11
3.878225695285903
 21
4.963590337345378
 31
0
  0
LINE
  8
0
 62
7
 10
4.107089018860905
 20
4.963590337345378
 30
0
 11
3.878225695285903
 21
4.963590337345378
 31
0
  0
LINE
  8
0
 62
7
 10
3.858225695285904
 20
4.978590337345378
 30
0
 11
3.878225695285903
 21
4.978590337345378
 31
0
  0
LINE
  8
0
 62
7
 10
3.858225695285904
 20
5.020018908773899
 30
0
 11
3.858225695285904
 21
4.978590337345378
 31
0
  0
LINE
  8
0
 62
7
 10
3.868225695285903
 20
5.020018908773899
 30
0
 11
3.858225695285904
 21
5.020018908773899
 31
0
  0
LINE
  8
0
 62
7
 10
3.868225695285903
 20
5.080018908773899
 30
0
 11
3.868225695285903
 21
5.020018908773899
 31
0
  0
LINE
  8
0
 62
7
 10
3.878225695285903
 20
5.080018908773899
 30
0
 11
3.868225695285903
 21
5.080018908773899
 31
0
  0
LINE
  8
0
 62
7
 10
3.878225695285903
 20
5.095018908773898
 30
0
 11
3.878225695285903
 21
5.080018908773899
 31
0
  0
LINE
  8
0
 62
7
 10
3.736625695285911
 20
5.095018908773898
 30
0
 11
3.878225695285903
 21
5.095018908773898
 31
0
  0
LINE
  8
0
 62
7
 10
3.736625695285911
 20
5.080018908773899
 30
0
 11
3.736625695285911
 21
5.095018908773898
 31
0
  0
LINE
  8
0
 62
7
 10
3.746625695285911
 20
5.080018908773899
 30
0
 11
3.736625695285911
 21
5.080018908773899
 31
0
  0
LINE
  8
0
 62
7
 10
3.746625695285911
 20
5.020018908773899
 30
0
 11
3.746625695285911
 21
5.080018908773899
 31
0
  0
LINE
  8
0
 62
7
 10
3.756625695285912
 20
5.020018908773899
 30
0
 11
3.746625695285911
 21
5.020018908773899
 31
0
  0
LINE
  8
0
 62
7
 10
3.756625695285912
 20
4.978590337345378
 30
0
 11
3.756625695285912
 21
5.020018908773899
 31
0
  0
LINE
  8
0
 62
7
 10
3.736625695285911
 20
4.978590337345378
 30
0
 11
3.756625695285912
 21
4.978590337345378
 31
0
  0
LINE
  8
0
 62
7
 10
3.736625695285911
 20
4.963590337345378
 30
0
 11
3.736625695285911
 21
4.978590337345378
 31
0
  0
LINE
  8
0
 62
7
 10
3.807425695285988
 20
4.963590337345378
 30
0
 11
3.736625695285911
 21
4.963590337345378
 31
0
  0
LINE
  8
0
 62
7
 10
3.736625695285911
 20
4.978590337345378
 30
0
 11
3.878225695285903
 21
4.978590337345378
 31
0
  0
LINE
  8
0
 62
7
 10
3.868225695285903
 20
5.020018908773899
 30
0
 11
3.746625695285911
 21
5.020018908773899
 31
0
  0
LINE
  8
0
 62
7
 10
3.736625695285911
 20
5.080018908773899
 30
0
 11
3.878225695285903
 21
5.080018908773899
 31
0
  0
LINE
  8
0
 62
7
 10
3.878225695285903
 20
5.1600189087739
 30
0
 11
3.807425695285988
 21
5.1600189087739
 31
0
  0
LINE
  8
0
 62
7
 10
3.910778578082596
 20
5.095018908773898
 30
0
 11
3.910778578082596
 21
5.1600189087739
 31
0
  0
LINE
  8
0
 62
7
 10
3.3469743877109
 20
5.095018908773898
 30
0
 11
3.910778578082596
 21
5.095018908773898
 31
0
  0
LINE
  8
0
 62
7
 10
3.3469743877109
 20
5.1600189087739
 30
0
 11
3.3469743877109
 21
5.095018908773898
 31
0
  0
LINE
  8
0
 62
7
 10
3.878225695285903
 20
5.175018908773899
 30
0
 11
3.878225695285903
 21
5.1600189087739
 31
0
  0
LINE
  8
0
 62
7
 10
3.910778578082596
 20
5.1600189087739
 30
0
 11
3.878225695285903
 21
5.1600189087739
 31
0
  0
LINE
  8
0
 62
7
 10
3.858225695285904
 20
5.175018908773899
 30
0
 11
3.878225695285903
 21
5.175018908773899
 31
0
  0
LINE
  8
0
 62
7
 10
3.858225695285904
 20
5.216447480202478
 30
0
 11
3.858225695285904
 21
5.175018908773899
 31
0
  0
LINE
  8
0
 62
7
 10
3.868225695285903
 20
5.216447480202478
 30
0
 11
3.858225695285904
 21
5.216447480202478
 31
0
  0
LINE
  8
0
 62
7
 10
3.868225695285903
 20
5.276447480202478
 30
0
 11
3.868225695285903
 21
5.216447480202478
 31
0
  0
LINE
  8
0
 62
7
 10
3.878225695285903
 20
5.276447480202478
 30
0
 11
3.868225695285903
 21
5.276447480202478
 31
0
  0
LINE
  8
0
 62
7
 10
3.878225695285903
 20
5.291447480202478
 30
0
 11
3.878225695285903
 21
5.276447480202478
 31
0
  0
LINE
  8
0
 62
7
 10
3.736625695285911
 20
5.291447480202478
 30
0
 11
3.878225695285903
 21
5.291447480202478
 31
0
  0
LINE
  8
0
 62
7
 10
3.736625695285911
 20
5.276447480202478
 30
0
 11
3.736625695285911
 21
5.291447480202478
 31
0
  0
LINE
  8
0
 62
7
 10
3.746625695285911
 20
5.276447480202478
 30
0
 11
3.736625695285911
 21
5.276447480202478
 31
0
  0
LINE
  8
0
 62
7
 10
3.746625695285911
 20
5.216447480202478
 30
0
 11
3.746625695285911
 21
5.276447480202478
 31
0
  0
LINE
  8
0
 62
7
 10
3.756625695285912
 20
5.216447480202478
 30
0
 11
3.746625695285911
 21
5.216447480202478
 31
0
  0
LINE
  8
0
 62
7
 10
3.756625695285912
 20
5.175018908773899
 30
0
 11
3.756625695285912
 21
5.216447480202478
 31
0
  0
LINE
  8
0
 62
7
 10
3.736625695285911
 20
5.175018908773899
 30
0
 11
3.756625695285912
 21
5.175018908773899
 31
0
  0
LINE
  8
0
 62
7
 10
3.736625695285911
 20
5.1600189087739
 30
0
 11
3.736625695285911
 21
5.175018908773899
 31
0
  0
LINE
  8
0
 62
7
 10
3.807425695285988
 20
5.1600189087739
 30
0
 11
3.736625695285911
 21
5.1600189087739
 31
0
  0
LINE
  8
0
 62
7
 10
3.736625695285911
 20
5.175018908773899
 30
0
 11
3.878225695285903
 21
5.175018908773899
 31
0
  0
LINE
  8
0
 62
7
 10
3.868225695285903
 20
5.216447480202478
 30
0
 11
3.746625695285911
 21
5.216447480202478
 31
0
  0
LINE
  8
0
 62
7
 10
3.736625695285911
 20
5.276447480202478
 30
0
 11
3.878225695285903
 21
5.276447480202478
 31
0
  0
LINE
  8
0
 62
7
 10
3.736625695285911
 20
5.1600189087739
 30
0
 11
3.3469743877109
 21
5.1600189087739
 31
0
  0
LINE
  8
0
 62
7
 10
3.878225695285903
 20
5.356447480202479
 30
0
 11
3.807425695285988
 21
5.356447480202479
 31
0
  0
LINE
  8
0
 62
7
 10
3.9274038257223
 20
5.291447480202478
 30
0
 11
3.9274038257223
 21
5.356447480202479
 31
0
  0
LINE
  8
0
 62
7
 10
3.088195026398491
 20
5.291447480202478
 30
0
 11
3.9274038257223
 21
5.291447480202478
 31
0
  0
LINE
  8
0
 62
7
 10
3.088195026398491
 20
5.356447480202479
 30
0
 11
3.088195026398491
 21
5.291447480202478
 31
0
  0
LINE
  8
0
 62
7
 10
3.878225695285903
 20
5.371447480202479
 30
0
 11
3.878225695285903
 21
5.356447480202479
 31
0
  0
LINE
  8
0
 62
7
 10
3.9274038257223
 20
5.356447480202479
 30
0
 11
3.878225695285903
 21
5.356447480202479
 31
0
  0
LINE
  8
0
 62
7
 10
3.858225695285904
 20
5.371447480202479
 30
0
 11
3.878225695285903
 21
5.371447480202479
 31
0
  0
LINE
  8
0
 62
7
 10
3.858225695285904
 20
5.412876051631116
 30
0
 11
3.858225695285904
 21
5.371447480202479
 31
0
  0
LINE
  8
0
 62
7
 10
3.868225695285903
 20
5.412876051631116
 30
0
 11
3.858225695285904
 21
5.412876051631116
 31
0
  0
LINE
  8
0
 62
7
 10
3.868225695285903
 20
5.472876051631117
 30
0
 11
3.868225695285903
 21
5.412876051631116
 31
0
  0
LINE
  8
0
 62
7
 10
3.878225695285903
 20
5.472876051631117
 30
0
 11
3.868225695285903
 21
5.472876051631117
 31
0
  0
LINE
  8
0
 62
7
 10
3.878225695285903
 20
5.487876051631116
 30
0
 11
3.878225695285903
 21
5.472876051631117
 31
0
  0
LINE
  8
0
 62
7
 10
3.736625695285911
 20
5.487876051631116
 30
0
 11
3.878225695285903
 21
5.487876051631116
 31
0
  0
LINE
  8
0
 62
7
 10
3.736625695285911
 20
5.472876051631117
 30
0
 11
3.736625695285911
 21
5.487876051631116
 31
0
  0
LINE
  8
0
 62
7
 10
3.746625695285911
 20
5.472876051631117
 30
0
 11
3.736625695285911
 21
5.472876051631117
 31
0
  0
LINE
  8
0
 62
7
 10
3.746625695285911
 20
5.412876051631116
 30
0
 11
3.746625695285911
 21
5.472876051631117
 31
0
  0
LINE
  8
0
 62
7
 10
3.756625695285912
 20
5.412876051631116
 30
0
 11
3.746625695285911
 21
5.412876051631116
 31
0
  0
LINE
  8
0
 62
7
 10
3.756625695285912
 20
5.371447480202479
 30
0
 11
3.756625695285912
 21
5.412876051631116
 31
0
  0
LINE
  8
0
 62
7
 10
3.736625695285911
 20
5.371447480202479
 30
0
 11
3.756625695285912
 21
5.371447480202479
 31
0
  0
LINE
  8
0
 62
7
 10
3.736625695285911
 20
5.356447480202479
 30
0
 11
3.736625695285911
 21
5.371447480202479
 31
0
  0
LINE
  8
0
 62
7
 10
3.807425695285988
 20
5.356447480202479
 30
0
 11
3.736625695285911
 21
5.356447480202479
 31
0
  0
LINE
  8
0
 62
7
 10
3.736625695285911
 20
5.371447480202479
 30
0
 11
3.878225695285903
 21
5.371447480202479
 31
0
  0
LINE
  8
0
 62
7
 10
3.868225695285903
 20
5.412876051631116
 30
0
 11
3.746625695285911
 21
5.412876051631116
 31
0
  0
LINE
  8
0
 62
7
 10
3.736625695285911
 20
5.472876051631117
 30
0
 11
3.878225695285903
 21
5.472876051631117
 31
0
  0
LINE
  8
0
 62
7
 10
3.736625695285911
 20
5.356447480202479
 30
0
 11
3.088195026398491
 21
5.356447480202479
 31
0
  0
LINE
  8
0
 62
7
 10
3.878225695285903
 20
5.552876051631117
 30
0
 11
3.807425695285988
 21
5.552876051631117
 31
0
  0
LINE
  8
0
 62
7
 10
3.924073319181292
 20
5.487876051631116
 30
0
 11
3.924073319181292
 21
5.552876051631117
 31
0
  0
LINE
  8
0
 62
7
 10
2.94904405377341
 20
5.487876051631116
 30
0
 11
3.924073319181292
 21
5.487876051631116
 31
0
  0
LINE
  8
0
 62
7
 10
2.94904405377341
 20
5.552876051631117
 30
0
 11
2.94904405377341
 21
5.487876051631116
 31
0
  0
LINE
  8
0
 62
7
 10
3.878225695285903
 20
5.567876051631116
 30
0
 11
3.878225695285903
 21
5.552876051631117
 31
0
  0
LINE
  8
0
 62
7
 10
3.924073319181292
 20
5.552876051631117
 30
0
 11
3.878225695285903
 21
5.552876051631117
 31
0
  0
LINE
  8
0
 62
7
 10
3.858225695285904
 20
5.567876051631116
 30
0
 11
3.878225695285903
 21
5.567876051631116
 31
0
  0
LINE
  8
0
 62
7
 10
3.858225695285904
 20
5.609304623059697
 30
0
 11
3.858225695285904
 21
5.567876051631116
 31
0
  0
LINE
  8
0
 62
7
 10
3.868225695285903
 20
5.609304623059697
 30
0
 11
3.858225695285904
 21
5.609304623059697
 31
0
  0
LINE
  8
0
 62
7
 10
3.868225695285903
 20
5.669304623059697
 30
0
 11
3.868225695285903
 21
5.609304623059697
 31
0
  0
LINE
  8
0
 62
7
 10
3.878225695285903
 20
5.669304623059697
 30
0
 11
3.868225695285903
 21
5.669304623059697
 31
0
  0
LINE
  8
0
 62
7
 10
3.878225695285903
 20
5.684304623059697
 30
0
 11
3.878225695285903
 21
5.669304623059697
 31
0
  0
LINE
  8
0
 62
7
 10
3.736625695285911
 20
5.684304623059697
 30
0
 11
3.878225695285903
 21
5.684304623059697
 31
0
  0
LINE
  8
0
 62
7
 10
3.736625695285911
 20
5.669304623059697
 30
0
 11
3.736625695285911
 21
5.684304623059697
 31
0
  0
LINE
  8
0
 62
7
 10
3.746625695285911
 20
5.669304623059697
 30
0
 11
3.736625695285911
 21
5.669304623059697
 31
0
  0
LINE
  8
0
 62
7
 10
3.746625695285911
 20
5.609304623059697
 30
0
 11
3.746625695285911
 21
5.669304623059697
 31
0
  0
LINE
  8
0
 62
7
 10
3.756625695285912
 20
5.609304623059697
 30
0
 11
3.746625695285911
 21
5.609304623059697
 31
0
  0
LINE
  8
0
 62
7
 10
3.756625695285912
 20
5.567876051631116
 30
0
 11
3.756625695285912
 21
5.609304623059697
 31
0
  0
LINE
  8
0
 62
7
 10
3.736625695285911
 20
5.567876051631116
 30
0
 11
3.756625695285912
 21
5.567876051631116
 31
0
  0
LINE
  8
0
 62
7
 10
3.736625695285911
 20
5.552876051631117
 30
0
 11
3.736625695285911
 21
5.567876051631116
 31
0
  0
LINE
  8
0
 62
7
 10
3.807425695285988
 20
5.552876051631117
 30
0
 11
3.736625695285911
 21
5.552876051631117
 31
0
  0
LINE
  8
0
 62
7
 10
3.736625695285911
 20
5.567876051631116
 30
0
 11
3.878225695285903
 21
5.567876051631116
 31
0
  0
LINE
  8
0
 62
7
 10
3.868225695285903
 20
5.609304623059697
 30
0
 11
3.746625695285911
 21
5.609304623059697
 31
0
  0
LINE
  8
0
 62
7
 10
3.736625695285911
 20
5.669304623059697
 30
0
 11
3.878225695285903
 21
5.669304623059697
 31
0
  0
LINE
  8
0
 62
7
 10
3.736625695285911
 20
5.552876051631117
 30
0
 11
2.94904405377341
 21
5.552876051631117
 31
0
  0
LINE
  8
0
 62
7
 10
3.878225695285903
 20
5.749304623059697
 30
0
 11
3.807425695285988
 21
5.749304623059697
 31
0
  0
LINE
  8
0
 62
7
 10
3.901341015847487
 20
5.684304623059697
 30
0
 11
3.901341015847487
 21
5.749304623059697
 31
0
  0
LINE
  8
0
 62
7
 10
2.952666209548392
 20
5.684304623059697
 30
0
 11
3.901341015847487
 21
5.684304623059697
 31
0
  0
LINE
  8
0
 62
7
 10
2.952666209548392
 20
5.749304623059697
 30
0
 11
2.952666209548392
 21
5.684304623059697
 31
0
  0
LINE
  8
0
 62
7
 10
3.878225695285903
 20
5.764304623059697
 30
0
 11
3.878225695285903
 21
5.749304623059697
 31
0
  0
LINE
  8
0
 62
7
 10
3.901341015847487
 20
5.749304623059697
 30
0
 11
3.878225695285903
 21
5.749304623059697
 31
0
  0
LINE
  8
0
 62
7
 10
3.858225695285904
 20
5.764304623059697
 30
0
 11
3.878225695285903
 21
5.764304623059697
 31
0
  0
LINE
  8
0
 62
7
 10
3.858225695285904
 20
5.805733194488218
 30
0
 11
3.858225695285904
 21
5.764304623059697
 31
0
  0
LINE
  8
0
 62
7
 10
3.868225695285903
 20
5.805733194488218
 30
0
 11
3.858225695285904
 21
5.805733194488218
 31
0
  0
LINE
  8
0
 62
7
 10
3.868225695285903
 20
5.865733194488218
 30
0
 11
3.868225695285903
 21
5.805733194488218
 31
0
  0
LINE
  8
0
 62
7
 10
3.878225695285903
 20
5.865733194488218
 30
0
 11
3.868225695285903
 21
5.865733194488218
 31
0
  0
LINE
  8
0
 62
7
 10
3.878225695285903
 20
5.880733194488218
 30
0
 11
3.878225695285903
 21
5.865733194488218
 31
0
  0
LINE
  8
0
 62
7
 10
3.736625695285911
 20
5.880733194488218
 30
0
 11
3.878225695285903
 21
5.880733194488218
 31
0
  0
LINE
  8
0
 62
7
 10
3.736625695285911
 20
5.865733194488218
 30
0
 11
3.736625695285911
 21
5.880733194488218
 31
0
  0
LINE
  8
0
 62
7
 10
3.746625695285911
 20
5.865733194488218
 30
0
 11
3.736625695285911
 21
5.865733194488218
 31
0
  0
LINE
  8
0
 62
7
 10
3.746625695285911
 20
5.805733194488218
 30
0
 11
3.746625695285911
 21
5.865733194488218
 31
0
  0
LINE
  8
0
 62
7
 10
3.756625695285912
 20
5.805733194488218
 30
0
 11
3.746625695285911
 21
5.805733194488218
 31
0
  0
LINE
  8
0
 62
7
 10
3.756625695285912
 20
5.764304623059697
 30
0
 11
3.756625695285912
 21
5.805733194488218
 31
0
  0
LINE
  8
0
 62
7
 10
3.736625695285911
 20
5.764304623059697
 30
0
 11
3.756625695285912
 21
5.764304623059697
 31
0
  0
LINE
  8
0
 62
7
 10
3.736625695285911
 20
5.749304623059697
 30
0
 11
3.736625695285911
 21
5.764304623059697
 31
0
  0
LINE
  8
0
 62
7
 10
3.807425695285988
 20
5.749304623059697
 30
0
 11
3.736625695285911
 21
5.749304623059697
 31
0
  0
LINE
  8
0
 62
7
 10
3.736625695285911
 20
5.764304623059697
 30
0
 11
3.878225695285903
 21
5.764304623059697
 31
0
  0
LINE
  8
0
 62
7
 10
3.868225695285903
 20
5.805733194488218
 30
0
 11
3.746625695285911
 21
5.805733194488218
 31
0
  0
LINE
  8
0
 62
7
 10
3.736625695285911
 20
5.865733194488218
 30
0
 11
3.878225695285903
 21
5.865733194488218
 31
0
  0
LINE
  8
0
 62
7
 10
3.736625695285911
 20
5.749304623059697
 30
0
 11
2.952666209548392
 21
5.749304623059697
 31
0
  0
LINE
  8
0
 62
7
 10
3.878225695285903
 20
5.945733194488217
 30
0
 11
3.807425695285988
 21
5.945733194488217
 31
0
  0
LINE
  8
0
 62
7
 10
3.921827745670191
 20
5.880733194488218
 30
0
 11
3.921827745670191
 21
5.945733194488217
 31
0
  0
LINE
  8
0
 62
7
 10
2.940179704923401
 20
5.880733194488218
 30
0
 11
3.921827745670191
 21
5.880733194488218
 31
0
  0
LINE
  8
0
 62
7
 10
2.940179704923401
 20
5.945733194488217
 30
0
 11
2.940179704923401
 21
5.880733194488218
 31
0
  0
LINE
  8
0
 62
7
 10
3.878225695285903
 20
5.960733194488217
 30
0
 11
3.878225695285903
 21
5.945733194488217
 31
0
  0
LINE
  8
0
 62
7
 10
3.921827745670191
 20
5.945733194488217
 30
0
 11
3.878225695285903
 21
5.945733194488217
 31
0
  0
LINE
  8
0
 62
7
 10
3.858225695285904
 20
5.960733194488217
 30
0
 11
3.878225695285903
 21
5.960733194488217
 31
0
  0
LINE
  8
0
 62
7
 10
3.858225695285904
 20
6.002161765916799
 30
0
 11
3.858225695285904
 21
5.960733194488217
 31
0
  0
LINE
  8
0
 62
7
 10
3.868225695285903
 20
6.002161765916799
 30
0
 11
3.858225695285904
 21
6.002161765916799
 31
0
  0
LINE
  8
0
 62
7
 10
3.868225695285903
 20
6.062161765916798
 30
0
 11
3.868225695285903
 21
6.002161765916799
 31
0
  0
LINE
  8
0
 62
7
 10
3.878225695285903
 20
6.062161765916798
 30
0
 11
3.868225695285903
 21
6.062161765916798
 31
0
  0
LINE
  8
0
 62
7
 10
3.878225695285903
 20
6.077161765916799
 30
0
 11
3.878225695285903
 21
6.062161765916798
 31
0
  0
LINE
  8
0
 62
7
 10
3.736625695285911
 20
6.077161765916799
 30
0
 11
3.878225695285903
 21
6.077161765916799
 31
0
  0
LINE
  8
0
 62
7
 10
3.736625695285911
 20
6.062161765916798
 30
0
 11
3.736625695285911
 21
6.077161765916799
 31
0
  0
LINE
  8
0
 62
7
 10
3.746625695285911
 20
6.062161765916798
 30
0
 11
3.736625695285911
 21
6.062161765916798
 31
0
  0
LINE
  8
0
 62
7
 10
3.746625695285911
 20
6.002161765916799
 30
0
 11
3.746625695285911
 21
6.062161765916798
 31
0
  0
LINE
  8
0
 62
7
 10
3.756625695285912
 20
6.002161765916799
 30
0
 11
3.746625695285911
 21
6.002161765916799
 31
0
  0
LINE
  8
0
 62
7
 10
3.756625695285912
 20
5.960733194488217
 30
0
 11
3.756625695285912
 21
6.002161765916799
 31
0
  0
LINE
  8
0
 62
7
 10
3.736625695285911
 20
5.960733194488217
 30
0
 11
3.756625695285912
 21
5.960733194488217
 31
0
  0
LINE
  8
0
 62
7
 10
3.736625695285911
 20
5.945733194488217
 30
0
 11
3.736625695285911
 21
5.960733194488217
 31
0
  0
LINE
  8
0
 62
7
 10
3.807425695285988
 20
5.945733194488217
 30
0
 11
3.736625695285911
 21
5.945733194488217
 31
0
  0
LINE
  8
0
 62
7
 10
3.736625695285911
 20
5.960733194488217
 30
0
 11
3.878225695285903
 21
5.960733194488217
 31
0
  0
LINE
  8
0
 62
7
 10
3.868225695285903
 20
6.002161765916799
 30
0
 11
3.746625695285911
 21
6.002161765916799
 31
0
  0
LINE
  8
0
 62
7
 10
3.736625695285911
 20
6.062161765916798
 30
0
 11
3.878225695285903
 21
6.062161765916798
 31
0
  0
LINE
  8
0
 62
7
 10
3.736625695285911
 20
5.945733194488217
 30
0
 11
2.940179704923401
 21
5.945733194488217
 31
0
  0
LINE
  8
0
 62
7
 10
3.878225695285903
 20
6.142161765916798
 30
0
 11
3.807425695285988
 21
6.142161765916798
 31
0
  0
LINE
  8
0
 62
7
 10
3.928204686420897
 20
6.077161765916799
 30
0
 11
3.928204686420897
 21
6.142161765916798
 31
0
  0
LINE
  8
0
 62
7
 10
3.058709920398411
 20
6.077161765916799
 30
0
 11
3.928204686420897
 21
6.077161765916799
 31
0
  0
LINE
  8
0
 62
7
 10
3.058709920398411
 20
6.142161765916798
 30
0
 11
3.058709920398411
 21
6.077161765916799
 31
0
  0
LINE
  8
0
 62
7
 10
3.878225695285903
 20
6.157161765916798
 30
0
 11
3.878225695285903
 21
6.142161765916798
 31
0
  0
LINE
  8
0
 62
7
 10
3.928204686420897
 20
6.142161765916798
 30
0
 11
3.878225695285903
 21
6.142161765916798
 31
0
  0
LINE
  8
0
 62
7
 10
3.858225695285904
 20
6.157161765916798
 30
0
 11
3.878225695285903
 21
6.157161765916798
 31
0
  0
LINE
  8
0
 62
7
 10
3.858225695285904
 20
6.198590337345377
 30
0
 11
3.858225695285904
 21
6.157161765916798
 31
0
  0
LINE
  8
0
 62
7
 10
3.868225695285903
 20
6.198590337345377
 30
0
 11
3.858225695285904
 21
6.198590337345377
 31
0
  0
LINE
  8
0
 62
7
 10
3.868225695285903
 20
6.258590337345377
 30
0
 11
3.868225695285903
 21
6.198590337345377
 31
0
  0
LINE
  8
0
 62
7
 10
3.878225695285903
 20
6.258590337345377
 30
0
 11
3.868225695285903
 21
6.258590337345377
 31
0
  0
LINE
  8
0
 62
7
 10
3.878225695285903
 20
6.273590337345377
 30
0
 11
3.878225695285903
 21
6.258590337345377
 31
0
  0
LINE
  8
0
 62
7
 10
3.736625695285911
 20
6.273590337345377
 30
0
 11
3.878225695285903
 21
6.273590337345377
 31
0
  0
LINE
  8
0
 62
7
 10
3.736625695285911
 20
6.258590337345377
 30
0
 11
3.736625695285911
 21
6.273590337345377
 31
0
  0
LINE
  8
0
 62
7
 10
3.746625695285911
 20
6.258590337345377
 30
0
 11
3.736625695285911
 21
6.258590337345377
 31
0
  0
LINE
  8
0
 62
7
 10
3.746625695285911
 20
6.198590337345377
 30
0
 11
3.746625695285911
 21
6.258590337345377
 31
0
  0
LINE
  8
0
 62
7
 10
3.756625695285912
 20
6.198590337345377
 30
0
 11
3.746625695285911
 21
6.198590337345377
 31
0
  0
LINE
  8
0
 62
7
 10
3.756625695285912
 20
6.157161765916798
 30
0
 11
3.756625695285912
 21
6.198590337345377
 31
0
  0
LINE
  8
0
 62
7
 10
3.736625695285911
 20
6.157161765916798
 30
0
 11
3.756625695285912
 21
6.157161765916798
 31
0
  0
LINE
  8
0
 62
7
 10
3.736625695285911
 20
6.142161765916798
 30
0
 11
3.736625695285911
 21
6.157161765916798
 31
0
  0
LINE
  8
0
 62
7
 10
3.807425695285988
 20
6.142161765916798
 30
0
 11
3.736625695285911
 21
6.142161765916798
 31
0
  0
LINE
  8
0
 62
7
 10
3.736625695285911
 20
6.157161765916798
 30
0
 11
3.878225695285903
 21
6.157161765916798
 31
0
  0
LINE
  8
0
 62
7
 10
3.868225695285903
 20
6.198590337345377
 30
0
 11
3.746625695285911
 21
6.198590337345377
 31
0
  0
LINE
  8
0
 62
7
 10
3.736625695285911
 20
6.258590337345377
 30
0
 11
3.878225695285903
 21
6.258590337345377
 31
0
  0
LINE
  8
0
 62
7
 10
3.736625695285911
 20
6.142161765916798
 30
0
 11
3.058709920398411
 21
6.142161765916798
 31
0
  0
LINE
  8
0
 62
7
  6
DASHDOT
 10
3.807425695285988
 20
6.538590337345378
 30
0
 11
3.807425695285988
 21
3.388590337345377
 31
0
  0
LINE
  8
0
 62
7
 10
1.728622597609603
 20
2.038590337345377
 30
0
 11
1.160974078744795
 21
1.027041593649192
 31
0
  0
LINE
  8
0
 62
7
 10
0.486228792962298
 20
2.038590337345377
 30
0
 11
1.728622597609603
 21
2.038590337345377
 31
0
  0
LINE
  8
0
 62
7
 10
1.053877311827004
 20
1.027041593649192
 30
0
 11
0.486228792962298
 21
2.038590337345377
 31
0
  0
LINE
  8
0
 62
7
 10
1.053877311827004
 20
1.027041593649192
 30
0
 11
1.160974078744795
 21
1.027041593649192
 31
0
  0
LINE
  8
0
 62
7
  6
DASHDOT
 10
4.6824256952859
 20
1.118590337345377
 30
0
 11
2.932425695285901
 21
1.118590337345377
 31
0
  0
LINE
  8
0
 62
7
  6
DASHDOT
 10
2.932425695285901
 20
1.118590337345377
 30
0
 11
2.857425695285901
 21
1.118590337345377
 31
0
  0
LINE
  8
0
 62
7
 10
0.2401797048900044
 20
1.234820248049189
 30
0
 11
0.9598603352112987
 21
1.060234113696788
 31
0
  0
LINE
  8
0
 62
7
 10
0.3708415812558961
 20
1.562216682116705
 30
0
 11
0.2401797048900044
 21
1.234820248049189
 31
0
  0
LINE
  8
0
 62
7
 10
0.3587099203641992
 20
1.571414462567773
 30
0
 11
0.9784377277558962
 21
1.1015595628382
 31
0
  0
LINE
  8
0
 62
7
 10
0.6092231273654033
 20
1.819414632111206
 30
0
 11
0.3587099203641992
 21
1.571414462567773
 31
0
  0
LINE
  8
0
 62
7
 10
0.7601255376604968
 20
1.395949822008377
 30
0
 11
0.6132633272719978
 21
1.580379564339994
 31
0
  0
LINE
  8
0
 62
7
 10
0.6132633272719978
 20
1.580379564339994
 30
0
 11
0.7572621991287161
 21
1.555609245356172
 31
0
  0
LINE
  8
0
 62
7
 10
0.7572621991287161
 20
1.555609245356172
 30
0
 11
0.7601255376604968
 21
1.395949822008377
 31
0
  0
LINE
  8
0
 62
7
  6
DASHDOT
 10
3.8074256952859
 20
0.1685903373453766
 30
0
 11
3.8074256952859
 21
0.1
 31
0
  0
LINE
  8
0
 62
7
  6
DASHDOT
 10
3.8074256952859
 20
2.068590337345377
 30
0
 11
3.8074256952859
 21
0.1685903373453766
 31
0
  0
LINE
  8
0
 62
7
  6
DASHDOT
 10
4.7574256952859
 20
1.118590337345377
 30
0
 11
4.6824256952859
 21
1.118590337345377
 31
0
  0
LINE
  8
0
 62
7
  6
DASHDOT
 10
2.857425695285901
 20
1.118590337345377
 30
0
 11
2.790991079048109
 21
1.118590337345377
 31
0
  0
LINE
  8
0
 62
7
  6
DASHED
 10
3.895032311412812
 20
1.087733309249277
 30
0
 11
3.900816902040708
 21
1.122274385504687
 31
0
  0
LINE
  8
0
 62
7
  6
DASHED
 10
3.905005607103201
 20
1.105505706059776
 30
0
 11
3.891579194432503
 21
1.159255780799809
 31
0
  0
LINE
  8
0
 62
7
  6
DASHED
 10
3.916777959379805
 20
1.126484018800984
 30
0
 11
3.868344381390503
 21
1.189473363474681
 31
0
  0
LINE
  8
0
 62
7
  6
DASHED
 10
3.932303593545803
 20
1.154150673806085
 30
0
 11
3.834977069035203
 21
1.207901095457084
 31
0
  0
LINE
  8
0
 62
7
 10
3.309223127365403
 20
1.819414632111206
 30
0
 11
3.058709920364199
 21
1.571414462567773
 31
0
  0
LINE
  8
0
 62
7
 10
3.070841581255896
 20
1.562216682116705
 30
0
 11
2.940179704890004
 21
1.234820248049189
 31
0
  0
LINE
  8
0
 62
7
 10
2.954974792221794
 20
1.231231132272194
 30
0
 11
2.96589700957571
 21
0.8788937142427022
 31
0
  0
LINE
  8
0
 62
7
 10
2.980894682154001
 20
0.881510234536807
 30
0
 11
3.131584319774702
 21
0.5628355036756839
 31
0
  0
LINE
  8
0
 62
7
 10
3.14429004075371
 20
0.5712224587622914
 30
0
 11
3.409683152792713
 21
0.3392150298773195
 31
0
  0
LINE
  8
0
 62
7
 10
3.417983601657093
 20
0.3519774320754221
 30
0
 11
3.753937812476013
 21
0.2452266980790883
 31
0
  0
LINE
  8
0
 62
7
 10
3.7564523899747
 20
0.2602417991849943
 30
0
 11
4.107089018859115
 21
0.2965034243580885
 31
0
  0
LINE
  8
0
 62
7
 10
4.103399479681801
 20
0.3112737886688848
 30
0
 11
4.410397744807604
 21
0.4845164398416819
 31
0
  0
LINE
  8
0
 62
7
 10
4.401117763601214
 20
0.4965853383010835
 30
0
 11
4.613415176437804
 21
0.7779938660299814
 31
0
  0
LINE
  8
0
 62
7
 10
4.600088276367402
 20
0.785353899707203
 30
0
 11
4.68237377675761
 21
1.128122112062381
 31
0
  0
LINE
  8
0
 62
7
 10
4.385071512852899
 20
1.755525028082077
 30
0
 11
4.300485971993099
 21
1.810251077475405
 31
0
  0
LINE
  8
0
 62
7
 10
4.591337391225593
 20
1.471921547098405
 30
0
 11
4.396440945000097
 21
1.765649867531291
 31
0
  0
LINE
  8
0
 62
7
 10
4.667216597978114
 20
1.129549099331896
 30
0
 11
4.605803781478404
 21
1.47666495455202
 31
0
  0
LINE
  8
0
 62
7
 10
3.956069100562789
 20
1.196500768922386
 30
0
 11
4.68237377675761
 21
1.128122112062381
 31
0
  0
LINE
  8
0
 62
7
 10
4.154600375521404
 20
1.550283180211496
 30
0
 11
4.396440945000097
 21
1.765649867531291
 31
0
  0
LINE
  8
0
 62
7
 10
4.0022291615789
 20
1.278757923090685
 30
0
 11
4.605803781478404
 21
1.47666495455202
 31
0
  0
LINE
  8
0
 62
7
 10
4.3352161079121
 20
1.872140123583726
 30
0
 11
3.885758442982711
 21
1.071207290686871
 31
0
  0
LINE
  8
0
 62
7
 10
3.409683152792713
 20
0.3392150298773195
 30
0
 11
3.885758442982711
 21
1.071207290686871
 31
0
  0
LINE
  8
0
 62
7
  6
DASHED
 10
3.797027184509803
 20
1.211473924074206
 30
0
 11
3.956069100562789
 21
1.196500768922386
 31
0
  0
LINE
  8
0
 62
7
  6
DASHED
 10
3.760806866231405
 20
1.199597586944088
 30
0
 11
4.0022291615789
 21
1.278757923090685
 31
0
  0
LINE
  8
0
 62
7
  6
DASHED
 10
3.732340576865595
 20
1.174247454605997
 30
0
 11
4.154600375521404
 21
1.550283180211496
 31
0
  0
LINE
  8
0
 62
7
 10
3.460125537660513
 20
1.395949822008377
 30
0
 11
3.313263327271999
 21
1.580379564339994
 31
0
  0
LINE
  8
0
 62
7
 10
3.313263327271999
 20
1.580379564339994
 30
0
 11
3.457262199128702
 21
1.555609245356172
 31
0
  0
LINE
  8
0
 62
7
 10
3.457262199128702
 20
1.555609245356172
 30
0
 11
3.460125537660513
 21
1.395949822008377
 31
0
  0
LINE
  8
0
 62
7
 10
3.2796352826597
 20
1.872140123583726
 30
0
 11
3.736958138483111
 21
1.057191533218691
 31
0
  0
LINE
  8
0
 62
7
 10
3.058709920364199
 20
1.571414462567773
 30
0
 11
3.767332863004209
 21
1.034162530850212
 31
0
  0
LINE
  8
0
 62
7
 10
2.940179704890004
 20
1.234820248049189
 30
0
 11
3.804376158723084
 21
1.025176258980791
 31
0
  0
LINE
  8
0
 62
7
 10
2.96589700957571
 20
0.8788937142427022
 30
0
 11
3.841926678564691
 21
1.031727388611471
 31
0
  0
LINE
  8
0
 62
7
 10
3.131584319774702
 20
0.5628355036756839
 30
0
 11
3.8737387097467
 21
1.052726281722688
 31
0
  0
LINE
  8
0
 62
7
 10
3.753937812476013
 20
0.2452266980790883
 30
0
 11
3.895032311412812
 21
1.087733309249277
 31
0
  0
LINE
  8
0
 62
7
 10
4.107089018859115
 20
0.2965034243580885
 30
0
 11
3.905005607103201
 21
1.105505706059776
 31
0
  0
LINE
  8
0
 62
7
 10
4.410397744807604
 20
0.4845164398416819
 30
0
 11
3.916777959379805
 21
1.126484018800984
 31
0
  0
LINE
  8
0
 62
7
 10
4.613415176437804
 20
0.7779938660299814
 30
0
 11
3.932303593545803
 21
1.154150673806085
 31
0
  0
LINE
  8
0
 62
7
  6
DASHED
 10
4.089108224488198
 20
1.947010492062895
 30
0
 11
3.704775443797001
 21
1.114541043164587
 31
0
  0
LINE
  8
0
 62
7
  6
DASHED
 10
4.300485971993099
 20
1.810251077475405
 30
0
 11
4.089108224488198
 21
1.947010492062895
 31
0
  0
LINE
  8
0
 62
7
  6
DASHDOT
 10
4.840064503050498
 20
1.118590337345377
 30
0
 11
4.7574256952859
 21
1.118590337345377
 31
0
  0
LINE
  8
0
 62
7
  6
DASHDOT
 10
3.8074256952859
 20
2.116945095054689
 30
0
 11
3.8074256952859
 21
2.068590337345377
 31
0
  0
LINE
  8
0
 62
7
  6
DASHDOT
 10
0.1574256952859869
 20
2.068590337345377
 30
0
 11
0.1574256952859869
 21
0.1685903373453766
 31
0
  0
LINE
  8
0
 62
7
  6
DASHDOT
 10
2.057425695285987
 20
2.068590337345377
 30
0
 11
0.1574256952859869
 21
2.068590337345377
 31
0
  0
LINE
  8
0
 62
7
  6
DASHDOT
 10
2.057425695285987
 20
0.1685903373453766
 30
0
 11
2.057425695285987
 21
2.068590337345377
 31
0
  0
LINE
  8
0
 62
7
  6
DASHDOT
 10
0.1574256952859869
 20
0.1685903373453766
 30
0
 11
2.057425695285987
 21
0.1685903373453766
 31
0
  0
LINE
  8
0
 62
7
  6
DASHDOT
 10
2.116353884079988
 20
1.118590337345377
 30
0
 11
1.982425695285987
 21
1.118590337345377
 31
0
  0
LINE
  8
0
 62
7
  6
DASHDOT
 10
0.2324256952859869
 20
1.118590337345377
 30
0
 11
0.1
 21
1.118590337345377
 31
0
  0
LINE
  8
0
 62
7
  6
DASHDOT
 10
1.982425695285987
 20
1.118590337345377
 30
0
 11
0.2324256952859869
 21
1.118590337345377
 31
0
  0
LINE
  8
0
 62
7
  6
DASHDOT
 10
1.107425695285987
 20
2.127338249232678
 30
0
 11
1.107425695285987
 21
2.068590337345377
 31
0
  0
LINE
  8
0
 62
7
  6
DASHDOT
 10
1.107425695285987
 20
2.068590337345377
 30
0
 11
1.107425695285987
 21
1.993590337345377
 31
0
  0
LINE
  8
0
 62
7
  6
DASHDOT
 10
1.107425695285987
 20
1.993590337345377
 30
0
 11
1.107425695285987
 21
0.1185870361028065
 31
0
  0
LINE
  8
0
 62
7
 10
2.504925695285987
 20
6.038590337345377
 30
0
 11
2.857425695285988
 21
6.038590337345377
 31
0
  0
LINE
  8
0
 62
7
 10
2.857425695285988
 20
6.038590337345377
 30
0
 11
2.857425695285988
 21
6.238590337345377
 31
0
  0
LINE
  8
0
 62
7
 10
5.084925695285987
 20
6.338590337345376
 30
0
 11
2.504925695285987
 21
6.338590337345376
 31
0
  0
LINE
  8
0
 62
7
 10
2.504925695285987
 20
3.588590337345377
 30
0
 11
5.084925695285987
 21
3.588590337345377
 31
0
  0
LINE
  8
0
 62
7
  6
DASHDOT
 10
5.109925695285988
 20
6.238590337345377
 30
0
 11
5.109925695285988
 21
6.338590337345376
 31
0
  0
LINE
  8
0
 62
7
  6
DASHDOT
 10
5.109925695285988
 20
6.038590337345377
 30
0
 11
5.109925695285988
 21
6.238590337345377
 31
0
  0
LINE
  8
0
 62
7
  6
DASHDOT
 10
2.504925695285987
 20
6.238590337345377
 30
0
 11
2.504925695285987
 21
6.338590337345376
 31
0
  0
LINE
  8
0
 62
7
  6
DASHDOT
 10
2.504925695285987
 20
6.038590337345377
 30
0
 11
2.504925695285987
 21
6.238590337345377
 31
0
  0
LINE
  8
0
 62
7
  6
DASHDOT
 10
2.504925695285987
 20
3.488590337345377
 30
0
 11
2.504925695285987
 21
3.588590337345377
 31
0
  0
LINE
  8
0
 62
7
  6
DASHDOT
 10
2.504925695285987
 20
3.288590337345378
 30
0
 11
2.504925695285987
 21
3.488590337345377
 31
0
  0
LINE
  8
0
 62
7
  6
DASHDOT
 10
5.109925695285988
 20
3.488590337345377
 30
0
 11
5.109925695285988
 21
3.588590337345377
 31
0
  0
LINE
  8
0
 62
7
  6
DASHDOT
 10
5.109925695285988
 20
3.288590337345378
 30
0
 11
5.109925695285988
 21
3.488590337345377
 31
0
  0
LINE
  8
0
 62
7
  6
DASHDOT
 10
5.109925695285988
 20
6.338590337345376
 30
0
 11
5.109925695285988
 21
6.388590337345377
 31
0
  0
LINE
  8
0
 62
7
  6
DASHDOT
 10
2.504925695285987
 20
6.338590337345376
 30
0
 11
2.504925695285987
 21
6.388590337345377
 31
0
  0
LINE
  8
0
 62
7
  6
DASHDOT
 10
5.109925695285988
 20
3.588590337345377
 30
0
 11
5.109925695285988
 21
3.638590337345377
 31
0
  0
LINE
  8
0
 62
7
  6
DASHDOT
 10
2.504925695285987
 20
3.588590337345377
 30
0
 11
2.504925695285987
 21
3.638590337345377
 31
0
  0
LINE
  8
0
 62
7
  6
DASHDOT
 10
5.109925695285988
 20
5.988590337345377
 30
0
 11
5.109925695285988
 21
6.038590337345377
 31
0
  0
LINE
  8
0
 62
7
  6
DASHDOT
 10
5.109925695285988
 20
3.238590337345377
 30
0
 11
5.109925695285988
 21
3.288590337345378
 31
0
  0
LINE
  8
0
 62
7
  6
DASHDOT
 10
2.504925695285987
 20
5.988590337345377
 30
0
 11
2.504925695285987
 21
6.038590337345377
 31
0
  0
LINE
  8
0
 62
7
  6
DASHDOT
 10
2.504925695285987
 20
3.238590337345377
 30
0
 11
2.504925695285987
 21
3.288590337345378
 31
0
  0
LINE
  8
0
 62
7
 10
4.777425695285901
 20
6.238590337345377
 30
0
 11
4.757425695285987
 21
6.238590337345377
 31
0
  0
LINE
  8
0
 62
7
 10
4.777425695285901
 20
6.038590337345377
 30
0
 11
4.7574256952859
 21
6.038590337345377
 31
0
  0
LINE
  8
0
 62
7
 10
5.084925695285987
 20
6.038590337345377
 30
0
 11
4.777425695285901
 21
6.038590337345377
 31
0
  0
LINE
  8
0
 62
7
  6
DASHED
 10
2.857425695285988
 20
6.238590337345377
 30
0
 11
4.757425695285987
 21
6.238590337345377
 31
0
  0
LINE
  8
0
 62
7
  6
DASHED
 10
2.857425695285988
 20
6.038590337345377
 30
0
 11
4.7574256952859
 21
6.038590337345377
 31
0
  0
LINE
  8
0
 62
7
 10
2.504925695285987
 20
3.488590337345377
 30
0
 11
5.084925695285987
 21
3.488590337345377
 31
0
  0
LINE
  8
0
 62
7
 10
2.504925695285987
 20
6.238590337345377
 30
0
 11
2.857425695285988
 21
6.238590337345377
 31
0
  0
LINE
  8
0
 62
7
 10
2.504925695285987
 20
6.238590337345377
 30
0
 11
2.857425695285988
 21
6.238590337345377
 31
0
  0
LINE
  8
0
 62
7
 10
5.084925695285987
 20
3.488590337345377
 30
0
 11
5.109925695285988
 21
3.488590337345377
 31
0
  0
LINE
  8
0
 62
7
 10
5.084925695285987
 20
6.238590337345377
 30
0
 11
4.777425695285901
 21
6.238590337345377
 31
0
  0
LINE
  8
0
 62
7
 10
5.084925695285987
 20
6.338590337345376
 30
0
 11
5.109925695285988
 21
6.338590337345376
 31
0
  0
LINE
  8
0
 62
7
 10
5.084925695285987
 20
3.588590337345377
 30
0
 11
5.109925695285988
 21
3.588590337345377
 31
0
  0
LINE
  8
0
 62
7
 10
4.757425695285987
 20
6.238590337345377
 30
0
 11
4.7574256952859
 21
6.038590337345377
 31
0
  0
LINE
  8
0
 62
7
 10
4.757425695285987
 20
6.238590337345377
 30
0
 11
5.109925695285988
 21
6.238590337345377
 31
0
  0
LINE
  8
0
 62
7
 10
4.7574256952859
 20
6.038590337345377
 30
0
 11
5.109925695285988
 21
6.038590337345377
 31
0
  0
LINE
  8
0
 62
7
 10
2.504925695285987
 20
3.288590337345378
 30
0
 11
5.109925695285988
 21
3.288590337345378
 31
0
  0
LINE
  8
0
 62
7
  6
DASHED
 10
4.7574256952859
 20
6.038590337345377
 30
0
 11
5.084925695285987
 21
6.038590337345377
 31
0
  0
LINE
  8
0
 62
7
  6
DASHED
 10
4.757425695285987
 20
6.238590337345377
 30
0
 11
5.084925695285987
 21
6.238590337345377
 31
0
  0
LINE
  8
0
 62
7
 10
0.2650256952859868
 20
0.3450105583068339
 30
0
 11
0.2650256952859868
 21
0.465010558306834
 31
0
  0
LINE
  8
0
 62
7
 10
0.3406256952859869
 20
0.465010558306834
 30
0
 11
0.2866256952859869
 21
0.4050105583068339
 31
0
  0
LINE
  8
0
 62
7
 10
0.2866256952859869
 20
0.4050105583068339
 30
0
 11
0.3406256952859869
 21
0.3450105583068339
 31
0
  0
LINE
  8
0
 62
7
 10
0.2866256952859869
 20
0.4050105583068339
 30
0
 11
0.2650256952859868
 21
0.3810105583068339
 31
0
  0
LINE
  8
0
 62
7
 10
0.4486256952859868
 20
0.465010558306834
 30
0
 11
0.3730256952859868
 21
0.465010558306834
 31
0
  0
LINE
  8
0
 62
7
 10
0.3730256952859868
 20
0.465010558306834
 30
0
 11
0.3730256952859868
 21
0.4050105583068339
 31
0
  0
LINE
  8
0
 62
7
 10
0.3730256952859868
 20
0.3450105583068339
 30
0
 11
0.4486256952859868
 21
0.3450105583068339
 31
0
  0
LINE
  8
0
 62
7
 10
0.437825695285987
 20
0.4050105583068339
 30
0
 11
0.3730256952859868
 21
0.4050105583068339
 31
0
  0
LINE
  8
0
 62
7
 10
0.3730256952859868
 20
0.4050105583068339
 30
0
 11
0.3730256952859868
 21
0.3450105583068339
 31
0
  0
LINE
  8
0
 62
7
 10
0.4810256952859868
 20
0.3450105583068339
 30
0
 11
0.4810256952859868
 21
0.465010558306834
 31
0
  0
LINE
  8
0
 62
7
 10
0.4810256952859868
 20
0.465010558306834
 30
0
 11
0.5566256952859868
 21
0.3450105583068339
 31
0
  0
LINE
  8
0
 62
7
 10
0.5566256952859868
 20
0.3450105583068339
 30
0
 11
0.5566256952859868
 21
0.465010558306834
 31
0
  0
LINE
  8
0
 62
7
 10
0.5890256952859868
 20
0.3450105583068339
 30
0
 11
0.5890256952859868
 21
0.465010558306834
 31
0
  0
LINE
  8
0
 62
7
 10
0.5890256952859868
 20
0.465010558306834
 30
0
 11
0.6646256952859869
 21
0.3450105583068339
 31
0
  0
LINE
  8
0
 62
7
 10
0.6646256952859869
 20
0.3450105583068339
 30
0
 11
0.6646256952859869
 21
0.465010558306834
 31
0
  0
LINE
  8
0
 62
7
 10
0.772625695285987
 20
0.4290105583068339
 30
0
 11
0.7699256952859868
 21
0.4410105583068339
 31
0
  0
LINE
  8
0
 62
7
 10
0.7699256952859868
 20
0.4410105583068339
 30
0
 11
0.7645256952859869
 21
0.4500105583068339
 31
0
  0
LINE
  8
0
 62
7
 10
0.7645256952859869
 20
0.4500105583068339
 30
0
 11
0.7591256952859868
 21
0.456010558306834
 31
0
  0
LINE
  8
0
 62
7
 10
0.7591256952859868
 20
0.456010558306834
 30
0
 11
0.7510256952859868
 21
0.4620105583068339
 31
0
  0
LINE
  8
0
 62
7
 10
0.7510256952859868
 20
0.4620105583068339
 30
0
 11
0.7429256952859868
 21
0.465010558306834
 31
0
  0
LINE
  8
0
 62
7
 10
0.7429256952859868
 20
0.465010558306834
 30
0
 11
0.7267256952859869
 21
0.465010558306834
 31
0
  0
LINE
  8
0
 62
7
 10
0.7267256952859869
 20
0.465010558306834
 30
0
 11
0.7186256952859869
 21
0.4620105583068339
 31
0
  0
LINE
  8
0
 62
7
 10
0.7186256952859869
 20
0.4620105583068339
 30
0
 11
0.7105256952859869
 21
0.456010558306834
 31
0
  0
LINE
  8
0
 62
7
 10
0.7105256952859869
 20
0.456010558306834
 30
0
 11
0.705125695285987
 21
0.4500105583068339
 31
0
  0
LINE
  8
0
 62
7
 10
0.705125695285987
 20
0.4500105583068339
 30
0
 11
0.6997256952859869
 21
0.4410105583068339
 31
0
  0
LINE
  8
0
 62
7
 10
0.6997256952859869
 20
0.4410105583068339
 30
0
 11
0.697025695285987
 21
0.4290105583068339
 31
0
  0
LINE
  8
0
 62
7
 10
0.697025695285987
 20
0.4290105583068339
 30
0
 11
0.697025695285987
 21
0.3810105583068339
 31
0
  0
LINE
  8
0
 62
7
 10
0.697025695285987
 20
0.3810105583068339
 30
0
 11
0.6997256952859869
 21
0.3690105583068339
 31
0
  0
LINE
  8
0
 62
7
 10
0.6997256952859869
 20
0.3690105583068339
 30
0
 11
0.705125695285987
 21
0.3600105583068339
 31
0
  0
LINE
  8
0
 62
7
 10
0.705125695285987
 20
0.3600105583068339
 30
0
 11
0.7105256952859869
 21
0.3540105583068339
 31
0
  0
LINE
  8
0
 62
7
 10
0.7105256952859869
 20
0.3540105583068339
 30
0
 11
0.7186256952859869
 21
0.3480105583068339
 31
0
  0
LINE
  8
0
 62
7
 10
0.7186256952859869
 20
0.3480105583068339
 30
0
 11
0.7267256952859869
 21
0.3450105583068339
 31
0
  0
LINE
  8
0
 62
7
 10
0.7267256952859869
 20
0.3450105583068339
 30
0
 11
0.7429256952859868
 21
0.3450105583068339
 31
0
  0
LINE
  8
0
 62
7
 10
0.7429256952859868
 20
0.3450105583068339
 30
0
 11
0.7510256952859868
 21
0.3480105583068339
 31
0
  0
LINE
  8
0
 62
7
 10
0.7510256952859868
 20
0.3480105583068339
 30
0
 11
0.7591256952859868
 21
0.3540105583068339
 31
0
  0
LINE
  8
0
 62
7
 10
0.7591256952859868
 20
0.3540105583068339
 30
0
 11
0.7645256952859869
 21
0.3600105583068339
 31
0
  0
LINE
  8
0
 62
7
 10
0.7645256952859869
 20
0.3600105583068339
 30
0
 11
0.7699256952859868
 21
0.3690105583068339
 31
0
  0
LINE
  8
0
 62
7
 10
0.7699256952859868
 20
0.3690105583068339
 30
0
 11
0.772625695285987
 21
0.3810105583068339
 31
0
  0
LINE
  8
0
 62
7
 10
0.772625695285987
 20
0.3810105583068339
 30
0
 11
0.772625695285987
 21
0.4050105583068339
 31
0
  0
LINE
  8
0
 62
7
 10
0.772625695285987
 20
0.4050105583068339
 30
0
 11
0.7402256952859869
 21
0.4050105583068339
 31
0
  0
LINE
  8
0
 62
7
 10
0.8509256952859868
 20
0.465010558306834
 30
0
 11
0.8347256952859869
 21
0.465010558306834
 31
0
  0
LINE
  8
0
 62
7
 10
0.8347256952859869
 20
0.465010558306834
 30
0
 11
0.8266256952859868
 21
0.4620105583068339
 31
0
  0
LINE
  8
0
 62
7
 10
0.8266256952859868
 20
0.4620105583068339
 30
0
 11
0.8185256952859868
 21
0.456010558306834
 31
0
  0
LINE
  8
0
 62
7
 10
0.8185256952859868
 20
0.456010558306834
 30
0
 11
0.813125695285987
 21
0.4500105583068339
 31
0
  0
LINE
  8
0
 62
7
 10
0.813125695285987
 20
0.4500105583068339
 30
0
 11
0.807725695285987
 21
0.4410105583068339
 31
0
  0
LINE
  8
0
 62
7
 10
0.807725695285987
 20
0.4410105583068339
 30
0
 11
0.8050256952859869
 21
0.4290105583068339
 31
0
  0
LINE
  8
0
 62
7
 10
0.8050256952859869
 20
0.4290105583068339
 30
0
 11
0.8050256952859869
 21
0.3810105583068339
 31
0
  0
LINE
  8
0
 62
7
 10
0.8050256952859869
 20
0.3810105583068339
 30
0
 11
0.807725695285987
 21
0.3690105583068339
 31
0
  0
LINE
  8
0
 62
7
 10
0.807725695285987
 20
0.3690105583068339
 30
0
 11
0.813125695285987
 21
0.3600105583068339
 31
0
  0
LINE
  8
0
 62
7
 10
0.813125695285987
 20
0.3600105583068339
 30
0
 11
0.8185256952859868
 21
0.3540105583068339
 31
0
  0
LINE
  8
0
 62
7
 10
0.8185256952859868
 20
0.3540105583068339
 30
0
 11
0.8266256952859868
 21
0.3480105583068339
 31
0
  0
LINE
  8
0
 62
7
 10
0.8266256952859868
 20
0.3480105583068339
 30
0
 11
0.8347256952859869
 21
0.3450105583068339
 31
0
  0
LINE
  8
0
 62
7
 10
0.8347256952859869
 20
0.3450105583068339
 30
0
 11
0.8509256952859868
 21
0.3450105583068339
 31
0
  0
LINE
  8
0
 62
7
 10
0.8509256952859868
 20
0.3450105583068339
 30
0
 11
0.8590256952859869
 21
0.3480105583068339
 31
0
  0
LINE
  8
0
 62
7
 10
0.8590256952859869
 20
0.3480105583068339
 30
0
 11
0.8671256952859869
 21
0.3540105583068339
 31
0
  0
LINE
  8
0
 62
7
 10
0.8671256952859869
 20
0.3540105583068339
 30
0
 11
0.8725256952859868
 21
0.3600105583068339
 31
0
  0
LINE
  8
0
 62
7
 10
0.8725256952859868
 20
0.3600105583068339
 30
0
 11
0.8779256952859869
 21
0.3690105583068339
 31
0
  0
LINE
  8
0
 62
7
 10
0.8779256952859869
 20
0.3690105583068339
 30
0
 11
0.8806256952859869
 21
0.3810105583068339
 31
0
  0
LINE
  8
0
 62
7
 10
0.8806256952859869
 20
0.3810105583068339
 30
0
 11
0.8806256952859869
 21
0.4290105583068339
 31
0
  0
LINE
  8
0
 62
7
 10
0.8806256952859869
 20
0.4290105583068339
 30
0
 11
0.8779256952859869
 21
0.4410105583068339
 31
0
  0
LINE
  8
0
 62
7
 10
0.8779256952859869
 20
0.4410105583068339
 30
0
 11
0.8725256952859868
 21
0.4500105583068339
 31
0
  0
LINE
  8
0
 62
7
 10
0.8725256952859868
 20
0.4500105583068339
 30
0
 11
0.8671256952859869
 21
0.456010558306834
 31
0
  0
LINE
  8
0
 62
7
 10
0.8671256952859869
 20
0.456010558306834
 30
0
 11
0.8590256952859869
 21
0.4620105583068339
 31
0
  0
LINE
  8
0
 62
7
 10
0.8590256952859869
 20
0.4620105583068339
 30
0
 11
0.8509256952859868
 21
0.465010558306834
 31
0
  0
LINE
  8
0
 62
7
 10
0.9022256952859868
 20
0.465010558306834
 30
0
 11
0.9400256952859869
 21
0.465010558306834
 31
0
  0
LINE
  8
0
 62
7
 10
0.9400256952859869
 20
0.465010558306834
 30
0
 11
0.9400256952859869
 21
0.3450105583068339
 31
0
  0
LINE
  8
0
 62
7
 10
0.9400256952859869
 20
0.465010558306834
 30
0
 11
0.9778256952859868
 21
0.465010558306834
 31
0
  0
LINE
  8
0
 62
7
 10
1.010225695285987
 20
0.465010558306834
 30
0
 11
1.048025695285987
 21
0.465010558306834
 31
0
  0
LINE
  8
0
 62
7
 10
1.048025695285987
 20
0.465010558306834
 30
0
 11
1.048025695285987
 21
0.3450105583068339
 31
0
  0
LINE
  8
0
 62
7
 10
1.048025695285987
 20
0.465010558306834
 30
0
 11
1.085825695285987
 21
0.465010558306834
 31
0
  0
LINE
  8
0
 62
7
 10
1.204625695285987
 20
0.387010558306834
 30
0
 11
1.258625695285987
 21
0.387010558306834
 31
0
  0
LINE
  8
0
 62
7
 10
1.366625695285987
 20
0.465010558306834
 30
0
 11
1.404425695285987
 21
0.465010558306834
 31
0
  0
LINE
  8
0
 62
7
 10
1.404425695285987
 20
0.465010558306834
 30
0
 11
1.404425695285987
 21
0.3450105583068339
 31
0
  0
LINE
  8
0
 62
7
 10
1.404425695285987
 20
0.465010558306834
 30
0
 11
1.442225695285987
 21
0.465010558306834
 31
0
  0
LINE
  8
0
 62
7
 10
1.474625695285987
 20
0.3450105583068339
 30
0
 11
1.474625695285987
 21
0.465010558306834
 31
0
  0
LINE
  8
0
 62
7
 10
1.474625695285987
 20
0.465010558306834
 30
0
 11
1.525925695285987
 21
0.465010558306834
 31
0
  0
LINE
  8
0
 62
7
 10
1.525925695285987
 20
0.465010558306834
 30
0
 11
1.536725695285987
 21
0.4620105583068339
 31
0
  0
LINE
  8
0
 62
7
 10
1.536725695285987
 20
0.4620105583068339
 30
0
 11
1.544825695285987
 21
0.456010558306834
 31
0
  0
LINE
  8
0
 62
7
 10
1.544825695285987
 20
0.456010558306834
 30
0
 11
1.547525695285987
 21
0.4500105583068339
 31
0
  0
LINE
  8
0
 62
7
 10
1.547525695285987
 20
0.4500105583068339
 30
0
 11
1.550225695285987
 21
0.4410105583068339
 31
0
  0
LINE
  8
0
 62
7
 10
1.550225695285987
 20
0.4410105583068339
 30
0
 11
1.550225695285987
 21
0.4290105583068339
 31
0
  0
LINE
  8
0
 62
7
 10
1.550225695285987
 20
0.4290105583068339
 30
0
 11
1.547525695285987
 21
0.4200105583068339
 31
0
  0
LINE
  8
0
 62
7
 10
1.547525695285987
 20
0.4200105583068339
 30
0
 11
1.544825695285987
 21
0.4140105583068339
 31
0
  0
LINE
  8
0
 62
7
 10
1.544825695285987
 20
0.4140105583068339
 30
0
 11
1.536725695285987
 21
0.408010558306834
 31
0
  0
LINE
  8
0
 62
7
 10
1.536725695285987
 20
0.408010558306834
 30
0
 11
1.525925695285987
 21
0.4050105583068339
 31
0
  0
LINE
  8
0
 62
7
 10
1.525925695285987
 20
0.4050105583068339
 30
0
 11
1.517825695285987
 21
0.4050105583068339
 31
0
  0
LINE
  8
0
 62
7
 10
1.517825695285987
 20
0.4050105583068339
 30
0
 11
1.550225695285987
 21
0.3450105583068339
 31
0
  0
LINE
  8
0
 62
7
 10
1.517825695285987
 20
0.4050105583068339
 30
0
 11
1.474625695285987
 21
0.4050105583068339
 31
0
  0
LINE
  8
0
 62
7
 10
1.647425695285987
 20
0.465010558306834
 30
0
 11
1.571825695285987
 21
0.465010558306834
 31
0
  0
LINE
  8
0
 62
7
 10
1.571825695285987
 20
0.465010558306834
 30
0
 11
1.571825695285987
 21
0.4050105583068339
 31
0
  0
LINE
  8
0
 62
7
 10
1.571825695285987
 20
0.3450105583068339
 30
0
 11
1.647425695285987
 21
0.3450105583068339
 31
0
  0
LINE
  8
0
 62
7
 10
1.636625695285987
 20
0.4050105583068339
 30
0
 11
1.571825695285987
 21
0.4050105583068339
 31
0
  0
LINE
  8
0
 62
7
 10
1.571825695285987
 20
0.4050105583068339
 30
0
 11
1.571825695285987
 21
0.3450105583068339
 31
0
  0
LINE
  8
0
 62
7
 10
1.679825695285987
 20
0.3450105583068339
 30
0
 11
1.679825695285987
 21
0.4050105583068339
 31
0
  0
LINE
  8
0
 62
7
 10
1.679825695285987
 20
0.465010558306834
 30
0
 11
1.731125695285987
 21
0.465010558306834
 31
0
  0
LINE
  8
0
 62
7
 10
1.731125695285987
 20
0.465010558306834
 30
0
 11
1.741925695285987
 21
0.4620105583068339
 31
0
  0
LINE
  8
0
 62
7
 10
1.741925695285987
 20
0.4620105583068339
 30
0
 11
1.750025695285987
 21
0.456010558306834
 31
0
  0
LINE
  8
0
 62
7
 10
1.750025695285987
 20
0.456010558306834
 30
0
 11
1.752725695285987
 21
0.4500105583068339
 31
0
  0
LINE
  8
0
 62
7
 10
1.752725695285987
 20
0.4500105583068339
 30
0
 11
1.755425695285987
 21
0.4410105583068339
 31
0
  0
LINE
  8
0
 62
7
 10
1.755425695285987
 20
0.4410105583068339
 30
0
 11
1.755425695285987
 21
0.4290105583068339
 31
0
  0
LINE
  8
0
 62
7
 10
1.755425695285987
 20
0.4290105583068339
 30
0
 11
1.752725695285987
 21
0.4200105583068339
 31
0
  0
LINE
  8
0
 62
7
 10
1.752725695285987
 20
0.4200105583068339
 30
0
 11
1.750025695285987
 21
0.4140105583068339
 31
0
  0
LINE
  8
0
 62
7
 10
1.750025695285987
 20
0.4140105583068339
 30
0
 11
1.741925695285987
 21
0.408010558306834
 31
0
  0
LINE
  8
0
 62
7
 10
1.741925695285987
 20
0.408010558306834
 30
0
 11
1.731125695285987
 21
0.4050105583068339
 31
0
  0
LINE
  8
0
 62
7
 10
1.731125695285987
 20
0.4050105583068339
 30
0
 11
1.679825695285987
 21
0.4050105583068339
 31
0
  0
LINE
  8
0
 62
7
 10
1.679825695285987
 20
0.4050105583068339
 30
0
 11
1.679825695285987
 21
0.465010558306834
 31
0
  0
LINE
  8
0
 62
7
 10
1.777025695285987
 20
0.3450105583068339
 30
0
 11
1.777025695285987
 21
0.4050105583068339
 31
0
  0
LINE
  8
0
 62
7
 10
1.777025695285987
 20
0.465010558306834
 30
0
 11
1.828325695285987
 21
0.465010558306834
 31
0
  0
LINE
  8
0
 62
7
 10
1.828325695285987
 20
0.465010558306834
 30
0
 11
1.839125695285987
 21
0.4620105583068339
 31
0
  0
LINE
  8
0
 62
7
 10
1.839125695285987
 20
0.4620105583068339
 30
0
 11
1.847225695285987
 21
0.456010558306834
 31
0
  0
LINE
  8
0
 62
7
 10
1.847225695285987
 20
0.456010558306834
 30
0
 11
1.849925695285987
 21
0.4500105583068339
 31
0
  0
LINE
  8
0
 62
7
 10
1.849925695285987
 20
0.4500105583068339
 30
0
 11
1.852625695285987
 21
0.4410105583068339
 31
0
  0
LINE
  8
0
 62
7
 10
1.852625695285987
 20
0.4410105583068339
 30
0
 11
1.852625695285987
 21
0.4290105583068339
 31
0
  0
LINE
  8
0
 62
7
 10
1.852625695285987
 20
0.4290105583068339
 30
0
 11
1.849925695285987
 21
0.4200105583068339
 31
0
  0
LINE
  8
0
 62
7
 10
1.849925695285987
 20
0.4200105583068339
 30
0
 11
1.847225695285987
 21
0.4140105583068339
 31
0
  0
LINE
  8
0
 62
7
 10
1.847225695285987
 20
0.4140105583068339
 30
0
 11
1.839125695285987
 21
0.408010558306834
 31
0
  0
LINE
  8
0
 62
7
 10
1.839125695285987
 20
0.408010558306834
 30
0
 11
1.828325695285987
 21
0.4050105583068339
 31
0
  0
LINE
  8
0
 62
7
 10
1.828325695285987
 20
0.4050105583068339
 30
0
 11
1.777025695285987
 21
0.4050105583068339
 31
0
  0
LINE
  8
0
 62
7
 10
1.777025695285987
 20
0.4050105583068339
 30
0
 11
1.777025695285987
 21
0.465010558306834
 31
0
  0
LINE
  8
0
 62
7
 10
1.949825695285987
 20
0.465010558306834
 30
0
 11
1.874225695285987
 21
0.465010558306834
 31
0
  0
LINE
  8
0
 62
7
 10
1.874225695285987
 20
0.465010558306834
 30
0
 11
1.874225695285987
 21
0.4050105583068339
 31
0
  0
LINE
  8
0
 62
7
 10
1.874225695285987
 20
0.3450105583068339
 30
0
 11
1.949825695285987
 21
0.3450105583068339
 31
0
  0
LINE
  8
0
 62
7
 10
1.939025695285987
 20
0.4050105583068339
 30
0
 11
1.874225695285987
 21
0.4050105583068339
 31
0
  0
LINE
  8
0
 62
7
 10
1.874225695285987
 20
0.4050105583068339
 30
0
 11
1.874225695285987
 21
0.3450105583068339
 31
0
  0
LINE
  8
0
 62
7
 10
0.6762521715238985
 20
-0.08000000000000002
 30
0
 11
0.7518521715238985
 21
-0.08000000000000002
 31
0
  0
LINE
  8
0
 62
7
 10
0.7518521715238985
 20
-0.08000000000000002
 30
0
 11
0.6762521715238985
 21
-0.2
 31
0
  0
LINE
  8
0
 62
7
 10
0.6762521715238985
 20
-0.2
 30
0
 11
0.7518521715238985
 21
-0.2
 31
0
  0
LINE
  8
0
 62
7
 10
0.8571521715238986
 20
-0.09200000000000003
 30
0
 11
0.8490521715238984
 21
-0.08600000000000001
 31
0
  0
LINE
  8
0
 62
7
 10
0.8490521715238984
 20
-0.08600000000000001
 30
0
 11
0.8409521715238987
 21
-0.08300000000000002
 31
0
  0
LINE
  8
0
 62
7
 10
0.8409521715238987
 20
-0.08300000000000002
 30
0
 11
0.8274521715238985
 21
-0.08000000000000002
 31
0
  0
LINE
  8
0
 62
7
 10
0.8274521715238985
 20
-0.08000000000000002
 30
0
 11
0.8166521715238985
 21
-0.08000000000000002
 31
0
  0
LINE
  8
0
 62
7
 10
0.8166521715238985
 20
-0.08000000000000002
 30
0
 11
0.8058521715238985
 21
-0.08300000000000002
 31
0
  0
LINE
  8
0
 62
7
 10
0.8058521715238985
 20
-0.08300000000000002
 30
0
 11
0.7977521715238984
 21
-0.08600000000000001
 31
0
  0
LINE
  8
0
 62
7
 10
0.7977521715238984
 20
-0.08600000000000001
 30
0
 11
0.7896521715238984
 21
-0.09200000000000003
 31
0
  0
LINE
  8
0
 62
7
 10
0.7896521715238984
 20
-0.09200000000000003
 30
0
 11
0.7869521715238985
 21
-0.101
 31
0
  0
LINE
  8
0
 62
7
 10
0.7869521715238985
 20
-0.101
 30
0
 11
0.7869521715238985
 21
-0.107
 31
0
  0
LINE
  8
0
 62
7
 10
0.7869521715238985
 20
-0.107
 30
0
 11
0.7896521715238984
 21
-0.116
 31
0
  0
LINE
  8
0
 62
7
 10
0.7896521715238984
 20
-0.116
 30
0
 11
0.7977521715238984
 21
-0.122
 31
0
  0
LINE
  8
0
 62
7
 10
0.7977521715238984
 20
-0.122
 30
0
 11
0.8436521715238986
 21
-0.143
 31
0
  0
LINE
  8
0
 62
7
 10
0.8436521715238986
 20
-0.143
 30
0
 11
0.8517521715238985
 21
-0.149
 31
0
  0
LINE
  8
0
 62
7
 10
0.8517521715238985
 20
-0.149
 30
0
 11
0.8571521715238986
 21
-0.158
 31
0
  0
LINE
  8
0
 62
7
 10
0.8571521715238986
 20
-0.158
 30
0
 11
0.8598521715238987
 21
-0.167
 31
0
  0
LINE
  8
0
 62
7
 10
0.8598521715238987
 20
-0.167
 30
0
 11
0.8598521715238987
 21
-0.173
 31
0
  0
LINE
  8
0
 62
7
 10
0.8598521715238987
 20
-0.173
 30
0
 11
0.8571521715238986
 21
-0.182
 31
0
  0
LINE
  8
0
 62
7
 10
0.8571521715238986
 20
-0.182
 30
0
 11
0.8517521715238985
 21
-0.191
 31
0
  0
LINE
  8
0
 62
7
 10
0.8517521715238985
 20
-0.191
 30
0
 11
0.8436521715238986
 21
-0.197
 31
0
  0
LINE
  8
0
 62
7
 10
0.8436521715238986
 20
-0.197
 30
0
 11
0.8301521715238984
 21
-0.2
 31
0
  0
LINE
  8
0
 62
7
 10
0.8301521715238984
 20
-0.2
 30
0
 11
0.8139521715238985
 21
-0.2
 31
0
  0
LINE
  8
0
 62
7
 10
0.8139521715238985
 20
-0.2
 30
0
 11
0.8004521715238986
 21
-0.197
 31
0
  0
LINE
  8
0
 62
7
 10
0.8004521715238986
 20
-0.197
 30
0
 11
0.7896521715238984
 21
-0.191
 31
0
  0
LINE
  8
0
 62
7
 10
0.7896521715238984
 20
-0.191
 30
0
 11
0.7842521715238986
 21
-0.185
 31
0
  0
LINE
  8
0
 62
7
 10
0.8814521715238984
 20
-0.2
 30
0
 11
0.8814521715238984
 21
-0.08000000000000002
 31
0
  0
LINE
  8
0
 62
7
 10
0.8814521715238984
 20
-0.08000000000000002
 30
0
 11
0.9327521715238984
 21
-0.08000000000000002
 31
0
  0
LINE
  8
0
 62
7
 10
0.9327521715238984
 20
-0.08000000000000002
 30
0
 11
0.9435521715238986
 21
-0.08300000000000002
 31
0
  0
LINE
  8
0
 62
7
 10
0.9435521715238986
 20
-0.08300000000000002
 30
0
 11
0.9516521715238986
 21
-0.08900000000000001
 31
0
  0
LINE
  8
0
 62
7
 10
0.9516521715238986
 20
-0.08900000000000001
 30
0
 11
0.9543521715238985
 21
-0.09500000000000001
 31
0
  0
LINE
  8
0
 62
7
 10
0.9543521715238985
 20
-0.09500000000000001
 30
0
 11
0.9570521715238987
 21
-0.104
 31
0
  0
LINE
  8
0
 62
7
 10
0.9570521715238987
 20
-0.104
 30
0
 11
0.9570521715238987
 21
-0.116
 31
0
  0
LINE
  8
0
 62
7
 10
0.9570521715238987
 20
-0.116
 30
0
 11
0.9543521715238985
 21
-0.125
 31
0
  0
LINE
  8
0
 62
7
 10
0.9543521715238985
 20
-0.125
 30
0
 11
0.9516521715238986
 21
-0.131
 31
0
  0
LINE
  8
0
 62
7
 10
0.9516521715238986
 20
-0.131
 30
0
 11
0.9435521715238986
 21
-0.137
 31
0
  0
LINE
  8
0
 62
7
 10
0.9435521715238986
 20
-0.137
 30
0
 11
0.9327521715238984
 21
-0.14
 31
0
  0
LINE
  8
0
 62
7
 10
0.9327521715238984
 20
-0.14
 30
0
 11
0.9246521715238987
 21
-0.14
 31
0
  0
LINE
  8
0
 62
7
 10
0.9246521715238987
 20
-0.14
 30
0
 11
0.9570521715238987
 21
-0.2
 31
0
  0
LINE
  8
0
 62
7
 10
0.9246521715238987
 20
-0.14
 30
0
 11
0.8814521715238984
 21
-0.14
 31
0
  0
LINE
  8
0
 62
7
 10
0.9786521715238985
 20
-0.116
 30
0
 11
1.011052171523898
 21
-0.08000000000000002
 31
0
  0
LINE
  8
0
 62
7
 10
1.011052171523898
 20
-0.08000000000000002
 30
0
 11
1.011052171523898
 21
-0.2
 31
0
  0
LINE
  8
0
 62
7
 10
1.043452171523898
 20
-0.09200000000000003
 30
0
 11
1.043452171523898
 21
-0.08000000000000002
 31
0
  0
LINE
  8
0
 62
7
 10
1.043452171523898
 20
-0.08000000000000002
 30
0
 11
1.108252171523898
 21
-0.08000000000000002
 31
0
  0
LINE
  8
0
 62
7
 10
1.108252171523898
 20
-0.08000000000000002
 30
0
 11
1.054252171523898
 21
-0.2
 31
0
  0
LINE
  8
0
 62
7
 10
1.200052171523898
 20
-0.08000000000000002
 30
0
 11
1.140652171523898
 21
-0.08000000000000002
 31
0
  0
LINE
  8
0
 62
7
 10
1.140652171523898
 20
-0.08000000000000002
 30
0
 11
1.140652171523898
 21
-0.14
 31
0
  0
LINE
  8
0
 62
7
 10
1.140652171523898
 20
-0.14
 30
0
 11
1.146052171523898
 21
-0.131
 31
0
  0
LINE
  8
0
 62
7
 10
1.146052171523898
 20
-0.131
 30
0
 11
1.154152171523898
 21
-0.125
 31
0
  0
LINE
  8
0
 62
7
 10
1.154152171523898
 20
-0.125
 30
0
 11
1.164952171523898
 21
-0.122
 31
0
  0
LINE
  8
0
 62
7
 10
1.164952171523898
 20
-0.122
 30
0
 11
1.181152171523898
 21
-0.122
 31
0
  0
LINE
  8
0
 62
7
 10
1.181152171523898
 20
-0.122
 30
0
 11
1.189252171523898
 21
-0.125
 31
0
  0
LINE
  8
0
 62
7
 10
1.189252171523898
 20
-0.125
 30
0
 11
1.197352171523898
 21
-0.131
 31
0
  0
LINE
  8
0
 62
7
 10
1.197352171523898
 20
-0.131
 30
0
 11
1.202752171523898
 21
-0.14
 31
0
  0
LINE
  8
0
 62
7
 10
1.202752171523898
 20
-0.14
 30
0
 11
1.205452171523898
 21
-0.152
 31
0
  0
LINE
  8
0
 62
7
 10
1.205452171523898
 20
-0.152
 30
0
 11
1.205452171523898
 21
-0.17
 31
0
  0
LINE
  8
0
 62
7
 10
1.205452171523898
 20
-0.17
 30
0
 11
1.202752171523898
 21
-0.182
 31
0
  0
LINE
  8
0
 62
7
 10
1.202752171523898
 20
-0.182
 30
0
 11
1.197352171523898
 21
-0.191
 31
0
  0
LINE
  8
0
 62
7
 10
1.197352171523898
 20
-0.191
 30
0
 11
1.189252171523898
 21
-0.197
 31
0
  0
LINE
  8
0
 62
7
 10
1.189252171523898
 20
-0.197
 30
0
 11
1.181152171523898
 21
-0.2
 31
0
  0
LINE
  8
0
 62
7
 10
1.181152171523898
 20
-0.2
 30
0
 11
1.164952171523898
 21
-0.2
 31
0
  0
LINE
  8
0
 62
7
 10
1.164952171523898
 20
-0.2
 30
0
 11
1.154152171523898
 21
-0.197
 31
0
  0
LINE
  8
0
 62
7
 10
1.154152171523898
 20
-0.197
 30
0
 11
1.146052171523898
 21
-0.191
 31
0
  0
LINE
  8
0
 62
7
 10
1.146052171523898
 20
-0.191
 30
0
 11
1.140652171523898
 21
-0.182
 31
0
  0
LINE
  8
0
 62
7
 10
1.237852171523899
 20
-0.2
 30
0
 11
1.237852171523899
 21
-0.08000000000000002
 31
0
  0
LINE
  8
0
 62
7
 10
1.237852171523899
 20
-0.08000000000000002
 30
0
 11
1.289152171523899
 21
-0.08000000000000002
 31
0
  0
LINE
  8
0
 62
7
 10
1.289152171523899
 20
-0.08000000000000002
 30
0
 11
1.299952171523898
 21
-0.08300000000000002
 31
0
  0
LINE
  8
0
 62
7
 10
1.299952171523898
 20
-0.08300000000000002
 30
0
 11
1.308052171523899
 21
-0.08900000000000001
 31
0
  0
LINE
  8
0
 62
7
 10
1.308052171523899
 20
-0.08900000000000001
 30
0
 11
1.310752171523899
 21
-0.09500000000000001
 31
0
  0
LINE
  8
0
 62
7
 10
1.310752171523899
 20
-0.09500000000000001
 30
0
 11
1.313452171523898
 21
-0.104
 31
0
  0
LINE
  8
0
 62
7
 10
1.313452171523898
 20
-0.104
 30
0
 11
1.313452171523898
 21
-0.116
 31
0
  0
LINE
  8
0
 62
7
 10
1.313452171523898
 20
-0.116
 30
0
 11
1.310752171523899
 21
-0.125
 31
0
  0
LINE
  8
0
 62
7
 10
1.310752171523899
 20
-0.125
 30
0
 11
1.308052171523899
 21
-0.131
 31
0
  0
LINE
  8
0
 62
7
 10
1.308052171523899
 20
-0.131
 30
0
 11
1.299952171523898
 21
-0.137
 31
0
  0
LINE
  8
0
 62
7
 10
1.299952171523898
 20
-0.137
 30
0
 11
1.289152171523899
 21
-0.14
 31
0
  0
LINE
  8
0
 62
7
 10
1.289152171523899
 20
-0.14
 30
0
 11
1.281052171523899
 21
-0.14
 31
0
  0
LINE
  8
0
 62
7
 10
1.281052171523899
 20
-0.14
 30
0
 11
1.313452171523898
 21
-0.2
 31
0
  0
LINE
  8
0
 62
7
 10
1.281052171523899
 20
-0.14
 30
0
 11
1.237852171523899
 21
-0.14
 31
0
  0
LINE
  8
0
 62
7
 10
1.335052171523898
 20
-0.098
 30
0
 11
1.340452171523899
 21
-0.08900000000000001
 31
0
  0
LINE
  8
0
 62
7
 10
1.340452171523899
 20
-0.08900000000000001
 30
0
 11
1.348552171523898
 21
-0.08300000000000002
 31
0
  0
LINE
  8
0
 62
7
 10
1.348552171523898
 20
-0.08300000000000002
 30
0
 11
1.359352171523898
 21
-0.08000000000000002
 31
0
  0
LINE
  8
0
 62
7
 10
1.359352171523898
 20
-0.08000000000000002
 30
0
 11
1.375552171523898
 21
-0.08000000000000002
 31
0
  0
LINE
  8
0
 62
7
 10
1.375552171523898
 20
-0.08000000000000002
 30
0
 11
1.383652171523898
 21
-0.08300000000000002
 31
0
  0
LINE
  8
0
 62
7
 10
1.383652171523898
 20
-0.08300000000000002
 30
0
 11
1.391752171523898
 21
-0.08900000000000001
 31
0
  0
LINE
  8
0
 62
7
 10
1.391752171523898
 20
-0.08900000000000001
 30
0
 11
1.397152171523898
 21
-0.098
 31
0
  0
LINE
  8
0
 62
7
 10
1.397152171523898
 20
-0.098
 30
0
 11
1.399852171523898
 21
-0.11
 31
0
  0
LINE
  8
0
 62
7
 10
1.399852171523898
 20
-0.11
 30
0
 11
1.399852171523898
 21
-0.119
 31
0
  0
LINE
  8
0
 62
7
 10
1.399852171523898
 20
-0.119
 30
0
 11
1.397152171523898
 21
-0.128
 31
0
  0
LINE
  8
0
 62
7
 10
1.397152171523898
 20
-0.128
 30
0
 11
1.391752171523898
 21
-0.134
 31
0
  0
LINE
  8
0
 62
7
 10
1.391752171523898
 20
-0.134
 30
0
 11
1.378252171523899
 21
-0.14
 31
0
  0
LINE
  8
0
 62
7
 10
1.359352171523898
 20
-0.14
 30
0
 11
1.378252171523899
 21
-0.14
 31
0
  0
LINE
  8
0
 62
7
 10
1.378252171523899
 20
-0.14
 30
0
 11
1.391752171523898
 21
-0.146
 31
0
  0
LINE
  8
0
 62
7
 10
1.391752171523898
 20
-0.146
 30
0
 11
1.397152171523898
 21
-0.152
 31
0
  0
LINE
  8
0
 62
7
 10
1.397152171523898
 20
-0.152
 30
0
 11
1.399852171523898
 21
-0.161
 31
0
  0
LINE
  8
0
 62
7
 10
1.399852171523898
 20
-0.161
 30
0
 11
1.399852171523898
 21
-0.17
 31
0
  0
LINE
  8
0
 62
7
 10
1.399852171523898
 20
-0.17
 30
0
 11
1.397152171523898
 21
-0.182
 31
0
  0
LINE
  8
0
 62
7
 10
1.397152171523898
 20
-0.182
 30
0
 11
1.391752171523898
 21
-0.191
 31
0
  0
LINE
  8
0
 62
7
 10
1.391752171523898
 20
-0.191
 30
0
 11
1.383652171523898
 21
-0.197
 31
0
  0
LINE
  8
0
 62
7
 10
1.383652171523898
 20
-0.197
 30
0
 11
1.375552171523898
 21
-0.2
 31
0
  0
LINE
  8
0
 62
7
 10
1.375552171523898
 20
-0.2
 30
0
 11
1.359352171523898
 21
-0.2
 31
0
  0
LINE
  8
0
 62
7
 10
1.359352171523898
 20
-0.2
 30
0
 11
1.348552171523898
 21
-0.197
 31
0
  0
LINE
  8
0
 62
7
 10
1.348552171523898
 20
-0.197
 30
0
 11
1.340452171523899
 21
-0.191
 31
0
  0
LINE
  8
0
 62
7
 10
1.340452171523899
 20
-0.191
 30
0
 11
1.335052171523898
 21
-0.182
 31
0
  0
LINE
  8
0
 62
7
 10
2.876252171523898
 20
-0.2
 30
0
 11
2.876252171523898
 21
-0.1
 31
0
  0
LINE
  8
0
 62
7
 10
2.876252171523898
 20
-0.1
 30
0
 11
2.939252171523898
 21
-0.2
 31
0
  0
LINE
  8
0
 62
7
 10
2.939252171523898
 20
-0.2
 30
0
 11
2.939252171523898
 21
-0.1
 31
0
  0
LINE
  8
0
 62
7
 10
3.020252171523898
 20
-0.2
 30
0
 11
2.966252171523898
 21
-0.2
 31
0
  0
LINE
  8
0
 62
7
 10
2.966252171523898
 20
-0.2
 30
0
 11
2.966252171523898
 21
-0.1
 31
0
  0
LINE
  8
0
 62
7
 10
3.047252171523898
 20
-0.15
 30
0
 11
3.083252171523899
 21
-0.15
 31
0
  0
LINE
  8
0
 62
7
 10
3.083252171523899
 20
-0.15
 30
0
 11
3.087752171523898
 21
-0.15
 31
0
  0
LINE
  8
0
 62
7
 10
3.087752171523898
 20
-0.15
 30
0
 11
3.096752171523898
 21
-0.155
 31
0
  0
LINE
  8
0
 62
7
 10
3.096752171523898
 20
-0.155
 30
0
 11
3.101252171523898
 21
-0.16
 31
0
  0
LINE
  8
0
 62
7
 10
3.101252171523898
 20
-0.16
 30
0
 11
3.105752171523898
 21
-0.17
 31
0
  0
LINE
  8
0
 62
7
 10
3.105752171523898
 20
-0.17
 30
0
 11
3.105752171523898
 21
-0.18
 31
0
  0
LINE
  8
0
 62
7
 10
3.105752171523898
 20
-0.18
 30
0
 11
3.101252171523898
 21
-0.19
 31
0
  0
LINE
  8
0
 62
7
 10
3.101252171523898
 20
-0.19
 30
0
 11
3.096752171523898
 21
-0.195
 31
0
  0
LINE
  8
0
 62
7
 10
3.096752171523898
 20
-0.195
 30
0
 11
3.087752171523898
 21
-0.2
 31
0
  0
LINE
  8
0
 62
7
 10
3.087752171523898
 20
-0.2
 30
0
 11
3.047252171523898
 21
-0.2
 31
0
  0
LINE
  8
0
 62
7
 10
3.047252171523898
 20
-0.2
 30
0
 11
3.047252171523898
 21
-0.15
 31
0
  0
LINE
  8
0
 62
7
 10
3.047252171523898
 20
-0.1
 30
0
 11
3.081002171523899
 21
-0.1
 31
0
  0
LINE
  8
0
 62
7
 10
3.081002171523899
 20
-0.1
 30
0
 11
3.092252171523899
 21
-0.1025
 31
0
  0
LINE
  8
0
 62
7
 10
3.092252171523899
 20
-0.1025
 30
0
 11
3.099002171523898
 21
-0.11
 31
0
  0
LINE
  8
0
 62
7
 10
3.099002171523898
 20
-0.11
 30
0
 11
3.101252171523898
 21
-0.12
 31
0
  0
LINE
  8
0
 62
7
 10
3.101252171523898
 20
-0.12
 30
0
 11
3.101252171523898
 21
-0.13
 31
0
  0
LINE
  8
0
 62
7
 10
3.101252171523898
 20
-0.13
 30
0
 11
3.096752171523898
 21
-0.14
 31
0
  0
LINE
  8
0
 62
7
 10
3.096752171523898
 20
-0.14
 30
0
 11
3.090002171523898
 21
-0.1475
 31
0
  0
LINE
  8
0
 62
7
 10
3.090002171523898
 20
-0.1475
 30
0
 11
3.083252171523899
 21
-0.15
 31
0
  0
LINE
  8
0
 62
7
 10
3.047252171523898
 20
-0.15
 30
0
 11
3.047252171523898
 21
-0.1
 31
0
  0
LINE
  8
0
 62
7
 10
3.247502171523898
 20
-0.1475
 30
0
 11
3.240752171523899
 21
-0.1375
 31
0
  0
LINE
  8
0
 62
7
 10
3.240752171523899
 20
-0.1375
 30
0
 11
3.234002171523898
 21
-0.1325
 31
0
  0
LINE
  8
0
 62
7
 10
3.234002171523898
 20
-0.1325
 30
0
 11
3.2272521715239
 21
-0.13
 31
0
  0
LINE
  8
0
 62
7
 10
3.2272521715239
 20
-0.13
 30
0
 11
3.218252171523899
 21
-0.13
 31
0
  0
LINE
  8
0
 62
7
 10
3.218252171523899
 20
-0.13
 30
0
 11
3.211502171523898
 21
-0.1325
 31
0
  0
LINE
  8
0
 62
7
 10
3.211502171523898
 20
-0.1325
 30
0
 11
3.2047521715239
 21
-0.1375
 31
0
  0
LINE
  8
0
 62
7
 10
3.2047521715239
 20
-0.1375
 30
0
 11
3.198002171523898
 21
-0.1475
 31
0
  0
LINE
  8
0
 62
7
 10
3.198002171523898
 20
-0.1475
 30
0
 11
3.195752171523898
 21
-0.155
 31
0
  0
LINE
  8
0
 62
7
 10
3.195752171523898
 20
-0.155
 30
0
 11
3.195752171523898
 21
-0.175
 31
0
  0
LINE
  8
0
 62
7
 10
3.195752171523898
 20
-0.175
 30
0
 11
3.198002171523898
 21
-0.1825
 31
0
  0
LINE
  8
0
 62
7
 10
3.198002171523898
 20
-0.1825
 30
0
 11
3.2047521715239
 21
-0.1925
 31
0
  0
LINE
  8
0
 62
7
 10
3.2047521715239
 20
-0.1925
 30
0
 11
3.211502171523898
 21
-0.1975
 31
0
  0
LINE
  8
0
 62
7
 10
3.211502171523898
 20
-0.1975
 30
0
 11
3.218252171523899
 21
-0.2
 31
0
  0
LINE
  8
0
 62
7
 10
3.218252171523899
 20
-0.2
 30
0
 11
3.2272521715239
 21
-0.2
 31
0
  0
LINE
  8
0
 62
7
 10
3.2272521715239
 20
-0.2
 30
0
 11
3.234002171523898
 21
-0.1975
 31
0
  0
LINE
  8
0
 62
7
 10
3.234002171523898
 20
-0.1975
 30
0
 11
3.240752171523899
 21
-0.1925
 31
0
  0
LINE
  8
0
 62
7
 10
3.240752171523899
 20
-0.1925
 30
0
 11
3.247502171523898
 21
-0.1825
 31
0
  0
LINE
  8
0
 62
7
 10
3.319502171523898
 20
-0.155
 30
0
 11
3.317252171523899
 21
-0.1475
 31
0
  0
LINE
  8
0
 62
7
 10
3.317252171523899
 20
-0.1475
 30
0
 11
3.310502171523899
 21
-0.1375
 31
0
  0
LINE
  8
0
 62
7
 10
3.310502171523899
 20
-0.1375
 30
0
 11
3.303752171523898
 21
-0.1325
 31
0
  0
LINE
  8
0
 62
7
 10
3.303752171523898
 20
-0.1325
 30
0
 11
3.297002171523899
 21
-0.13
 31
0
  0
LINE
  8
0
 62
7
 10
3.297002171523899
 20
-0.13
 30
0
 11
3.288002171523898
 21
-0.13
 31
0
  0
LINE
  8
0
 62
7
 10
3.288002171523898
 20
-0.13
 30
0
 11
3.281252171523898
 21
-0.1325
 31
0
  0
LINE
  8
0
 62
7
 10
3.281252171523898
 20
-0.1325
 30
0
 11
3.274502171523899
 21
-0.1375
 31
0
  0
LINE
  8
0
 62
7
 10
3.274502171523899
 20
-0.1375
 30
0
 11
3.267752171523898
 21
-0.1475
 31
0
  0
LINE
  8
0
 62
7
 10
3.267752171523898
 20
-0.1475
 30
0
 11
3.265502171523898
 21
-0.155
 31
0
  0
LINE
  8
0
 62
7
 10
3.265502171523898
 20
-0.155
 30
0
 11
3.265502171523898
 21
-0.175
 31
0
  0
LINE
  8
0
 62
7
 10
3.265502171523898
 20
-0.175
 30
0
 11
3.267752171523898
 21
-0.1825
 31
0
  0
LINE
  8
0
 62
7
 10
3.267752171523898
 20
-0.1825
 30
0
 11
3.274502171523899
 21
-0.1925
 31
0
  0
LINE
  8
0
 62
7
 10
3.274502171523899
 20
-0.1925
 30
0
 11
3.281252171523898
 21
-0.1975
 31
0
  0
LINE
  8
0
 62
7
 10
3.281252171523898
 20
-0.1975
 30
0
 11
3.288002171523898
 21
-0.2
 31
0
  0
LINE
  8
0
 62
7
 10
3.288002171523898
 20
-0.2
 30
0
 11
3.297002171523899
 21
-0.2
 31
0
  0
LINE
  8
0
 62
7
 10
3.297002171523899
 20
-0.2
 30
0
 11
3.303752171523898
 21
-0.1975
 31
0
  0
LINE
  8
0
 62
7
 10
3.303752171523898
 20
-0.1975
 30
0
 11
3.310502171523899
 21
-0.1925
 31
0
  0
LINE
  8
0
 62
7
 10
3.310502171523899
 20
-0.1925
 30
0
 11
3.317252171523899
 21
-0.1825
 31
0
  0
LINE
  8
0
 62
7
 10
3.317252171523899
 20
-0.1825
 30
0
 11
3.319502171523898
 21
-0.175
 31
0
  0
LINE
  8
0
 62
7
 10
3.319502171523898
 20
-0.13
 30
0
 11
3.319502171523898
 21
-0.155
 31
0
  0
LINE
  8
0
 62
7
 10
3.319502171523898
 20
-0.1975
 30
0
 11
3.321752171523898
 21
-0.2
 31
0
  0
LINE
  8
0
 62
7
 10
3.321752171523898
 20
-0.2
 30
0
 11
3.324002171523898
 21
-0.2
 31
0
  0
LINE
  8
0
 62
7
 10
3.319502171523898
 20
-0.175
 30
0
 11
3.319502171523898
 21
-0.1975
 31
0
  0
LINE
  8
0
 62
7
 10
3.319502171523898
 20
-0.155
 30
0
 11
3.319502171523898
 21
-0.175
 31
0
  0
LINE
  8
0
 62
7
 10
3.342002171523898
 20
-0.2
 30
0
 11
3.342002171523898
 21
-0.1975
 31
0
  0
LINE
  8
0
 62
7
 10
3.342002171523898
 20
-0.1975
 30
0
 11
3.344252171523898
 21
-0.1975
 31
0
  0
LINE
  8
0
 62
7
 10
3.344252171523898
 20
-0.1975
 30
0
 11
3.344252171523898
 21
-0.2
 31
0
  0
LINE
  8
0
 62
7
 10
3.344252171523898
 20
-0.2
 30
0
 11
3.342002171523898
 21
-0.2
 31
0
  0
LINE
  8
0
 62
7
 10
3.445502171523898
 20
-0.16
 30
0
 11
3.447752171523899
 21
-0.15
 31
0
  0
LINE
  8
0
 62
7
 10
3.447752171523899
 20
-0.15
 30
0
 11
3.4522521715239
 21
-0.1425
 31
0
  0
LINE
  8
0
 62
7
 10
3.4522521715239
 20
-0.1425
 30
0
 11
3.459002171523899
 21
-0.1375
 31
0
  0
LINE
  8
0
 62
7
 10
3.459002171523899
 20
-0.1375
 30
0
 11
3.465752171523899
 21
-0.135
 31
0
  0
LINE
  8
0
 62
7
 10
3.465752171523899
 20
-0.135
 30
0
 11
3.479252171523898
 21
-0.135
 31
0
  0
LINE
  8
0
 62
7
 10
3.479252171523898
 20
-0.135
 30
0
 11
3.4860021715239
 21
-0.1375
 31
0
  0
LINE
  8
0
 62
7
 10
3.4860021715239
 20
-0.1375
 30
0
 11
3.492752171523898
 21
-0.1425
 31
0
  0
LINE
  8
0
 62
7
 10
3.492752171523898
 20
-0.1425
 30
0
 11
3.497252171523899
 21
-0.15
 31
0
  0
LINE
  8
0
 62
7
 10
3.497252171523899
 20
-0.15
 30
0
 11
3.499502171523899
 21
-0.16
 31
0
  0
LINE
  8
0
 62
7
 10
3.499502171523899
 20
-0.16
 30
0
 11
3.499502171523899
 21
-0.175
 31
0
  0
LINE
  8
0
 62
7
 10
3.499502171523899
 20
-0.175
 30
0
 11
3.497252171523899
 21
-0.185
 31
0
  0
LINE
  8
0
 62
7
 10
3.497252171523899
 20
-0.185
 30
0
 11
3.492752171523898
 21
-0.1925
 31
0
  0
LINE
  8
0
 62
7
 10
3.492752171523898
 20
-0.1925
 30
0
 11
3.4860021715239
 21
-0.1975
 31
0
  0
LINE
  8
0
 62
7
 10
3.4860021715239
 20
-0.1975
 30
0
 11
3.479252171523898
 21
-0.2
 31
0
  0
LINE
  8
0
 62
7
 10
3.479252171523898
 20
-0.2
 30
0
 11
3.465752171523899
 21
-0.2
 31
0
  0
LINE
  8
0
 62
7
 10
3.465752171523899
 20
-0.2
 30
0
 11
3.459002171523899
 21
-0.1975
 31
0
  0
LINE
  8
0
 62
7
 10
3.459002171523899
 20
-0.1975
 30
0
 11
3.4522521715239
 21
-0.1925
 31
0
  0
LINE
  8
0
 62
7
 10
3.4522521715239
 20
-0.1925
 30
0
 11
3.447752171523899
 21
-0.185
 31
0
  0
LINE
  8
0
 62
7
 10
3.447752171523899
 20
-0.185
 30
0
 11
3.445502171523898
 21
-0.175
 31
0
  0
LINE
  8
0
 62
7
 10
3.445502171523898
 20
-0.175
 30
0
 11
3.445502171523898
 21
-0.16
 31
0
  0
LINE
  8
0
 62
7
 10
3.445502171523898
 20
-0.125
 30
0
 11
3.447752171523899
 21
-0.115
 31
0
  0
LINE
  8
0
 62
7
 10
3.447752171523899
 20
-0.115
 30
0
 11
3.4522521715239
 21
-0.1075
 31
0
  0
LINE
  8
0
 62
7
 10
3.4522521715239
 20
-0.1075
 30
0
 11
3.459002171523899
 21
-0.1025
 31
0
  0
LINE
  8
0
 62
7
 10
3.459002171523899
 20
-0.1025
 30
0
 11
3.465752171523899
 21
-0.1
 31
0
  0
LINE
  8
0
 62
7
 10
3.465752171523899
 20
-0.1
 30
0
 11
3.479252171523898
 21
-0.1
 31
0
  0
LINE
  8
0
 62
7
 10
3.479252171523898
 20
-0.1
 30
0
 11
3.4860021715239
 21
-0.1025
 31
0
  0
LINE
  8
0
 62
7
 10
3.4860021715239
 20
-0.1025
 30
0
 11
3.492752171523898
 21
-0.1075
 31
0
  0
LINE
  8
0
 62
7
 10
3.492752171523898
 20
-0.1075
 30
0
 11
3.497252171523899
 21
-0.115
 31
0
  0
LINE
  8
0
 62
7
 10
3.445502171523898
 20
-0.16
 30
0
 11
3.445502171523898
 21
-0.125
 31
0
  0
LINE
  8
0
 62
7
 10
3.526502171523898
 20
-0.11
 30
0
 11
3.526502171523898
 21
-0.1
 31
0
  0
LINE
  8
0
 62
7
 10
3.526502171523898
 20
-0.1
 30
0
 11
3.580502171523898
 21
-0.1
 31
0
  0
LINE
  8
0
 62
7
 10
3.580502171523898
 20
-0.1
 30
0
 11
3.535502171523898
 21
-0.2
 31
0
  0
LINE
  8
0
 62
7
 10
3.731252171523898
 20
-0.1475
 30
0
 11
3.724502171523898
 21
-0.1375
 31
0
  0
LINE
  8
0
 62
7
 10
3.724502171523898
 20
-0.1375
 30
0
 11
3.717752171523898
 21
-0.1325
 31
0
  0
LINE
  8
0
 62
7
 10
3.717752171523898
 20
-0.1325
 30
0
 11
3.7110021715239
 21
-0.13
 31
0
  0
LINE
  8
0
 62
7
 10
3.7110021715239
 20
-0.13
 30
0
 11
3.702002171523898
 21
-0.13
 31
0
  0
LINE
  8
0
 62
7
 10
3.702002171523898
 20
-0.13
 30
0
 11
3.695252171523898
 21
-0.1325
 31
0
  0
LINE
  8
0
 62
7
 10
3.695252171523898
 20
-0.1325
 30
0
 11
3.688502171523899
 21
-0.1375
 31
0
  0
LINE
  8
0
 62
7
 10
3.688502171523899
 20
-0.1375
 30
0
 11
3.681752171523899
 21
-0.1475
 31
0
  0
LINE
  8
0
 62
7
 10
3.681752171523899
 20
-0.1475
 30
0
 11
3.679502171523898
 21
-0.155
 31
0
  0
LINE
  8
0
 62
7
 10
3.679502171523898
 20
-0.155
 30
0
 11
3.679502171523898
 21
-0.175
 31
0
  0
LINE
  8
0
 62
7
 10
3.679502171523898
 20
-0.175
 30
0
 11
3.681752171523899
 21
-0.1825
 31
0
  0
LINE
  8
0
 62
7
 10
3.681752171523899
 20
-0.1825
 30
0
 11
3.688502171523899
 21
-0.1925
 31
0
  0
LINE
  8
0
 62
7
 10
3.688502171523899
 20
-0.1925
 30
0
 11
3.695252171523898
 21
-0.1975
 31
0
  0
LINE
  8
0
 62
7
 10
3.695252171523898
 20
-0.1975
 30
0
 11
3.702002171523898
 21
-0.2
 31
0
  0
LINE
  8
0
 62
7
 10
3.702002171523898
 20
-0.2
 30
0
 11
3.7110021715239
 21
-0.2
 31
0
  0
LINE
  8
0
 62
7
 10
3.7110021715239
 20
-0.2
 30
0
 11
3.717752171523898
 21
-0.1975
 31
0
  0
LINE
  8
0
 62
7
 10
3.717752171523898
 20
-0.1975
 30
0
 11
3.724502171523898
 21
-0.1925
 31
0
  0
LINE
  8
0
 62
7
 10
3.724502171523898
 20
-0.1925
 30
0
 11
3.731252171523898
 21
-0.1825
 31
0
  0
LINE
  8
0
 62
7
 10
3.7897521715239
 20
-0.155
 30
0
 11
3.7897521715239
 21
-0.2
 31
0
  0
LINE
  8
0
 62
7
 10
3.749252171523898
 20
-0.13
 30
0
 11
3.749252171523898
 21
-0.155
 31
0
  0
LINE
  8
0
 62
7
 10
3.749252171523898
 20
-0.2
 30
0
 11
3.749252171523898
 21
-0.155
 31
0
  0
LINE
  8
0
 62
7
 10
3.749252171523898
 20
-0.155
 30
0
 11
3.751502171523898
 21
-0.1425
 31
0
  0
LINE
  8
0
 62
7
 10
3.751502171523898
 20
-0.1425
 30
0
 11
3.753752171523898
 21
-0.1375
 31
0
  0
LINE
  8
0
 62
7
 10
3.753752171523898
 20
-0.1375
 30
0
 11
3.758252171523898
 21
-0.1325
 31
0
  0
LINE
  8
0
 62
7
 10
3.758252171523898
 20
-0.1325
 30
0
 11
3.765002171523898
 21
-0.13
 31
0
  0
LINE
  8
0
 62
7
 10
3.765002171523898
 20
-0.13
 30
0
 11
3.774002171523898
 21
-0.13
 31
0
  0
LINE
  8
0
 62
7
 10
3.774002171523898
 20
-0.13
 30
0
 11
3.780752171523899
 21
-0.1325
 31
0
  0
LINE
  8
0
 62
7
 10
3.780752171523899
 20
-0.1325
 30
0
 11
3.785252171523899
 21
-0.1375
 31
0
  0
LINE
  8
0
 62
7
 10
3.785252171523899
 20
-0.1375
 30
0
 11
3.787502171523898
 21
-0.1425
 31
0
  0
LINE
  8
0
 62
7
 10
3.787502171523898
 20
-0.1425
 30
0
 11
3.7897521715239
 21
-0.155
 31
0
  0
LINE
  8
0
 62
7
 10
3.7897521715239
 20
-0.155
 30
0
 11
3.792002171523898
 21
-0.1425
 31
0
  0
LINE
  8
0
 62
7
 10
3.792002171523898
 20
-0.1425
 30
0
 11
3.794252171523898
 21
-0.1375
 31
0
  0
LINE
  8
0
 62
7
 10
3.794252171523898
 20
-0.1375
 30
0
 11
3.798752171523898
 21
-0.1325
 31
0
  0
LINE
  8
0
 62
7
 10
3.798752171523898
 20
-0.1325
 30
0
 11
3.805502171523898
 21
-0.13
 31
0
  0
LINE
  8
0
 62
7
 10
3.805502171523898
 20
-0.13
 30
0
 11
3.814502171523898
 21
-0.13
 31
0
  0
LINE
  8
0
 62
7
 10
3.814502171523898
 20
-0.13
 30
0
 11
3.821252171523898
 21
-0.1325
 31
0
  0
LINE
  8
0
 62
7
 10
3.825752171523898
 20
-0.1375
 30
0
 11
3.821252171523898
 21
-0.1325
 31
0
  0
LINE
  8
0
 62
7
 10
3.821252171523898
 20
-0.1325
 30
0
 11
3.825752171523898
 21
-0.1375
 31
0
  0
LINE
  8
0
 62
7
 10
3.825752171523898
 20
-0.1375
 30
0
 11
3.828002171523898
 21
-0.1425
 31
0
  0
LINE
  8
0
 62
7
 10
3.828002171523898
 20
-0.1425
 30
0
 11
3.830252171523898
 21
-0.155
 31
0
  0
LINE
  8
0
 62
7
 10
3.830252171523898
 20
-0.155
 30
0
 11
3.830252171523898
 21
-0.2
 31
0
  0
LINE
  8
0
 62
7
 10
3.920252171523898
 20
-0.175
 30
0
 11
3.922502171523898
 21
-0.1825
 31
0
  0
LINE
  8
0
 62
7
 10
3.922502171523898
 20
-0.1825
 30
0
 11
3.929252171523899
 21
-0.1925
 31
0
  0
LINE
  8
0
 62
7
 10
3.929252171523899
 20
-0.1925
 30
0
 11
3.936002171523899
 21
-0.1975
 31
0
  0
LINE
  8
0
 62
7
 10
3.936002171523899
 20
-0.1975
 30
0
 11
3.942752171523898
 21
-0.2
 31
0
  0
LINE
  8
0
 62
7
 10
3.942752171523898
 20
-0.2
 30
0
 11
3.951752171523899
 21
-0.2
 31
0
  0
LINE
  8
0
 62
7
 10
3.951752171523899
 20
-0.2
 30
0
 11
3.9585021715239
 21
-0.1975
 31
0
  0
LINE
  8
0
 62
7
 10
3.9585021715239
 20
-0.1975
 30
0
 11
3.965252171523899
 21
-0.1925
 31
0
  0
LINE
  8
0
 62
7
 10
3.965252171523899
 20
-0.1925
 30
0
 11
3.972002171523899
 21
-0.1825
 31
0
  0
LINE
  8
0
 62
7
 10
3.972002171523899
 20
-0.1825
 30
0
 11
3.974252171523898
 21
-0.175
 31
0
  0
LINE
  8
0
 62
7
 10
3.974252171523898
 20
-0.175
 30
0
 11
3.974252171523898
 21
-0.155
 31
0
  0
LINE
  8
0
 62
7
 10
3.974252171523898
 20
-0.155
 30
0
 11
3.972002171523899
 21
-0.1475
 31
0
  0
LINE
  8
0
 62
7
 10
3.972002171523899
 20
-0.1475
 30
0
 11
3.965252171523899
 21
-0.1375
 31
0
  0
LINE
  8
0
 62
7
 10
3.965252171523899
 20
-0.1375
 30
0
 11
3.9585021715239
 21
-0.1325
 31
0
  0
LINE
  8
0
 62
7
 10
3.9585021715239
 20
-0.1325
 30
0
 11
3.951752171523899
 21
-0.13
 31
0
  0
LINE
  8
0
 62
7
 10
3.951752171523899
 20
-0.13
 30
0
 11
3.942752171523898
 21
-0.13
 31
0
  0
LINE
  8
0
 62
7
 10
3.942752171523898
 20
-0.13
 30
0
 11
3.936002171523899
 21
-0.1325
 31
0
  0
LINE
  8
0
 62
7
 10
3.936002171523899
 20
-0.1325
 30
0
 11
3.929252171523899
 21
-0.1375
 31
0
  0
LINE
  8
0
 62
7
 10
3.929252171523899
 20
-0.1375
 30
0
 11
3.922502171523898
 21
-0.1475
 31
0
  0
LINE
  8
0
 62
7
 10
3.922502171523898
 20
-0.1475
 30
0
 11
3.920252171523898
 21
-0.155
 31
0
  0
LINE
  8
0
 62
7
 10
3.920252171523898
 20
-0.1
 30
0
 11
3.920252171523898
 21
-0.155
 31
0
  0
LINE
  8
0
 62
7
 10
3.920252171523898
 20
-0.155
 30
0
 11
3.920252171523898
 21
-0.2
 31
0
  0
LINE
  8
0
 62
7
 10
4.046252171523898
 20
-0.1825
 30
0
 11
4.039502171523899
 21
-0.1925
 31
0
  0
LINE
  8
0
 62
7
 10
4.039502171523899
 20
-0.1925
 30
0
 11
4.032752171523899
 21
-0.1975
 31
0
  0
LINE
  8
0
 62
7
 10
4.032752171523899
 20
-0.1975
 30
0
 11
4.023752171523898
 21
-0.2
 31
0
  0
LINE
  8
0
 62
7
 10
4.023752171523898
 20
-0.2
 30
0
 11
4.0147521715239
 21
-0.2
 31
0
  0
LINE
  8
0
 62
7
 10
4.0147521715239
 20
-0.2
 30
0
 11
4.008002171523898
 21
-0.1975
 31
0
  0
LINE
  8
0
 62
7
 10
4.008002171523898
 20
-0.1975
 30
0
 11
4.001252171523897
 21
-0.1925
 31
0
  0
LINE
  8
0
 62
7
 10
4.001252171523897
 20
-0.1925
 30
0
 11
3.994502171523898
 21
-0.1825
 31
0
  0
LINE
  8
0
 62
7
 10
3.994502171523898
 20
-0.1825
 30
0
 11
3.9922521715239
 21
-0.175
 31
0
  0
LINE
  8
0
 62
7
 10
3.9922521715239
 20
-0.175
 30
0
 11
3.9922521715239
 21
-0.165
 31
0
  0
LINE
  8
0
 62
7
 10
3.9922521715239
 20
-0.155
 30
0
 11
3.994502171523898
 21
-0.1475
 31
0
  0
LINE
  8
0
 62
7
 10
3.994502171523898
 20
-0.1475
 30
0
 11
4.001252171523897
 21
-0.1375
 31
0
  0
LINE
  8
0
 62
7
 10
4.001252171523897
 20
-0.1375
 30
0
 11
4.008002171523898
 21
-0.1325
 31
0
  0
LINE
  8
0
 62
7
 10
4.008002171523898
 20
-0.1325
 30
0
 11
4.0147521715239
 21
-0.13
 31
0
  0
LINE
  8
0
 62
7
 10
4.0147521715239
 20
-0.13
 30
0
 11
4.023752171523898
 21
-0.13
 31
0
  0
LINE
  8
0
 62
7
 10
4.023752171523898
 20
-0.13
 30
0
 11
4.030502171523898
 21
-0.1325
 31
0
  0
LINE
  8
0
 62
7
 10
4.030502171523898
 20
-0.1325
 30
0
 11
4.037252171523899
 21
-0.1375
 31
0
  0
LINE
  8
0
 62
7
 10
4.037252171523899
 20
-0.1375
 30
0
 11
4.044002171523899
 21
-0.1475
 31
0
  0
LINE
  8
0
 62
7
 10
4.044002171523899
 20
-0.1475
 30
0
 11
4.046252171523898
 21
-0.155
 31
0
  0
LINE
  8
0
 62
7
 10
4.046252171523898
 20
-0.155
 30
0
 11
4.046252171523898
 21
-0.165
 31
0
  0
LINE
  8
0
 62
7
 10
4.046252171523898
 20
-0.165
 30
0
 11
3.9922521715239
 21
-0.165
 31
0
  0
LINE
  8
0
 62
7
 10
3.9922521715239
 20
-0.165
 30
0
 11
3.9922521715239
 21
-0.155
 31
0
  0
LINE
  8
0
 62
7
 10
4.064252171523899
 20
-0.1
 30
0
 11
4.064252171523899
 21
-0.105
 31
0
  0
LINE
  8
0
 62
7
 10
4.064252171523899
 20
-0.13
 30
0
 11
4.064252171523899
 21
-0.2
 31
0
  0
LINE
  8
0
 62
7
 10
4.154252171523899
 20
-0.1
 30
0
 11
4.154252171523899
 21
-0.15
 31
0
  0
LINE
  8
0
 62
7
 10
4.154252171523899
 20
-0.15
 30
0
 11
4.217252171523899
 21
-0.15
 31
0
  0
LINE
  8
0
 62
7
 10
4.217252171523899
 20
-0.1
 30
0
 11
4.217252171523899
 21
-0.15
 31
0
  0
LINE
  8
0
 62
7
 10
4.217252171523899
 20
-0.15
 30
0
 11
4.217252171523899
 21
-0.2
 31
0
  0
LINE
  8
0
 62
7
 10
4.154252171523899
 20
-0.15
 30
0
 11
4.154252171523899
 21
-0.2
 31
0
  0
LINE
  8
0
 62
7
 10
4.298252171523898
 20
-0.155
 30
0
 11
4.2960021715239
 21
-0.1475
 31
0
  0
LINE
  8
0
 62
7
 10
4.2960021715239
 20
-0.1475
 30
0
 11
4.289252171523898
 21
-0.1375
 31
0
  0
LINE
  8
0
 62
7
 10
4.289252171523898
 20
-0.1375
 30
0
 11
4.282502171523898
 21
-0.1325
 31
0
  0
LINE
  8
0
 62
7
 10
4.282502171523898
 20
-0.1325
 30
0
 11
4.275752171523898
 21
-0.13
 31
0
  0
LINE
  8
0
 62
7
 10
4.275752171523898
 20
-0.13
 30
0
 11
4.266752171523899
 21
-0.13
 31
0
  0
LINE
  8
0
 62
7
 10
4.266752171523899
 20
-0.13
 30
0
 11
4.260002171523898
 21
-0.1325
 31
0
  0
LINE
  8
0
 62
7
 10
4.260002171523898
 20
-0.1325
 30
0
 11
4.253252171523899
 21
-0.1375
 31
0
  0
LINE
  8
0
 62
7
 10
4.253252171523899
 20
-0.1375
 30
0
 11
4.246502171523899
 21
-0.1475
 31
0
  0
LINE
  8
0
 62
7
 10
4.246502171523899
 20
-0.1475
 30
0
 11
4.244252171523899
 21
-0.155
 31
0
  0
LINE
  8
0
 62
7
 10
4.244252171523899
 20
-0.155
 30
0
 11
4.244252171523899
 21
-0.175
 31
0
  0
LINE
  8
0
 62
7
 10
4.244252171523899
 20
-0.175
 30
0
 11
4.246502171523899
 21
-0.1825
 31
0
  0
LINE
  8
0
 62
7
 10
4.246502171523899
 20
-0.1825
 30
0
 11
4.253252171523899
 21
-0.1925
 31
0
  0
LINE
  8
0
 62
7
 10
4.253252171523899
 20
-0.1925
 30
0
 11
4.260002171523898
 21
-0.1975
 31
0
  0
LINE
  8
0
 62
7
 10
4.260002171523898
 20
-0.1975
 30
0
 11
4.266752171523899
 21
-0.2
 31
0
  0
LINE
  8
0
 62
7
 10
4.266752171523899
 20
-0.2
 30
0
 11
4.275752171523898
 21
-0.2
 31
0
  0
LINE
  8
0
 62
7
 10
4.275752171523898
 20
-0.2
 30
0
 11
4.282502171523898
 21
-0.1975
 31
0
  0
LINE
  8
0
 62
7
 10
4.282502171523898
 20
-0.1975
 30
0
 11
4.289252171523898
 21
-0.1925
 31
0
  0
LINE
  8
0
 62
7
 10
4.289252171523898
 20
-0.1925
 30
0
 11
4.2960021715239
 21
-0.1825
 31
0
  0
LINE
  8
0
 62
7
 10
4.2960021715239
 20
-0.1825
 30
0
 11
4.298252171523898
 21
-0.175
 31
0
  0
LINE
  8
0
 62
7
 10
4.298252171523898
 20
-0.175
 30
0
 11
4.298252171523898
 21
-0.155
 31
0
  0
LINE
  8
0
 62
7
 10
4.316252171523899
 20
-0.1
 30
0
 11
4.316252171523899
 21
-0.185
 31
0
  0
LINE
  8
0
 62
7
 10
4.316252171523899
 20
-0.185
 30
0
 11
4.318502171523899
 21
-0.1975
 31
0
  0
LINE
  8
0
 62
7
 10
4.318502171523899
 20
-0.1975
 30
0
 11
4.323002171523899
 21
-0.2
 31
0
  0
LINE
  8
0
 62
7
 10
4.323002171523899
 20
-0.2
 30
0
 11
4.325252171523899
 21
-0.2
 31
0
  0
LINE
  8
0
 62
7
 10
4.343252171523899
 20
-0.13
 30
0
 11
4.397252171523899
 21
-0.13
 31
0
  0
LINE
  8
0
 62
7
 10
4.397252171523899
 20
-0.13
 30
0
 11
4.343252171523899
 21
-0.2
 31
0
  0
LINE
  8
0
 62
7
 10
4.343252171523899
 20
-0.2
 30
0
 11
4.397252171523899
 21
-0.2
 31
0
  0
LINE
  8
0
 62
7
 10
4.478252171523899
 20
-0.145
 30
0
 11
4.473752171523898
 21
-0.1375
 31
0
  0
LINE
  8
0
 62
7
 10
4.473752171523898
 20
-0.1375
 30
0
 11
4.467002171523898
 21
-0.1325
 31
0
  0
LINE
  8
0
 62
7
 10
4.467002171523898
 20
-0.1325
 30
0
 11
4.455752171523899
 21
-0.13
 31
0
  0
LINE
  8
0
 62
7
 10
4.455752171523899
 20
-0.13
 30
0
 11
4.446752171523898
 21
-0.13
 31
0
  0
LINE
  8
0
 62
7
 10
4.446752171523898
 20
-0.13
 30
0
 11
4.437752171523899
 21
-0.1325
 31
0
  0
LINE
  8
0
 62
7
 10
4.437752171523899
 20
-0.1325
 30
0
 11
4.431002171523899
 21
-0.1375
 31
0
  0
LINE
  8
0
 62
7
 10
4.431002171523899
 20
-0.1375
 30
0
 11
4.426502171523898
 21
-0.1425
 31
0
  0
LINE
  8
0
 62
7
 10
4.426502171523898
 20
-0.1425
 30
0
 11
4.424252171523898
 21
-0.1475
 31
0
  0
LINE
  8
0
 62
7
 10
4.424252171523898
 20
-0.1475
 30
0
 11
4.424252171523898
 21
-0.1525
 31
0
  0
LINE
  8
0
 62
7
 10
4.424252171523898
 20
-0.1525
 30
0
 11
4.426502171523898
 21
-0.1575
 31
0
  0
LINE
  8
0
 62
7
 10
4.426502171523898
 20
-0.1575
 30
0
 11
4.431002171523899
 21
-0.16
 31
0
  0
LINE
  8
0
 62
7
 10
4.431002171523899
 20
-0.16
 30
0
 11
4.471502171523898
 21
-0.17
 31
0
  0
LINE
  8
0
 62
7
 10
4.471502171523898
 20
-0.17
 30
0
 11
4.476002171523899
 21
-0.1725
 31
0
  0
LINE
  8
0
 62
7
 10
4.476002171523899
 20
-0.1725
 30
0
 11
4.478252171523899
 21
-0.1775
 31
0
  0
LINE
  8
0
 62
7
 10
4.478252171523899
 20
-0.1775
 30
0
 11
4.478252171523899
 21
-0.1825
 31
0
  0
LINE
  8
0
 62
7
 10
4.478252171523899
 20
-0.1825
 30
0
 11
4.476002171523899
 21
-0.1875
 31
0
  0
LINE
  8
0
 62
7
 10
4.476002171523899
 20
-0.1875
 30
0
 11
4.471502171523898
 21
-0.1925
 31
0
  0
LINE
  8
0
 62
7
 10
4.471502171523898
 20
-0.1925
 30
0
 11
4.4647521715239
 21
-0.1975
 31
0
  0
LINE
  8
0
 62
7
 10
4.4647521715239
 20
-0.1975
 30
0
 11
4.455752171523899
 21
-0.2
 31
0
  0
LINE
  8
0
 62
7
 10
4.455752171523899
 20
-0.2
 30
0
 11
4.446752171523898
 21
-0.2
 31
0
  0
LINE
  8
0
 62
7
 10
4.446752171523898
 20
-0.2
 30
0
 11
4.435502171523899
 21
-0.1975
 31
0
  0
LINE
  8
0
 62
7
 10
4.435502171523899
 20
-0.1975
 30
0
 11
4.428752171523898
 21
-0.1925
 31
0
  0
LINE
  8
0
 62
7
 10
4.428752171523898
 20
-0.1925
 30
0
 11
4.424252171523898
 21
-0.185
 31
0
  0
LINE
  8
0
 62
7
 10
4.505252171523899
 20
-0.1
 30
0
 11
4.505252171523899
 21
-0.185
 31
0
  0
LINE
  8
0
 62
7
 10
4.505252171523899
 20
-0.185
 30
0
 11
4.507502171523899
 21
-0.1975
 31
0
  0
LINE
  8
0
 62
7
 10
4.507502171523899
 20
-0.1975
 30
0
 11
4.512002171523899
 21
-0.2
 31
0
  0
LINE
  8
0
 62
7
 10
4.512002171523899
 20
-0.2
 30
0
 11
4.514252171523899
 21
-0.2
 31
0
  0
LINE
  8
0
 62
7
 10
4.496252171523898
 20
-0.13
 30
0
 11
4.514252171523899
 21
-0.13
 31
0
  0
LINE
  8
0
 62
7
 10
4.586252171523898
 20
-0.13
 30
0
 11
4.586252171523898
 21
-0.175
 31
0
  0
LINE
  8
0
 62
7
 10
4.5322521715239
 20
-0.13
 30
0
 11
4.5322521715239
 21
-0.175
 31
0
  0
LINE
  8
0
 62
7
 10
4.5322521715239
 20
-0.175
 30
0
 11
4.534502171523899
 21
-0.1825
 31
0
  0
LINE
  8
0
 62
7
 10
4.534502171523899
 20
-0.1825
 30
0
 11
4.541252171523898
 21
-0.1925
 31
0
  0
LINE
  8
0
 62
7
 10
4.541252171523898
 20
-0.1925
 30
0
 11
4.548002171523899
 21
-0.1975
 31
0
  0
LINE
  8
0
 62
7
 10
4.548002171523899
 20
-0.1975
 30
0
 11
4.5547521715239
 21
-0.2
 31
0
  0
LINE
  8
0
 62
7
 10
4.5547521715239
 20
-0.2
 30
0
 11
4.563752171523898
 21
-0.2
 31
0
  0
LINE
  8
0
 62
7
 10
4.563752171523898
 20
-0.2
 30
0
 11
4.570502171523898
 21
-0.1975
 31
0
  0
LINE
  8
0
 62
7
 10
4.570502171523898
 20
-0.1975
 30
0
 11
4.5772521715239
 21
-0.1925
 31
0
  0
LINE
  8
0
 62
7
 10
4.5772521715239
 20
-0.1925
 30
0
 11
4.584002171523898
 21
-0.1825
 31
0
  0
LINE
  8
0
 62
7
 10
4.584002171523898
 20
-0.1825
 30
0
 11
4.586252171523898
 21
-0.175
 31
0
  0
LINE
  8
0
 62
7
 10
4.586252171523898
 20
-0.175
 30
0
 11
4.586252171523898
 21
-0.2
 31
0
  0
LINE
  8
0
 62
7
 10
4.604252171523899
 20
-0.135
 30
0
 11
4.631252171523898
 21
-0.135
 31
0
  0
LINE
  8
0
 62
7
 10
4.613252171523898
 20
-0.2
 30
0
 11
4.613252171523898
 21
-0.1175
 31
0
  0
LINE
  8
0
 62
7
 10
4.613252171523898
 20
-0.1175
 30
0
 11
4.615502171523898
 21
-0.1075
 31
0
  0
LINE
  8
0
 62
7
 10
4.615502171523898
 20
-0.1075
 30
0
 11
4.620002171523899
 21
-0.1025
 31
0
  0
LINE
  8
0
 62
7
 10
4.620002171523899
 20
-0.1025
 30
0
 11
4.626752171523899
 21
-0.1
 31
0
  0
LINE
  8
0
 62
7
 10
4.626752171523899
 20
-0.1
 30
0
 11
4.631252171523898
 21
-0.1
 31
0
  0
LINE
  8
0
 62
7
 10
4.703252171523899
 20
-0.1825
 30
0
 11
4.696502171523899
 21
-0.1925
 31
0
  0
LINE
  8
0
 62
7
 10
4.696502171523899
 20
-0.1925
 30
0
 11
4.689752171523899
 21
-0.1975
 31
0
  0
LINE
  8
0
 62
7
 10
4.689752171523899
 20
-0.1975
 30
0
 11
4.680752171523898
 21
-0.2
 31
0
  0
LINE
  8
0
 62
7
 10
4.680752171523898
 20
-0.2
 30
0
 11
4.671752171523898
 21
-0.2
 31
0
  0
LINE
  8
0
 62
7
 10
4.671752171523898
 20
-0.2
 30
0
 11
4.665002171523899
 21
-0.1975
 31
0
  0
LINE
  8
0
 62
7
 10
4.665002171523899
 20
-0.1975
 30
0
 11
4.658252171523898
 21
-0.1925
 31
0
  0
LINE
  8
0
 62
7
 10
4.658252171523898
 20
-0.1925
 30
0
 11
4.651502171523898
 21
-0.1825
 31
0
  0
LINE
  8
0
 62
7
 10
4.651502171523898
 20
-0.1825
 30
0
 11
4.649252171523898
 21
-0.175
 31
0
  0
LINE
  8
0
 62
7
 10
4.649252171523898
 20
-0.175
 30
0
 11
4.649252171523898
 21
-0.165
 31
0
  0
LINE
  8
0
 62
7
 10
4.649252171523898
 20
-0.155
 30
0
 11
4.651502171523898
 21
-0.1475
 31
0
  0
LINE
  8
0
 62
7
 10
4.651502171523898
 20
-0.1475
 30
0
 11
4.658252171523898
 21
-0.1375
 31
0
  0
LINE
  8
0
 62
7
 10
4.658252171523898
 20
-0.1375
 30
0
 11
4.665002171523899
 21
-0.1325
 31
0
  0
LINE
  8
0
 62
7
 10
4.665002171523899
 20
-0.1325
 30
0
 11
4.671752171523898
 21
-0.13
 31
0
  0
LINE
  8
0
 62
7
 10
4.671752171523898
 20
-0.13
 30
0
 11
4.680752171523898
 21
-0.13
 31
0
  0
LINE
  8
0
 62
7
 10
4.680752171523898
 20
-0.13
 30
0
 11
4.687502171523898
 21
-0.1325
 31
0
  0
LINE
  8
0
 62
7
 10
4.687502171523898
 20
-0.1325
 30
0
 11
4.694252171523899
 21
-0.1375
 31
0
  0
LINE
  8
0
 62
7
 10
4.694252171523899
 20
-0.1375
 30
0
 11
4.701002171523899
 21
-0.1475
 31
0
  0
LINE
  8
0
 62
7
 10
4.701002171523899
 20
-0.1475
 30
0
 11
4.703252171523899
 21
-0.155
 31
0
  0
LINE
  8
0
 62
7
 10
4.703252171523899
 20
-0.155
 30
0
 11
4.703252171523899
 21
-0.165
 31
0
  0
LINE
  8
0
 62
7
 10
4.703252171523899
 20
-0.165
 30
0
 11
4.649252171523898
 21
-0.165
 31
0
  0
LINE
  8
0
 62
7
 10
4.649252171523898
 20
-0.165
 30
0
 11
4.649252171523898
 21
-0.155
 31
0
  0
LINE
  8
0
 62
7
 10
4.721252171523899
 20
-0.155
 30
0
 11
4.7235021715239
 21
-0.1475
 31
0
  0
LINE
  8
0
 62
7
 10
4.7235021715239
 20
-0.1475
 30
0
 11
4.730252171523898
 21
-0.1375
 31
0
  0
LINE
  8
0
 62
7
 10
4.730252171523898
 20
-0.1375
 30
0
 11
4.737002171523899
 21
-0.1325
 31
0
  0
LINE
  8
0
 62
7
 10
4.737002171523899
 20
-0.1325
 30
0
 11
4.743752171523898
 21
-0.13
 31
0
  0
LINE
  8
0
 62
7
 10
4.743752171523898
 20
-0.13
 30
0
 11
4.752752171523898
 21
-0.13
 31
0
  0
LINE
  8
0
 62
7
 10
4.752752171523898
 20
-0.13
 30
0
 11
4.759502171523899
 21
-0.1325
 31
0
  0
LINE
  8
0
 62
7
 10
4.759502171523899
 20
-0.1325
 30
0
 11
4.766252171523898
 21
-0.1375
 31
0
  0
LINE
  8
0
 62
7
 10
4.766252171523898
 20
-0.1375
 30
0
 11
4.773002171523898
 21
-0.1475
 31
0
  0
LINE
  8
0
 62
7
 10
4.773002171523898
 20
-0.1475
 30
0
 11
4.775252171523898
 21
-0.155
 31
0
  0
LINE
  8
0
 62
7
 10
4.775252171523898
 20
-0.155
 30
0
 11
4.775252171523898
 21
-0.2
 31
0
  0
LINE
  8
0
 62
7
 10
4.721252171523899
 20
-0.13
 30
0
 11
4.721252171523899
 21
-0.155
 31
0
  0
LINE
  8
0
 62
7
 10
4.721252171523899
 20
-0.155
 30
0
 11
4.721252171523899
 21
-0.2
 31
0
  0
LINE
  8
0
 62
7
 10
2.876252171523898
 20
-0.35
 30
0
 11
2.876252171523898
 21
-0.25
 31
0
  0
LINE
  8
0
 62
7
 10
2.876252171523898
 20
-0.25
 30
0
 11
2.939252171523898
 21
-0.35
 31
0
  0
LINE
  8
0
 62
7
 10
2.939252171523898
 20
-0.35
 30
0
 11
2.939252171523898
 21
-0.25
 31
0
  0
LINE
  8
0
 62
7
 10
3.020252171523898
 20
-0.35
 30
0
 11
2.966252171523898
 21
-0.35
 31
0
  0
LINE
  8
0
 62
7
 10
2.966252171523898
 20
-0.35
 30
0
 11
2.966252171523898
 21
-0.25
 31
0
  0
LINE
  8
0
 62
7
 10
3.047252171523898
 20
-0.3
 30
0
 11
3.083252171523899
 21
-0.3
 31
0
  0
LINE
  8
0
 62
7
 10
3.083252171523899
 20
-0.3
 30
0
 11
3.087752171523898
 21
-0.3
 31
0
  0
LINE
  8
0
 62
7
 10
3.087752171523898
 20
-0.3
 30
0
 11
3.096752171523898
 21
-0.305
 31
0
  0
LINE
  8
0
 62
7
 10
3.096752171523898
 20
-0.305
 30
0
 11
3.101252171523898
 21
-0.3100000000000001
 31
0
  0
LINE
  8
0
 62
7
 10
3.101252171523898
 20
-0.3100000000000001
 30
0
 11
3.105752171523898
 21
-0.3200000000000001
 31
0
  0
LINE
  8
0
 62
7
 10
3.105752171523898
 20
-0.3200000000000001
 30
0
 11
3.105752171523898
 21
-0.3300000000000001
 31
0
  0
LINE
  8
0
 62
7
 10
3.105752171523898
 20
-0.3300000000000001
 30
0
 11
3.101252171523898
 21
-0.34
 31
0
  0
LINE
  8
0
 62
7
 10
3.101252171523898
 20
-0.34
 30
0
 11
3.096752171523898
 21
-0.345
 31
0
  0
LINE
  8
0
 62
7
 10
3.096752171523898
 20
-0.345
 30
0
 11
3.087752171523898
 21
-0.35
 31
0
  0
LINE
  8
0
 62
7
 10
3.087752171523898
 20
-0.35
 30
0
 11
3.047252171523898
 21
-0.35
 31
0
  0
LINE
  8
0
 62
7
 10
3.047252171523898
 20
-0.35
 30
0
 11
3.047252171523898
 21
-0.3
 31
0
  0
LINE
  8
0
 62
7
 10
3.047252171523898
 20
-0.25
 30
0
 11
3.081002171523899
 21
-0.25
 31
0
  0
LINE
  8
0
 62
7
 10
3.081002171523899
 20
-0.25
 30
0
 11
3.092252171523899
 21
-0.2525
 31
0
  0
LINE
  8
0
 62
7
 10
3.092252171523899
 20
-0.2525
 30
0
 11
3.099002171523898
 21
-0.26
 31
0
  0
LINE
  8
0
 62
7
 10
3.099002171523898
 20
-0.26
 30
0
 11
3.101252171523898
 21
-0.27
 31
0
  0
LINE
  8
0
 62
7
 10
3.101252171523898
 20
-0.27
 30
0
 11
3.101252171523898
 21
-0.28
 31
0
  0
LINE
  8
0
 62
7
 10
3.101252171523898
 20
-0.28
 30
0
 11
3.096752171523898
 21
-0.29
 31
0
  0
LINE
  8
0
 62
7
 10
3.096752171523898
 20
-0.29
 30
0
 11
3.090002171523898
 21
-0.2975
 31
0
  0
LINE
  8
0
 62
7
 10
3.090002171523898
 20
-0.2975
 30
0
 11
3.083252171523899
 21
-0.3
 31
0
  0
LINE
  8
0
 62
7
 10
3.047252171523898
 20
-0.3
 30
0
 11
3.047252171523898
 21
-0.25
 31
0
  0
LINE
  8
0
 62
7
 10
3.247502171523898
 20
-0.2975
 30
0
 11
3.240752171523899
 21
-0.2875
 31
0
  0
LINE
  8
0
 62
7
 10
3.240752171523899
 20
-0.2875
 30
0
 11
3.234002171523898
 21
-0.2825
 31
0
  0
LINE
  8
0
 62
7
 10
3.234002171523898
 20
-0.2825
 30
0
 11
3.2272521715239
 21
-0.28
 31
0
  0
LINE
  8
0
 62
7
 10
3.2272521715239
 20
-0.28
 30
0
 11
3.218252171523899
 21
-0.28
 31
0
  0
LINE
  8
0
 62
7
 10
3.218252171523899
 20
-0.28
 30
0
 11
3.211502171523898
 21
-0.2825
 31
0
  0
LINE
  8
0
 62
7
 10
3.211502171523898
 20
-0.2825
 30
0
 11
3.2047521715239
 21
-0.2875
 31
0
  0
LINE
  8
0
 62
7
 10
3.2047521715239
 20
-0.2875
 30
0
 11
3.198002171523898
 21
-0.2975
 31
0
  0
LINE
  8
0
 62
7
 10
3.198002171523898
 20
-0.2975
 30
0
 11
3.195752171523898
 21
-0.305
 31
0
  0
LINE
  8
0
 62
7
 10
3.195752171523898
 20
-0.305
 30
0
 11
3.195752171523898
 21
-0.325
 31
0
  0
LINE
  8
0
 62
7
 10
3.195752171523898
 20
-0.325
 30
0
 11
3.198002171523898
 21
-0.3325
 31
0
  0
LINE
  8
0
 62
7
 10
3.198002171523898
 20
-0.3325
 30
0
 11
3.2047521715239
 21
-0.3425
 31
0
  0
LINE
  8
0
 62
7
 10
3.2047521715239
 20
-0.3425
 30
0
 11
3.211502171523898
 21
-0.3475
 31
0
  0
LINE
  8
0
 62
7
 10
3.211502171523898
 20
-0.3475
 30
0
 11
3.218252171523899
 21
-0.35
 31
0
  0
LINE
  8
0
 62
7
 10
3.218252171523899
 20
-0.35
 30
0
 11
3.2272521715239
 21
-0.35
 31
0
  0
LINE
  8
0
 62
7
 10
3.2272521715239
 20
-0.35
 30
0
 11
3.234002171523898
 21
-0.3475
 31
0
  0
LINE
  8
0
 62
7
 10
3.234002171523898
 20
-0.3475
 30
0
 11
3.240752171523899
 21
-0.3425
 31
0
  0
LINE
  8
0
 62
7
 10
3.240752171523899
 20
-0.3425
 30
0
 11
3.247502171523898
 21
-0.3325
 31
0
  0
LINE
  8
0
 62
7
 10
3.319502171523898
 20
-0.305
 30
0
 11
3.317252171523899
 21
-0.2975
 31
0
  0
LINE
  8
0
 62
7
 10
3.317252171523899
 20
-0.2975
 30
0
 11
3.310502171523899
 21
-0.2875
 31
0
  0
LINE
  8
0
 62
7
 10
3.310502171523899
 20
-0.2875
 30
0
 11
3.303752171523898
 21
-0.2825
 31
0
  0
LINE
  8
0
 62
7
 10
3.303752171523898
 20
-0.2825
 30
0
 11
3.297002171523899
 21
-0.28
 31
0
  0
LINE
  8
0
 62
7
 10
3.297002171523899
 20
-0.28
 30
0
 11
3.288002171523898
 21
-0.28
 31
0
  0
LINE
  8
0
 62
7
 10
3.288002171523898
 20
-0.28
 30
0
 11
3.281252171523898
 21
-0.2825
 31
0
  0
LINE
  8
0
 62
7
 10
3.281252171523898
 20
-0.2825
 30
0
 11
3.274502171523899
 21
-0.2875
 31
0
  0
LINE
  8
0
 62
7
 10
3.274502171523899
 20
-0.2875
 30
0
 11
3.267752171523898
 21
-0.2975
 31
0
  0
LINE
  8
0
 62
7
 10
3.267752171523898
 20
-0.2975
 30
0
 11
3.265502171523898
 21
-0.305
 31
0
  0
LINE
  8
0
 62
7
 10
3.265502171523898
 20
-0.305
 30
0
 11
3.265502171523898
 21
-0.325
 31
0
  0
LINE
  8
0
 62
7
 10
3.265502171523898
 20
-0.325
 30
0
 11
3.267752171523898
 21
-0.3325
 31
0
  0
LINE
  8
0
 62
7
 10
3.267752171523898
 20
-0.3325
 30
0
 11
3.274502171523899
 21
-0.3425
 31
0
  0
LINE
  8
0
 62
7
 10
3.274502171523899
 20
-0.3425
 30
0
 11
3.281252171523898
 21
-0.3475
 31
0
  0
LINE
  8
0
 62
7
 10
3.281252171523898
 20
-0.3475
 30
0
 11
3.288002171523898
 21
-0.35
 31
0
  0
LINE
  8
0
 62
7
 10
3.288002171523898
 20
-0.35
 30
0
 11
3.297002171523899
 21
-0.35
 31
0
  0
LINE
  8
0
 62
7
 10
3.297002171523899
 20
-0.35
 30
0
 11
3.303752171523898
 21
-0.3475
 31
0
  0
LINE
  8
0
 62
7
 10
3.303752171523898
 20
-0.3475
 30
0
 11
3.310502171523899
 21
-0.3425
 31
0
  0
LINE
  8
0
 62
7
 10
3.310502171523899
 20
-0.3425
 30
0
 11
3.317252171523899
 21
-0.3325
 31
0
  0
LINE
  8
0
 62
7
 10
3.317252171523899
 20
-0.3325
 30
0
 11
3.319502171523898
 21
-0.325
 31
0
  0
LINE
  8
0
 62
7
 10
3.319502171523898
 20
-0.28
 30
0
 11
3.319502171523898
 21
-0.305
 31
0
  0
LINE
  8
0
 62
7
 10
3.319502171523898
 20
-0.3475
 30
0
 11
3.321752171523898
 21
-0.35
 31
0
  0
LINE
  8
0
 62
7
 10
3.321752171523898
 20
-0.35
 30
0
 11
3.324002171523898
 21
-0.35
 31
0
  0
LINE
  8
0
 62
7
 10
3.319502171523898
 20
-0.325
 30
0
 11
3.319502171523898
 21
-0.3475
 31
0
  0
LINE
  8
0
 62
7
 10
3.319502171523898
 20
-0.305
 30
0
 11
3.319502171523898
 21
-0.325
 31
0
  0
LINE
  8
0
 62
7
 10
3.342002171523898
 20
-0.35
 30
0
 11
3.342002171523898
 21
-0.3475
 31
0
  0
LINE
  8
0
 62
7
 10
3.342002171523898
 20
-0.3475
 30
0
 11
3.344252171523898
 21
-0.3475
 31
0
  0
LINE
  8
0
 62
7
 10
3.344252171523898
 20
-0.3475
 30
0
 11
3.344252171523898
 21
-0.35
 31
0
  0
LINE
  8
0
 62
7
 10
3.344252171523898
 20
-0.35
 30
0
 11
3.342002171523898
 21
-0.35
 31
0
  0
LINE
  8
0
 62
7
 10
3.445502171523898
 20
-0.3100000000000001
 30
0
 11
3.447752171523899
 21
-0.3
 31
0
  0
LINE
  8
0
 62
7
 10
3.447752171523899
 20
-0.3
 30
0
 11
3.4522521715239
 21
-0.2925
 31
0
  0
LINE
  8
0
 62
7
 10
3.4522521715239
 20
-0.2925
 30
0
 11
3.459002171523899
 21
-0.2875
 31
0
  0
LINE
  8
0
 62
7
 10
3.459002171523899
 20
-0.2875
 30
0
 11
3.465752171523899
 21
-0.285
 31
0
  0
LINE
  8
0
 62
7
 10
3.465752171523899
 20
-0.285
 30
0
 11
3.479252171523898
 21
-0.285
 31
0
  0
LINE
  8
0
 62
7
 10
3.479252171523898
 20
-0.285
 30
0
 11
3.4860021715239
 21
-0.2875
 31
0
  0
LINE
  8
0
 62
7
 10
3.4860021715239
 20
-0.2875
 30
0
 11
3.492752171523898
 21
-0.2925
 31
0
  0
LINE
  8
0
 62
7
 10
3.492752171523898
 20
-0.2925
 30
0
 11
3.497252171523899
 21
-0.3
 31
0
  0
LINE
  8
0
 62
7
 10
3.497252171523899
 20
-0.3
 30
0
 11
3.499502171523899
 21
-0.3100000000000001
 31
0
  0
LINE
  8
0
 62
7
 10
3.499502171523899
 20
-0.3100000000000001
 30
0
 11
3.499502171523899
 21
-0.325
 31
0
  0
LINE
  8
0
 62
7
 10
3.499502171523899
 20
-0.325
 30
0
 11
3.497252171523899
 21
-0.335
 31
0
  0
LINE
  8
0
 62
7
 10
3.497252171523899
 20
-0.335
 30
0
 11
3.492752171523898
 21
-0.3425
 31
0
  0
LINE
  8
0
 62
7
 10
3.492752171523898
 20
-0.3425
 30
0
 11
3.4860021715239
 21
-0.3475
 31
0
  0
LINE
  8
0
 62
7
 10
3.4860021715239
 20
-0.3475
 30
0
 11
3.479252171523898
 21
-0.35
 31
0
  0
LINE
  8
0
 62
7
 10
3.479252171523898
 20
-0.35
 30
0
 11
3.465752171523899
 21
-0.35
 31
0
  0
LINE
  8
0
 62
7
 10
3.465752171523899
 20
-0.35
 30
0
 11
3.459002171523899
 21
-0.3475
 31
0
  0
LINE
  8
0
 62
7
 10
3.459002171523899
 20
-0.3475
 30
0
 11
3.4522521715239
 21
-0.3425
 31
0
  0
LINE
  8
0
 62
7
 10
3.4522521715239
 20
-0.3425
 30
0
 11
3.447752171523899
 21
-0.335
 31
0
  0
LINE
  8
0
 62
7
 10
3.447752171523899
 20
-0.335
 30
0
 11
3.445502171523898
 21
-0.325
 31
0
  0
LINE
  8
0
 62
7
 10
3.445502171523898
 20
-0.325
 30
0
 11
3.445502171523898
 21
-0.3100000000000001
 31
0
  0
LINE
  8
0
 62
7
 10
3.445502171523898
 20
-0.275
 30
0
 11
3.447752171523899
 21
-0.265
 31
0
  0
LINE
  8
0
 62
7
 10
3.447752171523899
 20
-0.265
 30
0
 11
3.4522521715239
 21
-0.2575
 31
0
  0
LINE
  8
0
 62
7
 10
3.4522521715239
 20
-0.2575
 30
0
 11
3.459002171523899
 21
-0.2525
 31
0
  0
LINE
  8
0
 62
7
 10
3.459002171523899
 20
-0.2525
 30
0
 11
3.465752171523899
 21
-0.25
 31
0
  0
LINE
  8
0
 62
7
 10
3.465752171523899
 20
-0.25
 30
0
 11
3.479252171523898
 21
-0.25
 31
0
  0
LINE
  8
0
 62
7
 10
3.479252171523898
 20
-0.25
 30
0
 11
3.4860021715239
 21
-0.2525
 31
0
  0
LINE
  8
0
 62
7
 10
3.4860021715239
 20
-0.2525
 30
0
 11
3.492752171523898
 21
-0.2575
 31
0
  0
LINE
  8
0
 62
7
 10
3.492752171523898
 20
-0.2575
 30
0
 11
3.497252171523899
 21
-0.265
 31
0
  0
LINE
  8
0
 62
7
 10
3.445502171523898
 20
-0.3100000000000001
 30
0
 11
3.445502171523898
 21
-0.275
 31
0
  0
LINE
  8
0
 62
7
 10
3.576002171523899
 20
-0.25
 30
0
 11
3.526502171523898
 21
-0.25
 31
0
  0
LINE
  8
0
 62
7
 10
3.526502171523898
 20
-0.25
 30
0
 11
3.526502171523898
 21
-0.3
 31
0
  0
LINE
  8
0
 62
7
 10
3.526502171523898
 20
-0.3
 30
0
 11
3.531002171523899
 21
-0.2925
 31
0
  0
LINE
  8
0
 62
7
 10
3.531002171523899
 20
-0.2925
 30
0
 11
3.537752171523898
 21
-0.2875
 31
0
  0
LINE
  8
0
 62
7
 10
3.537752171523898
 20
-0.2875
 30
0
 11
3.546752171523898
 21
-0.285
 31
0
  0
LINE
  8
0
 62
7
 10
3.546752171523898
 20
-0.285
 30
0
 11
3.560252171523899
 21
-0.285
 31
0
  0
LINE
  8
0
 62
7
 10
3.560252171523899
 20
-0.285
 30
0
 11
3.567002171523898
 21
-0.2875
 31
0
  0
LINE
  8
0
 62
7
 10
3.567002171523898
 20
-0.2875
 30
0
 11
3.573752171523898
 21
-0.2925
 31
0
  0
LINE
  8
0
 62
7
 10
3.573752171523898
 20
-0.2925
 30
0
 11
3.578252171523899
 21
-0.3
 31
0
  0
LINE
  8
0
 62
7
 10
3.578252171523899
 20
-0.3
 30
0
 11
3.580502171523898
 21
-0.3100000000000001
 31
0
  0
LINE
  8
0
 62
7
 10
3.580502171523898
 20
-0.3100000000000001
 30
0
 11
3.580502171523898
 21
-0.325
 31
0
  0
LINE
  8
0
 62
7
 10
3.580502171523898
 20
-0.325
 30
0
 11
3.578252171523899
 21
-0.335
 31
0
  0
LINE
  8
0
 62
7
 10
3.578252171523899
 20
-0.335
 30
0
 11
3.573752171523898
 21
-0.3425
 31
0
  0
LINE
  8
0
 62
7
 10
3.573752171523898
 20
-0.3425
 30
0
 11
3.567002171523898
 21
-0.3475
 31
0
  0
LINE
  8
0
 62
7
 10
3.567002171523898
 20
-0.3475
 30
0
 11
3.560252171523899
 21
-0.35
 31
0
  0
LINE
  8
0
 62
7
 10
3.560252171523899
 20
-0.35
 30
0
 11
3.546752171523898
 21
-0.35
 31
0
  0
LINE
  8
0
 62
7
 10
3.546752171523898
 20
-0.35
 30
0
 11
3.537752171523898
 21
-0.3475
 31
0
  0
LINE
  8
0
 62
7
 10
3.537752171523898
 20
-0.3475
 30
0
 11
3.531002171523899
 21
-0.3425
 31
0
  0
LINE
  8
0
 62
7
 10
3.531002171523899
 20
-0.3425
 30
0
 11
3.526502171523898
 21
-0.335
 31
0
  0
LINE
  8
0
 62
7
 10
3.731252171523898
 20
-0.2975
 30
0
 11
3.724502171523898
 21
-0.2875
 31
0
  0
LINE
  8
0
 62
7
 10
3.724502171523898
 20
-0.2875
 30
0
 11
3.717752171523898
 21
-0.2825
 31
0
  0
LINE
  8
0
 62
7
 10
3.717752171523898
 20
-0.2825
 30
0
 11
3.7110021715239
 21
-0.28
 31
0
  0
LINE
  8
0
 62
7
 10
3.7110021715239
 20
-0.28
 30
0
 11
3.702002171523898
 21
-0.28
 31
0
  0
LINE
  8
0
 62
7
 10
3.702002171523898
 20
-0.28
 30
0
 11
3.695252171523898
 21
-0.2825
 31
0
  0
LINE
  8
0
 62
7
 10
3.695252171523898
 20
-0.2825
 30
0
 11
3.688502171523899
 21
-0.2875
 31
0
  0
LINE
  8
0
 62
7
 10
3.688502171523899
 20
-0.2875
 30
0
 11
3.681752171523899
 21
-0.2975
 31
0
  0
LINE
  8
0
 62
7
 10
3.681752171523899
 20
-0.2975
 30
0
 11
3.679502171523898
 21
-0.305
 31
0
  0
LINE
  8
0
 62
7
 10
3.679502171523898
 20
-0.305
 30
0
 11
3.679502171523898
 21
-0.325
 31
0
  0
LINE
  8
0
 62
7
 10
3.679502171523898
 20
-0.325
 30
0
 11
3.681752171523899
 21
-0.3325
 31
0
  0
LINE
  8
0
 62
7
 10
3.681752171523899
 20
-0.3325
 30
0
 11
3.688502171523899
 21
-0.3425
 31
0
  0
LINE
  8
0
 62
7
 10
3.688502171523899
 20
-0.3425
 30
0
 11
3.695252171523898
 21
-0.3475
 31
0
  0
LINE
  8
0
 62
7
 10
3.695252171523898
 20
-0.3475
 30
0
 11
3.702002171523898
 21
-0.35
 31
0
  0
LINE
  8
0
 62
7
 10
3.702002171523898
 20
-0.35
 30
0
 11
3.7110021715239
 21
-0.35
 31
0
  0
LINE
  8
0
 62
7
 10
3.7110021715239
 20
-0.35
 30
0
 11
3.717752171523898
 21
-0.3475
 31
0
  0
LINE
  8
0
 62
7
 10
3.717752171523898
 20
-0.3475
 30
0
 11
3.724502171523898
 21
-0.3425
 31
0
  0
LINE
  8
0
 62
7
 10
3.724502171523898
 20
-0.3425
 30
0
 11
3.731252171523898
 21
-0.3325
 31
0
  0
LINE
  8
0
 62
7
 10
3.7897521715239
 20
-0.305
 30
0
 11
3.7897521715239
 21
-0.35
 31
0
  0
LINE
  8
0
 62
7
 10
3.749252171523898
 20
-0.28
 30
0
 11
3.749252171523898
 21
-0.305
 31
0
  0
LINE
  8
0
 62
7
 10
3.749252171523898
 20
-0.35
 30
0
 11
3.749252171523898
 21
-0.305
 31
0
  0
LINE
  8
0
 62
7
 10
3.749252171523898
 20
-0.305
 30
0
 11
3.751502171523898
 21
-0.2925
 31
0
  0
LINE
  8
0
 62
7
 10
3.751502171523898
 20
-0.2925
 30
0
 11
3.753752171523898
 21
-0.2875
 31
0
  0
LINE
  8
0
 62
7
 10
3.753752171523898
 20
-0.2875
 30
0
 11
3.758252171523898
 21
-0.2825
 31
0
  0
LINE
  8
0
 62
7
 10
3.758252171523898
 20
-0.2825
 30
0
 11
3.765002171523898
 21
-0.28
 31
0
  0
LINE
  8
0
 62
7
 10
3.765002171523898
 20
-0.28
 30
0
 11
3.774002171523898
 21
-0.28
 31
0
  0
LINE
  8
0
 62
7
 10
3.774002171523898
 20
-0.28
 30
0
 11
3.780752171523899
 21
-0.2825
 31
0
  0
LINE
  8
0
 62
7
 10
3.780752171523899
 20
-0.2825
 30
0
 11
3.785252171523899
 21
-0.2875
 31
0
  0
LINE
  8
0
 62
7
 10
3.785252171523899
 20
-0.2875
 30
0
 11
3.787502171523898
 21
-0.2925
 31
0
  0
LINE
  8
0
 62
7
 10
3.787502171523898
 20
-0.2925
 30
0
 11
3.7897521715239
 21
-0.305
 31
0
  0
LINE
  8
0
 62
7
 10
3.7897521715239
 20
-0.305
 30
0
 11
3.792002171523898
 21
-0.2925
 31
0
  0
LINE
  8
0
 62
7
 10
3.792002171523898
 20
-0.2925
 30
0
 11
3.794252171523898
 21
-0.2875
 31
0
  0
LINE
  8
0
 62
7
 10
3.794252171523898
 20
-0.2875
 30
0
 11
3.798752171523898
 21
-0.2825
 31
0
  0
LINE
  8
0
 62
7
 10
3.798752171523898
 20
-0.2825
 30
0
 11
3.805502171523898
 21
-0.28
 31
0
  0
LINE
  8
0
 62
7
 10
3.805502171523898
 20
-0.28
 30
0
 11
3.814502171523898
 21
-0.28
 31
0
  0
LINE
  8
0
 62
7
 10
3.814502171523898
 20
-0.28
 30
0
 11
3.821252171523898
 21
-0.2825
 31
0
  0
LINE
  8
0
 62
7
 10
3.825752171523898
 20
-0.2875
 30
0
 11
3.821252171523898
 21
-0.2825
 31
0
  0
LINE
  8
0
 62
7
 10
3.821252171523898
 20
-0.2825
 30
0
 11
3.825752171523898
 21
-0.2875
 31
0
  0
LINE
  8
0
 62
7
 10
3.825752171523898
 20
-0.2875
 30
0
 11
3.828002171523898
 21
-0.2925
 31
0
  0
LINE
  8
0
 62
7
 10
3.828002171523898
 20
-0.2925
 30
0
 11
3.830252171523898
 21
-0.305
 31
0
  0
LINE
  8
0
 62
7
 10
3.830252171523898
 20
-0.305
 30
0
 11
3.830252171523898
 21
-0.35
 31
0
  0
LINE
  8
0
 62
7
 10
3.920252171523898
 20
-0.325
 30
0
 11
3.922502171523898
 21
-0.3325
 31
0
  0
LINE
  8
0
 62
7
 10
3.922502171523898
 20
-0.3325
 30
0
 11
3.929252171523899
 21
-0.3425
 31
0
  0
LINE
  8
0
 62
7
 10
3.929252171523899
 20
-0.3425
 30
0
 11
3.936002171523899
 21
-0.3475
 31
0
  0
LINE
  8
0
 62
7
 10
3.936002171523899
 20
-0.3475
 30
0
 11
3.942752171523898
 21
-0.35
 31
0
  0
LINE
  8
0
 62
7
 10
3.942752171523898
 20
-0.35
 30
0
 11
3.951752171523899
 21
-0.35
 31
0
  0
LINE
  8
0
 62
7
 10
3.951752171523899
 20
-0.35
 30
0
 11
3.9585021715239
 21
-0.3475
 31
0
  0
LINE
  8
0
 62
7
 10
3.9585021715239
 20
-0.3475
 30
0
 11
3.965252171523899
 21
-0.3425
 31
0
  0
LINE
  8
0
 62
7
 10
3.965252171523899
 20
-0.3425
 30
0
 11
3.972002171523899
 21
-0.3325
 31
0
  0
LINE
  8
0
 62
7
 10
3.972002171523899
 20
-0.3325
 30
0
 11
3.974252171523898
 21
-0.325
 31
0
  0
LINE
  8
0
 62
7
 10
3.974252171523898
 20
-0.325
 30
0
 11
3.974252171523898
 21
-0.305
 31
0
  0
LINE
  8
0
 62
7
 10
3.974252171523898
 20
-0.305
 30
0
 11
3.972002171523899
 21
-0.2975
 31
0
  0
LINE
  8
0
 62
7
 10
3.972002171523899
 20
-0.2975
 30
0
 11
3.965252171523899
 21
-0.2875
 31
0
  0
LINE
  8
0
 62
7
 10
3.965252171523899
 20
-0.2875
 30
0
 11
3.9585021715239
 21
-0.2825
 31
0
  0
LINE
  8
0
 62
7
 10
3.9585021715239
 20
-0.2825
 30
0
 11
3.951752171523899
 21
-0.28
 31
0
  0
LINE
  8
0
 62
7
 10
3.951752171523899
 20
-0.28
 30
0
 11
3.942752171523898
 21
-0.28
 31
0
  0
LINE
  8
0
 62
7
 10
3.942752171523898
 20
-0.28
 30
0
 11
3.936002171523899
 21
-0.2825
 31
0
  0
LINE
  8
0
 62
7
 10
3.936002171523899
 20
-0.2825
 30
0
 11
3.929252171523899
 21
-0.2875
 31
0
  0
LINE
  8
0
 62
7
 10
3.929252171523899
 20
-0.2875
 30
0
 11
3.922502171523898
 21
-0.2975
 31
0
  0
LINE
  8
0
 62
7
 10
3.922502171523898
 20
-0.2975
 30
0
 11
3.920252171523898
 21
-0.305
 31
0
  0
LINE
  8
0
 62
7
 10
3.920252171523898
 20
-0.25
 30
0
 11
3.920252171523898
 21
-0.305
 31
0
  0
LINE
  8
0
 62
7
 10
3.920252171523898
 20
-0.305
 30
0
 11
3.920252171523898
 21
-0.35
 31
0
  0
LINE
  8
0
 62
7
 10
4.046252171523898
 20
-0.3325
 30
0
 11
4.039502171523899
 21
-0.3425
 31
0
  0
LINE
  8
0
 62
7
 10
4.039502171523899
 20
-0.3425
 30
0
 11
4.032752171523899
 21
-0.3475
 31
0
  0
LINE
  8
0
 62
7
 10
4.032752171523899
 20
-0.3475
 30
0
 11
4.023752171523898
 21
-0.35
 31
0
  0
LINE
  8
0
 62
7
 10
4.023752171523898
 20
-0.35
 30
0
 11
4.0147521715239
 21
-0.35
 31
0
  0
LINE
  8
0
 62
7
 10
4.0147521715239
 20
-0.35
 30
0
 11
4.008002171523898
 21
-0.3475
 31
0
  0
LINE
  8
0
 62
7
 10
4.008002171523898
 20
-0.3475
 30
0
 11
4.001252171523897
 21
-0.3425
 31
0
  0
LINE
  8
0
 62
7
 10
4.001252171523897
 20
-0.3425
 30
0
 11
3.994502171523898
 21
-0.3325
 31
0
  0
LINE
  8
0
 62
7
 10
3.994502171523898
 20
-0.3325
 30
0
 11
3.9922521715239
 21
-0.325
 31
0
  0
LINE
  8
0
 62
7
 10
3.9922521715239
 20
-0.325
 30
0
 11
3.9922521715239
 21
-0.315
 31
0
  0
LINE
  8
0
 62
7
 10
3.9922521715239
 20
-0.305
 30
0
 11
3.994502171523898
 21
-0.2975
 31
0
  0
LINE
  8
0
 62
7
 10
3.994502171523898
 20
-0.2975
 30
0
 11
4.001252171523897
 21
-0.2875
 31
0
  0
LINE
  8
0
 62
7
 10
4.001252171523897
 20
-0.2875
 30
0
 11
4.008002171523898
 21
-0.2825
 31
0
  0
LINE
  8
0
 62
7
 10
4.008002171523898
 20
-0.2825
 30
0
 11
4.0147521715239
 21
-0.28
 31
0
  0
LINE
  8
0
 62
7
 10
4.0147521715239
 20
-0.28
 30
0
 11
4.023752171523898
 21
-0.28
 31
0
  0
LINE
  8
0
 62
7
 10
4.023752171523898
 20
-0.28
 30
0
 11
4.030502171523898
 21
-0.2825
 31
0
  0
LINE
  8
0
 62
7
 10
4.030502171523898
 20
-0.2825
 30
0
 11
4.037252171523899
 21
-0.2875
 31
0
  0
LINE
  8
0
 62
7
 10
4.037252171523899
 20
-0.2875
 30
0
 11
4.044002171523899
 21
-0.2975
 31
0
  0
LINE
  8
0
 62
7
 10
4.044002171523899
 20
-0.2975
 30
0
 11
4.046252171523898
 21
-0.305
 31
0
  0
LINE
  8
0
 62
7
 10
4.046252171523898
 20
-0.305
 30
0
 11
4.046252171523898
 21
-0.315
 31
0
  0
LINE
  8
0
 62
7
 10
4.046252171523898
 20
-0.315
 30
0
 11
3.9922521715239
 21
-0.315
 31
0
  0
LINE
  8
0
 62
7
 10
3.9922521715239
 20
-0.315
 30
0
 11
3.9922521715239
 21
-0.305
 31
0
  0
LINE
  8
0
 62
7
 10
4.064252171523899
 20
-0.25
 30
0
 11
4.064252171523899
 21
-0.2550000000000001
 31
0
  0
LINE
  8
0
 62
7
 10
4.064252171523899
 20
-0.28
 30
0
 11
4.064252171523899
 21
-0.35
 31
0
  0
LINE
  8
0
 62
7
 10
4.215002171523898
 20
-0.26
 30
0
 11
4.208252171523898
 21
-0.2550000000000001
 31
0
  0
LINE
  8
0
 62
7
 10
4.208252171523898
 20
-0.2550000000000001
 30
0
 11
4.201502171523898
 21
-0.2525
 31
0
  0
LINE
  8
0
 62
7
 10
4.201502171523898
 20
-0.2525
 30
0
 11
4.190252171523898
 21
-0.25
 31
0
  0
LINE
  8
0
 62
7
 10
4.190252171523898
 20
-0.25
 30
0
 11
4.181252171523898
 21
-0.25
 31
0
  0
LINE
  8
0
 62
7
 10
4.181252171523898
 20
-0.25
 30
0
 11
4.172252171523899
 21
-0.2525
 31
0
  0
LINE
  8
0
 62
7
 10
4.172252171523899
 20
-0.2525
 30
0
 11
4.165502171523898
 21
-0.2550000000000001
 31
0
  0
LINE
  8
0
 62
7
 10
4.165502171523898
 20
-0.2550000000000001
 30
0
 11
4.158752171523899
 21
-0.26
 31
0
  0
LINE
  8
0
 62
7
 10
4.158752171523899
 20
-0.26
 30
0
 11
4.156502171523899
 21
-0.2675
 31
0
  0
LINE
  8
0
 62
7
 10
4.156502171523899
 20
-0.2675
 30
0
 11
4.156502171523899
 21
-0.2725
 31
0
  0
LINE
  8
0
 62
7
 10
4.156502171523899
 20
-0.2725
 30
0
 11
4.158752171523899
 21
-0.28
 31
0
  0
LINE
  8
0
 62
7
 10
4.158752171523899
 20
-0.28
 30
0
 11
4.165502171523898
 21
-0.285
 31
0
  0
LINE
  8
0
 62
7
 10
4.165502171523898
 20
-0.285
 30
0
 11
4.203752171523898
 21
-0.3025
 31
0
  0
LINE
  8
0
 62
7
 10
4.203752171523898
 20
-0.3025
 30
0
 11
4.210502171523898
 21
-0.3075000000000001
 31
0
  0
LINE
  8
0
 62
7
 10
4.210502171523898
 20
-0.3075000000000001
 30
0
 11
4.215002171523898
 21
-0.315
 31
0
  0
LINE
  8
0
 62
7
 10
4.215002171523898
 20
-0.315
 30
0
 11
4.217252171523899
 21
-0.3225
 31
0
  0
LINE
  8
0
 62
7
 10
4.217252171523899
 20
-0.3225
 30
0
 11
4.217252171523899
 21
-0.3275
 31
0
  0
LINE
  8
0
 62
7
 10
4.217252171523899
 20
-0.3275
 30
0
 11
4.215002171523898
 21
-0.335
 31
0
  0
LINE
  8
0
 62
7
 10
4.215002171523898
 20
-0.335
 30
0
 11
4.210502171523898
 21
-0.3425
 31
0
  0
LINE
  8
0
 62
7
 10
4.210502171523898
 20
-0.3425
 30
0
 11
4.203752171523898
 21
-0.3475
 31
0
  0
LINE
  8
0
 62
7
 10
4.203752171523898
 20
-0.3475
 30
0
 11
4.192502171523898
 21
-0.35
 31
0
  0
LINE
  8
0
 62
7
 10
4.192502171523898
 20
-0.35
 30
0
 11
4.179002171523899
 21
-0.35
 31
0
  0
LINE
  8
0
 62
7
 10
4.179002171523899
 20
-0.35
 30
0
 11
4.167752171523898
 21
-0.3475
 31
0
  0
LINE
  8
0
 62
7
 10
4.167752171523898
 20
-0.3475
 30
0
 11
4.158752171523899
 21
-0.3425
 31
0
  0
LINE
  8
0
 62
7
 10
4.158752171523899
 20
-0.3425
 30
0
 11
4.154252171523899
 21
-0.3375
 31
0
  0
LINE
  8
0
 62
7
 10
4.244252171523899
 20
-0.25
 30
0
 11
4.244252171523899
 21
-0.335
 31
0
  0
LINE
  8
0
 62
7
 10
4.244252171523899
 20
-0.335
 30
0
 11
4.246502171523899
 21
-0.3475
 31
0
  0
LINE
  8
0
 62
7
 10
4.246502171523899
 20
-0.3475
 30
0
 11
4.2510021715239
 21
-0.35
 31
0
  0
LINE
  8
0
 62
7
 10
4.2510021715239
 20
-0.35
 30
0
 11
4.253252171523899
 21
-0.35
 31
0
  0
LINE
  8
0
 62
7
 10
4.235252171523899
 20
-0.28
 30
0
 11
4.253252171523899
 21
-0.28
 31
0
  0
LINE
  8
0
 62
7
 10
4.325252171523899
 20
-0.3325
 30
0
 11
4.318502171523899
 21
-0.3425
 31
0
  0
LINE
  8
0
 62
7
 10
4.318502171523899
 20
-0.3425
 30
0
 11
4.311752171523898
 21
-0.3475
 31
0
  0
LINE
  8
0
 62
7
 10
4.311752171523898
 20
-0.3475
 30
0
 11
4.302752171523898
 21
-0.35
 31
0
  0
LINE
  8
0
 62
7
 10
4.302752171523898
 20
-0.35
 30
0
 11
4.293752171523898
 21
-0.35
 31
0
  0
LINE
  8
0
 62
7
 10
4.293752171523898
 20
-0.35
 30
0
 11
4.287002171523898
 21
-0.3475
 31
0
  0
LINE
  8
0
 62
7
 10
4.287002171523898
 20
-0.3475
 30
0
 11
4.280252171523898
 21
-0.3425
 31
0
  0
LINE
  8
0
 62
7
 10
4.280252171523898
 20
-0.3425
 30
0
 11
4.2735021715239
 21
-0.3325
 31
0
  0
LINE
  8
0
 62
7
 10
4.2735021715239
 20
-0.3325
 30
0
 11
4.271252171523899
 21
-0.325
 31
0
  0
LINE
  8
0
 62
7
 10
4.271252171523899
 20
-0.325
 30
0
 11
4.271252171523899
 21
-0.315
 31
0
  0
LINE
  8
0
 62
7
 10
4.271252171523899
 20
-0.305
 30
0
 11
4.2735021715239
 21
-0.2975
 31
0
  0
LINE
  8
0
 62
7
 10
4.2735021715239
 20
-0.2975
 30
0
 11
4.280252171523898
 21
-0.2875
 31
0
  0
LINE
  8
0
 62
7
 10
4.280252171523898
 20
-0.2875
 30
0
 11
4.287002171523898
 21
-0.2825
 31
0
  0
LINE
  8
0
 62
7
 10
4.287002171523898
 20
-0.2825
 30
0
 11
4.293752171523898
 21
-0.28
 31
0
  0
LINE
  8
0
 62
7
 10
4.293752171523898
 20
-0.28
 30
0
 11
4.302752171523898
 21
-0.28
 31
0
  0
LINE
  8
0
 62
7
 10
4.302752171523898
 20
-0.28
 30
0
 11
4.309502171523898
 21
-0.2825
 31
0
  0
LINE
  8
0
 62
7
 10
4.309502171523898
 20
-0.2825
 30
0
 11
4.316252171523899
 21
-0.2875
 31
0
  0
LINE
  8
0
 62
7
 10
4.316252171523899
 20
-0.2875
 30
0
 11
4.323002171523899
 21
-0.2975
 31
0
  0
LINE
  8
0
 62
7
 10
4.323002171523899
 20
-0.2975
 30
0
 11
4.325252171523899
 21
-0.305
 31
0
  0
LINE
  8
0
 62
7
 10
4.325252171523899
 20
-0.305
 30
0
 11
4.325252171523899
 21
-0.315
 31
0
  0
LINE
  8
0
 62
7
 10
4.325252171523899
 20
-0.315
 30
0
 11
4.271252171523899
 21
-0.315
 31
0
  0
LINE
  8
0
 62
7
 10
4.271252171523899
 20
-0.315
 30
0
 11
4.271252171523899
 21
-0.305
 31
0
  0
LINE
  8
0
 62
7
 10
4.343252171523899
 20
-0.25
 30
0
 11
4.343252171523899
 21
-0.2550000000000001
 31
0
  0
LINE
  8
0
 62
7
 10
4.343252171523899
 20
-0.28
 30
0
 11
4.343252171523899
 21
-0.35
 31
0
  0
LINE
  8
0
 62
7
 10
4.361252171523899
 20
-0.305
 30
0
 11
4.3635021715239
 21
-0.2975
 31
0
  0
LINE
  8
0
 62
7
 10
4.3635021715239
 20
-0.2975
 30
0
 11
4.370252171523898
 21
-0.2875
 31
0
  0
LINE
  8
0
 62
7
 10
4.370252171523898
 20
-0.2875
 30
0
 11
4.377002171523898
 21
-0.2825
 31
0
  0
LINE
  8
0
 62
7
 10
4.377002171523898
 20
-0.2825
 30
0
 11
4.383752171523899
 21
-0.28
 31
0
  0
LINE
  8
0
 62
7
 10
4.383752171523899
 20
-0.28
 30
0
 11
4.392752171523898
 21
-0.28
 31
0
  0
LINE
  8
0
 62
7
 10
4.392752171523898
 20
-0.28
 30
0
 11
4.399502171523898
 21
-0.2825
 31
0
  0
LINE
  8
0
 62
7
 10
4.399502171523898
 20
-0.2825
 30
0
 11
4.406252171523898
 21
-0.2875
 31
0
  0
LINE
  8
0
 62
7
 10
4.406252171523898
 20
-0.2875
 30
0
 11
4.413002171523899
 21
-0.2975
 31
0
  0
LINE
  8
0
 62
7
 10
4.413002171523899
 20
-0.2975
 30
0
 11
4.415252171523899
 21
-0.305
 31
0
  0
LINE
  8
0
 62
7
 10
4.415252171523899
 20
-0.305
 30
0
 11
4.415252171523899
 21
-0.35
 31
0
  0
LINE
  8
0
 62
7
 10
4.361252171523899
 20
-0.28
 30
0
 11
4.361252171523899
 21
-0.305
 31
0
  0
LINE
  8
0
 62
7
 10
4.361252171523899
 20
-0.305
 30
0
 11
4.361252171523899
 21
-0.35
 31
0
  0
LINE
  8
0
 62
7
 10
4.487252171523899
 20
-0.295
 30
0
 11
4.482752171523898
 21
-0.2875
 31
0
  0
LINE
  8
0
 62
7
 10
4.482752171523898
 20
-0.2875
 30
0
 11
4.476002171523899
 21
-0.2825
 31
0
  0
LINE
  8
0
 62
7
 10
4.476002171523899
 20
-0.2825
 30
0
 11
4.4647521715239
 21
-0.28
 31
0
  0
LINE
  8
0
 62
7
 10
4.4647521715239
 20
-0.28
 30
0
 11
4.455752171523899
 21
-0.28
 31
0
  0
LINE
  8
0
 62
7
 10
4.455752171523899
 20
-0.28
 30
0
 11
4.446752171523898
 21
-0.2825
 31
0
  0
LINE
  8
0
 62
7
 10
4.446752171523898
 20
-0.2825
 30
0
 11
4.440002171523899
 21
-0.2875
 31
0
  0
LINE
  8
0
 62
7
 10
4.440002171523899
 20
-0.2875
 30
0
 11
4.435502171523899
 21
-0.2925
 31
0
  0
LINE
  8
0
 62
7
 10
4.435502171523899
 20
-0.2925
 30
0
 11
4.433252171523899
 21
-0.2975
 31
0
  0
LINE
  8
0
 62
7
 10
4.433252171523899
 20
-0.2975
 30
0
 11
4.433252171523899
 21
-0.3025
 31
0
  0
LINE
  8
0
 62
7
 10
4.433252171523899
 20
-0.3025
 30
0
 11
4.435502171523899
 21
-0.3075000000000001
 31
0
  0
LINE
  8
0
 62
7
 10
4.435502171523899
 20
-0.3075000000000001
 30
0
 11
4.440002171523899
 21
-0.3100000000000001
 31
0
  0
LINE
  8
0
 62
7
 10
4.440002171523899
 20
-0.3100000000000001
 30
0
 11
4.480502171523898
 21
-0.3200000000000001
 31
0
  0
LINE
  8
0
 62
7
 10
4.480502171523898
 20
-0.3200000000000001
 30
0
 11
4.485002171523898
 21
-0.3225
 31
0
  0
LINE
  8
0
 62
7
 10
4.485002171523898
 20
-0.3225
 30
0
 11
4.487252171523899
 21
-0.3275
 31
0
  0
LINE
  8
0
 62
7
 10
4.487252171523899
 20
-0.3275
 30
0
 11
4.487252171523899
 21
-0.3325
 31
0
  0
LINE
  8
0
 62
7
 10
4.487252171523899
 20
-0.3325
 30
0
 11
4.485002171523898
 21
-0.3375
 31
0
  0
LINE
  8
0
 62
7
 10
4.485002171523898
 20
-0.3375
 30
0
 11
4.480502171523898
 21
-0.3425
 31
0
  0
LINE
  8
0
 62
7
 10
4.480502171523898
 20
-0.3425
 30
0
 11
4.473752171523898
 21
-0.3475
 31
0
  0
LINE
  8
0
 62
7
 10
4.473752171523898
 20
-0.3475
 30
0
 11
4.4647521715239
 21
-0.35
 31
0
  0
LINE
  8
0
 62
7
 10
4.4647521715239
 20
-0.35
 30
0
 11
4.455752171523899
 21
-0.35
 31
0
  0
LINE
  8
0
 62
7
 10
4.455752171523899
 20
-0.35
 30
0
 11
4.444502171523898
 21
-0.3475
 31
0
  0
LINE
  8
0
 62
7
 10
4.444502171523898
 20
-0.3475
 30
0
 11
4.437752171523899
 21
-0.3425
 31
0
  0
LINE
  8
0
 62
7
 10
4.437752171523899
 20
-0.3425
 30
0
 11
4.433252171523899
 21
-0.335
 31
0
  0
LINE
  8
0
 62
7
 10
4.514252171523899
 20
-0.25
 30
0
 11
4.514252171523899
 21
-0.335
 31
0
  0
LINE
  8
0
 62
7
 10
4.514252171523899
 20
-0.335
 30
0
 11
4.516502171523899
 21
-0.3475
 31
0
  0
LINE
  8
0
 62
7
 10
4.516502171523899
 20
-0.3475
 30
0
 11
4.521002171523899
 21
-0.35
 31
0
  0
LINE
  8
0
 62
7
 10
4.521002171523899
 20
-0.35
 30
0
 11
4.523252171523898
 21
-0.35
 31
0
  0
LINE
  8
0
 62
7
 10
4.505252171523899
 20
-0.28
 30
0
 11
4.523252171523898
 21
-0.28
 31
0
  0
LINE
  8
0
 62
7
 10
4.595252171523899
 20
-0.28
 30
0
 11
4.595252171523899
 21
-0.325
 31
0
  0
LINE
  8
0
 62
7
 10
4.541252171523898
 20
-0.28
 30
0
 11
4.541252171523898
 21
-0.325
 31
0
  0
LINE
  8
0
 62
7
 10
4.541252171523898
 20
-0.325
 30
0
 11
4.543502171523899
 21
-0.3325
 31
0
  0
LINE
  8
0
 62
7
 10
4.543502171523899
 20
-0.3325
 30
0
 11
4.550252171523899
 21
-0.3425
 31
0
  0
LINE
  8
0
 62
7
 10
4.550252171523899
 20
-0.3425
 30
0
 11
4.557002171523898
 21
-0.3475
 31
0
  0
LINE
  8
0
 62
7
 10
4.557002171523898
 20
-0.3475
 30
0
 11
4.563752171523898
 21
-0.35
 31
0
  0
LINE
  8
0
 62
7
 10
4.563752171523898
 20
-0.35
 30
0
 11
4.572752171523899
 21
-0.35
 31
0
  0
LINE
  8
0
 62
7
 10
4.572752171523899
 20
-0.35
 30
0
 11
4.579502171523898
 21
-0.3475
 31
0
  0
LINE
  8
0
 62
7
 10
4.579502171523898
 20
-0.3475
 30
0
 11
4.586252171523898
 21
-0.3425
 31
0
  0
LINE
  8
0
 62
7
 10
4.586252171523898
 20
-0.3425
 30
0
 11
4.593002171523898
 21
-0.3325
 31
0
  0
LINE
  8
0
 62
7
 10
4.593002171523898
 20
-0.3325
 30
0
 11
4.595252171523899
 21
-0.325
 31
0
  0
LINE
  8
0
 62
7
 10
4.595252171523899
 20
-0.325
 30
0
 11
4.595252171523899
 21
-0.35
 31
0
  0
LINE
  8
0
 62
7
 10
4.613252171523898
 20
-0.285
 30
0
 11
4.640252171523898
 21
-0.285
 31
0
  0
LINE
  8
0
 62
7
 10
4.6222521715239
 20
-0.35
 30
0
 11
4.6222521715239
 21
-0.2675
 31
0
  0
LINE
  8
0
 62
7
 10
4.6222521715239
 20
-0.2675
 30
0
 11
4.624502171523899
 21
-0.2575
 31
0
  0
LINE
  8
0
 62
7
 10
4.624502171523899
 20
-0.2575
 30
0
 11
4.629002171523899
 21
-0.2525
 31
0
  0
LINE
  8
0
 62
7
 10
4.629002171523899
 20
-0.2525
 30
0
 11
4.635752171523898
 21
-0.25
 31
0
  0
LINE
  8
0
 62
7
 10
4.635752171523898
 20
-0.25
 30
0
 11
4.640252171523898
 21
-0.25
 31
0
  0
LINE
  8
0
 62
7
 10
4.712252171523899
 20
-0.3325
 30
0
 11
4.705502171523898
 21
-0.3425
 31
0
  0
LINE
  8
0
 62
7
 10
4.705502171523898
 20
-0.3425
 30
0
 11
4.698752171523899
 21
-0.3475
 31
0
  0
LINE
  8
0
 62
7
 10
4.698752171523899
 20
-0.3475
 30
0
 11
4.689752171523899
 21
-0.35
 31
0
  0
LINE
  8
0
 62
7
 10
4.689752171523899
 20
-0.35
 30
0
 11
4.680752171523898
 21
-0.35
 31
0
  0
LINE
  8
0
 62
7
 10
4.680752171523898
 20
-0.35
 30
0
 11
4.674002171523898
 21
-0.3475
 31
0
  0
LINE
  8
0
 62
7
 10
4.674002171523898
 20
-0.3475
 30
0
 11
4.667252171523899
 21
-0.3425
 31
0
  0
LINE
  8
0
 62
7
 10
4.667252171523899
 20
-0.3425
 30
0
 11
4.660502171523898
 21
-0.3325
 31
0
  0
LINE
  8
0
 62
7
 10
4.660502171523898
 20
-0.3325
 30
0
 11
4.658252171523898
 21
-0.325
 31
0
  0
LINE
  8
0
 62
7
 10
4.658252171523898
 20
-0.325
 30
0
 11
4.658252171523898
 21
-0.315
 31
0
  0
LINE
  8
0
 62
7
 10
4.658252171523898
 20
-0.305
 30
0
 11
4.660502171523898
 21
-0.2975
 31
0
  0
LINE
  8
0
 62
7
 10
4.660502171523898
 20
-0.2975
 30
0
 11
4.667252171523899
 21
-0.2875
 31
0
  0
LINE
  8
0
 62
7
 10
4.667252171523899
 20
-0.2875
 30
0
 11
4.674002171523898
 21
-0.2825
 31
0
  0
LINE
  8
0
 62
7
 10
4.674002171523898
 20
-0.2825
 30
0
 11
4.680752171523898
 21
-0.28
 31
0
  0
LINE
  8
0
 62
7
 10
4.680752171523898
 20
-0.28
 30
0
 11
4.689752171523899
 21
-0.28
 31
0
  0
LINE
  8
0
 62
7
 10
4.689752171523899
 20
-0.28
 30
0
 11
4.696502171523899
 21
-0.2825
 31
0
  0
LINE
  8
0
 62
7
 10
4.696502171523899
 20
-0.2825
 30
0
 11
4.703252171523899
 21
-0.2875
 31
0
  0
LINE
  8
0
 62
7
 10
4.703252171523899
 20
-0.2875
 30
0
 11
4.710002171523898
 21
-0.2975
 31
0
  0
LINE
  8
0
 62
7
 10
4.710002171523898
 20
-0.2975
 30
0
 11
4.712252171523899
 21
-0.305
 31
0
  0
LINE
  8
0
 62
7
 10
4.712252171523899
 20
-0.305
 30
0
 11
4.712252171523899
 21
-0.315
 31
0
  0
LINE
  8
0
 62
7
 10
4.712252171523899
 20
-0.315
 30
0
 11
4.658252171523898
 21
-0.315
 31
0
  0
LINE
  8
0
 62
7
 10
4.658252171523898
 20
-0.315
 30
0
 11
4.658252171523898
 21
-0.305
 31
0
  0
LINE
  8
0
 62
7
 10
4.730252171523898
 20
-0.305
 30
0
 11
4.732502171523898
 21
-0.2975
 31
0
  0
LINE
  8
0
 62
7
 10
4.732502171523898
 20
-0.2975
 30
0
 11
4.739252171523899
 21
-0.2875
 31
0
  0
LINE
  8
0
 62
7
 10
4.739252171523899
 20
-0.2875
 30
0
 11
4.7460021715239
 21
-0.2825
 31
0
  0
LINE
  8
0
 62
7
 10
4.7460021715239
 20
-0.2825
 30
0
 11
4.752752171523898
 21
-0.28
 31
0
  0
LINE
  8
0
 62
7
 10
4.752752171523898
 20
-0.28
 30
0
 11
4.761752171523898
 21
-0.28
 31
0
  0
LINE
  8
0
 62
7
 10
4.761752171523898
 20
-0.28
 30
0
 11
4.768502171523899
 21
-0.2825
 31
0
  0
LINE
  8
0
 62
7
 10
4.768502171523899
 20
-0.2825
 30
0
 11
4.775252171523898
 21
-0.2875
 31
0
  0
LINE
  8
0
 62
7
 10
4.775252171523898
 20
-0.2875
 30
0
 11
4.782002171523899
 21
-0.2975
 31
0
  0
LINE
  8
0
 62
7
 10
4.782002171523899
 20
-0.2975
 30
0
 11
4.784252171523899
 21
-0.305
 31
0
  0
LINE
  8
0
 62
7
 10
4.784252171523899
 20
-0.305
 30
0
 11
4.784252171523899
 21
-0.35
 31
0
  0
LINE
  8
0
 62
7
 10
4.730252171523898
 20
-0.28
 30
0
 11
4.730252171523898
 21
-0.305
 31
0
  0
LINE
  8
0
 62
7
 10
4.730252171523898
 20
-0.305
 30
0
 11
4.730252171523898
 21
-0.35
 31
0
  0
ARC
  8
0
 62
7
 10
1.1074256952859
 20
1.118590337345377
 30
0
 40
0.5600000000000549
 50
199.3002050328373
 51
204.3436865852044
  0
ARC
  8
0
 62
7
 10
1.1074256952859
 20
1.118590337345377
 30
0
 40
0.5599999999999733
 50
128.7036195613592
 51
152.235814718518
  0
ARC
  8
0
 62
7
 10
1.1074256952859
 20
1.118590337345377
 30
0
 40
0.5599999999999369
 50
152.235814718518
 51
175.7680098756741
  0
ARC
  8
0
 62
7
 10
1.1074256952859
 20
1.118590337345377
 30
0
 40
0.560000000000021
 50
175.7680098756741
 51
199.3002050328373
  0
ARC
  8
0
 62
7
 10
3.8074256952859
 20
1.118590337345377
 30
0
 40
0.5599999999999818
 50
128.7036195613603
 51
152.2358147185173
  0
ARC
  8
0
 62
7
 10
3.8074256952859
 20
1.118590337345377
 30
0
 40
0.5599999999999233
 50
152.2358147185173
 51
175.7680098756741
  0
ARC
  8
0
 62
7
 10
3.8074256952859
 20
1.118590337345377
 30
0
 40
0.5600000000000206
 50
175.7680098756741
 51
199.3002050328374
  0
ARC
  8
0
 62
7
 10
3.8074256952859
 20
1.118590337345377
 30
0
 40
0.5600000000000537
 50
199.3002050328374
 51
222.8324001899969
  0
ARC
  8
0
 62
7
 10
3.8074256952859
 20
1.118590337345377
 30
0
 40
0.559999999999958
 50
222.8324001899969
 51
246.364595347161
  0
ARC
  8
0
 62
7
 10
3.8074256952859
 20
1.118590337345377
 30
0
 40
0.5599999999999097
 50
246.364595347161
 51
269.8967905043153
  0
ARC
  8
0
 62
7
 10
3.8074256952859
 20
1.118590337345377
 30
0
 40
0.560000000000034
 50
269.8967905043153
 51
293.4289856614806
  0
ARC
  8
0
 62
7
 10
3.8074256952859
 20
1.118590337345377
 30
0
 40
0.5599999999999827
 50
293.4289856614806
 51
316.9611808186372
  0
ARC
  8
0
 62
7
 10
3.8074256952859
 20
1.118590337345377
 30
0
 40
0.559999999999926
 50
316.9611808186372
 51
340.4933759757998
  0
ARC
  8
0
 62
7
 10
3.8074256952859
 20
1.118590337345377
 30
0
 40
0.5600000000000146
 50
340.4933759757998
 51
4.025571132956303
  0
ARC
  8
0
 62
7
 10
3.8074256952859
 20
1.118590337345377
 30
0
 40
0.5599999999999797
 50
4.025571132956303
 51
27.55776629010835
  0
ARC
  8
0
 62
7
 10
3.8074256952859
 20
1.118590337345377
 30
0
 40
0.5599999999999837
 50
27.55776629010835
 51
51.0899614472744
  0
ARC
  8
0
 62
7
  6
DASHED
 10
3.8074256952859
 20
1.118590337345377
 30
0
 40
0.5600000000000249
 50
51.0899614472744
 51
74.62215660442916
  0
ARC
  8
0
 62
7
 10
3.8074256952859
 20
1.118590337345377
 30
0
 40
0.9199999999999979
 50
54.99238997110512
 51
125.0076100288949
  0
ARC
  8
0
 62
7
  6
DASHDOT
 10
3.8074256952859
 20
1.118590337345377
 30
0
 40
0.9500000000000006
 50
0
 51
90
  0
ARC
  8
0
 62
7
  6
DASHDOT
 10
3.8074256952859
 20
1.118590337345377
 30
0
 40
0.9500000000000004
 50
270
 51
0
  0
ARC
  8
0
 62
7
  6
DASHDOT
 10
3.8074256952859
 20
1.118590337345377
 30
0
 40
0.95
 50
90
 51
270
  0
CIRCLE
  8
0
 62
7
  6
DASHED
 10
3.955928330100011
 20
1.658541230902716
 30
0
 40
0.06000000000000005
  0
DIMENSION
  8
0
  6
CONTINUOUS
 62
7
  2
*D1
  3
DMST_1
 10
4.757425695285987
 20
6.726869517119551
 30
0
 11
3.83609461138163
 21
6.726869517119551
 31
0
 12
0
 22
0
 32
0
 70
0
 13
2.857425695285988
 23
6.238590337345377
 33
0
 14
4.757425695285987
 24
6.238590337345377
 34
0
 53
0
  0
DIMENSION
  8
0
  6
CONTINUOUS
 62
7
  2
*D2
  3
DMST_2
 10
4.6824256952859
 20
2.38837942165544
 30
0
 11
3.8153307599735
 21
2.38837942165544
 31
0
 12
0
 22
0
 32
0
 70
0
 13
2.932425695285901
 23
1.118590337345377
 33
0
 14
4.6824256952859
 24
1.118590337345377
 34
0
 53
0
  0
DIMENSION
  8
0
  6
CONTINUOUS
 62
7
  2
*D3
  3
DMST_2
 10
5.172003909342151
 20
0.1685903373453765
 30
0
 11
5.172003909342151
 21
1.07200349454526
 31
0
 12
0
 22
0
 32
0
 70
0
 13
3.8074256952859
 23
2.068590337345377
 33
0
 14
3.8074256952859
 24
0.1685903373453766
 34
0
 50
90
 53
0
  0
DIMENSION
  8
0
  6
CONTINUOUS
 62
7
  2
*D4
  3
DMST_1
 10
2.057425695285987
 20
2.48240627359188
 30
0
 11
1.12884927607519
 21
2.48240627359188
 31
0
 12
0
 22
0
 32
0
 70
0
 13
0.1574256952859869
 23
2.068590337345377
 33
0
 14
2.057425695285987
 24
2.068590337345377
 34
0
 53
0
  0
INSERT
  8
0
  2
*D0
 10
0
 20
0
 30
0
  0
ENDSEC
  0
EOF
