  0
SECTION
  2
HEADER
  9
$ACADVER
  1
AC1009
  9
$INSBASE
 10
0
 20
0
  9
$EXTMIN
 10
0.08393486766937103
 20
-0.3500000000000005
  9
$EXTMAX
 10
5.817
 20
7.02190505585086
  9
$LIMMIN
 10
0.08393486766937103
 20
-0.3500000000000005
  9
$LIMMAX
 10
5.817
 20
7.02190505585086
  9
$VIEWCTR
 10
10
 20
10
  9
$VIEWSIZE
 40
10
  9
$SNAPMODE
 70
0
  9
$SNAPUNIT
 10
1
 20
1
  9
$SNAPBASE
 10
0
 20
0
  9
$SNAPANG
 50
0
  9
$SNAPSTYLE
 70
0
  9
$SNAPISOPAIR
 70
0
  9
$GRIDMODE
 70
0
  9
$GRIDUNIT
 10
0
 20
0
  9
$ORTHOMODE
 70
0
  9
$REGENMODE
 70
1
  9
$FILLMODE
 70
1
  9
$QTEXTMODE
 70
0
  9
$DRAGMODE
 70
2
  9
$LTSCALE
 40
1
  9
$OSMODE
 70
0
  9
$ATTMODE
 70
1
  9
$TEXTSIZE
 40
3.5
  9
$TRACEWID
 40
0.5
  9
$TEXTSTYLE
  7
STANDARD
  9
$CLAYER
  8
0
  9
$CELTYPE
  6
BYLAYER
  9
$CECOLOR
 62
256
  9
$DIMSCALE
 40
1
  9
$DIMASZ
 40
0.18
  9
$DIMEXO
 40
0.0625
  9
$DIMDLI
 40
0.38
  9
$DIMRND
 40
0
  9
$DIMDLE
 40
0
  9
$DIMEXE
 40
0.18
  9
$DIMTP
 40
0
  9
$DIMTM
 40
0
  9
$DIMTXT
 40
0.18
  9
$DIMCEN
 40
0.09
  9
$DIMTSZ
 40
0
  9
$DIMTOL
 70
0
  9
$DIMLIM
 70
0
  9
$DIMTIH
 70
1
  9
$DIMTOH
 70
1
  9
$DIMSE1
 70
0
  9
$DIMSE2
 70
0
  9
$DIMTAD
 70
0
  9
$DIMZIN
 70
0
  9
$DIMBLK
  1

  9
$DIMASO
 70
1
  9
$DIMSHO
 70
1
  9
$DIMPOST
  1

  9
$DIMAPOST
  1

  9
$DIMALT
 70
0
  9
$DIMALTD
 70
2
  9
$DIMALTF
 40
25.4
  9
$DIMLFAC
 40
1
  9
$DIMTOFL
 70
0
  9
$DIMTVP
 40
0
  9
$DIMTIX
 70
0
  9
$DIMSOXD
 70
0
  9
$DIMSAH
 70
0
  9
$DIMBLK1
  1

  9
$DIMBLK2
  1

  9
$DIMSTYLE
  2
*UNNAMED
  9
$DIMCLRD
 70
0
  9
$DIMCLRE
 70
0
  9
$DIMCLRT
 70
0
  9
$DIMTFAC
 40
1
  9
$DIMGAP
 40
0.09
  9
$LUNITS
 70
2
  9
$LUPREC
 70
4
  9
$AXISMODE
 70
0
  9
$AXISUNIT
 10
0
 20
0
  9
$SKETCHINC
 40
0.1
  9
$FILLETRAD
 40
2
  9
$AUNITS
 70
0
  9
$AUPREC
 70
0
  9
$MENU
  1
ACAD
  9
$ELEVATION
 40
0
  9
$THICKNESS
 40
0
  9
$VIEWDIR
 10
0
 20
0
 30
1
  9
$LIMCHECK
 70
0
  9
$BLIPMODE
 70
1
  9
$CHAMFERA
 40
0
  9
$CHAMFERB
 40
0
  9
$FASTZOOM
 70
1
  9
$SKPOLY
 70
0
  9
$ANGBASE
 50
0
  9
$ANGDIR
 70
0
  9
$PDMODE
 70
0
  9
$PDSIZE
 40
0
  9
$PLINEWID
 40
0
  9
$COORDS
 70
2
  0
ENDSEC
  0
SECTION
  2
TABLES
  0
TABLE
  2
DIMSTYLE
 70
2
  0
DIMSTYLE
  2
DMST_1
 70
0
  3

  4

  5

  6

  7

 40
1
 41
0.1
 42
0
 43
0.7
 44
0.2
 45
0
 46
0
 47
0
 48
0
140
0.1
141
0
142
0.1
143
25.4
144
1
145
0
146
1
147
0.25
 71
0
 72
0
 73
0
 74
0
 75
0
 76
0
 77
0
 78
9
170
0
171
2
172
0
173
0
174
0
175
0
176
7
177
7
178
7
  0
DIMSTYLE
  2
DMST_2
 70
0
  3

  4

  5

  6

  7

 40
1
 41
0.1
 42
0
 43
0.7
 44
0.1
 45
0
 46
0
 47
0
 48
0
140
0.1
141
0
142
0.1
143
25.4
144
1
145
0
146
1
147
0.1
 71
0
 72
0
 73
0
 74
0
 75
0
 76
0
 77
0
 78
9
170
0
171
2
172
0
173
0
174
0
175
0
176
7
177
7
178
7
  0
ENDTAB
  0
TABLE
  2
LTYPE
 70
9
  0
LTYPE
  2
CONTINUOUS
 70
64
  3
Solid line
 72
65
 73
0
 40
0
  0
LTYPE
  2
BORDER
 70
64
  3
__ __ . __ __ .
 72
65
 73
6
 40
0.3394956275720791
 49
0.09699875073487975
 49
-0.04849937536743987
 49
0.09699875073487975
 49
-0.04849937536743987
 49
0
 49
-0.04849937536743987
  0
LTYPE
  2
CENTER
 70
64
  3
____ _ ____ _
 72
65
 73
4
 40
0.387995002939519
 49
0.2424968768371994
 49
-0.04849937536743987
 49
0.04849937536743987
 49
-0.04849937536743987
  0
LTYPE
  2
DASHDOT
 70
64
  3
__ . __ . __ .
 72
65
 73
4
 40
0.1939975014697595
 49
0.09699875073487975
 49
-0.04849937536743987
 49
0
 49
-0.04849937536743987
  0
LTYPE
  2
DASHED
 70
64
  3
__ __ __ __ __
 72
65
 73
2
 40
0.1454981261023196
 49
0.09699875073487975
 49
-0.04849937536743987
  0
LTYPE
  2
DIVIDE
 70
64
  3
__ . . __ . . 
 72
65
 73
6
 40
0.2424968768371994
 49
0.09699875073487975
 49
-0.04849937536743987
 49
0
 49
-0.04849937536743987
 49
0
 49
-0.04849937536743987
  0
LTYPE
  2
DOT
 70
64
  3
..............
 72
65
 73
4
 40
0.09699875073487975
 49
0
 49
-0.04849937536743987
 49
0
 49
-0.04849937536743987
  0
LTYPE
  2
HIDDEN
 70
64
  3
_ _ _ _ _ _ _
 72
65
 73
2
 40
0.07274906305115982
 49
0.04849937536743987
 49
-0.02424968768371994
  0
LTYPE
  2
PHANTOM
 70
64
  3
_____ _ _ _____ _ _ 
 72
65
 73
6
 40
0.4849937536743987
 49
0.2424968768371994
 49
-0.04849937536743987
 49
0.04849937536743987
 49
-0.04849937536743987
 49
0.04849937536743987
 49
-0.04849937536743987
  0
ENDTAB
  0
TABLE
  2
LAYER
 70
2
  0
LAYER
  2
0
 70
0
 62
7
  6
CONTINUOUS
  0
ENDTAB
  0
TABLE
  2
STYLE
 70
4
  0
STYLE
  2
STANDARD
 70
0
 40
0
 41
1
 50
0
 71
0
 42
3.5
  3
txt
  4

  0
STYLE
  2
SIMPLEX
 70
0
 40
0
 41
1
 50
0
 71
0
 42
3.5
  3
simplex
  4

  0
STYLE
  2
COMPLEX
 70
0
 40
0
 41
1
 50
0
 71
0
 42
3.5
  3
complex
  4

  0
STYLE
  2
ITALIC
 70
0
 40
0
 41
1
 50
0
 71
0
 42
3.5
  3
italic
  4

  0
ENDTAB
  0
TABLE
  2
VIEW
 70
0
  0
ENDTAB
  0
ENDSEC
  0
SECTION
  2
BLOCKS
  0
BLOCK
  8
0
  2
*X0
 70
1
 10
0
 20
0
 30
0
  0
LINE
  8
0
 62
7
  6
DASHED
 10
3.043826476237999
 20
6.331873008755444
 30
0
 11
3.106616125458356
 21
6.394662657975802
 31
0
  0
LINE
  8
0
 62
7
  6
DASHED
 10
3.118748159814321
 20
6.194662657975801
 30
0
 11
3.271326476237999
 21
6.34724097439948
 31
0
  0
LINE
  8
0
 62
7
 10
3.043826476237999
 20
6.225806991577462
 30
0
 11
3.212682142636339
 21
6.394662657975802
 31
0
  0
LINE
  8
0
 62
7
 10
3.224814176992303
 20
6.194662657975801
 30
0
 11
3.271326476237999
 21
6.241174957221498
 31
0
  0
ENDBLK
  8
0
  0
BLOCK
  8
0
  2
*X1
 70
1
 10
0
 20
0
 30
0
  0
LINE
  8
0
 62
7
  6
DASHED
 10
0.6663264762379986
 20
6.287825386671051
 30
0
 11
0.7731637475427493
 21
6.394662657975802
 31
0
  0
LINE
  8
0
 62
7
  6
DASHED
 10
0.7852957818987139
 20
6.194662657975801
 30
0
 11
0.8938264762380386
 21
6.303193352315127
 31
0
  0
LINE
  8
0
 62
7
 10
0.6663264762379981
 20
6.393891403849031
 30
0
 11
0.6670977303647674
 21
6.394662657975801
 31
0
  0
LINE
  8
0
 62
7
 10
0.6792297647207319
 20
6.194662657975801
 30
0
 11
0.8792297647207317
 21
6.394662657975801
 31
0
  0
LINE
  8
0
 62
7
 10
0.8913617990766962
 20
6.194662657975801
 30
0
 11
0.8938264762380852
 21
6.19712733513719
 31
0
  0
ENDBLK
  8
0
  0
BLOCK
  8
0
  2
*X2
 70
1
 10
0
 20
0
 30
0
  0
LINE
  8
0
 62
7
  6
DASHED
 10
0.6663264762379981
 20
3.530108940043516
 30
0
 11
0.7808801941702845
 21
3.644662657975801
 31
0
  0
LINE
  8
0
 62
7
  6
DASHED
 10
0.7930122285262482
 20
3.444662657975802
 30
0
 11
0.9930122285262488
 21
3.644662657975801
 31
0
  0
LINE
  8
0
 62
7
  6
DASHED
 10
1.005144262882212
 20
3.444662657975802
 30
0
 11
1.205144262882213
 21
3.644662657975801
 31
0
  0
LINE
  8
0
 62
7
  6
DASHED
 10
1.217276297238177
 20
3.444662657975802
 30
0
 11
1.417276297238177
 21
3.644662657975801
 31
0
  0
LINE
  8
0
 62
7
  6
DASHED
 10
1.429408331594141
 20
3.444662657975802
 30
0
 11
1.629408331594142
 21
3.644662657975801
 31
0
  0
LINE
  8
0
 62
7
  6
DASHED
 10
1.641540365950105
 20
3.444662657975802
 30
0
 11
1.841540365950106
 21
3.644662657975801
 31
0
  0
LINE
  8
0
 62
7
  6
DASHED
 10
1.85367240030607
 20
3.444662657975802
 30
0
 11
2.05367240030607
 21
3.644662657975801
 31
0
  0
LINE
  8
0
 62
7
  6
DASHED
 10
2.065804434662034
 20
3.444662657975802
 30
0
 11
2.265804434662035
 21
3.644662657975801
 31
0
  0
LINE
  8
0
 62
7
  6
DASHED
 10
2.277936469017998
 20
3.444662657975802
 30
0
 11
2.477936469017999
 21
3.644662657975801
 31
0
  0
LINE
  8
0
 62
7
  6
DASHED
 10
2.490068503373962
 20
3.444662657975802
 30
0
 11
2.690068503373963
 21
3.644662657975801
 31
0
  0
LINE
  8
0
 62
7
  6
DASHED
 10
2.702200537729927
 20
3.444662657975802
 30
0
 11
2.902200537729927
 21
3.644662657975801
 31
0
  0
LINE
  8
0
 62
7
  6
DASHED
 10
2.914332572085891
 20
3.444662657975802
 30
0
 11
3.114332572085892
 21
3.644662657975801
 31
0
  0
LINE
  8
0
 62
7
  6
DASHED
 10
3.126464606441855
 20
3.444662657975802
 30
0
 11
3.271326476237999
 21
3.589524527771945
 31
0
  0
LINE
  8
0
 62
7
 10
0.6663264762379988
 20
3.636174957221498
 30
0
 11
0.6748141769923017
 21
3.644662657975801
 31
0
  0
LINE
  8
0
 62
7
 10
0.6869462113482667
 20
3.444662657975802
 30
0
 11
0.886946211348266
 21
3.644662657975801
 31
0
  0
LINE
  8
0
 62
7
 10
0.899078245704231
 20
3.444662657975802
 30
0
 11
1.09907824570423
 21
3.644662657975801
 31
0
  0
LINE
  8
0
 62
7
 10
1.111210280060195
 20
3.444662657975802
 30
0
 11
1.311210280060195
 21
3.644662657975801
 31
0
  0
LINE
  8
0
 62
7
 10
1.32334231441616
 20
3.444662657975802
 30
0
 11
1.523342314416159
 21
3.644662657975801
 31
0
  0
LINE
  8
0
 62
7
 10
1.535474348772124
 20
3.444662657975802
 30
0
 11
1.735474348772123
 21
3.644662657975801
 31
0
  0
LINE
  8
0
 62
7
 10
1.747606383128088
 20
3.444662657975802
 30
0
 11
1.947606383128087
 21
3.644662657975801
 31
0
  0
LINE
  8
0
 62
7
 10
1.959738417484052
 20
3.444662657975802
 30
0
 11
2.159738417484052
 21
3.644662657975801
 31
0
  0
LINE
  8
0
 62
7
 10
2.171870451840017
 20
3.444662657975802
 30
0
 11
2.371870451840016
 21
3.644662657975801
 31
0
  0
LINE
  8
0
 62
7
 10
2.384002486195981
 20
3.444662657975802
 30
0
 11
2.58400248619598
 21
3.644662657975801
 31
0
  0
LINE
  8
0
 62
7
 10
2.596134520551945
 20
3.444662657975802
 30
0
 11
2.796134520551945
 21
3.644662657975801
 31
0
  0
LINE
  8
0
 62
7
 10
2.80826655490791
 20
3.444662657975802
 30
0
 11
3.008266554907909
 21
3.644662657975801
 31
0
  0
LINE
  8
0
 62
7
 10
3.020398589263874
 20
3.444662657975802
 30
0
 11
3.220398589263873
 21
3.644662657975801
 31
0
  0
LINE
  8
0
 62
7
 10
3.232530623619838
 20
3.444662657975802
 30
0
 11
3.271326476237999
 21
3.483458510593962
 31
0
  0
ENDBLK
  8
0
  0
BLOCK
  8
0
  2
*D0
 70
1
 10
0
 20
0
 30
0
  0
LINE
  8
0
 62
7
 10
2.33596260483943
 20
6.966905055850861
 30
0
 11
3.043826476237999
 21
6.966905055850861
 31
0
  0
LINE
  8
0
 62
7
 10
0.8938264762379988
 20
6.966905055850861
 30
0
 11
1.59096260483943
 21
6.966905055850861
 31
0
  0
LINE
  8
0
 62
7
 10
3.043826476237999
 20
6.394662657975802
 30
0
 11
3.043826476237999
 21
7.016905055850861
 31
0
  0
LINE
  8
0
 62
7
 10
0.8938264762379988
 20
6.394662657975802
 30
0
 11
0.8938264762379988
 21
7.016905055850861
 31
0
  0
LINE
  8
0
 62
7
 10
0.9291818152973262
 20
7.002260394910189
 30
0
 11
0.8584711371786714
 21
6.931549716791534
 31
0
  0
LINE
  8
0
 62
7
 10
3.008471137178672
 20
6.931549716791534
 30
0
 11
3.079181815297326
 21
7.002260394910189
 31
0
  0
TEXT
  8
0
 62
7
 10
1.84096260483943
 20
6.921905055850861
 30
0
 40
0.1
  1
2,15
 41
0.9
  0
ENDBLK
  8
0
  0
BLOCK
  8
0
  2
*D1
 70
1
 10
0
 20
0
 30
0
  0
LINE
  8
0
 62
7
 10
0.208934867669371
 20
5.610100306388191
 30
0
 11
0.208934867669371
 21
6.394662657975802
 31
0
  0
LINE
  8
0
 62
7
 10
0.208934867669371
 20
3.644662657975802
 30
0
 11
0.208934867669371
 21
4.43010030638819
 31
0
  0
LINE
  8
0
 62
7
 10
0.6663264762379986
 20
6.394662657975802
 30
0
 11
0.158934867669371
 21
6.394662657975802
 31
0
  0
LINE
  8
0
 62
7
 10
0.6663264762379986
 20
3.644662657975802
 30
0
 11
0.158934867669371
 21
3.644662657975802
 31
0
  0
LINE
  8
0
 62
7
 10
0.2442902067286984
 20
6.359307318916475
 30
0
 11
0.1735795286100436
 21
6.430017997035129
 31
0
  0
LINE
  8
0
 62
7
 10
0.1735795286100436
 20
3.680017997035129
 30
0
 11
0.2442902067286984
 21
3.609307318916474
 31
0
  0
TEXT
  8
0
 62
7
 10
0.183934867669371
 20
4.90010030638819
 30
0
 40
0.1
  1
275
 50
90
 41
0.9
  0
TEXT
  8
0
 62
7
 10
0.333934867669371
 20
4.680100306388191
 30
0
 40
0.1
  1
(260-280)
 50
90
 41
0.9
  0
ENDBLK
  8
0
  0
BLOCK
  8
0
  2
*D2
 70
1
 10
0
 20
0
 30
0
  0
LINE
  8
0
 62
7
 10
2.11384924663008
 20
2.684250673203771
 30
0
 11
2.968826476238
 21
2.684250673203771
 31
0
  0
LINE
  8
0
 62
7
 10
0.968826476237999
 20
2.684250673203771
 30
0
 11
1.85384924663008
 21
2.684250673203771
 31
0
  0
LINE
  8
0
 62
7
 10
2.968826476238
 20
1.274662657975802
 30
0
 11
2.968826476238
 21
2.734250673203771
 31
0
  0
LINE
  8
0
 62
7
 10
0.968826476237999
 20
1.274662657975802
 30
0
 11
0.968826476237999
 21
2.734250673203771
 31
0
  0
LINE
  8
0
 62
7
 10
2.933471137178672
 20
2.648895334144444
 30
0
 11
3.004181815297327
 21
2.719606012263098
 31
0
  0
LINE
  8
0
 62
7
 10
1.004181815297326
 20
2.719606012263098
 30
0
 11
0.9334711371786716
 21
2.648895334144444
 31
0
  0
TEXT
  8
0
 62
7
 10
1.95384924663008
 20
2.634250673203771
 30
0
 40
0.1
  1
2
 41
0.9
  0
ENDBLK
  8
0
  0
BLOCK
  8
0
  2
*D3
 70
1
 10
0
 20
0
 30
0
  0
LINE
  8
0
 62
7
 10
4.90063342453976
 20
2.69299834910608
 30
0
 11
5.743826476238
 21
2.69299834910608
 31
0
  0
LINE
  8
0
 62
7
 10
3.593826476238
 20
2.69299834910608
 30
0
 11
4.45563342453976
 21
2.69299834910608
 31
0
  0
LINE
  8
0
 62
7
 10
5.743826476238
 20
2.3496626579758
 30
0
 11
5.743826476238
 21
2.74299834910608
 31
0
  0
LINE
  8
0
 62
7
 10
3.593826476238
 20
2.3496626579758
 30
0
 11
3.593826476238
 21
2.74299834910608
 31
0
  0
LINE
  8
0
 62
7
 10
3.629181815297327
 20
2.728353688165407
 30
0
 11
3.558471137178672
 21
2.657643010046753
 31
0
  0
LINE
  8
0
 62
7
 10
5.708471137178672
 20
2.657643010046753
 30
0
 11
5.779181815297327
 21
2.728353688165407
 31
0
  0
TEXT
  8
0
 62
7
 10
4.55563342453976
 20
2.64799834910608
 30
0
 40
0.1
  1
2,15
 41
0.9
  0
ENDBLK
  8
0
  0
BLOCK
  8
0
  2
*D4
 70
1
 10
0
 20
0
 30
0
  0
LINE
  8
0
 62
7
 10
3.32141900415599
 20
1.44512931360915
 30
0
 11
3.32141900415599
 21
2.349662657975801
 31
0
  0
LINE
  8
0
 62
7
 10
3.32141900415599
 20
0.199662657975801
 30
0
 11
3.32141900415599
 21
1.00012931360915
 31
0
  0
LINE
  8
0
 62
7
 10
1.968826476237999
 20
2.349662657975801
 30
0
 11
3.37141900415599
 21
2.349662657975801
 31
0
  0
LINE
  8
0
 62
7
 10
1.968826476237999
 20
0.199662657975801
 30
0
 11
3.37141900415599
 21
0.199662657975801
 31
0
  0
LINE
  8
0
 62
7
 10
3.356774343215317
 20
2.314307318916474
 30
0
 11
3.286063665096663
 21
2.385017997035128
 31
0
  0
LINE
  8
0
 62
7
 10
3.286063665096663
 20
0.2350179970351283
 30
0
 11
3.356774343215317
 21
0.1643073189164736
 31
0
  0
TEXT
  8
0
 62
7
 10
3.36641900415599
 20
1.10012931360915
 30
0
 40
0.1
  1
2,15
 50
90
 41
0.9
  0
ENDBLK
  8
0
  0
ENDSEC
  0
SECTION
  2
ENTITIES
  0
INSERT
  8
0
  2
*X0
 10
0
 20
0
 30
0
  0
INSERT
  8
0
  2
*X1
 10
0
 20
0
 30
0
  0
INSERT
  8
0
  2
*X2
 10
0
 20
0
 30
0
  0
POINT
  8
0
 62
7
  6
DASHED
 10
1.968826476237999
 20
1.274662657975801
 30
0
  0
LINE
  8
0
 62
7
 10
1.346936385229783
 20
6.494662657975802
 30
0
 11
2.590716567246185
 21
6.494662657975802
 31
0
  0
LINE
  8
0
 62
7
 10
2.590716567246185
 20
6.494662657975802
 30
0
 11
2.590716567246185
 21
6.42966265797592
 31
0
  0
LINE
  8
0
 62
7
 10
2.590716567246185
 20
6.42966265797592
 30
0
 11
1.346936385229783
 21
6.42966265797592
 31
0
  0
LINE
  8
0
 62
7
 10
1.346936385229783
 20
6.494662657975802
 30
0
 11
1.346936385229783
 21
6.42966265797592
 31
0
  0
LINE
  8
0
 62
7
  6
DASHDOT
 10
1.968826476237999
 20
4.628591229404265
 30
0
 11
1.968826476237999
 21
4.646805515118642
 31
0
  0
LINE
  8
0
 62
7
 10
1.89802647623801
 20
4.646805515118642
 30
0
 11
1.968826476237999
 21
4.646805515118642
 31
0
  0
LINE
  8
0
 62
7
  6
DASHDOT
 10
1.968826476237999
 20
3.544662657975801
 30
0
 11
1.968826476237999
 21
6.694662657975802
 31
0
  0
LINE
  8
0
 62
7
 10
2.833542436338001
 20
6.298234086547164
 30
0
 11
2.0396264762379
 21
6.298234086547164
 31
0
  0
LINE
  8
0
 62
7
 10
1.89802647623801
 20
6.414662657975803
 30
0
 11
2.0396264762379
 21
6.414662657975803
 31
0
  0
LINE
  8
0
 62
7
 10
2.0296264762379
 20
6.354662657975801
 30
0
 11
1.90802647623801
 21
6.354662657975801
 31
0
  0
LINE
  8
0
 62
7
 10
1.89802647623801
 20
6.313234086547164
 30
0
 11
2.0396264762379
 21
6.313234086547164
 31
0
  0
LINE
  8
0
 62
7
 10
2.0396264762379
 20
6.298234086547164
 30
0
 11
1.968826476237999
 21
6.298234086547164
 31
0
  0
LINE
  8
0
 62
7
 10
2.0396264762379
 20
6.313234086547164
 30
0
 11
2.0396264762379
 21
6.298234086547164
 31
0
  0
LINE
  8
0
 62
7
 10
2.0196264762379
 20
6.313234086547164
 30
0
 11
2.0396264762379
 21
6.313234086547164
 31
0
  0
LINE
  8
0
 62
7
 10
2.0196264762379
 20
6.354662657975801
 30
0
 11
2.0196264762379
 21
6.313234086547164
 31
0
  0
LINE
  8
0
 62
7
 10
2.0296264762379
 20
6.354662657975801
 30
0
 11
2.0196264762379
 21
6.354662657975801
 31
0
  0
LINE
  8
0
 62
7
 10
2.0296264762379
 20
6.414662657975803
 30
0
 11
2.0296264762379
 21
6.354662657975801
 31
0
  0
LINE
  8
0
 62
7
 10
2.0396264762379
 20
6.414662657975803
 30
0
 11
2.0296264762379
 21
6.414662657975803
 31
0
  0
LINE
  8
0
 62
7
 10
2.0396264762379
 20
6.429662657975801
 30
0
 11
2.0396264762379
 21
6.414662657975803
 31
0
  0
LINE
  8
0
 62
7
 10
1.89802647623801
 20
6.429662657975801
 30
0
 11
2.0396264762379
 21
6.429662657975801
 31
0
  0
LINE
  8
0
 62
7
 10
1.89802647623801
 20
6.414662657975803
 30
0
 11
1.89802647623801
 21
6.429662657975801
 31
0
  0
LINE
  8
0
 62
7
 10
1.90802647623801
 20
6.414662657975803
 30
0
 11
1.89802647623801
 21
6.414662657975803
 31
0
  0
LINE
  8
0
 62
7
 10
1.90802647623801
 20
6.354662657975801
 30
0
 11
1.90802647623801
 21
6.414662657975803
 31
0
  0
LINE
  8
0
 62
7
 10
1.91802647623801
 20
6.354662657975801
 30
0
 11
1.90802647623801
 21
6.354662657975801
 31
0
  0
LINE
  8
0
 62
7
 10
1.91802647623801
 20
6.313234086547164
 30
0
 11
1.91802647623801
 21
6.354662657975801
 31
0
  0
LINE
  8
0
 62
7
 10
1.89802647623801
 20
6.313234086547164
 30
0
 11
1.91802647623801
 21
6.313234086547164
 31
0
  0
LINE
  8
0
 62
7
 10
1.89802647623801
 20
6.298234086547164
 30
0
 11
1.848113100617193
 21
6.298234086547164
 31
0
  0
LINE
  8
0
 62
7
 10
1.89802647623801
 20
6.298234086547164
 30
0
 11
1.89802647623801
 21
6.313234086547164
 31
0
  0
LINE
  8
0
 62
7
 10
2.833542436338001
 20
6.233234086547164
 30
0
 11
2.833542436338001
 21
6.298234086547164
 31
0
  0
LINE
  8
0
 62
7
 10
1.848113100617193
 20
6.233234086547164
 30
0
 11
2.833542436338001
 21
6.233234086547164
 31
0
  0
LINE
  8
0
 62
7
 10
1.848113100617193
 20
6.298234086547164
 30
0
 11
1.848113100617193
 21
6.233234086547164
 31
0
  0
LINE
  8
0
 62
7
 10
1.968826476237999
 20
6.298234086547164
 30
0
 11
1.89802647623801
 21
6.298234086547164
 31
0
  0
LINE
  8
0
 62
7
 10
2.961273232437991
 20
6.101805515118642
 30
0
 11
2.0396264762379
 21
6.101805515118642
 31
0
  0
LINE
  8
0
 62
7
 10
1.89802647623801
 20
6.218234086547164
 30
0
 11
2.0396264762379
 21
6.218234086547164
 31
0
  0
LINE
  8
0
 62
7
 10
2.0296264762379
 20
6.158234086547164
 30
0
 11
1.90802647623801
 21
6.158234086547164
 31
0
  0
LINE
  8
0
 62
7
 10
1.89802647623801
 20
6.116805515118642
 30
0
 11
2.0396264762379
 21
6.116805515118642
 31
0
  0
LINE
  8
0
 62
7
 10
2.0396264762379
 20
6.101805515118642
 30
0
 11
1.968826476237999
 21
6.101805515118642
 31
0
  0
LINE
  8
0
 62
7
 10
2.0396264762379
 20
6.116805515118642
 30
0
 11
2.0396264762379
 21
6.101805515118642
 31
0
  0
LINE
  8
0
 62
7
 10
2.0196264762379
 20
6.116805515118642
 30
0
 11
2.0396264762379
 21
6.116805515118642
 31
0
  0
LINE
  8
0
 62
7
 10
2.0196264762379
 20
6.158234086547164
 30
0
 11
2.0196264762379
 21
6.116805515118642
 31
0
  0
LINE
  8
0
 62
7
 10
2.0296264762379
 20
6.158234086547164
 30
0
 11
2.0196264762379
 21
6.158234086547164
 31
0
  0
LINE
  8
0
 62
7
 10
2.0296264762379
 20
6.218234086547164
 30
0
 11
2.0296264762379
 21
6.158234086547164
 31
0
  0
LINE
  8
0
 62
7
 10
2.0396264762379
 20
6.218234086547164
 30
0
 11
2.0296264762379
 21
6.218234086547164
 31
0
  0
LINE
  8
0
 62
7
 10
2.0396264762379
 20
6.233234086547164
 30
0
 11
2.0396264762379
 21
6.218234086547164
 31
0
  0
LINE
  8
0
 62
7
 10
1.89802647623801
 20
6.233234086547164
 30
0
 11
2.0396264762379
 21
6.233234086547164
 31
0
  0
LINE
  8
0
 62
7
 10
1.89802647623801
 20
6.218234086547164
 30
0
 11
1.89802647623801
 21
6.233234086547164
 31
0
  0
LINE
  8
0
 62
7
 10
1.90802647623801
 20
6.218234086547164
 30
0
 11
1.89802647623801
 21
6.218234086547164
 31
0
  0
LINE
  8
0
 62
7
 10
1.90802647623801
 20
6.158234086547164
 30
0
 11
1.90802647623801
 21
6.218234086547164
 31
0
  0
LINE
  8
0
 62
7
 10
1.91802647623801
 20
6.158234086547164
 30
0
 11
1.90802647623801
 21
6.158234086547164
 31
0
  0
LINE
  8
0
 62
7
 10
1.91802647623801
 20
6.116805515118642
 30
0
 11
1.91802647623801
 21
6.158234086547164
 31
0
  0
LINE
  8
0
 62
7
 10
1.89802647623801
 20
6.116805515118642
 30
0
 11
1.91802647623801
 21
6.116805515118642
 31
0
  0
LINE
  8
0
 62
7
 10
1.89802647623801
 20
6.101805515118642
 30
0
 11
1.855319586122001
 21
6.101805515118642
 31
0
  0
LINE
  8
0
 62
7
 10
1.89802647623801
 20
6.101805515118642
 30
0
 11
1.89802647623801
 21
6.116805515118642
 31
0
  0
LINE
  8
0
 62
7
 10
2.961273232437991
 20
6.036805515118642
 30
0
 11
2.961273232437991
 21
6.101805515118642
 31
0
  0
LINE
  8
0
 62
7
 10
1.855319586122001
 20
6.036805515118642
 30
0
 11
2.961273232437991
 21
6.036805515118642
 31
0
  0
LINE
  8
0
 62
7
 10
1.855319586122001
 20
6.101805515118642
 30
0
 11
1.855319586122001
 21
6.036805515118642
 31
0
  0
LINE
  8
0
 62
7
 10
1.968826476237999
 20
6.101805515118642
 30
0
 11
1.89802647623801
 21
6.101805515118642
 31
0
  0
LINE
  8
0
 62
7
 10
2.949674812937999
 20
5.905376943690062
 30
0
 11
2.0396264762379
 21
5.905376943690062
 31
0
  0
LINE
  8
0
 62
7
 10
1.89802647623801
 20
6.021805515118642
 30
0
 11
2.0396264762379
 21
6.021805515118642
 31
0
  0
LINE
  8
0
 62
7
 10
2.0296264762379
 20
5.961805515118642
 30
0
 11
1.90802647623801
 21
5.961805515118642
 31
0
  0
LINE
  8
0
 62
7
 10
1.89802647623801
 20
5.920376943690062
 30
0
 11
2.0396264762379
 21
5.920376943690062
 31
0
  0
LINE
  8
0
 62
7
 10
2.0396264762379
 20
5.905376943690062
 30
0
 11
1.968826476237999
 21
5.905376943690062
 31
0
  0
LINE
  8
0
 62
7
 10
2.0396264762379
 20
5.920376943690062
 30
0
 11
2.0396264762379
 21
5.905376943690062
 31
0
  0
LINE
  8
0
 62
7
 10
2.0196264762379
 20
5.920376943690062
 30
0
 11
2.0396264762379
 21
5.920376943690062
 31
0
  0
LINE
  8
0
 62
7
 10
2.0196264762379
 20
5.961805515118642
 30
0
 11
2.0196264762379
 21
5.920376943690062
 31
0
  0
LINE
  8
0
 62
7
 10
2.0296264762379
 20
5.961805515118642
 30
0
 11
2.0196264762379
 21
5.961805515118642
 31
0
  0
LINE
  8
0
 62
7
 10
2.0296264762379
 20
6.021805515118642
 30
0
 11
2.0296264762379
 21
5.961805515118642
 31
0
  0
LINE
  8
0
 62
7
 10
2.0396264762379
 20
6.021805515118642
 30
0
 11
2.0296264762379
 21
6.021805515118642
 31
0
  0
LINE
  8
0
 62
7
 10
2.0396264762379
 20
6.036805515118642
 30
0
 11
2.0396264762379
 21
6.021805515118642
 31
0
  0
LINE
  8
0
 62
7
 10
1.89802647623801
 20
6.036805515118642
 30
0
 11
2.0396264762379
 21
6.036805515118642
 31
0
  0
LINE
  8
0
 62
7
 10
1.89802647623801
 20
6.021805515118642
 30
0
 11
1.89802647623801
 21
6.036805515118642
 31
0
  0
LINE
  8
0
 62
7
 10
1.90802647623801
 20
6.021805515118642
 30
0
 11
1.89802647623801
 21
6.021805515118642
 31
0
  0
LINE
  8
0
 62
7
 10
1.90802647623801
 20
5.961805515118642
 30
0
 11
1.90802647623801
 21
6.021805515118642
 31
0
  0
LINE
  8
0
 62
7
 10
1.91802647623801
 20
5.961805515118642
 30
0
 11
1.90802647623801
 21
5.961805515118642
 31
0
  0
LINE
  8
0
 62
7
 10
1.91802647623801
 20
5.920376943690062
 30
0
 11
1.91802647623801
 21
5.961805515118642
 31
0
  0
LINE
  8
0
 62
7
 10
1.89802647623801
 20
5.920376943690062
 30
0
 11
1.91802647623801
 21
5.920376943690062
 31
0
  0
LINE
  8
0
 62
7
 10
1.89802647623801
 20
5.905376943690062
 30
0
 11
1.874082583966199
 21
5.905376943690062
 31
0
  0
LINE
  8
0
 62
7
 10
1.89802647623801
 20
5.905376943690062
 30
0
 11
1.89802647623801
 21
5.920376943690062
 31
0
  0
LINE
  8
0
 62
7
 10
2.949674812937999
 20
5.840376943690063
 30
0
 11
2.949674812937999
 21
5.905376943690062
 31
0
  0
LINE
  8
0
 62
7
 10
1.874082583966199
 20
5.840376943690063
 30
0
 11
2.949674812937999
 21
5.840376943690063
 31
0
  0
LINE
  8
0
 62
7
 10
1.874082583966199
 20
5.905376943690062
 30
0
 11
1.874082583966199
 21
5.840376943690063
 31
0
  0
LINE
  8
0
 62
7
 10
1.968826476237999
 20
5.905376943690062
 30
0
 11
1.89802647623801
 21
5.905376943690062
 31
0
  0
LINE
  8
0
 62
7
 10
2.947437296538002
 20
5.708948372261483
 30
0
 11
2.0396264762379
 21
5.708948372261483
 31
0
  0
LINE
  8
0
 62
7
 10
1.89802647623801
 20
5.825376943690062
 30
0
 11
2.0396264762379
 21
5.825376943690062
 31
0
  0
LINE
  8
0
 62
7
 10
2.0296264762379
 20
5.765376943690063
 30
0
 11
1.90802647623801
 21
5.765376943690063
 31
0
  0
LINE
  8
0
 62
7
 10
1.89802647623801
 20
5.723948372261484
 30
0
 11
2.0396264762379
 21
5.723948372261484
 31
0
  0
LINE
  8
0
 62
7
 10
2.0396264762379
 20
5.708948372261483
 30
0
 11
1.968826476237999
 21
5.708948372261483
 31
0
  0
LINE
  8
0
 62
7
 10
2.0396264762379
 20
5.723948372261484
 30
0
 11
2.0396264762379
 21
5.708948372261483
 31
0
  0
LINE
  8
0
 62
7
 10
2.0196264762379
 20
5.723948372261484
 30
0
 11
2.0396264762379
 21
5.723948372261484
 31
0
  0
LINE
  8
0
 62
7
 10
2.0196264762379
 20
5.765376943690063
 30
0
 11
2.0196264762379
 21
5.723948372261484
 31
0
  0
LINE
  8
0
 62
7
 10
2.0296264762379
 20
5.765376943690063
 30
0
 11
2.0196264762379
 21
5.765376943690063
 31
0
  0
LINE
  8
0
 62
7
 10
2.0296264762379
 20
5.825376943690062
 30
0
 11
2.0296264762379
 21
5.765376943690063
 31
0
  0
LINE
  8
0
 62
7
 10
2.0396264762379
 20
5.825376943690062
 30
0
 11
2.0296264762379
 21
5.825376943690062
 31
0
  0
LINE
  8
0
 62
7
 10
2.0396264762379
 20
5.840376943690063
 30
0
 11
2.0396264762379
 21
5.825376943690062
 31
0
  0
LINE
  8
0
 62
7
 10
1.89802647623801
 20
5.840376943690063
 30
0
 11
2.0396264762379
 21
5.840376943690063
 31
0
  0
LINE
  8
0
 62
7
 10
1.89802647623801
 20
5.825376943690062
 30
0
 11
1.89802647623801
 21
5.840376943690063
 31
0
  0
LINE
  8
0
 62
7
 10
1.90802647623801
 20
5.825376943690062
 30
0
 11
1.89802647623801
 21
5.825376943690062
 31
0
  0
LINE
  8
0
 62
7
 10
1.90802647623801
 20
5.765376943690063
 30
0
 11
1.90802647623801
 21
5.825376943690062
 31
0
  0
LINE
  8
0
 62
7
 10
1.91802647623801
 20
5.765376943690063
 30
0
 11
1.90802647623801
 21
5.765376943690063
 31
0
  0
LINE
  8
0
 62
7
 10
1.91802647623801
 20
5.723948372261484
 30
0
 11
1.91802647623801
 21
5.765376943690063
 31
0
  0
LINE
  8
0
 62
7
 10
1.89802647623801
 20
5.723948372261484
 30
0
 11
1.91802647623801
 21
5.723948372261484
 31
0
  0
LINE
  8
0
 62
7
 10
1.89802647623801
 20
5.708948372261483
 30
0
 11
1.852225598749501
 21
5.708948372261483
 31
0
  0
LINE
  8
0
 62
7
 10
1.89802647623801
 20
5.708948372261483
 30
0
 11
1.89802647623801
 21
5.723948372261484
 31
0
  0
LINE
  8
0
 62
7
 10
2.947437296538002
 20
5.643948372261484
 30
0
 11
2.947437296538002
 21
5.708948372261483
 31
0
  0
LINE
  8
0
 62
7
 10
1.852225598749501
 20
5.643948372261484
 30
0
 11
2.947437296538002
 21
5.643948372261484
 31
0
  0
LINE
  8
0
 62
7
 10
1.852225598749501
 20
5.708948372261483
 30
0
 11
1.852225598749501
 21
5.643948372261484
 31
0
  0
LINE
  8
0
 62
7
 10
1.968826476237999
 20
5.708948372261483
 30
0
 11
1.89802647623801
 21
5.708948372261483
 31
0
  0
LINE
  8
0
 62
7
 10
2.788230635537999
 20
5.512519800832845
 30
0
 11
2.0396264762379
 21
5.512519800832845
 31
0
  0
LINE
  8
0
 62
7
 10
1.89802647623801
 20
5.628948372261483
 30
0
 11
2.0396264762379
 21
5.628948372261483
 31
0
  0
LINE
  8
0
 62
7
 10
2.0296264762379
 20
5.568948372261484
 30
0
 11
1.90802647623801
 21
5.568948372261484
 31
0
  0
LINE
  8
0
 62
7
 10
1.89802647623801
 20
5.527519800832845
 30
0
 11
2.0396264762379
 21
5.527519800832845
 31
0
  0
LINE
  8
0
 62
7
 10
2.0396264762379
 20
5.512519800832845
 30
0
 11
1.968826476237999
 21
5.512519800832845
 31
0
  0
LINE
  8
0
 62
7
 10
2.0396264762379
 20
5.527519800832845
 30
0
 11
2.0396264762379
 21
5.512519800832845
 31
0
  0
LINE
  8
0
 62
7
 10
2.0196264762379
 20
5.527519800832845
 30
0
 11
2.0396264762379
 21
5.527519800832845
 31
0
  0
LINE
  8
0
 62
7
 10
2.0196264762379
 20
5.568948372261484
 30
0
 11
2.0196264762379
 21
5.527519800832845
 31
0
  0
LINE
  8
0
 62
7
 10
2.0296264762379
 20
5.568948372261484
 30
0
 11
2.0196264762379
 21
5.568948372261484
 31
0
  0
LINE
  8
0
 62
7
 10
2.0296264762379
 20
5.628948372261483
 30
0
 11
2.0296264762379
 21
5.568948372261484
 31
0
  0
LINE
  8
0
 62
7
 10
2.0396264762379
 20
5.628948372261483
 30
0
 11
2.0296264762379
 21
5.628948372261483
 31
0
  0
LINE
  8
0
 62
7
 10
2.0396264762379
 20
5.643948372261484
 30
0
 11
2.0396264762379
 21
5.628948372261483
 31
0
  0
LINE
  8
0
 62
7
 10
1.89802647623801
 20
5.643948372261484
 30
0
 11
2.0396264762379
 21
5.643948372261484
 31
0
  0
LINE
  8
0
 62
7
 10
1.89802647623801
 20
5.628948372261483
 30
0
 11
1.89802647623801
 21
5.643948372261484
 31
0
  0
LINE
  8
0
 62
7
 10
1.90802647623801
 20
5.628948372261483
 30
0
 11
1.89802647623801
 21
5.628948372261483
 31
0
  0
LINE
  8
0
 62
7
 10
1.90802647623801
 20
5.568948372261484
 30
0
 11
1.90802647623801
 21
5.628948372261483
 31
0
  0
LINE
  8
0
 62
7
 10
1.91802647623801
 20
5.568948372261484
 30
0
 11
1.90802647623801
 21
5.568948372261484
 31
0
  0
LINE
  8
0
 62
7
 10
1.91802647623801
 20
5.527519800832845
 30
0
 11
1.91802647623801
 21
5.568948372261484
 31
0
  0
LINE
  8
0
 62
7
 10
1.89802647623801
 20
5.527519800832845
 30
0
 11
1.91802647623801
 21
5.527519800832845
 31
0
  0
LINE
  8
0
 62
7
 10
1.89802647623801
 20
5.512519800832845
 30
0
 11
1.849071390601108
 21
5.512519800832845
 31
0
  0
LINE
  8
0
 62
7
 10
1.89802647623801
 20
5.512519800832845
 30
0
 11
1.89802647623801
 21
5.527519800832845
 31
0
  0
LINE
  8
0
 62
7
 10
2.788230635537999
 20
5.447519800832845
 30
0
 11
2.788230635537999
 21
5.512519800832845
 31
0
  0
LINE
  8
0
 62
7
 10
1.849071390601108
 20
5.447519800832845
 30
0
 11
2.788230635537999
 21
5.447519800832845
 31
0
  0
LINE
  8
0
 62
7
 10
1.849071390601108
 20
5.512519800832845
 30
0
 11
1.849071390601108
 21
5.447519800832845
 31
0
  0
LINE
  8
0
 62
7
 10
1.968826476237999
 20
5.512519800832845
 30
0
 11
1.89802647623801
 21
5.512519800832845
 31
0
  0
LINE
  8
0
 62
7
 10
2.497591573137906
 20
5.316091229404265
 30
0
 11
2.0396264762379
 21
5.316091229404265
 31
0
  0
LINE
  8
0
 62
7
 10
1.89802647623801
 20
5.432519800832845
 30
0
 11
2.0396264762379
 21
5.432519800832845
 31
0
  0
LINE
  8
0
 62
7
 10
2.0296264762379
 20
5.372519800832845
 30
0
 11
1.90802647623801
 21
5.372519800832845
 31
0
  0
LINE
  8
0
 62
7
 10
1.89802647623801
 20
5.331091229404265
 30
0
 11
2.0396264762379
 21
5.331091229404265
 31
0
  0
LINE
  8
0
 62
7
 10
2.0396264762379
 20
5.316091229404265
 30
0
 11
1.968826476237999
 21
5.316091229404265
 31
0
  0
LINE
  8
0
 62
7
 10
2.0396264762379
 20
5.331091229404265
 30
0
 11
2.0396264762379
 21
5.316091229404265
 31
0
  0
LINE
  8
0
 62
7
 10
2.0196264762379
 20
5.331091229404265
 30
0
 11
2.0396264762379
 21
5.331091229404265
 31
0
  0
LINE
  8
0
 62
7
 10
2.0196264762379
 20
5.372519800832845
 30
0
 11
2.0196264762379
 21
5.331091229404265
 31
0
  0
LINE
  8
0
 62
7
 10
2.0296264762379
 20
5.372519800832845
 30
0
 11
2.0196264762379
 21
5.372519800832845
 31
0
  0
LINE
  8
0
 62
7
 10
2.0296264762379
 20
5.432519800832845
 30
0
 11
2.0296264762379
 21
5.372519800832845
 31
0
  0
LINE
  8
0
 62
7
 10
2.0396264762379
 20
5.432519800832845
 30
0
 11
2.0296264762379
 21
5.432519800832845
 31
0
  0
LINE
  8
0
 62
7
 10
2.0396264762379
 20
5.447519800832845
 30
0
 11
2.0396264762379
 21
5.432519800832845
 31
0
  0
LINE
  8
0
 62
7
 10
1.89802647623801
 20
5.447519800832845
 30
0
 11
2.0396264762379
 21
5.447519800832845
 31
0
  0
LINE
  8
0
 62
7
 10
1.89802647623801
 20
5.432519800832845
 30
0
 11
1.89802647623801
 21
5.447519800832845
 31
0
  0
LINE
  8
0
 62
7
 10
1.90802647623801
 20
5.432519800832845
 30
0
 11
1.89802647623801
 21
5.432519800832845
 31
0
  0
LINE
  8
0
 62
7
 10
1.90802647623801
 20
5.372519800832845
 30
0
 11
1.90802647623801
 21
5.432519800832845
 31
0
  0
LINE
  8
0
 62
7
 10
1.91802647623801
 20
5.372519800832845
 30
0
 11
1.90802647623801
 21
5.372519800832845
 31
0
  0
LINE
  8
0
 62
7
 10
1.91802647623801
 20
5.331091229404265
 30
0
 11
1.91802647623801
 21
5.372519800832845
 31
0
  0
LINE
  8
0
 62
7
 10
1.89802647623801
 20
5.331091229404265
 30
0
 11
1.91802647623801
 21
5.331091229404265
 31
0
  0
LINE
  8
0
 62
7
 10
1.89802647623801
 20
5.316091229404265
 30
0
 11
1.865125894405792
 21
5.316091229404265
 31
0
  0
LINE
  8
0
 62
7
 10
1.89802647623801
 20
5.316091229404265
 30
0
 11
1.89802647623801
 21
5.331091229404265
 31
0
  0
LINE
  8
0
 62
7
 10
2.497591573137906
 20
5.251091229404265
 30
0
 11
2.497591573137906
 21
5.316091229404265
 31
0
  0
LINE
  8
0
 62
7
 10
1.865125894405792
 20
5.251091229404265
 30
0
 11
2.497591573137906
 21
5.251091229404265
 31
0
  0
LINE
  8
0
 62
7
 10
1.865125894405792
 20
5.316091229404265
 30
0
 11
1.865125894405792
 21
5.251091229404265
 31
0
  0
LINE
  8
0
 62
7
 10
1.968826476237999
 20
5.316091229404265
 30
0
 11
1.89802647623801
 21
5.316091229404265
 31
0
  0
LINE
  8
0
 62
7
 10
2.122138605937915
 20
5.119662657975802
 30
0
 11
2.0396264762379
 21
5.119662657975802
 31
0
  0
LINE
  8
0
 62
7
 10
1.89802647623801
 20
5.236091229404265
 30
0
 11
2.0396264762379
 21
5.236091229404265
 31
0
  0
LINE
  8
0
 62
7
 10
2.0296264762379
 20
5.176091229404265
 30
0
 11
1.90802647623801
 21
5.176091229404265
 31
0
  0
LINE
  8
0
 62
7
 10
1.89802647623801
 20
5.134662657975802
 30
0
 11
2.0396264762379
 21
5.134662657975802
 31
0
  0
LINE
  8
0
 62
7
 10
2.0396264762379
 20
5.119662657975802
 30
0
 11
1.968826476237999
 21
5.119662657975802
 31
0
  0
LINE
  8
0
 62
7
 10
2.0396264762379
 20
5.134662657975802
 30
0
 11
2.0396264762379
 21
5.119662657975802
 31
0
  0
LINE
  8
0
 62
7
 10
2.0196264762379
 20
5.134662657975802
 30
0
 11
2.0396264762379
 21
5.134662657975802
 31
0
  0
LINE
  8
0
 62
7
 10
2.0196264762379
 20
5.176091229404265
 30
0
 11
2.0196264762379
 21
5.134662657975802
 31
0
  0
LINE
  8
0
 62
7
 10
2.0296264762379
 20
5.176091229404265
 30
0
 11
2.0196264762379
 21
5.176091229404265
 31
0
  0
LINE
  8
0
 62
7
 10
2.0296264762379
 20
5.236091229404265
 30
0
 11
2.0296264762379
 21
5.176091229404265
 31
0
  0
LINE
  8
0
 62
7
 10
2.0396264762379
 20
5.236091229404265
 30
0
 11
2.0296264762379
 21
5.236091229404265
 31
0
  0
LINE
  8
0
 62
7
 10
2.0396264762379
 20
5.251091229404265
 30
0
 11
2.0396264762379
 21
5.236091229404265
 31
0
  0
LINE
  8
0
 62
7
 10
1.89802647623801
 20
5.251091229404265
 30
0
 11
2.0396264762379
 21
5.251091229404265
 31
0
  0
LINE
  8
0
 62
7
 10
1.89802647623801
 20
5.236091229404265
 30
0
 11
1.89802647623801
 21
5.251091229404265
 31
0
  0
LINE
  8
0
 62
7
 10
1.90802647623801
 20
5.236091229404265
 30
0
 11
1.89802647623801
 21
5.236091229404265
 31
0
  0
LINE
  8
0
 62
7
 10
1.90802647623801
 20
5.176091229404265
 30
0
 11
1.90802647623801
 21
5.236091229404265
 31
0
  0
LINE
  8
0
 62
7
 10
1.91802647623801
 20
5.176091229404265
 30
0
 11
1.90802647623801
 21
5.176091229404265
 31
0
  0
LINE
  8
0
 62
7
 10
1.91802647623801
 20
5.134662657975802
 30
0
 11
1.91802647623801
 21
5.176091229404265
 31
0
  0
LINE
  8
0
 62
7
 10
1.89802647623801
 20
5.134662657975802
 30
0
 11
1.91802647623801
 21
5.134662657975802
 31
0
  0
LINE
  8
0
 62
7
 10
1.89802647623801
 20
5.119662657975802
 30
0
 11
1.652033157238009
 21
5.119662657975802
 31
0
  0
LINE
  8
0
 62
7
 10
1.89802647623801
 20
5.119662657975802
 30
0
 11
1.89802647623801
 21
5.134662657975802
 31
0
  0
LINE
  8
0
 62
7
 10
2.122138605937915
 20
5.054662657975801
 30
0
 11
2.122138605937915
 21
5.119662657975802
 31
0
  0
LINE
  8
0
 62
7
 10
1.652033157238009
 20
5.054662657975801
 30
0
 11
2.122138605937915
 21
5.054662657975801
 31
0
  0
LINE
  8
0
 62
7
 10
1.652033157238009
 20
5.119662657975802
 30
0
 11
1.652033157238009
 21
5.054662657975801
 31
0
  0
LINE
  8
0
 62
7
 10
1.968826476237999
 20
5.119662657975802
 30
0
 11
1.89802647623801
 21
5.119662657975802
 31
0
  0
LINE
  8
0
 62
7
 10
1.89802647623801
 20
4.923234086547163
 30
0
 11
1.305262577537913
 21
4.923234086547163
 31
0
  0
LINE
  8
0
 62
7
 10
1.89802647623801
 20
5.039662657975802
 30
0
 11
2.0396264762379
 21
5.039662657975802
 31
0
  0
LINE
  8
0
 62
7
 10
2.0296264762379
 20
4.979662657975801
 30
0
 11
1.90802647623801
 21
4.979662657975801
 31
0
  0
LINE
  8
0
 62
7
 10
1.89802647623801
 20
4.938234086547163
 30
0
 11
2.0396264762379
 21
4.938234086547163
 31
0
  0
LINE
  8
0
 62
7
 10
2.0396264762379
 20
4.923234086547163
 30
0
 11
1.968826476237999
 21
4.923234086547163
 31
0
  0
LINE
  8
0
 62
7
 10
2.0396264762379
 20
4.938234086547163
 30
0
 11
2.0396264762379
 21
4.923234086547163
 31
0
  0
LINE
  8
0
 62
7
 10
2.0196264762379
 20
4.938234086547163
 30
0
 11
2.0396264762379
 21
4.938234086547163
 31
0
  0
LINE
  8
0
 62
7
 10
2.0196264762379
 20
4.979662657975801
 30
0
 11
2.0196264762379
 21
4.938234086547163
 31
0
  0
LINE
  8
0
 62
7
 10
2.0296264762379
 20
4.979662657975801
 30
0
 11
2.0196264762379
 21
4.979662657975801
 31
0
  0
LINE
  8
0
 62
7
 10
2.0296264762379
 20
5.039662657975802
 30
0
 11
2.0296264762379
 21
4.979662657975801
 31
0
  0
LINE
  8
0
 62
7
 10
2.0396264762379
 20
5.039662657975802
 30
0
 11
2.0296264762379
 21
5.039662657975802
 31
0
  0
LINE
  8
0
 62
7
 10
2.0396264762379
 20
5.054662657975801
 30
0
 11
2.0396264762379
 21
5.039662657975802
 31
0
  0
LINE
  8
0
 62
7
 10
1.89802647623801
 20
5.054662657975801
 30
0
 11
2.0396264762379
 21
5.054662657975801
 31
0
  0
LINE
  8
0
 62
7
 10
1.89802647623801
 20
5.039662657975802
 30
0
 11
1.89802647623801
 21
5.054662657975801
 31
0
  0
LINE
  8
0
 62
7
 10
1.90802647623801
 20
5.039662657975802
 30
0
 11
1.89802647623801
 21
5.039662657975802
 31
0
  0
LINE
  8
0
 62
7
 10
1.90802647623801
 20
4.979662657975801
 30
0
 11
1.90802647623801
 21
5.039662657975802
 31
0
  0
LINE
  8
0
 62
7
 10
1.91802647623801
 20
4.979662657975801
 30
0
 11
1.90802647623801
 21
4.979662657975801
 31
0
  0
LINE
  8
0
 62
7
 10
1.91802647623801
 20
4.938234086547163
 30
0
 11
1.91802647623801
 21
4.979662657975801
 31
0
  0
LINE
  8
0
 62
7
 10
1.89802647623801
 20
4.938234086547163
 30
0
 11
1.91802647623801
 21
4.938234086547163
 31
0
  0
LINE
  8
0
 62
7
 10
1.89802647623801
 20
4.923234086547163
 30
0
 11
1.89802647623801
 21
4.938234086547163
 31
0
  0
LINE
  8
0
 62
7
 10
2.081471342838195
 20
4.923234086547163
 30
0
 11
2.0396264762379
 21
4.923234086547163
 31
0
  0
LINE
  8
0
 62
7
 10
2.081471342838195
 20
4.858234086547163
 30
0
 11
2.081471342838195
 21
4.923234086547163
 31
0
  0
LINE
  8
0
 62
7
 10
1.305262577537913
 20
4.858234086547163
 30
0
 11
2.081471342838195
 21
4.858234086547163
 31
0
  0
LINE
  8
0
 62
7
 10
1.305262577537913
 20
4.923234086547163
 30
0
 11
1.305262577537913
 21
4.858234086547163
 31
0
  0
LINE
  8
0
 62
7
 10
1.968826476237999
 20
4.923234086547163
 30
0
 11
1.89802647623801
 21
4.923234086547163
 31
0
  0
LINE
  8
0
 62
7
 10
1.89802647623801
 20
4.726805515118642
 30
0
 11
1.064927626137913
 21
4.726805515118642
 31
0
  0
LINE
  8
0
 62
7
 10
1.89802647623801
 20
4.843234086547163
 30
0
 11
2.0396264762379
 21
4.843234086547163
 31
0
  0
LINE
  8
0
 62
7
 10
2.0296264762379
 20
4.783234086547163
 30
0
 11
1.90802647623801
 21
4.783234086547163
 31
0
  0
LINE
  8
0
 62
7
 10
1.89802647623801
 20
4.741805515118641
 30
0
 11
2.0396264762379
 21
4.741805515118641
 31
0
  0
LINE
  8
0
 62
7
 10
2.0396264762379
 20
4.726805515118642
 30
0
 11
1.968826476237999
 21
4.726805515118642
 31
0
  0
LINE
  8
0
 62
7
 10
2.0396264762379
 20
4.741805515118641
 30
0
 11
2.0396264762379
 21
4.726805515118642
 31
0
  0
LINE
  8
0
 62
7
 10
2.0196264762379
 20
4.741805515118641
 30
0
 11
2.0396264762379
 21
4.741805515118641
 31
0
  0
LINE
  8
0
 62
7
 10
2.0196264762379
 20
4.783234086547163
 30
0
 11
2.0196264762379
 21
4.741805515118641
 31
0
  0
LINE
  8
0
 62
7
 10
2.0296264762379
 20
4.783234086547163
 30
0
 11
2.0196264762379
 21
4.783234086547163
 31
0
  0
LINE
  8
0
 62
7
 10
2.0296264762379
 20
4.843234086547163
 30
0
 11
2.0296264762379
 21
4.783234086547163
 31
0
  0
LINE
  8
0
 62
7
 10
2.0396264762379
 20
4.843234086547163
 30
0
 11
2.0296264762379
 21
4.843234086547163
 31
0
  0
LINE
  8
0
 62
7
 10
2.0396264762379
 20
4.858234086547163
 30
0
 11
2.0396264762379
 21
4.843234086547163
 31
0
  0
LINE
  8
0
 62
7
 10
1.89802647623801
 20
4.858234086547163
 30
0
 11
2.0396264762379
 21
4.858234086547163
 31
0
  0
LINE
  8
0
 62
7
 10
1.89802647623801
 20
4.843234086547163
 30
0
 11
1.89802647623801
 21
4.858234086547163
 31
0
  0
LINE
  8
0
 62
7
 10
1.90802647623801
 20
4.843234086547163
 30
0
 11
1.89802647623801
 21
4.843234086547163
 31
0
  0
LINE
  8
0
 62
7
 10
1.90802647623801
 20
4.783234086547163
 30
0
 11
1.90802647623801
 21
4.843234086547163
 31
0
  0
LINE
  8
0
 62
7
 10
1.91802647623801
 20
4.783234086547163
 30
0
 11
1.90802647623801
 21
4.783234086547163
 31
0
  0
LINE
  8
0
 62
7
 10
1.91802647623801
 20
4.741805515118641
 30
0
 11
1.91802647623801
 21
4.783234086547163
 31
0
  0
LINE
  8
0
 62
7
 10
1.89802647623801
 20
4.741805515118641
 30
0
 11
1.91802647623801
 21
4.741805515118641
 31
0
  0
LINE
  8
0
 62
7
 10
1.89802647623801
 20
4.726805515118642
 30
0
 11
1.89802647623801
 21
4.741805515118641
 31
0
  0
LINE
  8
0
 62
7
 10
2.089642552772479
 20
4.726805515118642
 30
0
 11
2.0396264762379
 21
4.726805515118642
 31
0
  0
LINE
  8
0
 62
7
 10
2.089642552772479
 20
4.661805515118642
 30
0
 11
2.089642552772479
 21
4.726805515118642
 31
0
  0
LINE
  8
0
 62
7
 10
1.064927626137913
 20
4.661805515118642
 30
0
 11
2.089642552772479
 21
4.661805515118642
 31
0
  0
LINE
  8
0
 62
7
 10
1.064927626137913
 20
4.726805515118642
 30
0
 11
1.064927626137913
 21
4.661805515118642
 31
0
  0
LINE
  8
0
 62
7
 10
1.968826476237999
 20
4.726805515118642
 30
0
 11
1.89802647623801
 21
4.726805515118642
 31
0
  0
LINE
  8
0
 62
7
 10
1.89802647623801
 20
4.530376943690062
 30
0
 11
0.9695780218379806
 21
4.530376943690062
 31
0
  0
LINE
  8
0
 62
7
 10
1.968826476237999
 20
4.646805515118642
 30
0
 11
2.0396264762379
 21
4.646805515118642
 31
0
  0
LINE
  8
0
 62
7
 10
2.0296264762379
 20
4.586805515118642
 30
0
 11
1.90802647623801
 21
4.586805515118642
 31
0
  0
LINE
  8
0
 62
7
 10
1.89802647623801
 20
4.545376943690062
 30
0
 11
2.0396264762379
 21
4.545376943690062
 31
0
  0
LINE
  8
0
 62
7
 10
2.0396264762379
 20
4.530376943690062
 30
0
 11
1.968826476237999
 21
4.530376943690062
 31
0
  0
LINE
  8
0
 62
7
 10
2.0396264762379
 20
4.545376943690062
 30
0
 11
2.0396264762379
 21
4.530376943690062
 31
0
  0
LINE
  8
0
 62
7
 10
2.0196264762379
 20
4.545376943690062
 30
0
 11
2.0396264762379
 21
4.545376943690062
 31
0
  0
LINE
  8
0
 62
7
 10
2.0196264762379
 20
4.586805515118642
 30
0
 11
2.0196264762379
 21
4.545376943690062
 31
0
  0
LINE
  8
0
 62
7
 10
2.0296264762379
 20
4.586805515118642
 30
0
 11
2.0196264762379
 21
4.586805515118642
 31
0
  0
LINE
  8
0
 62
7
 10
2.0296264762379
 20
4.646805515118642
 30
0
 11
2.0296264762379
 21
4.586805515118642
 31
0
  0
LINE
  8
0
 62
7
 10
2.0396264762379
 20
4.646805515118642
 30
0
 11
2.0296264762379
 21
4.646805515118642
 31
0
  0
LINE
  8
0
 62
7
 10
2.0396264762379
 20
4.661805515118642
 30
0
 11
2.0396264762379
 21
4.646805515118642
 31
0
  0
LINE
  8
0
 62
7
 10
1.89802647623801
 20
4.661805515118642
 30
0
 11
2.0396264762379
 21
4.661805515118642
 31
0
  0
LINE
  8
0
 62
7
 10
1.89802647623801
 20
4.646805515118642
 30
0
 11
1.89802647623801
 21
4.661805515118642
 31
0
  0
LINE
  8
0
 62
7
 10
1.90802647623801
 20
4.646805515118642
 30
0
 11
1.89802647623801
 21
4.646805515118642
 31
0
  0
LINE
  8
0
 62
7
 10
1.90802647623801
 20
4.586805515118642
 30
0
 11
1.90802647623801
 21
4.646805515118642
 31
0
  0
LINE
  8
0
 62
7
 10
1.91802647623801
 20
4.586805515118642
 30
0
 11
1.90802647623801
 21
4.586805515118642
 31
0
  0
LINE
  8
0
 62
7
 10
1.91802647623801
 20
4.545376943690062
 30
0
 11
1.91802647623801
 21
4.586805515118642
 31
0
  0
LINE
  8
0
 62
7
 10
1.89802647623801
 20
4.545376943690062
 30
0
 11
1.91802647623801
 21
4.545376943690062
 31
0
  0
LINE
  8
0
 62
7
 10
1.89802647623801
 20
4.530376943690062
 30
0
 11
1.89802647623801
 21
4.545376943690062
 31
0
  0
LINE
  8
0
 62
7
 10
2.078434867860895
 20
4.530376943690062
 30
0
 11
2.0396264762379
 21
4.530376943690062
 31
0
  0
LINE
  8
0
 62
7
 10
2.078434867860895
 20
4.465376943690063
 30
0
 11
2.078434867860895
 21
4.530376943690062
 31
0
  0
LINE
  8
0
 62
7
 10
0.9695780218379806
 20
4.465376943690063
 30
0
 11
2.078434867860895
 21
4.465376943690063
 31
0
  0
LINE
  8
0
 62
7
 10
0.9695780218379806
 20
4.530376943690062
 30
0
 11
0.9695780218379806
 21
4.465376943690063
 31
0
  0
LINE
  8
0
 62
7
 10
1.968826476237999
 20
4.530376943690062
 30
0
 11
1.89802647623801
 21
4.530376943690062
 31
0
  0
LINE
  8
0
 62
7
 10
1.89802647623801
 20
4.333948372261482
 30
0
 11
0.9750709576379161
 21
4.333948372261482
 31
0
  0
LINE
  8
0
 62
7
 10
1.89802647623801
 20
4.450376943690062
 30
0
 11
2.0396264762379
 21
4.450376943690062
 31
0
  0
LINE
  8
0
 62
7
 10
2.0296264762379
 20
4.390376943690063
 30
0
 11
1.90802647623801
 21
4.390376943690063
 31
0
  0
LINE
  8
0
 62
7
 10
1.89802647623801
 20
4.348948372261482
 30
0
 11
2.0396264762379
 21
4.348948372261482
 31
0
  0
LINE
  8
0
 62
7
 10
2.0396264762379
 20
4.333948372261482
 30
0
 11
1.968826476237999
 21
4.333948372261482
 31
0
  0
LINE
  8
0
 62
7
 10
2.0396264762379
 20
4.348948372261482
 30
0
 11
2.0396264762379
 21
4.333948372261482
 31
0
  0
LINE
  8
0
 62
7
 10
2.0196264762379
 20
4.348948372261482
 30
0
 11
2.0396264762379
 21
4.348948372261482
 31
0
  0
LINE
  8
0
 62
7
 10
2.0196264762379
 20
4.390376943690063
 30
0
 11
2.0196264762379
 21
4.348948372261482
 31
0
  0
LINE
  8
0
 62
7
 10
2.0296264762379
 20
4.390376943690063
 30
0
 11
2.0196264762379
 21
4.390376943690063
 31
0
  0
LINE
  8
0
 62
7
 10
2.0296264762379
 20
4.450376943690062
 30
0
 11
2.0296264762379
 21
4.390376943690063
 31
0
  0
LINE
  8
0
 62
7
 10
2.0396264762379
 20
4.450376943690062
 30
0
 11
2.0296264762379
 21
4.450376943690062
 31
0
  0
LINE
  8
0
 62
7
 10
2.0396264762379
 20
4.465376943690063
 30
0
 11
2.0396264762379
 21
4.450376943690062
 31
0
  0
LINE
  8
0
 62
7
 10
1.89802647623801
 20
4.465376943690063
 30
0
 11
2.0396264762379
 21
4.465376943690063
 31
0
  0
LINE
  8
0
 62
7
 10
1.89802647623801
 20
4.450376943690062
 30
0
 11
1.89802647623801
 21
4.465376943690063
 31
0
  0
LINE
  8
0
 62
7
 10
1.90802647623801
 20
4.450376943690062
 30
0
 11
1.89802647623801
 21
4.450376943690062
 31
0
  0
LINE
  8
0
 62
7
 10
1.90802647623801
 20
4.390376943690063
 30
0
 11
1.90802647623801
 21
4.450376943690062
 31
0
  0
LINE
  8
0
 62
7
 10
1.91802647623801
 20
4.390376943690063
 30
0
 11
1.90802647623801
 21
4.390376943690063
 31
0
  0
LINE
  8
0
 62
7
 10
1.91802647623801
 20
4.348948372261482
 30
0
 11
1.91802647623801
 21
4.390376943690063
 31
0
  0
LINE
  8
0
 62
7
 10
1.89802647623801
 20
4.348948372261482
 30
0
 11
1.91802647623801
 21
4.348948372261482
 31
0
  0
LINE
  8
0
 62
7
 10
1.89802647623801
 20
4.333948372261482
 30
0
 11
1.89802647623801
 21
4.348948372261482
 31
0
  0
LINE
  8
0
 62
7
 10
2.069548834524205
 20
4.333948372261482
 30
0
 11
2.0396264762379
 21
4.333948372261482
 31
0
  0
LINE
  8
0
 62
7
 10
2.069548834524205
 20
4.268948372261483
 30
0
 11
2.069548834524205
 21
4.333948372261482
 31
0
  0
LINE
  8
0
 62
7
 10
0.9750709576379161
 20
4.268948372261483
 30
0
 11
2.069548834524205
 21
4.268948372261483
 31
0
  0
LINE
  8
0
 62
7
 10
0.9750709576379161
 20
4.333948372261482
 30
0
 11
0.9750709576379161
 21
4.268948372261483
 31
0
  0
LINE
  8
0
 62
7
 10
1.968826476237999
 20
4.333948372261482
 30
0
 11
1.89802647623801
 21
4.333948372261482
 31
0
  0
LINE
  8
0
 62
7
 10
1.89802647623801
 20
4.137519800832845
 30
0
 11
1.010987763637997
 21
4.137519800832845
 31
0
  0
LINE
  8
0
 62
7
 10
1.89802647623801
 20
4.253948372261482
 30
0
 11
2.0396264762379
 21
4.253948372261482
 31
0
  0
LINE
  8
0
 62
7
 10
2.0296264762379
 20
4.193948372261483
 30
0
 11
1.90802647623801
 21
4.193948372261483
 31
0
  0
LINE
  8
0
 62
7
 10
1.89802647623801
 20
4.152519800832844
 30
0
 11
2.0396264762379
 21
4.152519800832844
 31
0
  0
LINE
  8
0
 62
7
 10
2.0396264762379
 20
4.137519800832845
 30
0
 11
1.968826476237999
 21
4.137519800832845
 31
0
  0
LINE
  8
0
 62
7
 10
2.0396264762379
 20
4.152519800832844
 30
0
 11
2.0396264762379
 21
4.137519800832845
 31
0
  0
LINE
  8
0
 62
7
 10
2.0196264762379
 20
4.152519800832844
 30
0
 11
2.0396264762379
 21
4.152519800832844
 31
0
  0
LINE
  8
0
 62
7
 10
2.0196264762379
 20
4.193948372261483
 30
0
 11
2.0196264762379
 21
4.152519800832844
 31
0
  0
LINE
  8
0
 62
7
 10
2.0296264762379
 20
4.193948372261483
 30
0
 11
2.0196264762379
 21
4.193948372261483
 31
0
  0
LINE
  8
0
 62
7
 10
2.0296264762379
 20
4.253948372261482
 30
0
 11
2.0296264762379
 21
4.193948372261483
 31
0
  0
LINE
  8
0
 62
7
 10
2.0396264762379
 20
4.253948372261482
 30
0
 11
2.0296264762379
 21
4.253948372261482
 31
0
  0
LINE
  8
0
 62
7
 10
2.0396264762379
 20
4.268948372261483
 30
0
 11
2.0396264762379
 21
4.253948372261482
 31
0
  0
LINE
  8
0
 62
7
 10
1.89802647623801
 20
4.268948372261483
 30
0
 11
2.0396264762379
 21
4.268948372261483
 31
0
  0
LINE
  8
0
 62
7
 10
1.89802647623801
 20
4.253948372261482
 30
0
 11
1.89802647623801
 21
4.268948372261483
 31
0
  0
LINE
  8
0
 62
7
 10
1.90802647623801
 20
4.253948372261482
 30
0
 11
1.89802647623801
 21
4.253948372261482
 31
0
  0
LINE
  8
0
 62
7
 10
1.90802647623801
 20
4.193948372261483
 30
0
 11
1.90802647623801
 21
4.253948372261482
 31
0
  0
LINE
  8
0
 62
7
 10
1.91802647623801
 20
4.193948372261483
 30
0
 11
1.90802647623801
 21
4.193948372261483
 31
0
  0
LINE
  8
0
 62
7
 10
1.91802647623801
 20
4.152519800832844
 30
0
 11
1.91802647623801
 21
4.193948372261483
 31
0
  0
LINE
  8
0
 62
7
 10
1.89802647623801
 20
4.152519800832844
 30
0
 11
1.91802647623801
 21
4.152519800832844
 31
0
  0
LINE
  8
0
 62
7
 10
1.89802647623801
 20
4.137519800832845
 30
0
 11
1.89802647623801
 21
4.152519800832844
 31
0
  0
LINE
  8
0
 62
7
 10
2.087694900505885
 20
4.137519800832845
 30
0
 11
2.0396264762379
 21
4.137519800832845
 31
0
  0
LINE
  8
0
 62
7
 10
2.087694900505885
 20
4.072519800832844
 30
0
 11
2.087694900505885
 21
4.137519800832845
 31
0
  0
LINE
  8
0
 62
7
 10
1.010987763637997
 20
4.072519800832844
 30
0
 11
2.087694900505885
 21
4.072519800832844
 31
0
  0
LINE
  8
0
 62
7
 10
1.010987763637997
 20
4.137519800832845
 30
0
 11
1.010987763637997
 21
4.072519800832844
 31
0
  0
LINE
  8
0
 62
7
 10
1.968826476237999
 20
4.137519800832845
 30
0
 11
1.89802647623801
 21
4.137519800832845
 31
0
  0
LINE
  8
0
 62
7
 10
1.89802647623801
 20
3.941091229404265
 30
0
 11
1.2005418688379
 21
3.941091229404265
 31
0
  0
LINE
  8
0
 62
7
 10
1.89802647623801
 20
4.057519800832845
 30
0
 11
2.0396264762379
 21
4.057519800832845
 31
0
  0
LINE
  8
0
 62
7
 10
2.0296264762379
 20
3.997519800832844
 30
0
 11
1.90802647623801
 21
3.997519800832844
 31
0
  0
LINE
  8
0
 62
7
 10
1.89802647623801
 20
3.956091229404265
 30
0
 11
2.0396264762379
 21
3.956091229404265
 31
0
  0
LINE
  8
0
 62
7
 10
2.0396264762379
 20
3.941091229404265
 30
0
 11
1.968826476237999
 21
3.941091229404265
 31
0
  0
LINE
  8
0
 62
7
 10
2.0396264762379
 20
3.956091229404265
 30
0
 11
2.0396264762379
 21
3.941091229404265
 31
0
  0
LINE
  8
0
 62
7
 10
2.0196264762379
 20
3.956091229404265
 30
0
 11
2.0396264762379
 21
3.956091229404265
 31
0
  0
LINE
  8
0
 62
7
 10
2.0196264762379
 20
3.997519800832844
 30
0
 11
2.0196264762379
 21
3.956091229404265
 31
0
  0
LINE
  8
0
 62
7
 10
2.0296264762379
 20
3.997519800832844
 30
0
 11
2.0196264762379
 21
3.997519800832844
 31
0
  0
LINE
  8
0
 62
7
 10
2.0296264762379
 20
4.057519800832845
 30
0
 11
2.0296264762379
 21
3.997519800832844
 31
0
  0
LINE
  8
0
 62
7
 10
2.0396264762379
 20
4.057519800832845
 30
0
 11
2.0296264762379
 21
4.057519800832845
 31
0
  0
LINE
  8
0
 62
7
 10
2.0396264762379
 20
4.072519800832844
 30
0
 11
2.0396264762379
 21
4.057519800832845
 31
0
  0
LINE
  8
0
 62
7
 10
1.89802647623801
 20
4.072519800832844
 30
0
 11
2.0396264762379
 21
4.072519800832844
 31
0
  0
LINE
  8
0
 62
7
 10
1.89802647623801
 20
4.057519800832845
 30
0
 11
1.89802647623801
 21
4.072519800832844
 31
0
  0
LINE
  8
0
 62
7
 10
1.90802647623801
 20
4.057519800832845
 30
0
 11
1.89802647623801
 21
4.057519800832845
 31
0
  0
LINE
  8
0
 62
7
 10
1.90802647623801
 20
3.997519800832844
 30
0
 11
1.90802647623801
 21
4.057519800832845
 31
0
  0
LINE
  8
0
 62
7
 10
1.91802647623801
 20
3.997519800832844
 30
0
 11
1.90802647623801
 21
3.997519800832844
 31
0
  0
LINE
  8
0
 62
7
 10
1.91802647623801
 20
3.956091229404265
 30
0
 11
1.91802647623801
 21
3.997519800832844
 31
0
  0
LINE
  8
0
 62
7
 10
1.89802647623801
 20
3.956091229404265
 30
0
 11
1.91802647623801
 21
3.956091229404265
 31
0
  0
LINE
  8
0
 62
7
 10
1.89802647623801
 20
3.941091229404265
 30
0
 11
1.89802647623801
 21
3.956091229404265
 31
0
  0
LINE
  8
0
 62
7
 10
2.086774474981008
 20
3.941091229404265
 30
0
 11
2.0396264762379
 21
3.941091229404265
 31
0
  0
LINE
  8
0
 62
7
 10
2.086774474981008
 20
3.876091229404266
 30
0
 11
2.086774474981008
 21
3.941091229404265
 31
0
  0
LINE
  8
0
 62
7
 10
1.2005418688379
 20
3.876091229404266
 30
0
 11
2.086774474981008
 21
3.876091229404266
 31
0
  0
LINE
  8
0
 62
7
 10
1.2005418688379
 20
3.941091229404265
 30
0
 11
1.2005418688379
 21
3.876091229404266
 31
0
  0
LINE
  8
0
 62
7
 10
1.968826476237999
 20
3.941091229404265
 30
0
 11
1.89802647623801
 21
3.941091229404265
 31
0
  0
LINE
  8
0
 62
7
  6
DASHDOT
 10
1.573611627214472
 20
3.961091229404265
 30
0
 11
1.573611627214472
 21
3.544662657975801
 31
0
  0
LINE
  8
0
 62
7
 10
1.89802647623801
 20
3.861091229404265
 30
0
 11
2.0396264762379
 21
3.861091229404265
 31
0
  0
LINE
  8
0
 62
7
 10
2.0296264762379
 20
3.801091229404266
 30
0
 11
1.90802647623801
 21
3.801091229404266
 31
0
  0
LINE
  8
0
 62
7
 10
1.89802647623801
 20
3.759662657975801
 30
0
 11
2.0396264762379
 21
3.759662657975801
 31
0
  0
LINE
  8
0
 62
7
 10
2.0396264762379
 20
3.759662657975801
 30
0
 11
2.0396264762379
 21
3.744662657975801
 31
0
  0
LINE
  8
0
 62
7
 10
2.0196264762379
 20
3.759662657975801
 30
0
 11
2.0396264762379
 21
3.759662657975801
 31
0
  0
LINE
  8
0
 62
7
 10
2.0196264762379
 20
3.801091229404266
 30
0
 11
2.0196264762379
 21
3.759662657975801
 31
0
  0
LINE
  8
0
 62
7
 10
2.0296264762379
 20
3.801091229404266
 30
0
 11
2.0196264762379
 21
3.801091229404266
 31
0
  0
LINE
  8
0
 62
7
 10
2.0296264762379
 20
3.861091229404265
 30
0
 11
2.0296264762379
 21
3.801091229404266
 31
0
  0
LINE
  8
0
 62
7
 10
2.0396264762379
 20
3.861091229404265
 30
0
 11
2.0296264762379
 21
3.861091229404265
 31
0
  0
LINE
  8
0
 62
7
 10
2.0396264762379
 20
3.876091229404266
 30
0
 11
2.0396264762379
 21
3.861091229404265
 31
0
  0
LINE
  8
0
 62
7
 10
1.89802647623801
 20
3.876091229404266
 30
0
 11
2.0396264762379
 21
3.876091229404266
 31
0
  0
LINE
  8
0
 62
7
 10
1.89802647623801
 20
3.861091229404265
 30
0
 11
1.89802647623801
 21
3.876091229404266
 31
0
  0
LINE
  8
0
 62
7
 10
1.90802647623801
 20
3.861091229404265
 30
0
 11
1.89802647623801
 21
3.861091229404265
 31
0
  0
LINE
  8
0
 62
7
 10
1.90802647623801
 20
3.801091229404266
 30
0
 11
1.90802647623801
 21
3.861091229404265
 31
0
  0
LINE
  8
0
 62
7
 10
1.91802647623801
 20
3.801091229404266
 30
0
 11
1.90802647623801
 21
3.801091229404266
 31
0
  0
LINE
  8
0
 62
7
 10
1.91802647623801
 20
3.759662657975801
 30
0
 11
1.91802647623801
 21
3.801091229404266
 31
0
  0
LINE
  8
0
 62
7
 10
1.89802647623801
 20
3.759662657975801
 30
0
 11
1.91802647623801
 21
3.759662657975801
 31
0
  0
LINE
  8
0
 62
7
 10
1.89802647623801
 20
3.744662657975801
 30
0
 11
1.89802647623801
 21
3.759662657975801
 31
0
  0
LINE
  8
0
 62
7
 10
5.416444722056506
 20
2.319662657975801
 30
0
 11
3.921208230419406
 21
2.319662657975801
 31
0
  0
LINE
  8
0
 62
7
 10
4.618045237335202
 20
1.182405210244469
 30
0
 11
4.719607715140708
 21
1.182405210244469
 31
0
  0
LINE
  8
0
 62
7
 10
4.789452252360614
 20
1.207307152059802
 30
0
 11
5.661273232484586
 21
1.39733880078973
 31
0
  0
LINE
  8
0
 62
7
 10
4.791696030591207
 20
1.249728469869063
 30
0
 11
5.5335424363098
 21
1.776923853368032
 31
0
  0
LINE
  8
0
 62
7
 10
5.661273232484586
 20
1.39733880078973
 30
0
 11
5.521218879907801
 21
1.768166080878465
 31
0
  0
LINE
  8
0
 62
7
 10
5.5335424363098
 20
1.776923853368032
 30
0
 11
5.259212460302196
 21
2.063055217600194
 31
0
  0
LINE
  8
0
 62
7
  6
DASHDOT
 10
4.668826476237999
 20
2.274662657975801
 30
0
 11
4.668826476237999
 21
2.349662657975801
 31
0
  0
LINE
  8
0
 62
7
 10
4.719607715140708
 20
1.182405210244469
 30
0
 11
5.416444722056506
 21
2.319662657975801
 31
0
  0
LINE
  8
0
 62
7
 10
5.058944493613701
 20
1.575291464025795
 30
0
 11
5.067222073573794
 21
1.7497215469816
 31
0
  0
LINE
  8
0
 62
7
 10
5.067222073573794
 20
1.7497215469816
 30
0
 11
5.228380825627392
 21
1.771355867050646
 31
0
  0
LINE
  8
0
 62
7
 10
5.228380825627392
 20
1.771355867050646
 30
0
 11
5.058944493613701
 21
1.575291464025795
 31
0
  0
LINE
  8
0
 62
7
 10
3.921208230419406
 20
2.319662657975801
 30
0
 11
4.618045237335202
 21
1.182405210244469
 31
0
  0
LINE
  8
0
 62
7
  6
DASHDOT
 10
2.968826476238
 20
1.274662657975801
 30
0
 11
0.9688264762379988
 21
1.274662657975801
 31
0
  0
LINE
  8
0
 62
7
  6
DASHDOT
 10
3.113935929868894
 20
1.274662657975801
 30
0
 11
2.968826476238
 21
1.274662657975801
 31
0
  0
LINE
  8
0
 62
7
  6
DASHED
 10
2.074256273852807
 20
1.271593183595803
 30
0
 11
1.579508480266697
 21
2.195766071286518
 31
0
  0
LINE
  8
0
 62
7
  6
DASHED
 10
1.875474371085904
 20
1.277380503419437
 30
0
 11
1.881682581305388
 21
1.241750079961202
 31
0
  0
LINE
  8
0
 62
7
  6
DASHED
 10
1.884027656958206
 20
1.313792729135311
 30
0
 11
1.871144623960777
 21
1.258948320518131
 31
0
  0
LINE
  8
0
 62
7
  6
DASHED
 10
1.906182670765993
 20
1.343928492672159
 30
0
 11
1.858672205342009
 21
1.279303655876079
 31
0
  0
LINE
  8
0
 62
7
  6
DASHDOT
 10
1.968826476237999
 20
0.09999999999999958
 30
0
 11
1.968826476237999
 21
0.1996626579758008
 31
0
  0
LINE
  8
0
 62
7
  6
DASHDOT
 10
1.968826476237999
 20
0.1996626579758008
 30
0
 11
1.968826476237999
 21
0.2746626579758009
 31
0
  0
LINE
  8
0
 62
7
  6
DASHDOT
 10
1.968826476237999
 20
2.274662657975801
 30
0
 11
1.968826476237999
 21
2.349662657975801
 31
0
  0
LINE
  8
0
 62
7
  6
DASHDOT
 10
0.9688264762379988
 20
1.274662657975801
 30
0
 11
0.8103826390895119
 21
1.274662657975801
 31
0
  0
LINE
  8
0
 62
7
  6
DASHDOT
 10
1.968826476237999
 20
2.349662657975801
 30
0
 11
1.968826476237999
 21
2.411510296965018
 31
0
  0
LINE
  8
0
 62
7
  6
DASHED
 10
1.579508480266697
 20
2.195766071286518
 30
0
 11
1.385340174129087
 21
2.051794744042097
 31
0
  0
LINE
  8
0
 62
7
 10
1.616443889592803
 20
1.674627029065508
 30
0
 11
1.249302334334381
 21
1.969130086454562
 31
0
  0
LINE
  8
0
 62
7
 10
1.769046109367599
 20
1.425575946449651
 30
0
 11
1.034507838049671
 21
1.631101548017177
 31
0
  0
LINE
  8
0
 62
7
 10
1.817158187574998
 20
1.347055691749788
 30
0
 11
0.9695780218360888
 21
1.235900222869124
 31
0
  0
LINE
  8
0
 62
7
 10
1.842226596398803
 20
1.306143348756246
 30
0
 11
1.064927626164601
 21
0.8469163910885107
 31
0
  0
LINE
  8
0
 62
7
 10
1.858672205342009
 20
1.279303655876079
 30
0
 11
1.305262577510701
 21
0.5265430470137503
 31
0
  0
LINE
  8
0
 62
7
 10
1.871144623960777
 20
1.258948320518131
 30
0
 11
1.652033157265687
 21
0.3261680649206969
 31
0
  0
LINE
  8
0
 62
7
 10
1.881682581305388
 20
1.241750079961202
 30
0
 11
2.049617375383212
 21
0.2779315856120079
 31
0
  0
LINE
  8
0
 62
7
 10
1.902258993331198
 20
1.209158670008298
 30
0
 11
2.744215342927317
 21
0.6431786079679147
 31
0
  0
LINE
  8
0
 62
7
 10
1.933300648886303
 20
1.188291842238162
 30
0
 11
2.9298156002865
 21
0.9980764987765576
 31
0
  0
LINE
  8
0
 62
7
 10
1.970040646027017
 20
1.181278890585934
 30
0
 11
2.961273232484587
 21
1.39733880078973
 31
0
  0
LINE
  8
0
 62
7
 10
2.00658589037208
 20
1.189244692275009
 30
0
 11
2.833542436309799
 21
1.776923853368032
 31
0
  0
LINE
  8
0
 62
7
 10
2.037074525881908
 20
1.210911532966129
 30
0
 11
2.590716567246185
 21
2.114470799580682
 31
0
  0
LINE
  8
0
 62
7
 10
2.358944493613701
 20
1.575291464025795
 30
0
 11
2.367222073573794
 21
1.7497215469816
 31
0
  0
LINE
  8
0
 62
7
 10
2.367222073573794
 20
1.7497215469816
 30
0
 11
2.528380825627391
 21
1.771355867050646
 31
0
  0
LINE
  8
0
 62
7
 10
2.528380825627391
 20
1.771355867050646
 30
0
 11
2.358944493613701
 21
1.575291464025795
 31
0
  0
LINE
  8
0
 62
7
 10
1.891429157155391
 20
1.22584339609486
 30
0
 11
2.434242735828303
 21
0.3895707388458536
 31
0
  0
LINE
  8
0
 62
7
 10
1.346936385229783
 20
2.114470799580682
 30
0
 11
1.891429157155391
 21
1.22584339609486
 31
0
  0
LINE
  8
0
 62
7
 10
1.385340174129087
 20
2.051794744042097
 30
0
 11
1.261095502791111
 21
1.959670181638503
 31
0
  0
LINE
  8
0
 62
7
 10
1.249302334334381
 20
1.969130086454562
 30
0
 11
1.049067142751883
 21
1.627027819017297
 31
0
  0
LINE
  8
0
 62
7
 10
1.034507838049671
 20
1.631101548017177
 30
0
 11
0.9845681507693081
 21
1.237866095688718
 31
0
  0
LINE
  8
0
 62
7
 10
0.9695780218360888
 20
1.235900222869124
 30
0
 11
1.077944163121109
 21
0.8546065397891213
 31
0
  0
LINE
  8
0
 62
7
 10
1.064927626164601
 20
0.8469163910885107
 30
0
 11
1.314217670373677
 21
0.538723971986619
 31
0
  0
LINE
  8
0
 62
7
 10
1.305262577510701
 20
0.5265430470137503
 30
0
 11
1.655490409422317
 21
0.340885946184862
 31
0
  0
LINE
  8
0
 62
7
 10
1.652033157265687
 20
0.3261680649206969
 30
0
 11
2.047022243697109
 21
0.2928256754770406
 31
0
  0
LINE
  8
0
 62
7
 10
2.049617375383212
 20
0.2779315856120079
 30
0
 11
2.426011479339679
 21
0.402252025768044
 31
0
  0
LINE
  8
0
 62
7
 10
2.434242735828303
 20
0.3895707388458536
 30
0
 11
2.731668254917196
 21
0.6516130139246812
 31
0
  0
LINE
  8
0
 62
7
 10
2.744215342927317
 20
0.6431786079679147
 30
0
 11
2.914965233275696
 21
1.000911145319114
 31
0
  0
LINE
  8
0
 62
7
 10
2.9298156002865
 20
0.9980764987765576
 30
0
 11
2.946501584872778
 21
1.39411901070195
 31
0
  0
LINE
  8
0
 62
7
 10
2.961273232484587
 20
1.39733880078973
 30
0
 11
2.8212188799078
 21
1.768166080878465
 31
0
  0
LINE
  8
0
 62
7
 10
2.833542436309799
 20
1.776923853368032
 30
0
 11
2.559212460302195
 21
2.063055217600194
 31
0
  0
LINE
  8
0
 62
7
  6
DASHED
 10
2.040667873169994
 20
1.334335230461205
 30
0
 11
1.616443889592803
 21
1.674627029065508
 31
0
  0
LINE
  8
0
 62
7
  6
DASHED
 10
2.011491424193198
 20
1.357739155471557
 30
0
 11
1.769046109367599
 21
1.425575946449651
 31
0
  0
LINE
  8
0
 62
7
  6
DASHED
 10
1.975471518911305
 20
1.367817612906044
 30
0
 11
1.817158187574998
 21
1.347055691749788
 31
0
  0
LINE
  8
0
 62
7
  6
DASHED
 10
1.938385748994187
 20
1.362954018510412
 30
0
 11
1.842226596398803
 21
1.306143348756246
 31
0
  0
LINE
  8
0
 62
7
  6
DASHDOT
 10
1.968826476237999
 20
0.2746626579758009
 30
0
 11
1.968826476237999
 21
2.274662657975801
 31
0
  0
LINE
  8
0
 62
7
  6
DASHDOT
 10
4.668826476237999
 20
0.1496593567331433
 30
0
 11
4.668826476237999
 21
2.274662657975801
 31
0
  0
LINE
  8
0
 62
7
  6
DASHDOT
 10
4.668826476237999
 20
2.274662657975801
 30
0
 11
4.668826476237999
 21
2.349662657975801
 31
0
  0
LINE
  8
0
 62
7
  6
DASHDOT
 10
4.668826476237999
 20
2.349662657975801
 30
0
 11
4.668826476237999
 21
2.408410569862928
 31
0
  0
LINE
  8
0
 62
7
  6
DASHDOT
 10
5.543826476237999
 20
1.274662657975801
 30
0
 11
3.668826476237999
 21
1.274662657975801
 31
0
  0
LINE
  8
0
 62
7
  6
DASHDOT
 10
5.801252171523986
 20
1.274662657975801
 30
0
 11
5.543826476237999
 21
1.274662657975801
 31
0
  0
LINE
  8
0
 62
7
  6
DASHDOT
 10
3.668826476237999
 20
1.274662657975801
 30
0
 11
3.534898287443911
 21
1.274662657975801
 31
0
  0
LINE
  8
0
 62
7
  6
DASHDOT
 10
3.593826476238
 20
0.1996626579758008
 30
0
 11
5.743826476238
 21
0.1996626579758008
 31
0
  0
LINE
  8
0
 62
7
  6
DASHDOT
 10
3.593826476238
 20
2.349662657975801
 30
0
 11
3.593826476238
 21
0.1996626579758008
 31
0
  0
LINE
  8
0
 62
7
  6
DASHDOT
 10
5.743826476238
 20
2.349662657975801
 30
0
 11
3.593826476238
 21
2.349662657975801
 31
0
  0
LINE
  8
0
 62
7
  6
DASHDOT
 10
5.743826476238
 20
0.1996626579758008
 30
0
 11
5.743826476238
 21
2.349662657975801
 31
0
  0
LINE
  8
0
 62
7
  6
DASHED
 10
0.6913264762379986
 20
6.394662657975801
 30
0
 11
0.8938264762379987
 21
6.394662657975801
 31
0
  0
LINE
  8
0
 62
7
  6
DASHED
 10
0.6913264762379986
 20
6.194662657975801
 30
0
 11
0.893826476238086
 21
6.194662657975801
 31
0
  0
LINE
  8
0
 62
7
 10
0.6663264762379986
 20
3.444662657975801
 30
0
 11
3.271326476237999
 21
3.444662657975801
 31
0
  0
LINE
  8
0
 62
7
 10
0.6663264762379986
 20
6.194662657975801
 30
0
 11
0.893826476238086
 21
6.194662657975801
 31
0
  0
LINE
  8
0
 62
7
 10
0.6663264762379986
 20
6.394662657975801
 30
0
 11
0.8938264762379987
 21
6.394662657975801
 31
0
  0
LINE
  8
0
 62
7
 10
0.893826476238086
 20
6.194662657975801
 30
0
 11
0.8938264762379987
 21
6.394662657975801
 31
0
  0
LINE
  8
0
 62
7
 10
0.6663264762379986
 20
3.744662657975801
 30
0
 11
0.6913264762379986
 21
3.744662657975801
 31
0
  0
LINE
  8
0
 62
7
 10
0.6663264762379986
 20
6.494662657975802
 30
0
 11
0.6913264762379986
 21
6.494662657975802
 31
0
  0
LINE
  8
0
 62
7
 10
0.8738264762380861
 20
6.394662657975801
 30
0
 11
0.6913264762379986
 21
6.394662657975801
 31
0
  0
LINE
  8
0
 62
7
 10
0.6663264762379986
 20
3.644662657975801
 30
0
 11
0.6913264762379986
 21
3.644662657975801
 31
0
  0
LINE
  8
0
 62
7
 10
3.043826476237999
 20
6.394662657975801
 30
0
 11
3.271326476237999
 21
6.394662657975801
 31
0
  0
LINE
  8
0
 62
7
 10
3.043826476237999
 20
6.394662657975801
 30
0
 11
3.271326476237999
 21
6.394662657975801
 31
0
  0
LINE
  8
0
 62
7
 10
0.6913264762379986
 20
3.644662657975801
 30
0
 11
3.271326476237999
 21
3.644662657975801
 31
0
  0
LINE
  8
0
 62
7
  6
DASHED
 10
0.893826476238086
 20
6.194662657975801
 30
0
 11
3.043826476237999
 21
6.194662657975801
 31
0
  0
LINE
  8
0
 62
7
  6
DASHED
 10
0.8938264762379987
 20
6.394662657975801
 30
0
 11
3.043826476237999
 21
6.394662657975801
 31
0
  0
LINE
  8
0
 62
7
 10
0.8738264762380861
 20
6.194662657975801
 30
0
 11
0.6913264762379986
 21
6.194662657975801
 31
0
  0
LINE
  8
0
 62
7
 10
0.893826476238086
 20
6.194662657975801
 30
0
 11
0.8738264762380861
 21
6.194662657975801
 31
0
  0
LINE
  8
0
 62
7
 10
0.8938264762379987
 20
6.394662657975801
 30
0
 11
0.8738264762380861
 21
6.394662657975801
 31
0
  0
LINE
  8
0
 62
7
  6
DASHDOT
 10
3.271326476237999
 20
3.444662657975801
 30
0
 11
3.271326476237999
 21
3.394662657975801
 31
0
  0
LINE
  8
0
 62
7
  6
DASHDOT
 10
3.271326476237999
 20
6.194662657975801
 30
0
 11
3.271326476237999
 21
6.144662657975801
 31
0
  0
LINE
  8
0
 62
7
  6
DASHDOT
 10
0.6663264762379986
 20
3.444662657975801
 30
0
 11
0.6663264762379986
 21
3.394662657975801
 31
0
  0
LINE
  8
0
 62
7
  6
DASHDOT
 10
0.6663264762379986
 20
6.194662657975801
 30
0
 11
0.6663264762379986
 21
6.144662657975801
 31
0
  0
LINE
  8
0
 62
7
  6
DASHDOT
 10
3.271326476237999
 20
3.794662657975801
 30
0
 11
3.271326476237999
 21
3.744662657975801
 31
0
  0
LINE
  8
0
 62
7
  6
DASHDOT
 10
0.6663264762379986
 20
3.794662657975801
 30
0
 11
0.6663264762379986
 21
3.744662657975801
 31
0
  0
LINE
  8
0
 62
7
  6
DASHDOT
 10
3.271326476237999
 20
6.544662657975802
 30
0
 11
3.271326476237999
 21
6.494662657975802
 31
0
  0
LINE
  8
0
 62
7
  6
DASHDOT
 10
0.6663264762379986
 20
6.544662657975802
 30
0
 11
0.6663264762379986
 21
6.494662657975802
 31
0
  0
LINE
  8
0
 62
7
  6
DASHDOT
 10
0.6663264762379986
 20
3.644662657975801
 30
0
 11
0.6663264762379986
 21
3.444662657975801
 31
0
  0
LINE
  8
0
 62
7
  6
DASHDOT
 10
0.6663264762379986
 20
3.744662657975801
 30
0
 11
0.6663264762379986
 21
3.644662657975801
 31
0
  0
LINE
  8
0
 62
7
  6
DASHDOT
 10
3.271326476237999
 20
3.644662657975801
 30
0
 11
3.271326476237999
 21
3.444662657975801
 31
0
  0
LINE
  8
0
 62
7
  6
DASHDOT
 10
3.271326476237999
 20
3.744662657975801
 30
0
 11
3.271326476237999
 21
3.644662657975801
 31
0
  0
LINE
  8
0
 62
7
  6
DASHDOT
 10
3.271326476237999
 20
6.394662657975801
 30
0
 11
3.271326476237999
 21
6.194662657975801
 31
0
  0
LINE
  8
0
 62
7
  6
DASHDOT
 10
3.271326476237999
 20
6.494662657975802
 30
0
 11
3.271326476237999
 21
6.394662657975801
 31
0
  0
LINE
  8
0
 62
7
  6
DASHDOT
 10
0.6663264762379986
 20
6.394662657975801
 30
0
 11
0.6663264762379986
 21
6.194662657975801
 31
0
  0
LINE
  8
0
 62
7
  6
DASHDOT
 10
0.6663264762379986
 20
6.494662657975802
 30
0
 11
0.6663264762379986
 21
6.394662657975801
 31
0
  0
LINE
  8
0
 62
7
 10
0.6913264762379986
 20
3.744662657975801
 30
0
 11
3.271326476237999
 21
3.744662657975801
 31
0
  0
LINE
  8
0
 62
7
 10
3.271326476237999
 20
6.494662657975802
 30
0
 11
0.6913264762379986
 21
6.494662657975802
 31
0
  0
LINE
  8
0
 62
7
 10
3.043826476237999
 20
6.394662657975801
 30
0
 11
3.043826476237999
 21
6.194662657975801
 31
0
  0
LINE
  8
0
 62
7
 10
3.043826476237999
 20
6.194662657975801
 30
0
 11
3.271326476237999
 21
6.194662657975801
 31
0
  0
LINE
  8
0
 62
7
 10
1.563398536061279
 20
0.589764888445357
 30
0
 11
1.464592419749175
 21
0.5546190183502618
 31
0
  0
LINE
  8
0
 62
7
 10
1.563398536061279
 20
0.589764888445357
 30
0
 11
1.539297749864772
 21
0.6917909852330365
 31
0
  0
LINE
  8
0
 62
7
 10
1.603614441891434
 20
0.6040699037098198
 30
0
 11
1.625747280012372
 21
0.6447096402995226
 31
0
  0
LINE
  8
0
 62
7
 10
1.603614441891434
 20
0.6040699037098198
 30
0
 11
1.563398536061279
 21
0.589764888445357
 31
0
  0
LINE
  8
0
 62
7
 10
1.551041949896749
 20
0.5075376734167564
 30
0
 11
1.603614441891434
 21
0.6040699037098198
 31
0
  0
LINE
  8
0
 62
7
 10
1.390685022760935
 20
0.7172734222230702
 30
0
 11
1.452423142658857
 21
0.7767954704341912
 31
0
  0
LINE
  8
0
 62
7
 10
1.390685022760935
 20
0.7172734222230702
 30
0
 11
1.332053785159512
 21
0.7784104220652746
 31
0
  0
LINE
  8
0
 62
7
 10
1.339976564923287
 20
0.6683851295910386
 30
0
 11
1.271696685103537
 21
0.7392071448546074
 31
0
  0
LINE
  8
0
 62
7
 10
1.452423142658857
 20
0.7767954704341912
 30
0
 11
1.384143262839071
 21
0.8476174856978029
 31
0
  0
LINE
  8
0
 62
7
 10
1.339976564923287
 20
0.6683851295910386
 30
0
 11
1.390685022760935
 21
0.7172734222230702
 31
0
  0
LINE
  8
0
 62
7
 10
1.326947285328346
 20
0.9544514095171668
 30
0
 11
1.187178399954962
 21
0.8847255640389099
 31
0
  0
LINE
  8
0
 62
7
 10
1.14324444470946
 20
0.972793337367251
 30
0
 11
1.283013330082848
 21
1.042519182845524
 31
0
  0
LINE
  8
0
 62
7
 10
1.283013330082848
 20
1.042519182845524
 30
0
 11
1.187178399954962
 21
0.8847255640389099
 31
0
  0
LINE
  8
0
 62
7
 10
1.26048409837481
 20
1.161546721497527
 30
0
 11
1.106242885980311
 21
1.136915780685873
 31
0
  0
LINE
  8
0
 62
7
 10
1.090723036147715
 20
1.234102505004082
 30
0
 11
1.244964248542175
 21
1.258733445815753
 31
0
  0
LINE
  8
0
 62
7
 10
1.244964248542175
 20
1.258733445815753
 30
0
 11
1.106242885980311
 21
1.136915780685873
 31
0
  0
LINE
  8
0
 62
7
 10
1.251573796162245
 20
1.394633885287195
 30
0
 11
1.265958565310713
 21
1.416738972442151
 31
0
  0
LINE
  8
0
 62
7
 10
1.242368417661503
 20
1.388969045543544
 30
0
 11
1.251573796162245
 21
1.394633885287195
 31
0
  0
LINE
  8
0
 62
7
 10
1.214933401043028
 20
1.385544041129052
 30
0
 11
1.242368417661503
 21
1.388969045543544
 31
0
  0
LINE
  8
0
 62
7
 10
1.151791952361658
 20
1.394811759565403
 30
0
 11
1.214933401043028
 21
1.385544041129052
 31
0
  0
LINE
  8
0
 62
7
 10
1.126654832929921
 20
1.405500505636102
 30
0
 11
1.151791952361658
 21
1.394811759565403
 31
0
  0
LINE
  8
0
 62
7
 10
1.11336981049741
 20
1.426008837282372
 30
0
 11
1.126654832929921
 21
1.405500505636102
 31
0
  0
LINE
  8
0
 62
7
 10
1.111483893858323
 20
1.439864959801412
 30
0
 11
1.11336981049741
 21
1.426008837282372
 31
0
  0
LINE
  8
0
 62
7
 10
1.190024882903375
 20
1.488764885088847
 30
0
 11
1.184984544806423
 21
1.454424798963769
 31
0
  0
LINE
  8
0
 62
7
 10
1.27470599078219
 20
1.476335638039789
 30
0
 11
1.190024882903375
 21
1.488764885088847
 31
0
  0
LINE
  8
0
 62
7
 10
1.265958565310713
 20
1.416738972442151
 30
0
 11
1.27470599078219
 21
1.476335638039789
 31
0
  0
LINE
  8
0
 62
7
 10
1.120296355950375
 20
1.499904723284099
 30
0
 11
1.111483893858323
 21
1.439864959801412
 31
0
  0
LINE
  8
0
 62
7
 10
1.330313544075601
 20
1.611460399633366
 30
0
 11
1.339147069582054
 21
1.618426816502886
 31
0
  0
LINE
  8
0
 62
7
 10
1.314988356083869
 20
1.603383450745266
 30
0
 11
1.330313544075601
 21
1.611460399633366
 31
0
  0
LINE
  8
0
 62
7
 10
1.296652240227061
 20
1.602438589793028
 30
0
 11
1.314988356083869
 21
1.603383450745266
 31
0
  0
LINE
  8
0
 62
7
 10
1.28058685041924
 20
1.606612160958227
 30
0
 11
1.296652240227061
 21
1.602438589793028
 31
0
  0
LINE
  8
0
 62
7
 10
1.224218580919114
 20
1.635714207690704
 30
0
 11
1.28058685041924
 21
1.606612160958227
 31
0
  0
LINE
  8
0
 62
7
 10
1.212393420713663
 20
1.645940086731791
 30
0
 11
1.224218580919114
 21
1.635714207690704
 31
0
  0
LINE
  8
0
 62
7
 10
1.207791680753522
 20
1.655752683632532
 30
0
 11
1.212393420713663
 21
1.645940086731791
 31
0
  0
LINE
  8
0
 62
7
 10
1.203473963947346
 20
1.664674964740101
 30
0
 11
1.207791680753522
 21
1.655752683632532
 31
0
  0
LINE
  8
0
 62
7
 10
1.199819909279843
 20
1.679204040598942
 30
0
 11
1.203473963947346
 21
1.664674964740101
 31
0
  0
LINE
  8
0
 62
7
 10
1.201115163690852
 20
1.691549705961162
 30
0
 11
1.199819909279843
 21
1.679204040598942
 31
0
  0
LINE
  8
0
 62
7
 10
1.210664272775079
 20
1.710045544391174
 30
0
 11
1.201115163690852
 21
1.691549705961162
 31
0
  0
LINE
  8
0
 62
7
 10
1.220111589561973
 20
1.717066910086403
 30
0
 11
1.210664272775079
 21
1.710045544391174
 31
0
  0
LINE
  8
0
 62
7
 10
1.231875514378044
 20
1.724007766359103
 30
0
 11
1.220111589561973
 21
1.717066910086403
 31
0
  0
LINE
  8
0
 62
7
 10
1.253337297097537
 20
1.726685450983859
 30
0
 11
1.231875514378044
 21
1.724007766359103
 31
0
  0
LINE
  8
0
 62
7
 10
1.269702961873224
 20
1.723813710355898
 30
0
 11
1.253337297097537
 21
1.726685450983859
 31
0
  0
LINE
  8
0
 62
7
 10
1.326658400847504
 20
1.694408517303216
 30
0
 11
1.269702961873224
 21
1.723813710355898
 31
0
  0
LINE
  8
0
 62
7
 10
1.338344420827513
 20
1.683913135096358
 30
0
 11
1.326658400847504
 21
1.694408517303216
 31
0
  0
LINE
  8
0
 62
7
 10
1.343978488159092
 20
1.673939403452004
 30
0
 11
1.338344420827513
 21
1.683913135096358
 31
0
  0
LINE
  8
0
 62
7
 10
1.349451420747046
 20
1.662933344436149
 30
0
 11
1.343978488159092
 21
1.673939403452004
 31
0
  0
LINE
  8
0
 62
7
 10
1.35078548226768
 20
1.651833081759692
 30
0
 11
1.349451420747046
 21
1.662933344436149
 31
0
  0
LINE
  8
0
 62
7
 10
1.349454044466482
 20
1.638390578617522
 30
0
 11
1.35078548226768
 21
1.651833081759692
 31
0
  0
LINE
  8
0
 62
7
 10
1.339147069582054
 20
1.618426816502886
 30
0
 11
1.349454044466482
 21
1.638390578617522
 31
0
  0
LINE
  8
0
 62
7
 10
1.370890598575666
 20
1.908882758808318
 30
0
 11
1.404578041296168
 21
1.944697342786332
 31
0
  0
LINE
  8
0
 62
7
 10
1.484664501797795
 20
1.801866247036648
 30
0
 11
1.370890598575666
 21
1.908882758808318
 31
0
  0
LINE
  8
0
 62
7
 10
1.336547116928795
 20
1.872370711344614
 30
0
 11
1.370890598575666
 21
1.908882758808318
 31
0
  0
LINE
  8
0
 62
7
 10
1.535991255771796
 20
2.035051327440646
 30
0
 11
1.577258110336069
 21
2.061782861944509
 31
0
  0
LINE
  8
0
 62
7
 10
1.620910600960718
 20
1.90395693526896
 30
0
 11
1.535991255771796
 21
2.035051327440646
 31
0
  0
LINE
  8
0
 62
7
 10
1.493920758639865
 20
2.007799215362989
 30
0
 11
1.535991255771796
 21
2.035051327440646
 31
0
  0
LINE
  8
0
 62
7
 10
2.557429126272
 20
1.92008621871545
 30
0
 11
2.593758784021358
 21
1.886954901349876
 31
0
  0
LINE
  8
0
 62
7
 10
2.452179284534688
 20
1.804676055989441
 30
0
 11
2.557429126272
 21
1.92008621871545
 31
0
  0
LINE
  8
0
 62
7
 10
2.520391974342575
 20
1.953862744862688
 30
0
 11
2.557429126272
 21
1.92008621871545
 31
0
  0
LINE
  8
0
 62
7
 10
2.684590142546088
 20
1.626318682940577
 30
0
 11
2.655656151417253
 21
1.674348182815458
 31
0
  0
LINE
  8
0
 62
7
 10
2.684590142546088
 20
1.626318682940577
 30
0
 11
2.638448933334313
 21
1.55014513676066
 31
0
  0
LINE
  8
0
 62
7
 10
2.655656151417253
 20
1.674348182815458
 30
0
 11
2.723809740658476
 21
1.714008675176216
 31
0
  0
LINE
  8
0
 62
7
 10
2.689368619543787
 20
1.618386563954886
 30
0
 11
2.684590142546088
 21
1.626318682940577
 31
0
  0
LINE
  8
0
 62
7
 10
2.699011945659461
 20
1.606413612684564
 30
0
 11
2.689368619543787
 21
1.618386563954886
 31
0
  0
LINE
  8
0
 62
7
 10
2.710492895851344
 20
1.600479608449258
 30
0
 11
2.699011945659461
 21
1.606413612684564
 31
0
  0
LINE
  8
0
 62
7
 10
2.720436237939287
 20
1.602443163885039
 30
0
 11
2.710492895851344
 21
1.600479608449258
 31
0
  0
LINE
  8
0
 62
7
 10
2.731781626121668
 20
1.603311231781495
 30
0
 11
2.720436237939287
 21
1.602443163885039
 31
0
  0
LINE
  8
0
 62
7
 10
2.746750654686025
 20
1.612404406465177
 30
0
 11
2.731781626121668
 21
1.603311231781495
 31
0
  0
LINE
  8
0
 62
7
 10
2.758660640276689
 20
1.630038877141798
 30
0
 11
2.746750654686025
 21
1.612404406465177
 31
0
  0
LINE
  8
0
 62
7
 10
2.760170717237593
 20
1.641239072663313
 30
0
 11
2.758660640276689
 21
1.630038877141798
 31
0
  0
LINE
  8
0
 62
7
 10
2.757662586120385
 20
1.655835092678238
 30
0
 11
2.760170717237593
 21
1.641239072663313
 31
0
  0
LINE
  8
0
 62
7
 10
2.723809740658476
 20
1.714008675176216
 30
0
 11
2.757662586120385
 21
1.655835092678238
 31
0
  0
LINE
  8
0
 62
7
 10
2.588808871923024
 20
1.635447868874045
 30
0
 11
2.655656151417253
 21
1.674348182815458
 31
0
  0
LINE
  8
0
 62
7
 10
2.752080437017536
 20
1.451985903165946
 30
0
 11
2.668438922211278
 21
1.433050046367576
 31
0
  0
LINE
  8
0
 62
7
 10
2.752080437017536
 20
1.451985903165946
 30
0
 11
2.770565666254263
 21
1.369320002865721
 31
0
  0
LINE
  8
0
 62
7
 10
2.820779196131713
 20
1.467538824078767
 30
0
 11
2.842501197731699
 21
1.371590637641013
 31
0
  0
LINE
  8
0
 62
7
 10
2.668438922211278
 20
1.433050046367576
 30
0
 11
2.690160923811238
 21
1.33710185992984
 31
0
  0
LINE
  8
0
 62
7
 10
2.820779196131713
 20
1.467538824078767
 30
0
 11
2.752080437017536
 21
1.451985903165946
 31
0
  0
LINE
  8
0
 62
7
 10
2.760168928682242
 20
1.128844351368297
 30
0
 11
2.755266725344836
 21
1.141843375721818
 31
0
  0
LINE
  8
0
 62
7
 10
2.763861847236686
 20
1.117270443071736
 30
0
 11
2.760168928682242
 21
1.128844351368297
 31
0
  0
LINE
  8
0
 62
7
 10
2.774129661501298
 20
1.113114116926741
 30
0
 11
2.763861847236686
 21
1.117270443071736
 31
0
  0
LINE
  8
0
 62
7
 10
2.785277460443737
 20
1.107559653634496
 30
0
 11
2.774129661501298
 21
1.113114116926741
 31
0
  0
LINE
  8
0
 62
7
 10
2.799847601787743
 20
1.1073604819425
 30
0
 11
2.785277460443737
 21
1.107559653634496
 31
0
  0
LINE
  8
0
 62
7
 10
2.819513564966906
 20
1.112711007409496
 30
0
 11
2.799847601787743
 21
1.1073604819425
 31
0
  0
LINE
  8
0
 62
7
 10
2.829348929623151
 20
1.123508080532255
 30
0
 11
2.819513564966906
 21
1.112711007409496
 31
0
  0
LINE
  8
0
 62
7
 10
2.833991753328206
 20
1.137051141347942
 30
0
 11
2.829348929623151
 21
1.123508080532255
 31
0
  0
LINE
  8
0
 62
7
 10
2.839422378144406
 20
1.203336449828961
 30
0
 11
2.833991753328206
 21
1.137051141347942
 31
0
  0
LINE
  8
0
 62
7
 10
2.760832244707247
 20
1.209775184727189
 30
0
 11
2.839422378144406
 21
1.203336449828961
 31
0
  0
LINE
  8
0
 62
7
 10
2.760832244707247
 20
1.209775184727189
 30
0
 11
2.755266725344836
 21
1.141843375721818
 31
0
  0
LINE
  8
0
 62
7
 10
2.683748459776046
 20
1.216090507458056
 30
0
 11
2.760832244707247
 21
1.209775184727189
 31
0
  0
LINE
  8
0
 62
7
 10
2.680089212239992
 20
0.8983766285282577
 30
0
 11
2.679308254042777
 21
0.9122473291594612
 31
0
  0
LINE
  8
0
 62
7
 10
2.680143591994357
 20
0.886227964258123
 30
0
 11
2.680089212239992
 21
0.8983766285282577
 31
0
  0
LINE
  8
0
 62
7
 10
2.688693728809679
 20
0.8791853640823561
 30
0
 11
2.680143591994357
 21
0.886227964258123
 31
0
  0
LINE
  8
0
 62
7
 10
2.697664367217323
 20
0.8705451597858679
 30
0
 11
2.688693728809679
 21
0.8791853640823561
 31
0
  0
LINE
  8
0
 62
7
 10
2.711505045354374
 20
0.8659883717884539
 30
0
 11
2.697664367217323
 21
0.8705451597858679
 31
0
  0
LINE
  8
0
 62
7
 10
2.731870579712374
 20
0.8651989157418746
 30
0
 11
2.711505045354374
 21
0.8659883717884539
 31
0
  0
LINE
  8
0
 62
7
 10
2.744489783064419
 20
0.8725519350333513
 30
0
 11
2.731870579712374
 21
0.8651989157418746
 31
0
  0
LINE
  8
0
 62
7
 10
2.75297813115865
 20
0.8840809529812566
 30
0
 11
2.744489783064419
 21
0.8725519350333513
 31
0
  0
LINE
  8
0
 62
7
 10
2.778025281989074
 20
0.9456916179800988
 30
0
 11
2.75297813115865
 21
0.8840809529812566
 31
0
  0
LINE
  8
0
 62
7
 10
2.704977566071825
 20
0.975388378410023
 30
0
 11
2.778025281989074
 21
0.9456916179800988
 31
0
  0
LINE
  8
0
 62
7
 10
2.704977566071825
 20
0.975388378410023
 30
0
 11
2.679308254042777
 21
0.9122473291594612
 31
0
  0
LINE
  8
0
 62
7
 10
2.633329966338662
 20
1.004515936718158
 30
0
 11
2.704977566071825
 21
0.975388378410023
 31
0
  0
LINE
  8
0
 62
7
 10
2.587931265168515
 20
0.7631555117061908
 30
0
 11
2.521818784462477
 21
0.8177779390293142
 31
0
  0
LINE
  8
0
 62
7
 10
2.587931265168515
 20
0.7631555117061908
 30
0
 11
2.533805528748684
 21
0.6979960194630048
 31
0
  0
LINE
  8
0
 62
7
 10
2.642232593844637
 20
0.7182915110291006
 30
0
 11
2.579573245163304
 21
0.6424515093345277
 31
0
  0
LINE
  8
0
 62
7
 10
2.521818784462477
 20
0.8177779390293142
 30
0
 11
2.459159435781153
 21
0.741937937334706
 31
0
  0
LINE
  8
0
 62
7
 10
2.642232593844637
 20
0.7182915110291006
 30
0
 11
2.587931265168515
 21
0.7631555117061908
 31
0
  0
LINE
  8
0
 62
7
 10
3.826426476237999
 20
0.384985669255432
 30
0
 11
3.826426476237999
 21
0.5049856692554321
 31
0
  0
LINE
  8
0
 62
7
 10
3.902026476237999
 20
0.5049856692554321
 30
0
 11
3.848026476237999
 21
0.444985669255432
 31
0
  0
LINE
  8
0
 62
7
 10
3.848026476237999
 20
0.444985669255432
 30
0
 11
3.902026476237999
 21
0.384985669255432
 31
0
  0
LINE
  8
0
 62
7
 10
3.848026476237999
 20
0.444985669255432
 30
0
 11
3.826426476237999
 21
0.420985669255432
 31
0
  0
LINE
  8
0
 62
7
 10
4.010026476237999
 20
0.5049856692554321
 30
0
 11
3.934426476237999
 21
0.5049856692554321
 31
0
  0
LINE
  8
0
 62
7
 10
3.934426476237999
 20
0.5049856692554321
 30
0
 11
3.934426476237999
 21
0.444985669255432
 31
0
  0
LINE
  8
0
 62
7
 10
3.934426476237999
 20
0.384985669255432
 30
0
 11
4.010026476237999
 21
0.384985669255432
 31
0
  0
LINE
  8
0
 62
7
 10
3.999226476237999
 20
0.444985669255432
 30
0
 11
3.934426476237999
 21
0.444985669255432
 31
0
  0
LINE
  8
0
 62
7
 10
3.934426476237999
 20
0.444985669255432
 30
0
 11
3.934426476237999
 21
0.384985669255432
 31
0
  0
LINE
  8
0
 62
7
 10
4.042426476237999
 20
0.384985669255432
 30
0
 11
4.042426476237999
 21
0.5049856692554321
 31
0
  0
LINE
  8
0
 62
7
 10
4.042426476237999
 20
0.5049856692554321
 30
0
 11
4.118026476238
 21
0.384985669255432
 31
0
  0
LINE
  8
0
 62
7
 10
4.118026476238
 20
0.384985669255432
 30
0
 11
4.118026476238
 21
0.5049856692554321
 31
0
  0
LINE
  8
0
 62
7
 10
4.150426476237999
 20
0.384985669255432
 30
0
 11
4.150426476237999
 21
0.5049856692554321
 31
0
  0
LINE
  8
0
 62
7
 10
4.150426476237999
 20
0.5049856692554321
 30
0
 11
4.226026476238
 21
0.384985669255432
 31
0
  0
LINE
  8
0
 62
7
 10
4.226026476238
 20
0.384985669255432
 30
0
 11
4.226026476238
 21
0.5049856692554321
 31
0
  0
LINE
  8
0
 62
7
 10
4.334026476238001
 20
0.4689856692554322
 30
0
 11
4.331326476238
 21
0.4809856692554321
 31
0
  0
LINE
  8
0
 62
7
 10
4.331326476238
 20
0.4809856692554321
 30
0
 11
4.325926476237999
 21
0.4899856692554321
 31
0
  0
LINE
  8
0
 62
7
 10
4.325926476237999
 20
0.4899856692554321
 30
0
 11
4.320526476238
 21
0.495985669255432
 31
0
  0
LINE
  8
0
 62
7
 10
4.320526476238
 20
0.495985669255432
 30
0
 11
4.312426476237999
 21
0.501985669255432
 31
0
  0
LINE
  8
0
 62
7
 10
4.312426476237999
 20
0.501985669255432
 30
0
 11
4.304326476237999
 21
0.5049856692554321
 31
0
  0
LINE
  8
0
 62
7
 10
4.304326476237999
 20
0.5049856692554321
 30
0
 11
4.288126476237999
 21
0.5049856692554321
 31
0
  0
LINE
  8
0
 62
7
 10
4.288126476237999
 20
0.5049856692554321
 30
0
 11
4.280026476237999
 21
0.501985669255432
 31
0
  0
LINE
  8
0
 62
7
 10
4.280026476237999
 20
0.501985669255432
 30
0
 11
4.271926476238
 21
0.495985669255432
 31
0
  0
LINE
  8
0
 62
7
 10
4.271926476238
 20
0.495985669255432
 30
0
 11
4.266526476238001
 21
0.4899856692554321
 31
0
  0
LINE
  8
0
 62
7
 10
4.266526476238001
 20
0.4899856692554321
 30
0
 11
4.261126476237999
 21
0.4809856692554321
 31
0
  0
LINE
  8
0
 62
7
 10
4.261126476237999
 20
0.4809856692554321
 30
0
 11
4.258426476237999
 21
0.4689856692554322
 31
0
  0
LINE
  8
0
 62
7
 10
4.258426476237999
 20
0.4689856692554322
 30
0
 11
4.258426476237999
 21
0.420985669255432
 31
0
  0
LINE
  8
0
 62
7
 10
4.258426476237999
 20
0.420985669255432
 30
0
 11
4.261126476237999
 21
0.4089856692554321
 31
0
  0
LINE
  8
0
 62
7
 10
4.261126476237999
 20
0.4089856692554321
 30
0
 11
4.266526476238001
 21
0.3999856692554321
 31
0
  0
LINE
  8
0
 62
7
 10
4.266526476238001
 20
0.3999856692554321
 30
0
 11
4.271926476238
 21
0.3939856692554321
 31
0
  0
LINE
  8
0
 62
7
 10
4.271926476238
 20
0.3939856692554321
 30
0
 11
4.280026476237999
 21
0.3879856692554322
 31
0
  0
LINE
  8
0
 62
7
 10
4.280026476237999
 20
0.3879856692554322
 30
0
 11
4.288126476237999
 21
0.384985669255432
 31
0
  0
LINE
  8
0
 62
7
 10
4.288126476237999
 20
0.384985669255432
 30
0
 11
4.304326476237999
 21
0.384985669255432
 31
0
  0
LINE
  8
0
 62
7
 10
4.304326476237999
 20
0.384985669255432
 30
0
 11
4.312426476237999
 21
0.3879856692554322
 31
0
  0
LINE
  8
0
 62
7
 10
4.312426476237999
 20
0.3879856692554322
 30
0
 11
4.320526476238
 21
0.3939856692554321
 31
0
  0
LINE
  8
0
 62
7
 10
4.320526476238
 20
0.3939856692554321
 30
0
 11
4.325926476237999
 21
0.3999856692554321
 31
0
  0
LINE
  8
0
 62
7
 10
4.325926476237999
 20
0.3999856692554321
 30
0
 11
4.331326476238
 21
0.4089856692554321
 31
0
  0
LINE
  8
0
 62
7
 10
4.331326476238
 20
0.4089856692554321
 30
0
 11
4.334026476238001
 21
0.420985669255432
 31
0
  0
LINE
  8
0
 62
7
 10
4.334026476238001
 20
0.420985669255432
 30
0
 11
4.334026476238001
 21
0.444985669255432
 31
0
  0
LINE
  8
0
 62
7
 10
4.334026476238001
 20
0.444985669255432
 30
0
 11
4.301626476237999
 21
0.444985669255432
 31
0
  0
LINE
  8
0
 62
7
 10
4.412326476237999
 20
0.5049856692554321
 30
0
 11
4.396126476237999
 21
0.5049856692554321
 31
0
  0
LINE
  8
0
 62
7
 10
4.396126476237999
 20
0.5049856692554321
 30
0
 11
4.388026476237999
 21
0.501985669255432
 31
0
  0
LINE
  8
0
 62
7
 10
4.388026476237999
 20
0.501985669255432
 30
0
 11
4.379926476237999
 21
0.495985669255432
 31
0
  0
LINE
  8
0
 62
7
 10
4.379926476237999
 20
0.495985669255432
 30
0
 11
4.374526476238
 21
0.4899856692554321
 31
0
  0
LINE
  8
0
 62
7
 10
4.374526476238
 20
0.4899856692554321
 30
0
 11
4.369126476237999
 21
0.4809856692554321
 31
0
  0
LINE
  8
0
 62
7
 10
4.369126476237999
 20
0.4809856692554321
 30
0
 11
4.366426476238
 21
0.4689856692554322
 31
0
  0
LINE
  8
0
 62
7
 10
4.366426476238
 20
0.4689856692554322
 30
0
 11
4.366426476238
 21
0.420985669255432
 31
0
  0
LINE
  8
0
 62
7
 10
4.366426476238
 20
0.420985669255432
 30
0
 11
4.369126476237999
 21
0.4089856692554321
 31
0
  0
LINE
  8
0
 62
7
 10
4.369126476237999
 20
0.4089856692554321
 30
0
 11
4.374526476238
 21
0.3999856692554321
 31
0
  0
LINE
  8
0
 62
7
 10
4.374526476238
 20
0.3999856692554321
 30
0
 11
4.379926476237999
 21
0.3939856692554321
 31
0
  0
LINE
  8
0
 62
7
 10
4.379926476237999
 20
0.3939856692554321
 30
0
 11
4.388026476237999
 21
0.3879856692554322
 31
0
  0
LINE
  8
0
 62
7
 10
4.388026476237999
 20
0.3879856692554322
 30
0
 11
4.396126476237999
 21
0.384985669255432
 31
0
  0
LINE
  8
0
 62
7
 10
4.396126476237999
 20
0.384985669255432
 30
0
 11
4.412326476237999
 21
0.384985669255432
 31
0
  0
LINE
  8
0
 62
7
 10
4.412326476237999
 20
0.384985669255432
 30
0
 11
4.420426476237999
 21
0.3879856692554322
 31
0
  0
LINE
  8
0
 62
7
 10
4.420426476237999
 20
0.3879856692554322
 30
0
 11
4.428526476238001
 21
0.3939856692554321
 31
0
  0
LINE
  8
0
 62
7
 10
4.428526476238001
 20
0.3939856692554321
 30
0
 11
4.433926476237999
 21
0.3999856692554321
 31
0
  0
LINE
  8
0
 62
7
 10
4.433926476237999
 20
0.3999856692554321
 30
0
 11
4.439326476237999
 21
0.4089856692554321
 31
0
  0
LINE
  8
0
 62
7
 10
4.439326476237999
 20
0.4089856692554321
 30
0
 11
4.442026476238
 21
0.420985669255432
 31
0
  0
LINE
  8
0
 62
7
 10
4.442026476238
 20
0.420985669255432
 30
0
 11
4.442026476238
 21
0.4689856692554322
 31
0
  0
LINE
  8
0
 62
7
 10
4.442026476238
 20
0.4689856692554322
 30
0
 11
4.439326476237999
 21
0.4809856692554321
 31
0
  0
LINE
  8
0
 62
7
 10
4.439326476237999
 20
0.4809856692554321
 30
0
 11
4.433926476237999
 21
0.4899856692554321
 31
0
  0
LINE
  8
0
 62
7
 10
4.433926476237999
 20
0.4899856692554321
 30
0
 11
4.428526476238001
 21
0.495985669255432
 31
0
  0
LINE
  8
0
 62
7
 10
4.428526476238001
 20
0.495985669255432
 30
0
 11
4.420426476237999
 21
0.501985669255432
 31
0
  0
LINE
  8
0
 62
7
 10
4.420426476237999
 20
0.501985669255432
 30
0
 11
4.412326476237999
 21
0.5049856692554321
 31
0
  0
LINE
  8
0
 62
7
 10
4.463626476237999
 20
0.5049856692554321
 30
0
 11
4.501426476237999
 21
0.5049856692554321
 31
0
  0
LINE
  8
0
 62
7
 10
4.501426476237999
 20
0.5049856692554321
 30
0
 11
4.501426476237999
 21
0.384985669255432
 31
0
  0
LINE
  8
0
 62
7
 10
4.501426476237999
 20
0.5049856692554321
 30
0
 11
4.539226476237999
 21
0.5049856692554321
 31
0
  0
LINE
  8
0
 62
7
 10
4.571626476237999
 20
0.5049856692554321
 30
0
 11
4.609426476237999
 21
0.5049856692554321
 31
0
  0
LINE
  8
0
 62
7
 10
4.609426476237999
 20
0.5049856692554321
 30
0
 11
4.609426476237999
 21
0.384985669255432
 31
0
  0
LINE
  8
0
 62
7
 10
4.609426476237999
 20
0.5049856692554321
 30
0
 11
4.647226476238
 21
0.5049856692554321
 31
0
  0
LINE
  8
0
 62
7
 10
4.766026476237998
 20
0.426985669255432
 30
0
 11
4.820026476237999
 21
0.426985669255432
 31
0
  0
LINE
  8
0
 62
7
 10
4.928026476237999
 20
0.5049856692554321
 30
0
 11
4.965826476238
 21
0.5049856692554321
 31
0
  0
LINE
  8
0
 62
7
 10
4.965826476238
 20
0.5049856692554321
 30
0
 11
4.965826476238
 21
0.384985669255432
 31
0
  0
LINE
  8
0
 62
7
 10
4.965826476238
 20
0.5049856692554321
 30
0
 11
5.003626476237999
 21
0.5049856692554321
 31
0
  0
LINE
  8
0
 62
7
 10
5.036026476237998
 20
0.384985669255432
 30
0
 11
5.036026476237998
 21
0.5049856692554321
 31
0
  0
LINE
  8
0
 62
7
 10
5.036026476237998
 20
0.5049856692554321
 30
0
 11
5.087326476237999
 21
0.5049856692554321
 31
0
  0
LINE
  8
0
 62
7
 10
5.087326476237999
 20
0.5049856692554321
 30
0
 11
5.098126476237999
 21
0.501985669255432
 31
0
  0
LINE
  8
0
 62
7
 10
5.098126476237999
 20
0.501985669255432
 30
0
 11
5.106226476237999
 21
0.495985669255432
 31
0
  0
LINE
  8
0
 62
7
 10
5.106226476237999
 20
0.495985669255432
 30
0
 11
5.108926476237999
 21
0.4899856692554321
 31
0
  0
LINE
  8
0
 62
7
 10
5.108926476237999
 20
0.4899856692554321
 30
0
 11
5.111626476237999
 21
0.4809856692554321
 31
0
  0
LINE
  8
0
 62
7
 10
5.111626476237999
 20
0.4809856692554321
 30
0
 11
5.111626476237999
 21
0.4689856692554322
 31
0
  0
LINE
  8
0
 62
7
 10
5.111626476237999
 20
0.4689856692554322
 30
0
 11
5.108926476237999
 21
0.4599856692554321
 31
0
  0
LINE
  8
0
 62
7
 10
5.108926476237999
 20
0.4599856692554321
 30
0
 11
5.106226476237999
 21
0.4539856692554321
 31
0
  0
LINE
  8
0
 62
7
 10
5.106226476237999
 20
0.4539856692554321
 30
0
 11
5.098126476237999
 21
0.4479856692554322
 31
0
  0
LINE
  8
0
 62
7
 10
5.098126476237999
 20
0.4479856692554322
 30
0
 11
5.087326476237999
 21
0.444985669255432
 31
0
  0
LINE
  8
0
 62
7
 10
5.087326476237999
 20
0.444985669255432
 30
0
 11
5.079226476237999
 21
0.444985669255432
 31
0
  0
LINE
  8
0
 62
7
 10
5.079226476237999
 20
0.444985669255432
 30
0
 11
5.111626476237999
 21
0.384985669255432
 31
0
  0
LINE
  8
0
 62
7
 10
5.079226476237999
 20
0.444985669255432
 30
0
 11
5.036026476237998
 21
0.444985669255432
 31
0
  0
LINE
  8
0
 62
7
 10
5.208826476237999
 20
0.5049856692554321
 30
0
 11
5.133226476237999
 21
0.5049856692554321
 31
0
  0
LINE
  8
0
 62
7
 10
5.133226476237999
 20
0.5049856692554321
 30
0
 11
5.133226476237999
 21
0.444985669255432
 31
0
  0
LINE
  8
0
 62
7
 10
5.133226476237999
 20
0.384985669255432
 30
0
 11
5.208826476237999
 21
0.384985669255432
 31
0
  0
LINE
  8
0
 62
7
 10
5.198026476238
 20
0.444985669255432
 30
0
 11
5.133226476237999
 21
0.444985669255432
 31
0
  0
LINE
  8
0
 62
7
 10
5.133226476237999
 20
0.444985669255432
 30
0
 11
5.133226476237999
 21
0.384985669255432
 31
0
  0
LINE
  8
0
 62
7
 10
5.241226476237999
 20
0.384985669255432
 30
0
 11
5.241226476237999
 21
0.444985669255432
 31
0
  0
LINE
  8
0
 62
7
 10
5.241226476237999
 20
0.5049856692554321
 30
0
 11
5.292526476237999
 21
0.5049856692554321
 31
0
  0
LINE
  8
0
 62
7
 10
5.292526476237999
 20
0.5049856692554321
 30
0
 11
5.303326476237999
 21
0.501985669255432
 31
0
  0
LINE
  8
0
 62
7
 10
5.303326476237999
 20
0.501985669255432
 30
0
 11
5.311426476237998
 21
0.495985669255432
 31
0
  0
LINE
  8
0
 62
7
 10
5.311426476237998
 20
0.495985669255432
 30
0
 11
5.314126476237998
 21
0.4899856692554321
 31
0
  0
LINE
  8
0
 62
7
 10
5.314126476237998
 20
0.4899856692554321
 30
0
 11
5.316826476237999
 21
0.4809856692554321
 31
0
  0
LINE
  8
0
 62
7
 10
5.316826476237999
 20
0.4809856692554321
 30
0
 11
5.316826476237999
 21
0.4689856692554322
 31
0
  0
LINE
  8
0
 62
7
 10
5.316826476237999
 20
0.4689856692554322
 30
0
 11
5.314126476237998
 21
0.4599856692554321
 31
0
  0
LINE
  8
0
 62
7
 10
5.314126476237998
 20
0.4599856692554321
 30
0
 11
5.311426476237998
 21
0.4539856692554321
 31
0
  0
LINE
  8
0
 62
7
 10
5.311426476237998
 20
0.4539856692554321
 30
0
 11
5.303326476237999
 21
0.4479856692554322
 31
0
  0
LINE
  8
0
 62
7
 10
5.303326476237999
 20
0.4479856692554322
 30
0
 11
5.292526476237999
 21
0.444985669255432
 31
0
  0
LINE
  8
0
 62
7
 10
5.292526476237999
 20
0.444985669255432
 30
0
 11
5.241226476237999
 21
0.444985669255432
 31
0
  0
LINE
  8
0
 62
7
 10
5.241226476237999
 20
0.444985669255432
 30
0
 11
5.241226476237999
 21
0.5049856692554321
 31
0
  0
LINE
  8
0
 62
7
 10
5.338426476238
 20
0.384985669255432
 30
0
 11
5.338426476238
 21
0.444985669255432
 31
0
  0
LINE
  8
0
 62
7
 10
5.338426476238
 20
0.5049856692554321
 30
0
 11
5.389726476238001
 21
0.5049856692554321
 31
0
  0
LINE
  8
0
 62
7
 10
5.389726476238001
 20
0.5049856692554321
 30
0
 11
5.400526476238
 21
0.501985669255432
 31
0
  0
LINE
  8
0
 62
7
 10
5.400526476238
 20
0.501985669255432
 30
0
 11
5.408626476238
 21
0.495985669255432
 31
0
  0
LINE
  8
0
 62
7
 10
5.408626476238
 20
0.495985669255432
 30
0
 11
5.411326476238
 21
0.4899856692554321
 31
0
  0
LINE
  8
0
 62
7
 10
5.411326476238
 20
0.4899856692554321
 30
0
 11
5.414026476238
 21
0.4809856692554321
 31
0
  0
LINE
  8
0
 62
7
 10
5.414026476238
 20
0.4809856692554321
 30
0
 11
5.414026476238
 21
0.4689856692554322
 31
0
  0
LINE
  8
0
 62
7
 10
5.414026476238
 20
0.4689856692554322
 30
0
 11
5.411326476238
 21
0.4599856692554321
 31
0
  0
LINE
  8
0
 62
7
 10
5.411326476238
 20
0.4599856692554321
 30
0
 11
5.408626476238
 21
0.4539856692554321
 31
0
  0
LINE
  8
0
 62
7
 10
5.408626476238
 20
0.4539856692554321
 30
0
 11
5.400526476238
 21
0.4479856692554322
 31
0
  0
LINE
  8
0
 62
7
 10
5.400526476238
 20
0.4479856692554322
 30
0
 11
5.389726476238001
 21
0.444985669255432
 31
0
  0
LINE
  8
0
 62
7
 10
5.389726476238001
 20
0.444985669255432
 30
0
 11
5.338426476238
 21
0.444985669255432
 31
0
  0
LINE
  8
0
 62
7
 10
5.338426476238
 20
0.444985669255432
 30
0
 11
5.338426476238
 21
0.5049856692554321
 31
0
  0
LINE
  8
0
 62
7
 10
5.511226476238
 20
0.5049856692554321
 30
0
 11
5.435626476237999
 21
0.5049856692554321
 31
0
  0
LINE
  8
0
 62
7
 10
5.435626476237999
 20
0.5049856692554321
 30
0
 11
5.435626476237999
 21
0.444985669255432
 31
0
  0
LINE
  8
0
 62
7
 10
5.435626476237999
 20
0.384985669255432
 30
0
 11
5.511226476238
 21
0.384985669255432
 31
0
  0
LINE
  8
0
 62
7
 10
5.500426476237999
 20
0.444985669255432
 30
0
 11
5.435626476237999
 21
0.444985669255432
 31
0
  0
LINE
  8
0
 62
7
 10
5.435626476237999
 20
0.444985669255432
 30
0
 11
5.435626476237999
 21
0.384985669255432
 31
0
  0
LINE
  8
0
 62
7
 10
1.7
 20
-0.08000000000000043
 30
0
 11
1.7756
 21
-0.08000000000000043
 31
0
  0
LINE
  8
0
 62
7
 10
1.7756
 20
-0.08000000000000043
 30
0
 11
1.7
 21
-0.2000000000000004
 31
0
  0
LINE
  8
0
 62
7
 10
1.7
 20
-0.2000000000000004
 30
0
 11
1.7756
 21
-0.2000000000000004
 31
0
  0
LINE
  8
0
 62
7
 10
1.8809
 20
-0.09200000000000044
 30
0
 11
1.8728
 21
-0.08600000000000044
 31
0
  0
LINE
  8
0
 62
7
 10
1.8728
 20
-0.08600000000000044
 30
0
 11
1.8647
 21
-0.08300000000000043
 31
0
  0
LINE
  8
0
 62
7
 10
1.8647
 20
-0.08300000000000043
 30
0
 11
1.8512
 21
-0.08000000000000043
 31
0
  0
LINE
  8
0
 62
7
 10
1.8512
 20
-0.08000000000000043
 30
0
 11
1.8404
 21
-0.08000000000000043
 31
0
  0
LINE
  8
0
 62
7
 10
1.8404
 20
-0.08000000000000043
 30
0
 11
1.8296
 21
-0.08300000000000043
 31
0
  0
LINE
  8
0
 62
7
 10
1.8296
 20
-0.08300000000000043
 30
0
 11
1.8215
 21
-0.08600000000000044
 31
0
  0
LINE
  8
0
 62
7
 10
1.8215
 20
-0.08600000000000044
 30
0
 11
1.8134
 21
-0.09200000000000044
 31
0
  0
LINE
  8
0
 62
7
 10
1.8134
 20
-0.09200000000000044
 30
0
 11
1.8107
 21
-0.1010000000000004
 31
0
  0
LINE
  8
0
 62
7
 10
1.8107
 20
-0.1010000000000004
 30
0
 11
1.8107
 21
-0.1070000000000004
 31
0
  0
LINE
  8
0
 62
7
 10
1.8107
 20
-0.1070000000000004
 30
0
 11
1.8134
 21
-0.1160000000000004
 31
0
  0
LINE
  8
0
 62
7
 10
1.8134
 20
-0.1160000000000004
 30
0
 11
1.8215
 21
-0.1220000000000004
 31
0
  0
LINE
  8
0
 62
7
 10
1.8215
 20
-0.1220000000000004
 30
0
 11
1.8674
 21
-0.1430000000000004
 31
0
  0
LINE
  8
0
 62
7
 10
1.8674
 20
-0.1430000000000004
 30
0
 11
1.8755
 21
-0.1490000000000004
 31
0
  0
LINE
  8
0
 62
7
 10
1.8755
 20
-0.1490000000000004
 30
0
 11
1.8809
 21
-0.1580000000000004
 31
0
  0
LINE
  8
0
 62
7
 10
1.8809
 20
-0.1580000000000004
 30
0
 11
1.8836
 21
-0.1670000000000004
 31
0
  0
LINE
  8
0
 62
7
 10
1.8836
 20
-0.1670000000000004
 30
0
 11
1.8836
 21
-0.1730000000000004
 31
0
  0
LINE
  8
0
 62
7
 10
1.8836
 20
-0.1730000000000004
 30
0
 11
1.8809
 21
-0.1820000000000004
 31
0
  0
LINE
  8
0
 62
7
 10
1.8809
 20
-0.1820000000000004
 30
0
 11
1.8755
 21
-0.1910000000000004
 31
0
  0
LINE
  8
0
 62
7
 10
1.8755
 20
-0.1910000000000004
 30
0
 11
1.8674
 21
-0.1970000000000005
 31
0
  0
LINE
  8
0
 62
7
 10
1.8674
 20
-0.1970000000000005
 30
0
 11
1.8539
 21
-0.2000000000000004
 31
0
  0
LINE
  8
0
 62
7
 10
1.8539
 20
-0.2000000000000004
 30
0
 11
1.8377
 21
-0.2000000000000004
 31
0
  0
LINE
  8
0
 62
7
 10
1.8377
 20
-0.2000000000000004
 30
0
 11
1.8242
 21
-0.1970000000000005
 31
0
  0
LINE
  8
0
 62
7
 10
1.8242
 20
-0.1970000000000005
 30
0
 11
1.8134
 21
-0.1910000000000004
 31
0
  0
LINE
  8
0
 62
7
 10
1.8134
 20
-0.1910000000000004
 30
0
 11
1.808
 21
-0.1850000000000004
 31
0
  0
LINE
  8
0
 62
7
 10
1.9052
 20
-0.2000000000000004
 30
0
 11
1.9052
 21
-0.08000000000000043
 31
0
  0
LINE
  8
0
 62
7
 10
1.9052
 20
-0.08000000000000043
 30
0
 11
1.9565
 21
-0.08000000000000043
 31
0
  0
LINE
  8
0
 62
7
 10
1.9565
 20
-0.08000000000000043
 30
0
 11
1.9673
 21
-0.08300000000000043
 31
0
  0
LINE
  8
0
 62
7
 10
1.9673
 20
-0.08300000000000043
 30
0
 11
1.9754
 21
-0.08900000000000043
 31
0
  0
LINE
  8
0
 62
7
 10
1.9754
 20
-0.08900000000000043
 30
0
 11
1.9781
 21
-0.09500000000000043
 31
0
  0
LINE
  8
0
 62
7
 10
1.9781
 20
-0.09500000000000043
 30
0
 11
1.9808
 21
-0.1040000000000004
 31
0
  0
LINE
  8
0
 62
7
 10
1.9808
 20
-0.1040000000000004
 30
0
 11
1.9808
 21
-0.1160000000000004
 31
0
  0
LINE
  8
0
 62
7
 10
1.9808
 20
-0.1160000000000004
 30
0
 11
1.9781
 21
-0.1250000000000004
 31
0
  0
LINE
  8
0
 62
7
 10
1.9781
 20
-0.1250000000000004
 30
0
 11
1.9754
 21
-0.1310000000000004
 31
0
  0
LINE
  8
0
 62
7
 10
1.9754
 20
-0.1310000000000004
 30
0
 11
1.9673
 21
-0.1370000000000004
 31
0
  0
LINE
  8
0
 62
7
 10
1.9673
 20
-0.1370000000000004
 30
0
 11
1.9565
 21
-0.1400000000000004
 31
0
  0
LINE
  8
0
 62
7
 10
1.9565
 20
-0.1400000000000004
 30
0
 11
1.9484
 21
-0.1400000000000004
 31
0
  0
LINE
  8
0
 62
7
 10
1.9484
 20
-0.1400000000000004
 30
0
 11
1.9808
 21
-0.2000000000000004
 31
0
  0
LINE
  8
0
 62
7
 10
1.9484
 20
-0.1400000000000004
 30
0
 11
1.9052
 21
-0.1400000000000004
 31
0
  0
LINE
  8
0
 62
7
 10
2.0024
 20
-0.09800000000000043
 30
0
 11
2.0078
 21
-0.08900000000000043
 31
0
  0
LINE
  8
0
 62
7
 10
2.0078
 20
-0.08900000000000043
 30
0
 11
2.0159
 21
-0.08300000000000043
 31
0
  0
LINE
  8
0
 62
7
 10
2.0159
 20
-0.08300000000000043
 30
0
 11
2.0267
 21
-0.08000000000000043
 31
0
  0
LINE
  8
0
 62
7
 10
2.0267
 20
-0.08000000000000043
 30
0
 11
2.0429
 21
-0.08000000000000043
 31
0
  0
LINE
  8
0
 62
7
 10
2.0429
 20
-0.08000000000000043
 30
0
 11
2.0537
 21
-0.08300000000000043
 31
0
  0
LINE
  8
0
 62
7
 10
2.0537
 20
-0.08300000000000043
 30
0
 11
2.0618
 21
-0.08900000000000043
 31
0
  0
LINE
  8
0
 62
7
 10
2.0618
 20
-0.08900000000000043
 30
0
 11
2.0672
 21
-0.09800000000000043
 31
0
  0
LINE
  8
0
 62
7
 10
2.0672
 20
-0.09800000000000043
 30
0
 11
2.0672
 21
-0.1100000000000004
 31
0
  0
LINE
  8
0
 62
7
 10
2.0672
 20
-0.1100000000000004
 30
0
 11
2.0618
 21
-0.1220000000000004
 31
0
  0
LINE
  8
0
 62
7
 10
2.0618
 20
-0.1220000000000004
 30
0
 11
2.0024
 21
-0.2000000000000004
 31
0
  0
LINE
  8
0
 62
7
 10
2.0024
 20
-0.2000000000000004
 30
0
 11
2.0672
 21
-0.2000000000000004
 31
0
  0
LINE
  8
0
 62
7
 10
2.0996
 20
-0.1100000000000004
 30
0
 11
2.1023
 21
-0.09800000000000043
 31
0
  0
LINE
  8
0
 62
7
 10
2.1023
 20
-0.09800000000000043
 30
0
 11
2.1077
 21
-0.08900000000000043
 31
0
  0
LINE
  8
0
 62
7
 10
2.1077
 20
-0.08900000000000043
 30
0
 11
2.1158
 21
-0.08300000000000043
 31
0
  0
LINE
  8
0
 62
7
 10
2.1158
 20
-0.08300000000000043
 30
0
 11
2.1239
 21
-0.08000000000000043
 31
0
  0
LINE
  8
0
 62
7
 10
2.1239
 20
-0.08000000000000043
 30
0
 11
2.1401
 21
-0.08000000000000043
 31
0
  0
LINE
  8
0
 62
7
 10
2.1401
 20
-0.08000000000000043
 30
0
 11
2.1482
 21
-0.08300000000000043
 31
0
  0
LINE
  8
0
 62
7
 10
2.1482
 20
-0.08300000000000043
 30
0
 11
2.1563
 21
-0.08900000000000043
 31
0
  0
LINE
  8
0
 62
7
 10
2.1563
 20
-0.08900000000000043
 30
0
 11
2.1617
 21
-0.09800000000000043
 31
0
  0
LINE
  8
0
 62
7
 10
2.1617
 20
-0.09800000000000043
 30
0
 11
2.1644
 21
-0.1100000000000004
 31
0
  0
LINE
  8
0
 62
7
 10
2.1644
 20
-0.1100000000000004
 30
0
 11
2.1644
 21
-0.1700000000000004
 31
0
  0
LINE
  8
0
 62
7
 10
2.1644
 20
-0.1700000000000004
 30
0
 11
2.1617
 21
-0.1820000000000004
 31
0
  0
LINE
  8
0
 62
7
 10
2.1617
 20
-0.1820000000000004
 30
0
 11
2.1563
 21
-0.1910000000000004
 31
0
  0
LINE
  8
0
 62
7
 10
2.1563
 20
-0.1910000000000004
 30
0
 11
2.1482
 21
-0.1970000000000005
 31
0
  0
LINE
  8
0
 62
7
 10
2.1482
 20
-0.1970000000000005
 30
0
 11
2.1401
 21
-0.2000000000000004
 31
0
  0
LINE
  8
0
 62
7
 10
2.1401
 20
-0.2000000000000004
 30
0
 11
2.1239
 21
-0.2000000000000004
 31
0
  0
LINE
  8
0
 62
7
 10
2.1239
 20
-0.2000000000000004
 30
0
 11
2.1158
 21
-0.1970000000000005
 31
0
  0
LINE
  8
0
 62
7
 10
2.1158
 20
-0.1970000000000005
 30
0
 11
2.1077
 21
-0.1910000000000004
 31
0
  0
LINE
  8
0
 62
7
 10
2.1077
 20
-0.1910000000000004
 30
0
 11
2.1023
 21
-0.1820000000000004
 31
0
  0
LINE
  8
0
 62
7
 10
2.1023
 20
-0.1820000000000004
 30
0
 11
2.0996
 21
-0.1700000000000004
 31
0
  0
LINE
  8
0
 62
7
 10
2.0996
 20
-0.1700000000000004
 30
0
 11
2.0996
 21
-0.1100000000000004
 31
0
  0
LINE
  8
0
 62
7
 10
2.196800000000001
 20
-0.1100000000000004
 30
0
 11
2.1995
 21
-0.09800000000000043
 31
0
  0
LINE
  8
0
 62
7
 10
2.1995
 20
-0.09800000000000043
 30
0
 11
2.2049
 21
-0.08900000000000043
 31
0
  0
LINE
  8
0
 62
7
 10
2.2049
 20
-0.08900000000000043
 30
0
 11
2.213
 21
-0.08300000000000043
 31
0
  0
LINE
  8
0
 62
7
 10
2.213
 20
-0.08300000000000043
 30
0
 11
2.221100000000001
 21
-0.08000000000000043
 31
0
  0
LINE
  8
0
 62
7
 10
2.221100000000001
 20
-0.08000000000000043
 30
0
 11
2.2373
 21
-0.08000000000000043
 31
0
  0
LINE
  8
0
 62
7
 10
2.2373
 20
-0.08000000000000043
 30
0
 11
2.2454
 21
-0.08300000000000043
 31
0
  0
LINE
  8
0
 62
7
 10
2.2454
 20
-0.08300000000000043
 30
0
 11
2.2535
 21
-0.08900000000000043
 31
0
  0
LINE
  8
0
 62
7
 10
2.2535
 20
-0.08900000000000043
 30
0
 11
2.2589
 21
-0.09800000000000043
 31
0
  0
LINE
  8
0
 62
7
 10
2.2589
 20
-0.09800000000000043
 30
0
 11
2.261600000000001
 21
-0.1100000000000004
 31
0
  0
LINE
  8
0
 62
7
 10
2.261600000000001
 20
-0.1100000000000004
 30
0
 11
2.261600000000001
 21
-0.1700000000000004
 31
0
  0
LINE
  8
0
 62
7
 10
2.261600000000001
 20
-0.1700000000000004
 30
0
 11
2.2589
 21
-0.1820000000000004
 31
0
  0
LINE
  8
0
 62
7
 10
2.2589
 20
-0.1820000000000004
 30
0
 11
2.2535
 21
-0.1910000000000004
 31
0
  0
LINE
  8
0
 62
7
 10
2.2535
 20
-0.1910000000000004
 30
0
 11
2.2454
 21
-0.1970000000000005
 31
0
  0
LINE
  8
0
 62
7
 10
2.2454
 20
-0.1970000000000005
 30
0
 11
2.2373
 21
-0.2000000000000004
 31
0
  0
LINE
  8
0
 62
7
 10
2.2373
 20
-0.2000000000000004
 30
0
 11
2.221100000000001
 21
-0.2000000000000004
 31
0
  0
LINE
  8
0
 62
7
 10
2.221100000000001
 20
-0.2000000000000004
 30
0
 11
2.213
 21
-0.1970000000000005
 31
0
  0
LINE
  8
0
 62
7
 10
2.213
 20
-0.1970000000000005
 30
0
 11
2.2049
 21
-0.1910000000000004
 31
0
  0
LINE
  8
0
 62
7
 10
2.2049
 20
-0.1910000000000004
 30
0
 11
2.1995
 21
-0.1820000000000004
 31
0
  0
LINE
  8
0
 62
7
 10
2.1995
 20
-0.1820000000000004
 30
0
 11
2.196800000000001
 21
-0.1700000000000004
 31
0
  0
LINE
  8
0
 62
7
 10
2.196800000000001
 20
-0.1700000000000004
 30
0
 11
2.196800000000001
 21
-0.1100000000000004
 31
0
  0
LINE
  8
0
 62
7
 10
2.3588
 20
-0.2000000000000004
 30
0
 11
2.294
 21
-0.2000000000000004
 31
0
  0
LINE
  8
0
 62
7
 10
2.294
 20
-0.2000000000000004
 30
0
 11
2.294
 21
-0.08000000000000043
 31
0
  0
LINE
  8
0
 62
7
 10
2.4506
 20
-0.08000000000000043
 30
0
 11
2.3912
 21
-0.08000000000000043
 31
0
  0
LINE
  8
0
 62
7
 10
2.3912
 20
-0.08000000000000043
 30
0
 11
2.3912
 21
-0.1400000000000004
 31
0
  0
LINE
  8
0
 62
7
 10
2.3912
 20
-0.1400000000000004
 30
0
 11
2.3966
 21
-0.1310000000000004
 31
0
  0
LINE
  8
0
 62
7
 10
2.3966
 20
-0.1310000000000004
 30
0
 11
2.4047
 21
-0.1250000000000004
 31
0
  0
LINE
  8
0
 62
7
 10
2.4047
 20
-0.1250000000000004
 30
0
 11
2.4155
 21
-0.1220000000000004
 31
0
  0
LINE
  8
0
 62
7
 10
2.4155
 20
-0.1220000000000004
 30
0
 11
2.4317
 21
-0.1220000000000004
 31
0
  0
LINE
  8
0
 62
7
 10
2.4317
 20
-0.1220000000000004
 30
0
 11
2.4398
 21
-0.1250000000000004
 31
0
  0
LINE
  8
0
 62
7
 10
2.4398
 20
-0.1250000000000004
 30
0
 11
2.447900000000001
 21
-0.1310000000000004
 31
0
  0
LINE
  8
0
 62
7
 10
2.447900000000001
 20
-0.1310000000000004
 30
0
 11
2.4533
 21
-0.1400000000000004
 31
0
  0
LINE
  8
0
 62
7
 10
2.4533
 20
-0.1400000000000004
 30
0
 11
2.456
 21
-0.1520000000000004
 31
0
  0
LINE
  8
0
 62
7
 10
2.456
 20
-0.1520000000000004
 30
0
 11
2.456
 21
-0.1700000000000004
 31
0
  0
LINE
  8
0
 62
7
 10
2.456
 20
-0.1700000000000004
 30
0
 11
2.4533
 21
-0.1820000000000004
 31
0
  0
LINE
  8
0
 62
7
 10
2.4533
 20
-0.1820000000000004
 30
0
 11
2.447900000000001
 21
-0.1910000000000004
 31
0
  0
LINE
  8
0
 62
7
 10
2.447900000000001
 20
-0.1910000000000004
 30
0
 11
2.4398
 21
-0.1970000000000005
 31
0
  0
LINE
  8
0
 62
7
 10
2.4398
 20
-0.1970000000000005
 30
0
 11
2.4317
 21
-0.2000000000000004
 31
0
  0
LINE
  8
0
 62
7
 10
2.4317
 20
-0.2000000000000004
 30
0
 11
2.4155
 21
-0.2000000000000004
 31
0
  0
LINE
  8
0
 62
7
 10
2.4155
 20
-0.2000000000000004
 30
0
 11
2.4047
 21
-0.1970000000000005
 31
0
  0
LINE
  8
0
 62
7
 10
2.4047
 20
-0.1970000000000005
 30
0
 11
2.3966
 21
-0.1910000000000004
 31
0
  0
LINE
  8
0
 62
7
 10
2.3966
 20
-0.1910000000000004
 30
0
 11
2.3912
 21
-0.1820000000000004
 31
0
  0
LINE
  8
0
 62
7
 10
3.9
 20
-0.2000000000000004
 30
0
 11
3.9
 21
-0.1000000000000004
 31
0
  0
LINE
  8
0
 62
7
 10
3.9
 20
-0.1000000000000004
 30
0
 11
3.963000000000001
 21
-0.2000000000000004
 31
0
  0
LINE
  8
0
 62
7
 10
3.963000000000001
 20
-0.2000000000000004
 30
0
 11
3.963000000000001
 21
-0.1000000000000004
 31
0
  0
LINE
  8
0
 62
7
 10
4.044
 20
-0.2000000000000004
 30
0
 11
3.99
 21
-0.2000000000000004
 31
0
  0
LINE
  8
0
 62
7
 10
3.99
 20
-0.2000000000000004
 30
0
 11
3.99
 21
-0.1000000000000004
 31
0
  0
LINE
  8
0
 62
7
 10
4.071000000000001
 20
-0.1500000000000004
 30
0
 11
4.107
 21
-0.1500000000000004
 31
0
  0
LINE
  8
0
 62
7
 10
4.107
 20
-0.1500000000000004
 30
0
 11
4.1115
 21
-0.1500000000000004
 31
0
  0
LINE
  8
0
 62
7
 10
4.1115
 20
-0.1500000000000004
 30
0
 11
4.1205
 21
-0.1550000000000004
 31
0
  0
LINE
  8
0
 62
7
 10
4.1205
 20
-0.1550000000000004
 30
0
 11
4.125
 21
-0.1600000000000004
 31
0
  0
LINE
  8
0
 62
7
 10
4.125
 20
-0.1600000000000004
 30
0
 11
4.1295
 21
-0.1700000000000004
 31
0
  0
LINE
  8
0
 62
7
 10
4.1295
 20
-0.1700000000000004
 30
0
 11
4.1295
 21
-0.1800000000000004
 31
0
  0
LINE
  8
0
 62
7
 10
4.1295
 20
-0.1800000000000004
 30
0
 11
4.125
 21
-0.1900000000000004
 31
0
  0
LINE
  8
0
 62
7
 10
4.125
 20
-0.1900000000000004
 30
0
 11
4.1205
 21
-0.1950000000000004
 31
0
  0
LINE
  8
0
 62
7
 10
4.1205
 20
-0.1950000000000004
 30
0
 11
4.1115
 21
-0.2000000000000004
 31
0
  0
LINE
  8
0
 62
7
 10
4.1115
 20
-0.2000000000000004
 30
0
 11
4.071000000000001
 21
-0.2000000000000004
 31
0
  0
LINE
  8
0
 62
7
 10
4.071000000000001
 20
-0.2000000000000004
 30
0
 11
4.071000000000001
 21
-0.1500000000000004
 31
0
  0
LINE
  8
0
 62
7
 10
4.071000000000001
 20
-0.1000000000000004
 30
0
 11
4.10475
 21
-0.1000000000000004
 31
0
  0
LINE
  8
0
 62
7
 10
4.10475
 20
-0.1000000000000004
 30
0
 11
4.116000000000001
 21
-0.1025000000000004
 31
0
  0
LINE
  8
0
 62
7
 10
4.116000000000001
 20
-0.1025000000000004
 30
0
 11
4.12275
 21
-0.1100000000000004
 31
0
  0
LINE
  8
0
 62
7
 10
4.12275
 20
-0.1100000000000004
 30
0
 11
4.125
 21
-0.1200000000000004
 31
0
  0
LINE
  8
0
 62
7
 10
4.125
 20
-0.1200000000000004
 30
0
 11
4.125
 21
-0.1300000000000004
 31
0
  0
LINE
  8
0
 62
7
 10
4.125
 20
-0.1300000000000004
 30
0
 11
4.1205
 21
-0.1400000000000004
 31
0
  0
LINE
  8
0
 62
7
 10
4.1205
 20
-0.1400000000000004
 30
0
 11
4.11375
 21
-0.1475000000000004
 31
0
  0
LINE
  8
0
 62
7
 10
4.11375
 20
-0.1475000000000004
 30
0
 11
4.107
 21
-0.1500000000000004
 31
0
  0
LINE
  8
0
 62
7
 10
4.071000000000001
 20
-0.1500000000000004
 30
0
 11
4.071000000000001
 21
-0.1000000000000004
 31
0
  0
LINE
  8
0
 62
7
 10
4.27125
 20
-0.1475000000000004
 30
0
 11
4.264500000000001
 21
-0.1375000000000004
 31
0
  0
LINE
  8
0
 62
7
 10
4.264500000000001
 20
-0.1375000000000004
 30
0
 11
4.257750000000001
 21
-0.1325000000000004
 31
0
  0
LINE
  8
0
 62
7
 10
4.257750000000001
 20
-0.1325000000000004
 30
0
 11
4.251
 21
-0.1300000000000004
 31
0
  0
LINE
  8
0
 62
7
 10
4.251
 20
-0.1300000000000004
 30
0
 11
4.242
 21
-0.1300000000000004
 31
0
  0
LINE
  8
0
 62
7
 10
4.242
 20
-0.1300000000000004
 30
0
 11
4.23525
 21
-0.1325000000000004
 31
0
  0
LINE
  8
0
 62
7
 10
4.23525
 20
-0.1325000000000004
 30
0
 11
4.2285
 21
-0.1375000000000004
 31
0
  0
LINE
  8
0
 62
7
 10
4.2285
 20
-0.1375000000000004
 30
0
 11
4.22175
 21
-0.1475000000000004
 31
0
  0
LINE
  8
0
 62
7
 10
4.22175
 20
-0.1475000000000004
 30
0
 11
4.2195
 21
-0.1550000000000004
 31
0
  0
LINE
  8
0
 62
7
 10
4.2195
 20
-0.1550000000000004
 30
0
 11
4.2195
 21
-0.1750000000000004
 31
0
  0
LINE
  8
0
 62
7
 10
4.2195
 20
-0.1750000000000004
 30
0
 11
4.22175
 21
-0.1825000000000004
 31
0
  0
LINE
  8
0
 62
7
 10
4.22175
 20
-0.1825000000000004
 30
0
 11
4.2285
 21
-0.1925000000000004
 31
0
  0
LINE
  8
0
 62
7
 10
4.2285
 20
-0.1925000000000004
 30
0
 11
4.23525
 21
-0.1975000000000004
 31
0
  0
LINE
  8
0
 62
7
 10
4.23525
 20
-0.1975000000000004
 30
0
 11
4.242
 21
-0.2000000000000004
 31
0
  0
LINE
  8
0
 62
7
 10
4.242
 20
-0.2000000000000004
 30
0
 11
4.251
 21
-0.2000000000000004
 31
0
  0
LINE
  8
0
 62
7
 10
4.251
 20
-0.2000000000000004
 30
0
 11
4.257750000000001
 21
-0.1975000000000004
 31
0
  0
LINE
  8
0
 62
7
 10
4.257750000000001
 20
-0.1975000000000004
 30
0
 11
4.264500000000001
 21
-0.1925000000000004
 31
0
  0
LINE
  8
0
 62
7
 10
4.264500000000001
 20
-0.1925000000000004
 30
0
 11
4.27125
 21
-0.1825000000000004
 31
0
  0
LINE
  8
0
 62
7
 10
4.34325
 20
-0.1550000000000004
 30
0
 11
4.341
 21
-0.1475000000000004
 31
0
  0
LINE
  8
0
 62
7
 10
4.341
 20
-0.1475000000000004
 30
0
 11
4.33425
 21
-0.1375000000000004
 31
0
  0
LINE
  8
0
 62
7
 10
4.33425
 20
-0.1375000000000004
 30
0
 11
4.3275
 21
-0.1325000000000004
 31
0
  0
LINE
  8
0
 62
7
 10
4.3275
 20
-0.1325000000000004
 30
0
 11
4.32075
 21
-0.1300000000000004
 31
0
  0
LINE
  8
0
 62
7
 10
4.32075
 20
-0.1300000000000004
 30
0
 11
4.31175
 21
-0.1300000000000004
 31
0
  0
LINE
  8
0
 62
7
 10
4.31175
 20
-0.1300000000000004
 30
0
 11
4.305000000000001
 21
-0.1325000000000004
 31
0
  0
LINE
  8
0
 62
7
 10
4.305000000000001
 20
-0.1325000000000004
 30
0
 11
4.29825
 21
-0.1375000000000004
 31
0
  0
LINE
  8
0
 62
7
 10
4.29825
 20
-0.1375000000000004
 30
0
 11
4.2915
 21
-0.1475000000000004
 31
0
  0
LINE
  8
0
 62
7
 10
4.2915
 20
-0.1475000000000004
 30
0
 11
4.28925
 21
-0.1550000000000004
 31
0
  0
LINE
  8
0
 62
7
 10
4.28925
 20
-0.1550000000000004
 30
0
 11
4.28925
 21
-0.1750000000000004
 31
0
  0
LINE
  8
0
 62
7
 10
4.28925
 20
-0.1750000000000004
 30
0
 11
4.2915
 21
-0.1825000000000004
 31
0
  0
LINE
  8
0
 62
7
 10
4.2915
 20
-0.1825000000000004
 30
0
 11
4.29825
 21
-0.1925000000000004
 31
0
  0
LINE
  8
0
 62
7
 10
4.29825
 20
-0.1925000000000004
 30
0
 11
4.305000000000001
 21
-0.1975000000000004
 31
0
  0
LINE
  8
0
 62
7
 10
4.305000000000001
 20
-0.1975000000000004
 30
0
 11
4.31175
 21
-0.2000000000000004
 31
0
  0
LINE
  8
0
 62
7
 10
4.31175
 20
-0.2000000000000004
 30
0
 11
4.32075
 21
-0.2000000000000004
 31
0
  0
LINE
  8
0
 62
7
 10
4.32075
 20
-0.2000000000000004
 30
0
 11
4.3275
 21
-0.1975000000000004
 31
0
  0
LINE
  8
0
 62
7
 10
4.3275
 20
-0.1975000000000004
 30
0
 11
4.33425
 21
-0.1925000000000004
 31
0
  0
LINE
  8
0
 62
7
 10
4.33425
 20
-0.1925000000000004
 30
0
 11
4.341
 21
-0.1825000000000004
 31
0
  0
LINE
  8
0
 62
7
 10
4.341
 20
-0.1825000000000004
 30
0
 11
4.34325
 21
-0.1750000000000004
 31
0
  0
LINE
  8
0
 62
7
 10
4.34325
 20
-0.1300000000000004
 30
0
 11
4.34325
 21
-0.1550000000000004
 31
0
  0
LINE
  8
0
 62
7
 10
4.34325
 20
-0.1975000000000004
 30
0
 11
4.3455
 21
-0.2000000000000004
 31
0
  0
LINE
  8
0
 62
7
 10
4.3455
 20
-0.2000000000000004
 30
0
 11
4.34775
 21
-0.2000000000000004
 31
0
  0
LINE
  8
0
 62
7
 10
4.34325
 20
-0.1750000000000004
 30
0
 11
4.34325
 21
-0.1975000000000004
 31
0
  0
LINE
  8
0
 62
7
 10
4.34325
 20
-0.1550000000000004
 30
0
 11
4.34325
 21
-0.1750000000000004
 31
0
  0
LINE
  8
0
 62
7
 10
4.36575
 20
-0.2000000000000004
 30
0
 11
4.36575
 21
-0.1975000000000004
 31
0
  0
LINE
  8
0
 62
7
 10
4.36575
 20
-0.1975000000000004
 30
0
 11
4.368
 21
-0.1975000000000004
 31
0
  0
LINE
  8
0
 62
7
 10
4.368
 20
-0.1975000000000004
 30
0
 11
4.368
 21
-0.2000000000000004
 31
0
  0
LINE
  8
0
 62
7
 10
4.368
 20
-0.2000000000000004
 30
0
 11
4.36575
 21
-0.2000000000000004
 31
0
  0
LINE
  8
0
 62
7
 10
4.491750000000001
 20
-0.1000000000000004
 30
0
 11
4.50075
 21
-0.1000000000000004
 31
0
  0
LINE
  8
0
 62
7
 10
4.50075
 20
-0.1000000000000004
 30
0
 11
4.5075
 21
-0.1025000000000004
 31
0
  0
LINE
  8
0
 62
7
 10
4.5075
 20
-0.1025000000000004
 30
0
 11
4.512
 21
-0.1075000000000004
 31
0
  0
LINE
  8
0
 62
7
 10
4.512
 20
-0.1075000000000004
 30
0
 11
4.5165
 21
-0.1150000000000004
 31
0
  0
LINE
  8
0
 62
7
 10
4.5165
 20
-0.1150000000000004
 30
0
 11
4.5165
 21
-0.1250000000000004
 31
0
  0
LINE
  8
0
 62
7
 10
4.5165
 20
-0.1250000000000004
 30
0
 11
4.51425
 21
-0.1300000000000004
 31
0
  0
LINE
  8
0
 62
7
 10
4.51425
 20
-0.1300000000000004
 30
0
 11
4.5075
 21
-0.1375000000000004
 31
0
  0
LINE
  8
0
 62
7
 10
4.5075
 20
-0.1375000000000004
 30
0
 11
4.50075
 21
-0.1400000000000004
 31
0
  0
LINE
  8
0
 62
7
 10
4.50075
 20
-0.1400000000000004
 30
0
 11
4.491750000000001
 21
-0.1400000000000004
 31
0
  0
LINE
  8
0
 62
7
 10
4.491750000000001
 20
-0.1400000000000004
 30
0
 11
4.485
 21
-0.1375000000000004
 31
0
  0
LINE
  8
0
 62
7
 10
4.485
 20
-0.1375000000000004
 30
0
 11
4.47825
 21
-0.1300000000000004
 31
0
  0
LINE
  8
0
 62
7
 10
4.47825
 20
-0.1300000000000004
 30
0
 11
4.476
 21
-0.1250000000000004
 31
0
  0
LINE
  8
0
 62
7
 10
4.476
 20
-0.1250000000000004
 30
0
 11
4.476
 21
-0.1150000000000004
 31
0
  0
LINE
  8
0
 62
7
 10
4.476
 20
-0.1150000000000004
 30
0
 11
4.4805
 21
-0.1075000000000004
 31
0
  0
LINE
  8
0
 62
7
 10
4.4805
 20
-0.1075000000000004
 30
0
 11
4.485
 21
-0.1025000000000004
 31
0
  0
LINE
  8
0
 62
7
 10
4.485
 20
-0.1025000000000004
 30
0
 11
4.491750000000001
 21
-0.1000000000000004
 31
0
  0
LINE
  8
0
 62
7
 10
4.491750000000001
 20
-0.1400000000000004
 30
0
 11
4.4805
 21
-0.1450000000000004
 31
0
  0
LINE
  8
0
 62
7
 10
4.4805
 20
-0.1450000000000004
 30
0
 11
4.473750000000001
 21
-0.1525000000000004
 31
0
  0
LINE
  8
0
 62
7
 10
4.473750000000001
 20
-0.1525000000000004
 30
0
 11
4.469250000000001
 21
-0.1625000000000004
 31
0
  0
LINE
  8
0
 62
7
 10
4.469250000000001
 20
-0.1625000000000004
 30
0
 11
4.469250000000001
 21
-0.1775000000000004
 31
0
  0
LINE
  8
0
 62
7
 10
4.469250000000001
 20
-0.1775000000000004
 30
0
 11
4.473750000000001
 21
-0.1875000000000004
 31
0
  0
LINE
  8
0
 62
7
 10
4.473750000000001
 20
-0.1875000000000004
 30
0
 11
4.4805
 21
-0.1950000000000004
 31
0
  0
LINE
  8
0
 62
7
 10
4.4805
 20
-0.1950000000000004
 30
0
 11
4.4895
 21
-0.2000000000000004
 31
0
  0
LINE
  8
0
 62
7
 10
4.4895
 20
-0.2000000000000004
 30
0
 11
4.503
 21
-0.2000000000000004
 31
0
  0
LINE
  8
0
 62
7
 10
4.503
 20
-0.2000000000000004
 30
0
 11
4.512
 21
-0.1950000000000004
 31
0
  0
LINE
  8
0
 62
7
 10
4.512
 20
-0.1950000000000004
 30
0
 11
4.51875
 21
-0.1875000000000004
 31
0
  0
LINE
  8
0
 62
7
 10
4.51875
 20
-0.1875000000000004
 30
0
 11
4.52325
 21
-0.1775000000000004
 31
0
  0
LINE
  8
0
 62
7
 10
4.52325
 20
-0.1775000000000004
 30
0
 11
4.52325
 21
-0.1625000000000004
 31
0
  0
LINE
  8
0
 62
7
 10
4.52325
 20
-0.1625000000000004
 30
0
 11
4.51875
 21
-0.1525000000000004
 31
0
  0
LINE
  8
0
 62
7
 10
4.51875
 20
-0.1525000000000004
 30
0
 11
4.512
 21
-0.1450000000000004
 31
0
  0
LINE
  8
0
 62
7
 10
4.512
 20
-0.1450000000000004
 30
0
 11
4.50075
 21
-0.1400000000000004
 31
0
  0
LINE
  8
0
 62
7
 10
4.55925
 20
-0.1250000000000004
 30
0
 11
4.561500000000001
 21
-0.1150000000000004
 31
0
  0
LINE
  8
0
 62
7
 10
4.561500000000001
 20
-0.1150000000000004
 30
0
 11
4.566000000000001
 21
-0.1075000000000004
 31
0
  0
LINE
  8
0
 62
7
 10
4.566000000000001
 20
-0.1075000000000004
 30
0
 11
4.57275
 21
-0.1025000000000004
 31
0
  0
LINE
  8
0
 62
7
 10
4.57275
 20
-0.1025000000000004
 30
0
 11
4.5795
 21
-0.1000000000000004
 31
0
  0
LINE
  8
0
 62
7
 10
4.5795
 20
-0.1000000000000004
 30
0
 11
4.593
 21
-0.1000000000000004
 31
0
  0
LINE
  8
0
 62
7
 10
4.593
 20
-0.1000000000000004
 30
0
 11
4.59975
 21
-0.1025000000000004
 31
0
  0
LINE
  8
0
 62
7
 10
4.59975
 20
-0.1025000000000004
 30
0
 11
4.6065
 21
-0.1075000000000004
 31
0
  0
LINE
  8
0
 62
7
 10
4.6065
 20
-0.1075000000000004
 30
0
 11
4.611
 21
-0.1150000000000004
 31
0
  0
LINE
  8
0
 62
7
 10
4.611
 20
-0.1150000000000004
 30
0
 11
4.61325
 21
-0.1250000000000004
 31
0
  0
LINE
  8
0
 62
7
 10
4.61325
 20
-0.1250000000000004
 30
0
 11
4.61325
 21
-0.1750000000000004
 31
0
  0
LINE
  8
0
 62
7
 10
4.61325
 20
-0.1750000000000004
 30
0
 11
4.611
 21
-0.1850000000000004
 31
0
  0
LINE
  8
0
 62
7
 10
4.611
 20
-0.1850000000000004
 30
0
 11
4.6065
 21
-0.1925000000000004
 31
0
  0
LINE
  8
0
 62
7
 10
4.6065
 20
-0.1925000000000004
 30
0
 11
4.59975
 21
-0.1975000000000004
 31
0
  0
LINE
  8
0
 62
7
 10
4.59975
 20
-0.1975000000000004
 30
0
 11
4.593
 21
-0.2000000000000004
 31
0
  0
LINE
  8
0
 62
7
 10
4.593
 20
-0.2000000000000004
 30
0
 11
4.5795
 21
-0.2000000000000004
 31
0
  0
LINE
  8
0
 62
7
 10
4.5795
 20
-0.2000000000000004
 30
0
 11
4.57275
 21
-0.1975000000000004
 31
0
  0
LINE
  8
0
 62
7
 10
4.57275
 20
-0.1975000000000004
 30
0
 11
4.566000000000001
 21
-0.1925000000000004
 31
0
  0
LINE
  8
0
 62
7
 10
4.566000000000001
 20
-0.1925000000000004
 30
0
 11
4.561500000000001
 21
-0.1850000000000004
 31
0
  0
LINE
  8
0
 62
7
 10
4.561500000000001
 20
-0.1850000000000004
 30
0
 11
4.55925
 21
-0.1750000000000004
 31
0
  0
LINE
  8
0
 62
7
 10
4.55925
 20
-0.1750000000000004
 30
0
 11
4.55925
 21
-0.1250000000000004
 31
0
  0
LINE
  8
0
 62
7
 10
4.764
 20
-0.1475000000000004
 30
0
 11
4.75725
 21
-0.1375000000000004
 31
0
  0
LINE
  8
0
 62
7
 10
4.75725
 20
-0.1375000000000004
 30
0
 11
4.750500000000001
 21
-0.1325000000000004
 31
0
  0
LINE
  8
0
 62
7
 10
4.750500000000001
 20
-0.1325000000000004
 30
0
 11
4.74375
 21
-0.1300000000000004
 31
0
  0
LINE
  8
0
 62
7
 10
4.74375
 20
-0.1300000000000004
 30
0
 11
4.734750000000001
 21
-0.1300000000000004
 31
0
  0
LINE
  8
0
 62
7
 10
4.734750000000001
 20
-0.1300000000000004
 30
0
 11
4.728000000000001
 21
-0.1325000000000004
 31
0
  0
LINE
  8
0
 62
7
 10
4.728000000000001
 20
-0.1325000000000004
 30
0
 11
4.72125
 21
-0.1375000000000004
 31
0
  0
LINE
  8
0
 62
7
 10
4.72125
 20
-0.1375000000000004
 30
0
 11
4.7145
 21
-0.1475000000000004
 31
0
  0
LINE
  8
0
 62
7
 10
4.7145
 20
-0.1475000000000004
 30
0
 11
4.71225
 21
-0.1550000000000004
 31
0
  0
LINE
  8
0
 62
7
 10
4.71225
 20
-0.1550000000000004
 30
0
 11
4.71225
 21
-0.1750000000000004
 31
0
  0
LINE
  8
0
 62
7
 10
4.71225
 20
-0.1750000000000004
 30
0
 11
4.7145
 21
-0.1825000000000004
 31
0
  0
LINE
  8
0
 62
7
 10
4.7145
 20
-0.1825000000000004
 30
0
 11
4.72125
 21
-0.1925000000000004
 31
0
  0
LINE
  8
0
 62
7
 10
4.72125
 20
-0.1925000000000004
 30
0
 11
4.728000000000001
 21
-0.1975000000000004
 31
0
  0
LINE
  8
0
 62
7
 10
4.728000000000001
 20
-0.1975000000000004
 30
0
 11
4.734750000000001
 21
-0.2000000000000004
 31
0
  0
LINE
  8
0
 62
7
 10
4.734750000000001
 20
-0.2000000000000004
 30
0
 11
4.74375
 21
-0.2000000000000004
 31
0
  0
LINE
  8
0
 62
7
 10
4.74375
 20
-0.2000000000000004
 30
0
 11
4.750500000000001
 21
-0.1975000000000004
 31
0
  0
LINE
  8
0
 62
7
 10
4.750500000000001
 20
-0.1975000000000004
 30
0
 11
4.75725
 21
-0.1925000000000004
 31
0
  0
LINE
  8
0
 62
7
 10
4.75725
 20
-0.1925000000000004
 30
0
 11
4.764
 21
-0.1825000000000004
 31
0
  0
LINE
  8
0
 62
7
 10
4.822500000000001
 20
-0.1550000000000004
 30
0
 11
4.822500000000001
 21
-0.2000000000000004
 31
0
  0
LINE
  8
0
 62
7
 10
4.782
 20
-0.1300000000000004
 30
0
 11
4.782
 21
-0.1550000000000004
 31
0
  0
LINE
  8
0
 62
7
 10
4.782
 20
-0.2000000000000004
 30
0
 11
4.782
 21
-0.1550000000000004
 31
0
  0
LINE
  8
0
 62
7
 10
4.782
 20
-0.1550000000000004
 30
0
 11
4.78425
 21
-0.1425000000000004
 31
0
  0
LINE
  8
0
 62
7
 10
4.78425
 20
-0.1425000000000004
 30
0
 11
4.7865
 21
-0.1375000000000004
 31
0
  0
LINE
  8
0
 62
7
 10
4.7865
 20
-0.1375000000000004
 30
0
 11
4.791
 21
-0.1325000000000004
 31
0
  0
LINE
  8
0
 62
7
 10
4.791
 20
-0.1325000000000004
 30
0
 11
4.79775
 21
-0.1300000000000004
 31
0
  0
LINE
  8
0
 62
7
 10
4.79775
 20
-0.1300000000000004
 30
0
 11
4.806750000000001
 21
-0.1300000000000004
 31
0
  0
LINE
  8
0
 62
7
 10
4.806750000000001
 20
-0.1300000000000004
 30
0
 11
4.8135
 21
-0.1325000000000004
 31
0
  0
LINE
  8
0
 62
7
 10
4.8135
 20
-0.1325000000000004
 30
0
 11
4.818000000000001
 21
-0.1375000000000004
 31
0
  0
LINE
  8
0
 62
7
 10
4.818000000000001
 20
-0.1375000000000004
 30
0
 11
4.820250000000001
 21
-0.1425000000000004
 31
0
  0
LINE
  8
0
 62
7
 10
4.820250000000001
 20
-0.1425000000000004
 30
0
 11
4.822500000000001
 21
-0.1550000000000004
 31
0
  0
LINE
  8
0
 62
7
 10
4.822500000000001
 20
-0.1550000000000004
 30
0
 11
4.824750000000001
 21
-0.1425000000000004
 31
0
  0
LINE
  8
0
 62
7
 10
4.824750000000001
 20
-0.1425000000000004
 30
0
 11
4.827000000000001
 21
-0.1375000000000004
 31
0
  0
LINE
  8
0
 62
7
 10
4.827000000000001
 20
-0.1375000000000004
 30
0
 11
4.8315
 21
-0.1325000000000004
 31
0
  0
LINE
  8
0
 62
7
 10
4.8315
 20
-0.1325000000000004
 30
0
 11
4.83825
 21
-0.1300000000000004
 31
0
  0
LINE
  8
0
 62
7
 10
4.83825
 20
-0.1300000000000004
 30
0
 11
4.847250000000001
 21
-0.1300000000000004
 31
0
  0
LINE
  8
0
 62
7
 10
4.847250000000001
 20
-0.1300000000000004
 30
0
 11
4.854
 21
-0.1325000000000004
 31
0
  0
LINE
  8
0
 62
7
 10
4.8585
 20
-0.1375000000000004
 30
0
 11
4.854
 21
-0.1325000000000004
 31
0
  0
LINE
  8
0
 62
7
 10
4.854
 20
-0.1325000000000004
 30
0
 11
4.8585
 21
-0.1375000000000004
 31
0
  0
LINE
  8
0
 62
7
 10
4.8585
 20
-0.1375000000000004
 30
0
 11
4.86075
 21
-0.1425000000000004
 31
0
  0
LINE
  8
0
 62
7
 10
4.86075
 20
-0.1425000000000004
 30
0
 11
4.863
 21
-0.1550000000000004
 31
0
  0
LINE
  8
0
 62
7
 10
4.863
 20
-0.1550000000000004
 30
0
 11
4.863
 21
-0.2000000000000004
 31
0
  0
LINE
  8
0
 62
7
 10
4.953
 20
-0.1750000000000004
 30
0
 11
4.95525
 21
-0.1825000000000004
 31
0
  0
LINE
  8
0
 62
7
 10
4.95525
 20
-0.1825000000000004
 30
0
 11
4.962000000000001
 21
-0.1925000000000004
 31
0
  0
LINE
  8
0
 62
7
 10
4.962000000000001
 20
-0.1925000000000004
 30
0
 11
4.96875
 21
-0.1975000000000004
 31
0
  0
LINE
  8
0
 62
7
 10
4.96875
 20
-0.1975000000000004
 30
0
 11
4.9755
 21
-0.2000000000000004
 31
0
  0
LINE
  8
0
 62
7
 10
4.9755
 20
-0.2000000000000004
 30
0
 11
4.984500000000001
 21
-0.2000000000000004
 31
0
  0
LINE
  8
0
 62
7
 10
4.984500000000001
 20
-0.2000000000000004
 30
0
 11
4.991250000000001
 21
-0.1975000000000004
 31
0
  0
LINE
  8
0
 62
7
 10
4.991250000000001
 20
-0.1975000000000004
 30
0
 11
4.998000000000001
 21
-0.1925000000000004
 31
0
  0
LINE
  8
0
 62
7
 10
4.998000000000001
 20
-0.1925000000000004
 30
0
 11
5.00475
 21
-0.1825000000000004
 31
0
  0
LINE
  8
0
 62
7
 10
5.00475
 20
-0.1825000000000004
 30
0
 11
5.007000000000001
 21
-0.1750000000000004
 31
0
  0
LINE
  8
0
 62
7
 10
5.007000000000001
 20
-0.1750000000000004
 30
0
 11
5.007000000000001
 21
-0.1550000000000004
 31
0
  0
LINE
  8
0
 62
7
 10
5.007000000000001
 20
-0.1550000000000004
 30
0
 11
5.00475
 21
-0.1475000000000004
 31
0
  0
LINE
  8
0
 62
7
 10
5.00475
 20
-0.1475000000000004
 30
0
 11
4.998000000000001
 21
-0.1375000000000004
 31
0
  0
LINE
  8
0
 62
7
 10
4.998000000000001
 20
-0.1375000000000004
 30
0
 11
4.991250000000001
 21
-0.1325000000000004
 31
0
  0
LINE
  8
0
 62
7
 10
4.991250000000001
 20
-0.1325000000000004
 30
0
 11
4.984500000000001
 21
-0.1300000000000004
 31
0
  0
LINE
  8
0
 62
7
 10
4.984500000000001
 20
-0.1300000000000004
 30
0
 11
4.9755
 21
-0.1300000000000004
 31
0
  0
LINE
  8
0
 62
7
 10
4.9755
 20
-0.1300000000000004
 30
0
 11
4.96875
 21
-0.1325000000000004
 31
0
  0
LINE
  8
0
 62
7
 10
4.96875
 20
-0.1325000000000004
 30
0
 11
4.962000000000001
 21
-0.1375000000000004
 31
0
  0
LINE
  8
0
 62
7
 10
4.962000000000001
 20
-0.1375000000000004
 30
0
 11
4.95525
 21
-0.1475000000000004
 31
0
  0
LINE
  8
0
 62
7
 10
4.95525
 20
-0.1475000000000004
 30
0
 11
4.953
 21
-0.1550000000000004
 31
0
  0
LINE
  8
0
 62
7
 10
4.953
 20
-0.1000000000000004
 30
0
 11
4.953
 21
-0.1550000000000004
 31
0
  0
LINE
  8
0
 62
7
 10
4.953
 20
-0.1550000000000004
 30
0
 11
4.953
 21
-0.2000000000000004
 31
0
  0
LINE
  8
0
 62
7
 10
5.079000000000001
 20
-0.1825000000000004
 30
0
 11
5.07225
 21
-0.1925000000000004
 31
0
  0
LINE
  8
0
 62
7
 10
5.07225
 20
-0.1925000000000004
 30
0
 11
5.0655
 21
-0.1975000000000004
 31
0
  0
LINE
  8
0
 62
7
 10
5.0655
 20
-0.1975000000000004
 30
0
 11
5.0565
 21
-0.2000000000000004
 31
0
  0
LINE
  8
0
 62
7
 10
5.0565
 20
-0.2000000000000004
 30
0
 11
5.0475
 21
-0.2000000000000004
 31
0
  0
LINE
  8
0
 62
7
 10
5.0475
 20
-0.2000000000000004
 30
0
 11
5.04075
 21
-0.1975000000000004
 31
0
  0
LINE
  8
0
 62
7
 10
5.04075
 20
-0.1975000000000004
 30
0
 11
5.034000000000001
 21
-0.1925000000000004
 31
0
  0
LINE
  8
0
 62
7
 10
5.034000000000001
 20
-0.1925000000000004
 30
0
 11
5.02725
 21
-0.1825000000000004
 31
0
  0
LINE
  8
0
 62
7
 10
5.02725
 20
-0.1825000000000004
 30
0
 11
5.025
 21
-0.1750000000000004
 31
0
  0
LINE
  8
0
 62
7
 10
5.025
 20
-0.1750000000000004
 30
0
 11
5.025
 21
-0.1650000000000004
 31
0
  0
LINE
  8
0
 62
7
 10
5.025
 20
-0.1550000000000004
 30
0
 11
5.02725
 21
-0.1475000000000004
 31
0
  0
LINE
  8
0
 62
7
 10
5.02725
 20
-0.1475000000000004
 30
0
 11
5.034000000000001
 21
-0.1375000000000004
 31
0
  0
LINE
  8
0
 62
7
 10
5.034000000000001
 20
-0.1375000000000004
 30
0
 11
5.04075
 21
-0.1325000000000004
 31
0
  0
LINE
  8
0
 62
7
 10
5.04075
 20
-0.1325000000000004
 30
0
 11
5.0475
 21
-0.1300000000000004
 31
0
  0
LINE
  8
0
 62
7
 10
5.0475
 20
-0.1300000000000004
 30
0
 11
5.0565
 21
-0.1300000000000004
 31
0
  0
LINE
  8
0
 62
7
 10
5.0565
 20
-0.1300000000000004
 30
0
 11
5.06325
 21
-0.1325000000000004
 31
0
  0
LINE
  8
0
 62
7
 10
5.06325
 20
-0.1325000000000004
 30
0
 11
5.07
 21
-0.1375000000000004
 31
0
  0
LINE
  8
0
 62
7
 10
5.07
 20
-0.1375000000000004
 30
0
 11
5.076750000000001
 21
-0.1475000000000004
 31
0
  0
LINE
  8
0
 62
7
 10
5.076750000000001
 20
-0.1475000000000004
 30
0
 11
5.079000000000001
 21
-0.1550000000000004
 31
0
  0
LINE
  8
0
 62
7
 10
5.079000000000001
 20
-0.1550000000000004
 30
0
 11
5.079000000000001
 21
-0.1650000000000004
 31
0
  0
LINE
  8
0
 62
7
 10
5.079000000000001
 20
-0.1650000000000004
 30
0
 11
5.025
 21
-0.1650000000000004
 31
0
  0
LINE
  8
0
 62
7
 10
5.025
 20
-0.1650000000000004
 30
0
 11
5.025
 21
-0.1550000000000004
 31
0
  0
LINE
  8
0
 62
7
 10
5.097
 20
-0.1000000000000004
 30
0
 11
5.097
 21
-0.1050000000000004
 31
0
  0
LINE
  8
0
 62
7
 10
5.097
 20
-0.1300000000000004
 30
0
 11
5.097
 21
-0.2000000000000004
 31
0
  0
LINE
  8
0
 62
7
 10
5.187000000000001
 20
-0.1000000000000004
 30
0
 11
5.187000000000001
 21
-0.1500000000000004
 31
0
  0
LINE
  8
0
 62
7
 10
5.187000000000001
 20
-0.1500000000000004
 30
0
 11
5.25
 21
-0.1500000000000004
 31
0
  0
LINE
  8
0
 62
7
 10
5.25
 20
-0.1000000000000004
 30
0
 11
5.25
 21
-0.1500000000000004
 31
0
  0
LINE
  8
0
 62
7
 10
5.25
 20
-0.1500000000000004
 30
0
 11
5.25
 21
-0.2000000000000004
 31
0
  0
LINE
  8
0
 62
7
 10
5.187000000000001
 20
-0.1500000000000004
 30
0
 11
5.187000000000001
 21
-0.2000000000000004
 31
0
  0
LINE
  8
0
 62
7
 10
5.331
 20
-0.1550000000000004
 30
0
 11
5.32875
 21
-0.1475000000000004
 31
0
  0
LINE
  8
0
 62
7
 10
5.32875
 20
-0.1475000000000004
 30
0
 11
5.322
 21
-0.1375000000000004
 31
0
  0
LINE
  8
0
 62
7
 10
5.322
 20
-0.1375000000000004
 30
0
 11
5.315250000000001
 21
-0.1325000000000004
 31
0
  0
LINE
  8
0
 62
7
 10
5.315250000000001
 20
-0.1325000000000004
 30
0
 11
5.3085
 21
-0.1300000000000004
 31
0
  0
LINE
  8
0
 62
7
 10
5.3085
 20
-0.1300000000000004
 30
0
 11
5.299500000000001
 21
-0.1300000000000004
 31
0
  0
LINE
  8
0
 62
7
 10
5.299500000000001
 20
-0.1300000000000004
 30
0
 11
5.292750000000001
 21
-0.1325000000000004
 31
0
  0
LINE
  8
0
 62
7
 10
5.292750000000001
 20
-0.1325000000000004
 30
0
 11
5.286
 21
-0.1375000000000004
 31
0
  0
LINE
  8
0
 62
7
 10
5.286
 20
-0.1375000000000004
 30
0
 11
5.279250000000001
 21
-0.1475000000000004
 31
0
  0
LINE
  8
0
 62
7
 10
5.279250000000001
 20
-0.1475000000000004
 30
0
 11
5.277000000000001
 21
-0.1550000000000004
 31
0
  0
LINE
  8
0
 62
7
 10
5.277000000000001
 20
-0.1550000000000004
 30
0
 11
5.277000000000001
 21
-0.1750000000000004
 31
0
  0
LINE
  8
0
 62
7
 10
5.277000000000001
 20
-0.1750000000000004
 30
0
 11
5.279250000000001
 21
-0.1825000000000004
 31
0
  0
LINE
  8
0
 62
7
 10
5.279250000000001
 20
-0.1825000000000004
 30
0
 11
5.286
 21
-0.1925000000000004
 31
0
  0
LINE
  8
0
 62
7
 10
5.286
 20
-0.1925000000000004
 30
0
 11
5.292750000000001
 21
-0.1975000000000004
 31
0
  0
LINE
  8
0
 62
7
 10
5.292750000000001
 20
-0.1975000000000004
 30
0
 11
5.299500000000001
 21
-0.2000000000000004
 31
0
  0
LINE
  8
0
 62
7
 10
5.299500000000001
 20
-0.2000000000000004
 30
0
 11
5.3085
 21
-0.2000000000000004
 31
0
  0
LINE
  8
0
 62
7
 10
5.3085
 20
-0.2000000000000004
 30
0
 11
5.315250000000001
 21
-0.1975000000000004
 31
0
  0
LINE
  8
0
 62
7
 10
5.315250000000001
 20
-0.1975000000000004
 30
0
 11
5.322
 21
-0.1925000000000004
 31
0
  0
LINE
  8
0
 62
7
 10
5.322
 20
-0.1925000000000004
 30
0
 11
5.32875
 21
-0.1825000000000004
 31
0
  0
LINE
  8
0
 62
7
 10
5.32875
 20
-0.1825000000000004
 30
0
 11
5.331
 21
-0.1750000000000004
 31
0
  0
LINE
  8
0
 62
7
 10
5.331
 20
-0.1750000000000004
 30
0
 11
5.331
 21
-0.1550000000000004
 31
0
  0
LINE
  8
0
 62
7
 10
5.349
 20
-0.1000000000000004
 30
0
 11
5.349
 21
-0.1850000000000004
 31
0
  0
LINE
  8
0
 62
7
 10
5.349
 20
-0.1850000000000004
 30
0
 11
5.35125
 21
-0.1975000000000004
 31
0
  0
LINE
  8
0
 62
7
 10
5.35125
 20
-0.1975000000000004
 30
0
 11
5.35575
 21
-0.2000000000000004
 31
0
  0
LINE
  8
0
 62
7
 10
5.35575
 20
-0.2000000000000004
 30
0
 11
5.358000000000001
 21
-0.2000000000000004
 31
0
  0
LINE
  8
0
 62
7
 10
5.376
 20
-0.1300000000000004
 30
0
 11
5.430000000000001
 21
-0.1300000000000004
 31
0
  0
LINE
  8
0
 62
7
 10
5.430000000000001
 20
-0.1300000000000004
 30
0
 11
5.376
 21
-0.2000000000000004
 31
0
  0
LINE
  8
0
 62
7
 10
5.376
 20
-0.2000000000000004
 30
0
 11
5.430000000000001
 21
-0.2000000000000004
 31
0
  0
LINE
  8
0
 62
7
 10
5.511
 20
-0.1450000000000004
 30
0
 11
5.5065
 21
-0.1375000000000004
 31
0
  0
LINE
  8
0
 62
7
 10
5.5065
 20
-0.1375000000000004
 30
0
 11
5.499750000000001
 21
-0.1325000000000004
 31
0
  0
LINE
  8
0
 62
7
 10
5.499750000000001
 20
-0.1325000000000004
 30
0
 11
5.4885
 21
-0.1300000000000004
 31
0
  0
LINE
  8
0
 62
7
 10
5.4885
 20
-0.1300000000000004
 30
0
 11
5.479500000000001
 21
-0.1300000000000004
 31
0
  0
LINE
  8
0
 62
7
 10
5.479500000000001
 20
-0.1300000000000004
 30
0
 11
5.470500000000001
 21
-0.1325000000000004
 31
0
  0
LINE
  8
0
 62
7
 10
5.470500000000001
 20
-0.1325000000000004
 30
0
 11
5.463750000000001
 21
-0.1375000000000004
 31
0
  0
LINE
  8
0
 62
7
 10
5.463750000000001
 20
-0.1375000000000004
 30
0
 11
5.459250000000001
 21
-0.1425000000000004
 31
0
  0
LINE
  8
0
 62
7
 10
5.459250000000001
 20
-0.1425000000000004
 30
0
 11
5.457000000000001
 21
-0.1475000000000004
 31
0
  0
LINE
  8
0
 62
7
 10
5.457000000000001
 20
-0.1475000000000004
 30
0
 11
5.457000000000001
 21
-0.1525000000000004
 31
0
  0
LINE
  8
0
 62
7
 10
5.457000000000001
 20
-0.1525000000000004
 30
0
 11
5.459250000000001
 21
-0.1575000000000004
 31
0
  0
LINE
  8
0
 62
7
 10
5.459250000000001
 20
-0.1575000000000004
 30
0
 11
5.463750000000001
 21
-0.1600000000000004
 31
0
  0
LINE
  8
0
 62
7
 10
5.463750000000001
 20
-0.1600000000000004
 30
0
 11
5.504250000000002
 21
-0.1700000000000004
 31
0
  0
LINE
  8
0
 62
7
 10
5.504250000000002
 20
-0.1700000000000004
 30
0
 11
5.50875
 21
-0.1725000000000004
 31
0
  0
LINE
  8
0
 62
7
 10
5.50875
 20
-0.1725000000000004
 30
0
 11
5.511
 21
-0.1775000000000004
 31
0
  0
LINE
  8
0
 62
7
 10
5.511
 20
-0.1775000000000004
 30
0
 11
5.511
 21
-0.1825000000000004
 31
0
  0
LINE
  8
0
 62
7
 10
5.511
 20
-0.1825000000000004
 30
0
 11
5.50875
 21
-0.1875000000000004
 31
0
  0
LINE
  8
0
 62
7
 10
5.50875
 20
-0.1875000000000004
 30
0
 11
5.504250000000002
 21
-0.1925000000000004
 31
0
  0
LINE
  8
0
 62
7
 10
5.504250000000002
 20
-0.1925000000000004
 30
0
 11
5.4975
 21
-0.1975000000000004
 31
0
  0
LINE
  8
0
 62
7
 10
5.4975
 20
-0.1975000000000004
 30
0
 11
5.4885
 21
-0.2000000000000004
 31
0
  0
LINE
  8
0
 62
7
 10
5.4885
 20
-0.2000000000000004
 30
0
 11
5.479500000000001
 21
-0.2000000000000004
 31
0
  0
LINE
  8
0
 62
7
 10
5.479500000000001
 20
-0.2000000000000004
 30
0
 11
5.468250000000001
 21
-0.1975000000000004
 31
0
  0
LINE
  8
0
 62
7
 10
5.468250000000001
 20
-0.1975000000000004
 30
0
 11
5.461500000000001
 21
-0.1925000000000004
 31
0
  0
LINE
  8
0
 62
7
 10
5.461500000000001
 20
-0.1925000000000004
 30
0
 11
5.457000000000001
 21
-0.1850000000000004
 31
0
  0
LINE
  8
0
 62
7
 10
5.538000000000001
 20
-0.1000000000000004
 30
0
 11
5.538000000000001
 21
-0.1850000000000004
 31
0
  0
LINE
  8
0
 62
7
 10
5.538000000000001
 20
-0.1850000000000004
 30
0
 11
5.54025
 21
-0.1975000000000004
 31
0
  0
LINE
  8
0
 62
7
 10
5.54025
 20
-0.1975000000000004
 30
0
 11
5.544750000000001
 21
-0.2000000000000004
 31
0
  0
LINE
  8
0
 62
7
 10
5.544750000000001
 20
-0.2000000000000004
 30
0
 11
5.547000000000001
 21
-0.2000000000000004
 31
0
  0
LINE
  8
0
 62
7
 10
5.529
 20
-0.1300000000000004
 30
0
 11
5.547000000000001
 21
-0.1300000000000004
 31
0
  0
LINE
  8
0
 62
7
 10
5.619
 20
-0.1300000000000004
 30
0
 11
5.619
 21
-0.1750000000000004
 31
0
  0
LINE
  8
0
 62
7
 10
5.565
 20
-0.1300000000000004
 30
0
 11
5.565
 21
-0.1750000000000004
 31
0
  0
LINE
  8
0
 62
7
 10
5.565
 20
-0.1750000000000004
 30
0
 11
5.56725
 21
-0.1825000000000004
 31
0
  0
LINE
  8
0
 62
7
 10
5.56725
 20
-0.1825000000000004
 30
0
 11
5.574000000000001
 21
-0.1925000000000004
 31
0
  0
LINE
  8
0
 62
7
 10
5.574000000000001
 20
-0.1925000000000004
 30
0
 11
5.580750000000001
 21
-0.1975000000000004
 31
0
  0
LINE
  8
0
 62
7
 10
5.580750000000001
 20
-0.1975000000000004
 30
0
 11
5.5875
 21
-0.2000000000000004
 31
0
  0
LINE
  8
0
 62
7
 10
5.5875
 20
-0.2000000000000004
 30
0
 11
5.596500000000001
 21
-0.2000000000000004
 31
0
  0
LINE
  8
0
 62
7
 10
5.596500000000001
 20
-0.2000000000000004
 30
0
 11
5.60325
 21
-0.1975000000000004
 31
0
  0
LINE
  8
0
 62
7
 10
5.60325
 20
-0.1975000000000004
 30
0
 11
5.61
 21
-0.1925000000000004
 31
0
  0
LINE
  8
0
 62
7
 10
5.61
 20
-0.1925000000000004
 30
0
 11
5.616750000000001
 21
-0.1825000000000004
 31
0
  0
LINE
  8
0
 62
7
 10
5.616750000000001
 20
-0.1825000000000004
 30
0
 11
5.619
 21
-0.1750000000000004
 31
0
  0
LINE
  8
0
 62
7
 10
5.619
 20
-0.1750000000000004
 30
0
 11
5.619
 21
-0.2000000000000004
 31
0
  0
LINE
  8
0
 62
7
 10
5.637
 20
-0.1350000000000004
 30
0
 11
5.664000000000001
 21
-0.1350000000000004
 31
0
  0
LINE
  8
0
 62
7
 10
5.646000000000001
 20
-0.2000000000000004
 30
0
 11
5.646000000000001
 21
-0.1175000000000004
 31
0
  0
LINE
  8
0
 62
7
 10
5.646000000000001
 20
-0.1175000000000004
 30
0
 11
5.648250000000001
 21
-0.1075000000000004
 31
0
  0
LINE
  8
0
 62
7
 10
5.648250000000001
 20
-0.1075000000000004
 30
0
 11
5.652750000000001
 21
-0.1025000000000004
 31
0
  0
LINE
  8
0
 62
7
 10
5.652750000000001
 20
-0.1025000000000004
 30
0
 11
5.6595
 21
-0.1000000000000004
 31
0
  0
LINE
  8
0
 62
7
 10
5.6595
 20
-0.1000000000000004
 30
0
 11
5.664000000000001
 21
-0.1000000000000004
 31
0
  0
LINE
  8
0
 62
7
 10
5.736000000000001
 20
-0.1825000000000004
 30
0
 11
5.729250000000001
 21
-0.1925000000000004
 31
0
  0
LINE
  8
0
 62
7
 10
5.729250000000001
 20
-0.1925000000000004
 30
0
 11
5.7225
 21
-0.1975000000000004
 31
0
  0
LINE
  8
0
 62
7
 10
5.7225
 20
-0.1975000000000004
 30
0
 11
5.7135
 21
-0.2000000000000004
 31
0
  0
LINE
  8
0
 62
7
 10
5.7135
 20
-0.2000000000000004
 30
0
 11
5.7045
 21
-0.2000000000000004
 31
0
  0
LINE
  8
0
 62
7
 10
5.7045
 20
-0.2000000000000004
 30
0
 11
5.69775
 21
-0.1975000000000004
 31
0
  0
LINE
  8
0
 62
7
 10
5.69775
 20
-0.1975000000000004
 30
0
 11
5.691000000000001
 21
-0.1925000000000004
 31
0
  0
LINE
  8
0
 62
7
 10
5.691000000000001
 20
-0.1925000000000004
 30
0
 11
5.684250000000001
 21
-0.1825000000000004
 31
0
  0
LINE
  8
0
 62
7
 10
5.684250000000001
 20
-0.1825000000000004
 30
0
 11
5.682
 21
-0.1750000000000004
 31
0
  0
LINE
  8
0
 62
7
 10
5.682
 20
-0.1750000000000004
 30
0
 11
5.682
 21
-0.1650000000000004
 31
0
  0
LINE
  8
0
 62
7
 10
5.682
 20
-0.1550000000000004
 30
0
 11
5.684250000000001
 21
-0.1475000000000004
 31
0
  0
LINE
  8
0
 62
7
 10
5.684250000000001
 20
-0.1475000000000004
 30
0
 11
5.691000000000001
 21
-0.1375000000000004
 31
0
  0
LINE
  8
0
 62
7
 10
5.691000000000001
 20
-0.1375000000000004
 30
0
 11
5.69775
 21
-0.1325000000000004
 31
0
  0
LINE
  8
0
 62
7
 10
5.69775
 20
-0.1325000000000004
 30
0
 11
5.7045
 21
-0.1300000000000004
 31
0
  0
LINE
  8
0
 62
7
 10
5.7045
 20
-0.1300000000000004
 30
0
 11
5.7135
 21
-0.1300000000000004
 31
0
  0
LINE
  8
0
 62
7
 10
5.7135
 20
-0.1300000000000004
 30
0
 11
5.72025
 21
-0.1325000000000004
 31
0
  0
LINE
  8
0
 62
7
 10
5.72025
 20
-0.1325000000000004
 30
0
 11
5.727
 21
-0.1375000000000004
 31
0
  0
LINE
  8
0
 62
7
 10
5.727
 20
-0.1375000000000004
 30
0
 11
5.733750000000001
 21
-0.1475000000000004
 31
0
  0
LINE
  8
0
 62
7
 10
5.733750000000001
 20
-0.1475000000000004
 30
0
 11
5.736000000000001
 21
-0.1550000000000004
 31
0
  0
LINE
  8
0
 62
7
 10
5.736000000000001
 20
-0.1550000000000004
 30
0
 11
5.736000000000001
 21
-0.1650000000000004
 31
0
  0
LINE
  8
0
 62
7
 10
5.736000000000001
 20
-0.1650000000000004
 30
0
 11
5.682
 21
-0.1650000000000004
 31
0
  0
LINE
  8
0
 62
7
 10
5.682
 20
-0.1650000000000004
 30
0
 11
5.682
 21
-0.1550000000000004
 31
0
  0
LINE
  8
0
 62
7
 10
5.754
 20
-0.1550000000000004
 30
0
 11
5.756250000000001
 21
-0.1475000000000004
 31
0
  0
LINE
  8
0
 62
7
 10
5.756250000000001
 20
-0.1475000000000004
 30
0
 11
5.763000000000002
 21
-0.1375000000000004
 31
0
  0
LINE
  8
0
 62
7
 10
5.763000000000002
 20
-0.1375000000000004
 30
0
 11
5.76975
 21
-0.1325000000000004
 31
0
  0
LINE
  8
0
 62
7
 10
5.76975
 20
-0.1325000000000004
 30
0
 11
5.7765
 21
-0.1300000000000004
 31
0
  0
LINE
  8
0
 62
7
 10
5.7765
 20
-0.1300000000000004
 30
0
 11
5.785500000000002
 21
-0.1300000000000004
 31
0
  0
LINE
  8
0
 62
7
 10
5.785500000000002
 20
-0.1300000000000004
 30
0
 11
5.79225
 21
-0.1325000000000004
 31
0
  0
LINE
  8
0
 62
7
 10
5.79225
 20
-0.1325000000000004
 30
0
 11
5.799
 21
-0.1375000000000004
 31
0
  0
LINE
  8
0
 62
7
 10
5.799
 20
-0.1375000000000004
 30
0
 11
5.805750000000001
 21
-0.1475000000000004
 31
0
  0
LINE
  8
0
 62
7
 10
5.805750000000001
 20
-0.1475000000000004
 30
0
 11
5.808000000000002
 21
-0.1550000000000004
 31
0
  0
LINE
  8
0
 62
7
 10
5.808000000000002
 20
-0.1550000000000004
 30
0
 11
5.808000000000002
 21
-0.2000000000000004
 31
0
  0
LINE
  8
0
 62
7
 10
5.754
 20
-0.1300000000000004
 30
0
 11
5.754
 21
-0.1550000000000004
 31
0
  0
LINE
  8
0
 62
7
 10
5.754
 20
-0.1550000000000004
 30
0
 11
5.754
 21
-0.2000000000000004
 31
0
  0
LINE
  8
0
 62
7
 10
3.9
 20
-0.3500000000000005
 30
0
 11
3.9
 21
-0.2500000000000006
 31
0
  0
LINE
  8
0
 62
7
 10
3.9
 20
-0.2500000000000006
 30
0
 11
3.963000000000001
 21
-0.3500000000000005
 31
0
  0
LINE
  8
0
 62
7
 10
3.963000000000001
 20
-0.3500000000000005
 30
0
 11
3.963000000000001
 21
-0.2500000000000006
 31
0
  0
LINE
  8
0
 62
7
 10
4.044
 20
-0.3500000000000005
 30
0
 11
3.99
 21
-0.3500000000000005
 31
0
  0
LINE
  8
0
 62
7
 10
3.99
 20
-0.3500000000000005
 30
0
 11
3.99
 21
-0.2500000000000006
 31
0
  0
LINE
  8
0
 62
7
 10
4.071000000000001
 20
-0.3000000000000005
 30
0
 11
4.107
 21
-0.3000000000000005
 31
0
  0
LINE
  8
0
 62
7
 10
4.107
 20
-0.3000000000000005
 30
0
 11
4.1115
 21
-0.3000000000000005
 31
0
  0
LINE
  8
0
 62
7
 10
4.1115
 20
-0.3000000000000005
 30
0
 11
4.1205
 21
-0.3050000000000005
 31
0
  0
LINE
  8
0
 62
7
 10
4.1205
 20
-0.3050000000000005
 30
0
 11
4.125
 21
-0.3100000000000005
 31
0
  0
LINE
  8
0
 62
7
 10
4.125
 20
-0.3100000000000005
 30
0
 11
4.1295
 21
-0.3200000000000005
 31
0
  0
LINE
  8
0
 62
7
 10
4.1295
 20
-0.3200000000000005
 30
0
 11
4.1295
 21
-0.3300000000000005
 31
0
  0
LINE
  8
0
 62
7
 10
4.1295
 20
-0.3300000000000005
 30
0
 11
4.125
 21
-0.3400000000000005
 31
0
  0
LINE
  8
0
 62
7
 10
4.125
 20
-0.3400000000000005
 30
0
 11
4.1205
 21
-0.3450000000000005
 31
0
  0
LINE
  8
0
 62
7
 10
4.1205
 20
-0.3450000000000005
 30
0
 11
4.1115
 21
-0.3500000000000005
 31
0
  0
LINE
  8
0
 62
7
 10
4.1115
 20
-0.3500000000000005
 30
0
 11
4.071000000000001
 21
-0.3500000000000005
 31
0
  0
LINE
  8
0
 62
7
 10
4.071000000000001
 20
-0.3500000000000005
 30
0
 11
4.071000000000001
 21
-0.3000000000000005
 31
0
  0
LINE
  8
0
 62
7
 10
4.071000000000001
 20
-0.2500000000000006
 30
0
 11
4.10475
 21
-0.2500000000000006
 31
0
  0
LINE
  8
0
 62
7
 10
4.10475
 20
-0.2500000000000006
 30
0
 11
4.116000000000001
 21
-0.2525000000000006
 31
0
  0
LINE
  8
0
 62
7
 10
4.116000000000001
 20
-0.2525000000000006
 30
0
 11
4.12275
 21
-0.2600000000000005
 31
0
  0
LINE
  8
0
 62
7
 10
4.12275
 20
-0.2600000000000005
 30
0
 11
4.125
 21
-0.2700000000000005
 31
0
  0
LINE
  8
0
 62
7
 10
4.125
 20
-0.2700000000000005
 30
0
 11
4.125
 21
-0.2800000000000005
 31
0
  0
LINE
  8
0
 62
7
 10
4.125
 20
-0.2800000000000005
 30
0
 11
4.1205
 21
-0.2900000000000005
 31
0
  0
LINE
  8
0
 62
7
 10
4.1205
 20
-0.2900000000000005
 30
0
 11
4.11375
 21
-0.2975000000000005
 31
0
  0
LINE
  8
0
 62
7
 10
4.11375
 20
-0.2975000000000005
 30
0
 11
4.107
 21
-0.3000000000000005
 31
0
  0
LINE
  8
0
 62
7
 10
4.071000000000001
 20
-0.3000000000000005
 30
0
 11
4.071000000000001
 21
-0.2500000000000006
 31
0
  0
LINE
  8
0
 62
7
 10
4.27125
 20
-0.2975000000000005
 30
0
 11
4.264500000000001
 21
-0.2875000000000005
 31
0
  0
LINE
  8
0
 62
7
 10
4.264500000000001
 20
-0.2875000000000005
 30
0
 11
4.257750000000001
 21
-0.2825000000000005
 31
0
  0
LINE
  8
0
 62
7
 10
4.257750000000001
 20
-0.2825000000000005
 30
0
 11
4.251
 21
-0.2800000000000005
 31
0
  0
LINE
  8
0
 62
7
 10
4.251
 20
-0.2800000000000005
 30
0
 11
4.242
 21
-0.2800000000000005
 31
0
  0
LINE
  8
0
 62
7
 10
4.242
 20
-0.2800000000000005
 30
0
 11
4.23525
 21
-0.2825000000000005
 31
0
  0
LINE
  8
0
 62
7
 10
4.23525
 20
-0.2825000000000005
 30
0
 11
4.2285
 21
-0.2875000000000005
 31
0
  0
LINE
  8
0
 62
7
 10
4.2285
 20
-0.2875000000000005
 30
0
 11
4.22175
 21
-0.2975000000000005
 31
0
  0
LINE
  8
0
 62
7
 10
4.22175
 20
-0.2975000000000005
 30
0
 11
4.2195
 21
-0.3050000000000005
 31
0
  0
LINE
  8
0
 62
7
 10
4.2195
 20
-0.3050000000000005
 30
0
 11
4.2195
 21
-0.3250000000000006
 31
0
  0
LINE
  8
0
 62
7
 10
4.2195
 20
-0.3250000000000006
 30
0
 11
4.22175
 21
-0.3325000000000005
 31
0
  0
LINE
  8
0
 62
7
 10
4.22175
 20
-0.3325000000000005
 30
0
 11
4.2285
 21
-0.3425000000000005
 31
0
  0
LINE
  8
0
 62
7
 10
4.2285
 20
-0.3425000000000005
 30
0
 11
4.23525
 21
-0.3475000000000005
 31
0
  0
LINE
  8
0
 62
7
 10
4.23525
 20
-0.3475000000000005
 30
0
 11
4.242
 21
-0.3500000000000005
 31
0
  0
LINE
  8
0
 62
7
 10
4.242
 20
-0.3500000000000005
 30
0
 11
4.251
 21
-0.3500000000000005
 31
0
  0
LINE
  8
0
 62
7
 10
4.251
 20
-0.3500000000000005
 30
0
 11
4.257750000000001
 21
-0.3475000000000005
 31
0
  0
LINE
  8
0
 62
7
 10
4.257750000000001
 20
-0.3475000000000005
 30
0
 11
4.264500000000001
 21
-0.3425000000000005
 31
0
  0
LINE
  8
0
 62
7
 10
4.264500000000001
 20
-0.3425000000000005
 30
0
 11
4.27125
 21
-0.3325000000000005
 31
0
  0
LINE
  8
0
 62
7
 10
4.34325
 20
-0.3050000000000005
 30
0
 11
4.341
 21
-0.2975000000000005
 31
0
  0
LINE
  8
0
 62
7
 10
4.341
 20
-0.2975000000000005
 30
0
 11
4.33425
 21
-0.2875000000000005
 31
0
  0
LINE
  8
0
 62
7
 10
4.33425
 20
-0.2875000000000005
 30
0
 11
4.3275
 21
-0.2825000000000005
 31
0
  0
LINE
  8
0
 62
7
 10
4.3275
 20
-0.2825000000000005
 30
0
 11
4.32075
 21
-0.2800000000000005
 31
0
  0
LINE
  8
0
 62
7
 10
4.32075
 20
-0.2800000000000005
 30
0
 11
4.31175
 21
-0.2800000000000005
 31
0
  0
LINE
  8
0
 62
7
 10
4.31175
 20
-0.2800000000000005
 30
0
 11
4.305000000000001
 21
-0.2825000000000005
 31
0
  0
LINE
  8
0
 62
7
 10
4.305000000000001
 20
-0.2825000000000005
 30
0
 11
4.29825
 21
-0.2875000000000005
 31
0
  0
LINE
  8
0
 62
7
 10
4.29825
 20
-0.2875000000000005
 30
0
 11
4.2915
 21
-0.2975000000000005
 31
0
  0
LINE
  8
0
 62
7
 10
4.2915
 20
-0.2975000000000005
 30
0
 11
4.28925
 21
-0.3050000000000005
 31
0
  0
LINE
  8
0
 62
7
 10
4.28925
 20
-0.3050000000000005
 30
0
 11
4.28925
 21
-0.3250000000000006
 31
0
  0
LINE
  8
0
 62
7
 10
4.28925
 20
-0.3250000000000006
 30
0
 11
4.2915
 21
-0.3325000000000005
 31
0
  0
LINE
  8
0
 62
7
 10
4.2915
 20
-0.3325000000000005
 30
0
 11
4.29825
 21
-0.3425000000000005
 31
0
  0
LINE
  8
0
 62
7
 10
4.29825
 20
-0.3425000000000005
 30
0
 11
4.305000000000001
 21
-0.3475000000000005
 31
0
  0
LINE
  8
0
 62
7
 10
4.305000000000001
 20
-0.3475000000000005
 30
0
 11
4.31175
 21
-0.3500000000000005
 31
0
  0
LINE
  8
0
 62
7
 10
4.31175
 20
-0.3500000000000005
 30
0
 11
4.32075
 21
-0.3500000000000005
 31
0
  0
LINE
  8
0
 62
7
 10
4.32075
 20
-0.3500000000000005
 30
0
 11
4.3275
 21
-0.3475000000000005
 31
0
  0
LINE
  8
0
 62
7
 10
4.3275
 20
-0.3475000000000005
 30
0
 11
4.33425
 21
-0.3425000000000005
 31
0
  0
LINE
  8
0
 62
7
 10
4.33425
 20
-0.3425000000000005
 30
0
 11
4.341
 21
-0.3325000000000005
 31
0
  0
LINE
  8
0
 62
7
 10
4.341
 20
-0.3325000000000005
 30
0
 11
4.34325
 21
-0.3250000000000006
 31
0
  0
LINE
  8
0
 62
7
 10
4.34325
 20
-0.2800000000000005
 30
0
 11
4.34325
 21
-0.3050000000000005
 31
0
  0
LINE
  8
0
 62
7
 10
4.34325
 20
-0.3475000000000005
 30
0
 11
4.3455
 21
-0.3500000000000005
 31
0
  0
LINE
  8
0
 62
7
 10
4.3455
 20
-0.3500000000000005
 30
0
 11
4.34775
 21
-0.3500000000000005
 31
0
  0
LINE
  8
0
 62
7
 10
4.34325
 20
-0.3250000000000006
 30
0
 11
4.34325
 21
-0.3475000000000005
 31
0
  0
LINE
  8
0
 62
7
 10
4.34325
 20
-0.3050000000000005
 30
0
 11
4.34325
 21
-0.3250000000000006
 31
0
  0
LINE
  8
0
 62
7
 10
4.36575
 20
-0.3500000000000005
 30
0
 11
4.36575
 21
-0.3475000000000005
 31
0
  0
LINE
  8
0
 62
7
 10
4.36575
 20
-0.3475000000000005
 30
0
 11
4.368
 21
-0.3475000000000005
 31
0
  0
LINE
  8
0
 62
7
 10
4.368
 20
-0.3475000000000005
 30
0
 11
4.368
 21
-0.3500000000000005
 31
0
  0
LINE
  8
0
 62
7
 10
4.368
 20
-0.3500000000000005
 30
0
 11
4.36575
 21
-0.3500000000000005
 31
0
  0
LINE
  8
0
 62
7
 10
4.469250000000001
 20
-0.2600000000000005
 30
0
 11
4.469250000000001
 21
-0.2500000000000006
 31
0
  0
LINE
  8
0
 62
7
 10
4.469250000000001
 20
-0.2500000000000006
 30
0
 11
4.52325
 21
-0.2500000000000006
 31
0
  0
LINE
  8
0
 62
7
 10
4.52325
 20
-0.2500000000000006
 30
0
 11
4.47825
 21
-0.3500000000000005
 31
0
  0
LINE
  8
0
 62
7
 10
4.57275
 20
-0.2500000000000006
 30
0
 11
4.58175
 21
-0.2500000000000006
 31
0
  0
LINE
  8
0
 62
7
 10
4.58175
 20
-0.2500000000000006
 30
0
 11
4.5885
 21
-0.2525000000000006
 31
0
  0
LINE
  8
0
 62
7
 10
4.5885
 20
-0.2525000000000006
 30
0
 11
4.593
 21
-0.2575000000000005
 31
0
  0
LINE
  8
0
 62
7
 10
4.593
 20
-0.2575000000000005
 30
0
 11
4.5975
 21
-0.2650000000000005
 31
0
  0
LINE
  8
0
 62
7
 10
4.5975
 20
-0.2650000000000005
 30
0
 11
4.5975
 21
-0.2750000000000005
 31
0
  0
LINE
  8
0
 62
7
 10
4.5975
 20
-0.2750000000000005
 30
0
 11
4.59525
 21
-0.2800000000000005
 31
0
  0
LINE
  8
0
 62
7
 10
4.59525
 20
-0.2800000000000005
 30
0
 11
4.5885
 21
-0.2875000000000005
 31
0
  0
LINE
  8
0
 62
7
 10
4.5885
 20
-0.2875000000000005
 30
0
 11
4.58175
 21
-0.2900000000000005
 31
0
  0
LINE
  8
0
 62
7
 10
4.58175
 20
-0.2900000000000005
 30
0
 11
4.57275
 21
-0.2900000000000005
 31
0
  0
LINE
  8
0
 62
7
 10
4.57275
 20
-0.2900000000000005
 30
0
 11
4.566000000000001
 21
-0.2875000000000005
 31
0
  0
LINE
  8
0
 62
7
 10
4.566000000000001
 20
-0.2875000000000005
 30
0
 11
4.55925
 21
-0.2800000000000005
 31
0
  0
LINE
  8
0
 62
7
 10
4.55925
 20
-0.2800000000000005
 30
0
 11
4.557
 21
-0.2750000000000005
 31
0
  0
LINE
  8
0
 62
7
 10
4.557
 20
-0.2750000000000005
 30
0
 11
4.557
 21
-0.2650000000000005
 31
0
  0
LINE
  8
0
 62
7
 10
4.557
 20
-0.2650000000000005
 30
0
 11
4.561500000000001
 21
-0.2575000000000005
 31
0
  0
LINE
  8
0
 62
7
 10
4.561500000000001
 20
-0.2575000000000005
 30
0
 11
4.566000000000001
 21
-0.2525000000000006
 31
0
  0
LINE
  8
0
 62
7
 10
4.566000000000001
 20
-0.2525000000000006
 30
0
 11
4.57275
 21
-0.2500000000000006
 31
0
  0
LINE
  8
0
 62
7
 10
4.57275
 20
-0.2900000000000005
 30
0
 11
4.561500000000001
 21
-0.2950000000000005
 31
0
  0
LINE
  8
0
 62
7
 10
4.561500000000001
 20
-0.2950000000000005
 30
0
 11
4.55475
 21
-0.3025000000000005
 31
0
  0
LINE
  8
0
 62
7
 10
4.55475
 20
-0.3025000000000005
 30
0
 11
4.55025
 21
-0.3125000000000006
 31
0
  0
LINE
  8
0
 62
7
 10
4.55025
 20
-0.3125000000000006
 30
0
 11
4.55025
 21
-0.3275000000000006
 31
0
  0
LINE
  8
0
 62
7
 10
4.55025
 20
-0.3275000000000006
 30
0
 11
4.55475
 21
-0.3375000000000006
 31
0
  0
LINE
  8
0
 62
7
 10
4.55475
 20
-0.3375000000000006
 30
0
 11
4.561500000000001
 21
-0.3450000000000005
 31
0
  0
LINE
  8
0
 62
7
 10
4.561500000000001
 20
-0.3450000000000005
 30
0
 11
4.5705
 21
-0.3500000000000005
 31
0
  0
LINE
  8
0
 62
7
 10
4.5705
 20
-0.3500000000000005
 30
0
 11
4.584000000000001
 21
-0.3500000000000005
 31
0
  0
LINE
  8
0
 62
7
 10
4.584000000000001
 20
-0.3500000000000005
 30
0
 11
4.593
 21
-0.3450000000000005
 31
0
  0
LINE
  8
0
 62
7
 10
4.593
 20
-0.3450000000000005
 30
0
 11
4.59975
 21
-0.3375000000000006
 31
0
  0
LINE
  8
0
 62
7
 10
4.59975
 20
-0.3375000000000006
 30
0
 11
4.60425
 21
-0.3275000000000006
 31
0
  0
LINE
  8
0
 62
7
 10
4.60425
 20
-0.3275000000000006
 30
0
 11
4.60425
 21
-0.3125000000000006
 31
0
  0
LINE
  8
0
 62
7
 10
4.60425
 20
-0.3125000000000006
 30
0
 11
4.59975
 21
-0.3025000000000005
 31
0
  0
LINE
  8
0
 62
7
 10
4.59975
 20
-0.3025000000000005
 30
0
 11
4.593
 21
-0.2950000000000005
 31
0
  0
LINE
  8
0
 62
7
 10
4.593
 20
-0.2950000000000005
 30
0
 11
4.58175
 21
-0.2900000000000005
 31
0
  0
LINE
  8
0
 62
7
 10
4.764
 20
-0.2975000000000005
 30
0
 11
4.75725
 21
-0.2875000000000005
 31
0
  0
LINE
  8
0
 62
7
 10
4.75725
 20
-0.2875000000000005
 30
0
 11
4.750500000000001
 21
-0.2825000000000005
 31
0
  0
LINE
  8
0
 62
7
 10
4.750500000000001
 20
-0.2825000000000005
 30
0
 11
4.74375
 21
-0.2800000000000005
 31
0
  0
LINE
  8
0
 62
7
 10
4.74375
 20
-0.2800000000000005
 30
0
 11
4.734750000000001
 21
-0.2800000000000005
 31
0
  0
LINE
  8
0
 62
7
 10
4.734750000000001
 20
-0.2800000000000005
 30
0
 11
4.728000000000001
 21
-0.2825000000000005
 31
0
  0
LINE
  8
0
 62
7
 10
4.728000000000001
 20
-0.2825000000000005
 30
0
 11
4.72125
 21
-0.2875000000000005
 31
0
  0
LINE
  8
0
 62
7
 10
4.72125
 20
-0.2875000000000005
 30
0
 11
4.7145
 21
-0.2975000000000005
 31
0
  0
LINE
  8
0
 62
7
 10
4.7145
 20
-0.2975000000000005
 30
0
 11
4.71225
 21
-0.3050000000000005
 31
0
  0
LINE
  8
0
 62
7
 10
4.71225
 20
-0.3050000000000005
 30
0
 11
4.71225
 21
-0.3250000000000006
 31
0
  0
LINE
  8
0
 62
7
 10
4.71225
 20
-0.3250000000000006
 30
0
 11
4.7145
 21
-0.3325000000000005
 31
0
  0
LINE
  8
0
 62
7
 10
4.7145
 20
-0.3325000000000005
 30
0
 11
4.72125
 21
-0.3425000000000005
 31
0
  0
LINE
  8
0
 62
7
 10
4.72125
 20
-0.3425000000000005
 30
0
 11
4.728000000000001
 21
-0.3475000000000005
 31
0
  0
LINE
  8
0
 62
7
 10
4.728000000000001
 20
-0.3475000000000005
 30
0
 11
4.734750000000001
 21
-0.3500000000000005
 31
0
  0
LINE
  8
0
 62
7
 10
4.734750000000001
 20
-0.3500000000000005
 30
0
 11
4.74375
 21
-0.3500000000000005
 31
0
  0
LINE
  8
0
 62
7
 10
4.74375
 20
-0.3500000000000005
 30
0
 11
4.750500000000001
 21
-0.3475000000000005
 31
0
  0
LINE
  8
0
 62
7
 10
4.750500000000001
 20
-0.3475000000000005
 30
0
 11
4.75725
 21
-0.3425000000000005
 31
0
  0
LINE
  8
0
 62
7
 10
4.75725
 20
-0.3425000000000005
 30
0
 11
4.764
 21
-0.3325000000000005
 31
0
  0
LINE
  8
0
 62
7
 10
4.822500000000001
 20
-0.3050000000000005
 30
0
 11
4.822500000000001
 21
-0.3500000000000005
 31
0
  0
LINE
  8
0
 62
7
 10
4.782
 20
-0.2800000000000005
 30
0
 11
4.782
 21
-0.3050000000000005
 31
0
  0
LINE
  8
0
 62
7
 10
4.782
 20
-0.3500000000000005
 30
0
 11
4.782
 21
-0.3050000000000005
 31
0
  0
LINE
  8
0
 62
7
 10
4.782
 20
-0.3050000000000005
 30
0
 11
4.78425
 21
-0.2925000000000005
 31
0
  0
LINE
  8
0
 62
7
 10
4.78425
 20
-0.2925000000000005
 30
0
 11
4.7865
 21
-0.2875000000000005
 31
0
  0
LINE
  8
0
 62
7
 10
4.7865
 20
-0.2875000000000005
 30
0
 11
4.791
 21
-0.2825000000000005
 31
0
  0
LINE
  8
0
 62
7
 10
4.791
 20
-0.2825000000000005
 30
0
 11
4.79775
 21
-0.2800000000000005
 31
0
  0
LINE
  8
0
 62
7
 10
4.79775
 20
-0.2800000000000005
 30
0
 11
4.806750000000001
 21
-0.2800000000000005
 31
0
  0
LINE
  8
0
 62
7
 10
4.806750000000001
 20
-0.2800000000000005
 30
0
 11
4.8135
 21
-0.2825000000000005
 31
0
  0
LINE
  8
0
 62
7
 10
4.8135
 20
-0.2825000000000005
 30
0
 11
4.818000000000001
 21
-0.2875000000000005
 31
0
  0
LINE
  8
0
 62
7
 10
4.818000000000001
 20
-0.2875000000000005
 30
0
 11
4.820250000000001
 21
-0.2925000000000005
 31
0
  0
LINE
  8
0
 62
7
 10
4.820250000000001
 20
-0.2925000000000005
 30
0
 11
4.822500000000001
 21
-0.3050000000000005
 31
0
  0
LINE
  8
0
 62
7
 10
4.822500000000001
 20
-0.3050000000000005
 30
0
 11
4.824750000000001
 21
-0.2925000000000005
 31
0
  0
LINE
  8
0
 62
7
 10
4.824750000000001
 20
-0.2925000000000005
 30
0
 11
4.827000000000001
 21
-0.2875000000000005
 31
0
  0
LINE
  8
0
 62
7
 10
4.827000000000001
 20
-0.2875000000000005
 30
0
 11
4.8315
 21
-0.2825000000000005
 31
0
  0
LINE
  8
0
 62
7
 10
4.8315
 20
-0.2825000000000005
 30
0
 11
4.83825
 21
-0.2800000000000005
 31
0
  0
LINE
  8
0
 62
7
 10
4.83825
 20
-0.2800000000000005
 30
0
 11
4.847250000000001
 21
-0.2800000000000005
 31
0
  0
LINE
  8
0
 62
7
 10
4.847250000000001
 20
-0.2800000000000005
 30
0
 11
4.854
 21
-0.2825000000000005
 31
0
  0
LINE
  8
0
 62
7
 10
4.8585
 20
-0.2875000000000005
 30
0
 11
4.854
 21
-0.2825000000000005
 31
0
  0
LINE
  8
0
 62
7
 10
4.854
 20
-0.2825000000000005
 30
0
 11
4.8585
 21
-0.2875000000000005
 31
0
  0
LINE
  8
0
 62
7
 10
4.8585
 20
-0.2875000000000005
 30
0
 11
4.86075
 21
-0.2925000000000005
 31
0
  0
LINE
  8
0
 62
7
 10
4.86075
 20
-0.2925000000000005
 30
0
 11
4.863
 21
-0.3050000000000005
 31
0
  0
LINE
  8
0
 62
7
 10
4.863
 20
-0.3050000000000005
 30
0
 11
4.863
 21
-0.3500000000000005
 31
0
  0
LINE
  8
0
 62
7
 10
4.953
 20
-0.3250000000000006
 30
0
 11
4.95525
 21
-0.3325000000000005
 31
0
  0
LINE
  8
0
 62
7
 10
4.95525
 20
-0.3325000000000005
 30
0
 11
4.962000000000001
 21
-0.3425000000000005
 31
0
  0
LINE
  8
0
 62
7
 10
4.962000000000001
 20
-0.3425000000000005
 30
0
 11
4.96875
 21
-0.3475000000000005
 31
0
  0
LINE
  8
0
 62
7
 10
4.96875
 20
-0.3475000000000005
 30
0
 11
4.9755
 21
-0.3500000000000005
 31
0
  0
LINE
  8
0
 62
7
 10
4.9755
 20
-0.3500000000000005
 30
0
 11
4.984500000000001
 21
-0.3500000000000005
 31
0
  0
LINE
  8
0
 62
7
 10
4.984500000000001
 20
-0.3500000000000005
 30
0
 11
4.991250000000001
 21
-0.3475000000000005
 31
0
  0
LINE
  8
0
 62
7
 10
4.991250000000001
 20
-0.3475000000000005
 30
0
 11
4.998000000000001
 21
-0.3425000000000005
 31
0
  0
LINE
  8
0
 62
7
 10
4.998000000000001
 20
-0.3425000000000005
 30
0
 11
5.00475
 21
-0.3325000000000005
 31
0
  0
LINE
  8
0
 62
7
 10
5.00475
 20
-0.3325000000000005
 30
0
 11
5.007000000000001
 21
-0.3250000000000006
 31
0
  0
LINE
  8
0
 62
7
 10
5.007000000000001
 20
-0.3250000000000006
 30
0
 11
5.007000000000001
 21
-0.3050000000000005
 31
0
  0
LINE
  8
0
 62
7
 10
5.007000000000001
 20
-0.3050000000000005
 30
0
 11
5.00475
 21
-0.2975000000000005
 31
0
  0
LINE
  8
0
 62
7
 10
5.00475
 20
-0.2975000000000005
 30
0
 11
4.998000000000001
 21
-0.2875000000000005
 31
0
  0
LINE
  8
0
 62
7
 10
4.998000000000001
 20
-0.2875000000000005
 30
0
 11
4.991250000000001
 21
-0.2825000000000005
 31
0
  0
LINE
  8
0
 62
7
 10
4.991250000000001
 20
-0.2825000000000005
 30
0
 11
4.984500000000001
 21
-0.2800000000000005
 31
0
  0
LINE
  8
0
 62
7
 10
4.984500000000001
 20
-0.2800000000000005
 30
0
 11
4.9755
 21
-0.2800000000000005
 31
0
  0
LINE
  8
0
 62
7
 10
4.9755
 20
-0.2800000000000005
 30
0
 11
4.96875
 21
-0.2825000000000005
 31
0
  0
LINE
  8
0
 62
7
 10
4.96875
 20
-0.2825000000000005
 30
0
 11
4.962000000000001
 21
-0.2875000000000005
 31
0
  0
LINE
  8
0
 62
7
 10
4.962000000000001
 20
-0.2875000000000005
 30
0
 11
4.95525
 21
-0.2975000000000005
 31
0
  0
LINE
  8
0
 62
7
 10
4.95525
 20
-0.2975000000000005
 30
0
 11
4.953
 21
-0.3050000000000005
 31
0
  0
LINE
  8
0
 62
7
 10
4.953
 20
-0.2500000000000006
 30
0
 11
4.953
 21
-0.3050000000000005
 31
0
  0
LINE
  8
0
 62
7
 10
4.953
 20
-0.3050000000000005
 30
0
 11
4.953
 21
-0.3500000000000005
 31
0
  0
LINE
  8
0
 62
7
 10
5.079000000000001
 20
-0.3325000000000005
 30
0
 11
5.07225
 21
-0.3425000000000005
 31
0
  0
LINE
  8
0
 62
7
 10
5.07225
 20
-0.3425000000000005
 30
0
 11
5.0655
 21
-0.3475000000000005
 31
0
  0
LINE
  8
0
 62
7
 10
5.0655
 20
-0.3475000000000005
 30
0
 11
5.0565
 21
-0.3500000000000005
 31
0
  0
LINE
  8
0
 62
7
 10
5.0565
 20
-0.3500000000000005
 30
0
 11
5.0475
 21
-0.3500000000000005
 31
0
  0
LINE
  8
0
 62
7
 10
5.0475
 20
-0.3500000000000005
 30
0
 11
5.04075
 21
-0.3475000000000005
 31
0
  0
LINE
  8
0
 62
7
 10
5.04075
 20
-0.3475000000000005
 30
0
 11
5.034000000000001
 21
-0.3425000000000005
 31
0
  0
LINE
  8
0
 62
7
 10
5.034000000000001
 20
-0.3425000000000005
 30
0
 11
5.02725
 21
-0.3325000000000005
 31
0
  0
LINE
  8
0
 62
7
 10
5.02725
 20
-0.3325000000000005
 30
0
 11
5.025
 21
-0.3250000000000006
 31
0
  0
LINE
  8
0
 62
7
 10
5.025
 20
-0.3250000000000006
 30
0
 11
5.025
 21
-0.3150000000000006
 31
0
  0
LINE
  8
0
 62
7
 10
5.025
 20
-0.3050000000000005
 30
0
 11
5.02725
 21
-0.2975000000000005
 31
0
  0
LINE
  8
0
 62
7
 10
5.02725
 20
-0.2975000000000005
 30
0
 11
5.034000000000001
 21
-0.2875000000000005
 31
0
  0
LINE
  8
0
 62
7
 10
5.034000000000001
 20
-0.2875000000000005
 30
0
 11
5.04075
 21
-0.2825000000000005
 31
0
  0
LINE
  8
0
 62
7
 10
5.04075
 20
-0.2825000000000005
 30
0
 11
5.0475
 21
-0.2800000000000005
 31
0
  0
LINE
  8
0
 62
7
 10
5.0475
 20
-0.2800000000000005
 30
0
 11
5.0565
 21
-0.2800000000000005
 31
0
  0
LINE
  8
0
 62
7
 10
5.0565
 20
-0.2800000000000005
 30
0
 11
5.06325
 21
-0.2825000000000005
 31
0
  0
LINE
  8
0
 62
7
 10
5.06325
 20
-0.2825000000000005
 30
0
 11
5.07
 21
-0.2875000000000005
 31
0
  0
LINE
  8
0
 62
7
 10
5.07
 20
-0.2875000000000005
 30
0
 11
5.076750000000001
 21
-0.2975000000000005
 31
0
  0
LINE
  8
0
 62
7
 10
5.076750000000001
 20
-0.2975000000000005
 30
0
 11
5.079000000000001
 21
-0.3050000000000005
 31
0
  0
LINE
  8
0
 62
7
 10
5.079000000000001
 20
-0.3050000000000005
 30
0
 11
5.079000000000001
 21
-0.3150000000000006
 31
0
  0
LINE
  8
0
 62
7
 10
5.079000000000001
 20
-0.3150000000000006
 30
0
 11
5.025
 21
-0.3150000000000006
 31
0
  0
LINE
  8
0
 62
7
 10
5.025
 20
-0.3150000000000006
 30
0
 11
5.025
 21
-0.3050000000000005
 31
0
  0
LINE
  8
0
 62
7
 10
5.097
 20
-0.2500000000000006
 30
0
 11
5.097
 21
-0.2550000000000005
 31
0
  0
LINE
  8
0
 62
7
 10
5.097
 20
-0.2800000000000005
 30
0
 11
5.097
 21
-0.3500000000000005
 31
0
  0
LINE
  8
0
 62
7
 10
5.24775
 20
-0.2600000000000005
 30
0
 11
5.241000000000001
 21
-0.2550000000000005
 31
0
  0
LINE
  8
0
 62
7
 10
5.241000000000001
 20
-0.2550000000000005
 30
0
 11
5.234250000000001
 21
-0.2525000000000006
 31
0
  0
LINE
  8
0
 62
7
 10
5.234250000000001
 20
-0.2525000000000006
 30
0
 11
5.223000000000002
 21
-0.2500000000000006
 31
0
  0
LINE
  8
0
 62
7
 10
5.223000000000002
 20
-0.2500000000000006
 30
0
 11
5.214
 21
-0.2500000000000006
 31
0
  0
LINE
  8
0
 62
7
 10
5.214
 20
-0.2500000000000006
 30
0
 11
5.205000000000001
 21
-0.2525000000000006
 31
0
  0
LINE
  8
0
 62
7
 10
5.205000000000001
 20
-0.2525000000000006
 30
0
 11
5.198250000000001
 21
-0.2550000000000005
 31
0
  0
LINE
  8
0
 62
7
 10
5.198250000000001
 20
-0.2550000000000005
 30
0
 11
5.1915
 21
-0.2600000000000005
 31
0
  0
LINE
  8
0
 62
7
 10
5.1915
 20
-0.2600000000000005
 30
0
 11
5.189250000000001
 21
-0.2675000000000005
 31
0
  0
LINE
  8
0
 62
7
 10
5.189250000000001
 20
-0.2675000000000005
 30
0
 11
5.189250000000001
 21
-0.2725000000000005
 31
0
  0
LINE
  8
0
 62
7
 10
5.189250000000001
 20
-0.2725000000000005
 30
0
 11
5.1915
 21
-0.2800000000000005
 31
0
  0
LINE
  8
0
 62
7
 10
5.1915
 20
-0.2800000000000005
 30
0
 11
5.198250000000001
 21
-0.2850000000000005
 31
0
  0
LINE
  8
0
 62
7
 10
5.198250000000001
 20
-0.2850000000000005
 30
0
 11
5.2365
 21
-0.3025000000000005
 31
0
  0
LINE
  8
0
 62
7
 10
5.2365
 20
-0.3025000000000005
 30
0
 11
5.243250000000001
 21
-0.3075000000000006
 31
0
  0
LINE
  8
0
 62
7
 10
5.243250000000001
 20
-0.3075000000000006
 30
0
 11
5.24775
 21
-0.3150000000000006
 31
0
  0
LINE
  8
0
 62
7
 10
5.24775
 20
-0.3150000000000006
 30
0
 11
5.25
 21
-0.3225000000000005
 31
0
  0
LINE
  8
0
 62
7
 10
5.25
 20
-0.3225000000000005
 30
0
 11
5.25
 21
-0.3275000000000006
 31
0
  0
LINE
  8
0
 62
7
 10
5.25
 20
-0.3275000000000006
 30
0
 11
5.24775
 21
-0.3350000000000005
 31
0
  0
LINE
  8
0
 62
7
 10
5.24775
 20
-0.3350000000000005
 30
0
 11
5.243250000000001
 21
-0.3425000000000005
 31
0
  0
LINE
  8
0
 62
7
 10
5.243250000000001
 20
-0.3425000000000005
 30
0
 11
5.2365
 21
-0.3475000000000005
 31
0
  0
LINE
  8
0
 62
7
 10
5.2365
 20
-0.3475000000000005
 30
0
 11
5.22525
 21
-0.3500000000000005
 31
0
  0
LINE
  8
0
 62
7
 10
5.22525
 20
-0.3500000000000005
 30
0
 11
5.211750000000001
 21
-0.3500000000000005
 31
0
  0
LINE
  8
0
 62
7
 10
5.211750000000001
 20
-0.3500000000000005
 30
0
 11
5.200500000000002
 21
-0.3475000000000005
 31
0
  0
LINE
  8
0
 62
7
 10
5.200500000000002
 20
-0.3475000000000005
 30
0
 11
5.1915
 21
-0.3425000000000005
 31
0
  0
LINE
  8
0
 62
7
 10
5.1915
 20
-0.3425000000000005
 30
0
 11
5.187000000000001
 21
-0.3375000000000006
 31
0
  0
LINE
  8
0
 62
7
 10
5.277000000000001
 20
-0.2500000000000006
 30
0
 11
5.277000000000001
 21
-0.3350000000000005
 31
0
  0
LINE
  8
0
 62
7
 10
5.277000000000001
 20
-0.3350000000000005
 30
0
 11
5.279250000000001
 21
-0.3475000000000005
 31
0
  0
LINE
  8
0
 62
7
 10
5.279250000000001
 20
-0.3475000000000005
 30
0
 11
5.28375
 21
-0.3500000000000005
 31
0
  0
LINE
  8
0
 62
7
 10
5.28375
 20
-0.3500000000000005
 30
0
 11
5.286
 21
-0.3500000000000005
 31
0
  0
LINE
  8
0
 62
7
 10
5.268000000000001
 20
-0.2800000000000005
 30
0
 11
5.286
 21
-0.2800000000000005
 31
0
  0
LINE
  8
0
 62
7
 10
5.358000000000001
 20
-0.3325000000000005
 30
0
 11
5.35125
 21
-0.3425000000000005
 31
0
  0
LINE
  8
0
 62
7
 10
5.35125
 20
-0.3425000000000005
 30
0
 11
5.3445
 21
-0.3475000000000005
 31
0
  0
LINE
  8
0
 62
7
 10
5.3445
 20
-0.3475000000000005
 30
0
 11
5.335500000000001
 21
-0.3500000000000005
 31
0
  0
LINE
  8
0
 62
7
 10
5.335500000000001
 20
-0.3500000000000005
 30
0
 11
5.3265
 21
-0.3500000000000005
 31
0
  0
LINE
  8
0
 62
7
 10
5.3265
 20
-0.3500000000000005
 30
0
 11
5.31975
 21
-0.3475000000000005
 31
0
  0
LINE
  8
0
 62
7
 10
5.31975
 20
-0.3475000000000005
 30
0
 11
5.313000000000001
 21
-0.3425000000000005
 31
0
  0
LINE
  8
0
 62
7
 10
5.313000000000001
 20
-0.3425000000000005
 30
0
 11
5.30625
 21
-0.3325000000000005
 31
0
  0
LINE
  8
0
 62
7
 10
5.30625
 20
-0.3325000000000005
 30
0
 11
5.304
 21
-0.3250000000000006
 31
0
  0
LINE
  8
0
 62
7
 10
5.304
 20
-0.3250000000000006
 30
0
 11
5.304
 21
-0.3150000000000006
 31
0
  0
LINE
  8
0
 62
7
 10
5.304
 20
-0.3050000000000005
 30
0
 11
5.30625
 21
-0.2975000000000005
 31
0
  0
LINE
  8
0
 62
7
 10
5.30625
 20
-0.2975000000000005
 30
0
 11
5.313000000000001
 21
-0.2875000000000005
 31
0
  0
LINE
  8
0
 62
7
 10
5.313000000000001
 20
-0.2875000000000005
 30
0
 11
5.31975
 21
-0.2825000000000005
 31
0
  0
LINE
  8
0
 62
7
 10
5.31975
 20
-0.2825000000000005
 30
0
 11
5.3265
 21
-0.2800000000000005
 31
0
  0
LINE
  8
0
 62
7
 10
5.3265
 20
-0.2800000000000005
 30
0
 11
5.335500000000001
 21
-0.2800000000000005
 31
0
  0
LINE
  8
0
 62
7
 10
5.335500000000001
 20
-0.2800000000000005
 30
0
 11
5.34225
 21
-0.2825000000000005
 31
0
  0
LINE
  8
0
 62
7
 10
5.34225
 20
-0.2825000000000005
 30
0
 11
5.349
 21
-0.2875000000000005
 31
0
  0
LINE
  8
0
 62
7
 10
5.349
 20
-0.2875000000000005
 30
0
 11
5.35575
 21
-0.2975000000000005
 31
0
  0
LINE
  8
0
 62
7
 10
5.35575
 20
-0.2975000000000005
 30
0
 11
5.358000000000001
 21
-0.3050000000000005
 31
0
  0
LINE
  8
0
 62
7
 10
5.358000000000001
 20
-0.3050000000000005
 30
0
 11
5.358000000000001
 21
-0.3150000000000006
 31
0
  0
LINE
  8
0
 62
7
 10
5.358000000000001
 20
-0.3150000000000006
 30
0
 11
5.304
 21
-0.3150000000000006
 31
0
  0
LINE
  8
0
 62
7
 10
5.304
 20
-0.3150000000000006
 30
0
 11
5.304
 21
-0.3050000000000005
 31
0
  0
LINE
  8
0
 62
7
 10
5.376
 20
-0.2500000000000006
 30
0
 11
5.376
 21
-0.2550000000000005
 31
0
  0
LINE
  8
0
 62
7
 10
5.376
 20
-0.2800000000000005
 30
0
 11
5.376
 21
-0.3500000000000005
 31
0
  0
LINE
  8
0
 62
7
 10
5.394
 20
-0.3050000000000005
 30
0
 11
5.39625
 21
-0.2975000000000005
 31
0
  0
LINE
  8
0
 62
7
 10
5.39625
 20
-0.2975000000000005
 30
0
 11
5.403000000000001
 21
-0.2875000000000005
 31
0
  0
LINE
  8
0
 62
7
 10
5.403000000000001
 20
-0.2875000000000005
 30
0
 11
5.409750000000001
 21
-0.2825000000000005
 31
0
  0
LINE
  8
0
 62
7
 10
5.409750000000001
 20
-0.2825000000000005
 30
0
 11
5.4165
 21
-0.2800000000000005
 31
0
  0
LINE
  8
0
 62
7
 10
5.4165
 20
-0.2800000000000005
 30
0
 11
5.425500000000001
 21
-0.2800000000000005
 31
0
  0
LINE
  8
0
 62
7
 10
5.425500000000001
 20
-0.2800000000000005
 30
0
 11
5.43225
 21
-0.2825000000000005
 31
0
  0
LINE
  8
0
 62
7
 10
5.43225
 20
-0.2825000000000005
 30
0
 11
5.439
 21
-0.2875000000000005
 31
0
  0
LINE
  8
0
 62
7
 10
5.439
 20
-0.2875000000000005
 30
0
 11
5.44575
 21
-0.2975000000000005
 31
0
  0
LINE
  8
0
 62
7
 10
5.44575
 20
-0.2975000000000005
 30
0
 11
5.448000000000001
 21
-0.3050000000000005
 31
0
  0
LINE
  8
0
 62
7
 10
5.448000000000001
 20
-0.3050000000000005
 30
0
 11
5.448000000000001
 21
-0.3500000000000005
 31
0
  0
LINE
  8
0
 62
7
 10
5.394
 20
-0.2800000000000005
 30
0
 11
5.394
 21
-0.3050000000000005
 31
0
  0
LINE
  8
0
 62
7
 10
5.394
 20
-0.3050000000000005
 30
0
 11
5.394
 21
-0.3500000000000005
 31
0
  0
LINE
  8
0
 62
7
 10
5.52
 20
-0.2950000000000005
 30
0
 11
5.515500000000001
 21
-0.2875000000000005
 31
0
  0
LINE
  8
0
 62
7
 10
5.515500000000001
 20
-0.2875000000000005
 30
0
 11
5.50875
 21
-0.2825000000000005
 31
0
  0
LINE
  8
0
 62
7
 10
5.50875
 20
-0.2825000000000005
 30
0
 11
5.4975
 21
-0.2800000000000005
 31
0
  0
LINE
  8
0
 62
7
 10
5.4975
 20
-0.2800000000000005
 30
0
 11
5.4885
 21
-0.2800000000000005
 31
0
  0
LINE
  8
0
 62
7
 10
5.4885
 20
-0.2800000000000005
 30
0
 11
5.479500000000001
 21
-0.2825000000000005
 31
0
  0
LINE
  8
0
 62
7
 10
5.479500000000001
 20
-0.2825000000000005
 30
0
 11
5.47275
 21
-0.2875000000000005
 31
0
  0
LINE
  8
0
 62
7
 10
5.47275
 20
-0.2875000000000005
 30
0
 11
5.468250000000001
 21
-0.2925000000000005
 31
0
  0
LINE
  8
0
 62
7
 10
5.468250000000001
 20
-0.2925000000000005
 30
0
 11
5.466000000000001
 21
-0.2975000000000005
 31
0
  0
LINE
  8
0
 62
7
 10
5.466000000000001
 20
-0.2975000000000005
 30
0
 11
5.466000000000001
 21
-0.3025000000000005
 31
0
  0
LINE
  8
0
 62
7
 10
5.466000000000001
 20
-0.3025000000000005
 30
0
 11
5.468250000000001
 21
-0.3075000000000006
 31
0
  0
LINE
  8
0
 62
7
 10
5.468250000000001
 20
-0.3075000000000006
 30
0
 11
5.47275
 21
-0.3100000000000005
 31
0
  0
LINE
  8
0
 62
7
 10
5.47275
 20
-0.3100000000000005
 30
0
 11
5.51325
 21
-0.3200000000000005
 31
0
  0
LINE
  8
0
 62
7
 10
5.51325
 20
-0.3200000000000005
 30
0
 11
5.51775
 21
-0.3225000000000005
 31
0
  0
LINE
  8
0
 62
7
 10
5.51775
 20
-0.3225000000000005
 30
0
 11
5.52
 21
-0.3275000000000006
 31
0
  0
LINE
  8
0
 62
7
 10
5.52
 20
-0.3275000000000006
 30
0
 11
5.52
 21
-0.3325000000000005
 31
0
  0
LINE
  8
0
 62
7
 10
5.52
 20
-0.3325000000000005
 30
0
 11
5.51775
 21
-0.3375000000000006
 31
0
  0
LINE
  8
0
 62
7
 10
5.51775
 20
-0.3375000000000006
 30
0
 11
5.51325
 21
-0.3425000000000005
 31
0
  0
LINE
  8
0
 62
7
 10
5.51325
 20
-0.3425000000000005
 30
0
 11
5.5065
 21
-0.3475000000000005
 31
0
  0
LINE
  8
0
 62
7
 10
5.5065
 20
-0.3475000000000005
 30
0
 11
5.4975
 21
-0.3500000000000005
 31
0
  0
LINE
  8
0
 62
7
 10
5.4975
 20
-0.3500000000000005
 30
0
 11
5.4885
 21
-0.3500000000000005
 31
0
  0
LINE
  8
0
 62
7
 10
5.4885
 20
-0.3500000000000005
 30
0
 11
5.477250000000001
 21
-0.3475000000000005
 31
0
  0
LINE
  8
0
 62
7
 10
5.477250000000001
 20
-0.3475000000000005
 30
0
 11
5.470500000000001
 21
-0.3425000000000005
 31
0
  0
LINE
  8
0
 62
7
 10
5.470500000000001
 20
-0.3425000000000005
 30
0
 11
5.466000000000001
 21
-0.3350000000000005
 31
0
  0
LINE
  8
0
 62
7
 10
5.547000000000001
 20
-0.2500000000000006
 30
0
 11
5.547000000000001
 21
-0.3350000000000005
 31
0
  0
LINE
  8
0
 62
7
 10
5.547000000000001
 20
-0.3350000000000005
 30
0
 11
5.549250000000001
 21
-0.3475000000000005
 31
0
  0
LINE
  8
0
 62
7
 10
5.549250000000001
 20
-0.3475000000000005
 30
0
 11
5.553750000000001
 21
-0.3500000000000005
 31
0
  0
LINE
  8
0
 62
7
 10
5.553750000000001
 20
-0.3500000000000005
 30
0
 11
5.556000000000001
 21
-0.3500000000000005
 31
0
  0
LINE
  8
0
 62
7
 10
5.538000000000001
 20
-0.2800000000000005
 30
0
 11
5.556000000000001
 21
-0.2800000000000005
 31
0
  0
LINE
  8
0
 62
7
 10
5.628000000000001
 20
-0.2800000000000005
 30
0
 11
5.628000000000001
 21
-0.3250000000000006
 31
0
  0
LINE
  8
0
 62
7
 10
5.574000000000001
 20
-0.2800000000000005
 30
0
 11
5.574000000000001
 21
-0.3250000000000006
 31
0
  0
LINE
  8
0
 62
7
 10
5.574000000000001
 20
-0.3250000000000006
 30
0
 11
5.576250000000001
 21
-0.3325000000000005
 31
0
  0
LINE
  8
0
 62
7
 10
5.576250000000001
 20
-0.3325000000000005
 30
0
 11
5.583000000000002
 21
-0.3425000000000005
 31
0
  0
LINE
  8
0
 62
7
 10
5.583000000000002
 20
-0.3425000000000005
 30
0
 11
5.58975
 21
-0.3475000000000005
 31
0
  0
LINE
  8
0
 62
7
 10
5.58975
 20
-0.3475000000000005
 30
0
 11
5.596500000000001
 21
-0.3500000000000005
 31
0
  0
LINE
  8
0
 62
7
 10
5.596500000000001
 20
-0.3500000000000005
 30
0
 11
5.605500000000001
 21
-0.3500000000000005
 31
0
  0
LINE
  8
0
 62
7
 10
5.605500000000001
 20
-0.3500000000000005
 30
0
 11
5.61225
 21
-0.3475000000000005
 31
0
  0
LINE
  8
0
 62
7
 10
5.61225
 20
-0.3475000000000005
 30
0
 11
5.619
 21
-0.3425000000000005
 31
0
  0
LINE
  8
0
 62
7
 10
5.619
 20
-0.3425000000000005
 30
0
 11
5.62575
 21
-0.3325000000000005
 31
0
  0
LINE
  8
0
 62
7
 10
5.62575
 20
-0.3325000000000005
 30
0
 11
5.628000000000001
 21
-0.3250000000000006
 31
0
  0
LINE
  8
0
 62
7
 10
5.628000000000001
 20
-0.3250000000000006
 30
0
 11
5.628000000000001
 21
-0.3500000000000005
 31
0
  0
LINE
  8
0
 62
7
 10
5.646000000000001
 20
-0.2850000000000005
 30
0
 11
5.673000000000002
 21
-0.2850000000000005
 31
0
  0
LINE
  8
0
 62
7
 10
5.655000000000001
 20
-0.3500000000000005
 30
0
 11
5.655000000000001
 21
-0.2675000000000005
 31
0
  0
LINE
  8
0
 62
7
 10
5.655000000000001
 20
-0.2675000000000005
 30
0
 11
5.65725
 21
-0.2575000000000005
 31
0
  0
LINE
  8
0
 62
7
 10
5.65725
 20
-0.2575000000000005
 30
0
 11
5.661750000000001
 21
-0.2525000000000006
 31
0
  0
LINE
  8
0
 62
7
 10
5.661750000000001
 20
-0.2525000000000006
 30
0
 11
5.668500000000001
 21
-0.2500000000000006
 31
0
  0
LINE
  8
0
 62
7
 10
5.668500000000001
 20
-0.2500000000000006
 30
0
 11
5.673000000000002
 21
-0.2500000000000006
 31
0
  0
LINE
  8
0
 62
7
 10
5.745000000000001
 20
-0.3325000000000005
 30
0
 11
5.738250000000001
 21
-0.3425000000000005
 31
0
  0
LINE
  8
0
 62
7
 10
5.738250000000001
 20
-0.3425000000000005
 30
0
 11
5.7315
 21
-0.3475000000000005
 31
0
  0
LINE
  8
0
 62
7
 10
5.7315
 20
-0.3475000000000005
 30
0
 11
5.7225
 21
-0.3500000000000005
 31
0
  0
LINE
  8
0
 62
7
 10
5.7225
 20
-0.3500000000000005
 30
0
 11
5.7135
 21
-0.3500000000000005
 31
0
  0
LINE
  8
0
 62
7
 10
5.7135
 20
-0.3500000000000005
 30
0
 11
5.706750000000001
 21
-0.3475000000000005
 31
0
  0
LINE
  8
0
 62
7
 10
5.706750000000001
 20
-0.3475000000000005
 30
0
 11
5.7
 21
-0.3425000000000005
 31
0
  0
LINE
  8
0
 62
7
 10
5.7
 20
-0.3425000000000005
 30
0
 11
5.693250000000001
 21
-0.3325000000000005
 31
0
  0
LINE
  8
0
 62
7
 10
5.693250000000001
 20
-0.3325000000000005
 30
0
 11
5.691000000000001
 21
-0.3250000000000006
 31
0
  0
LINE
  8
0
 62
7
 10
5.691000000000001
 20
-0.3250000000000006
 30
0
 11
5.691000000000001
 21
-0.3150000000000006
 31
0
  0
LINE
  8
0
 62
7
 10
5.691000000000001
 20
-0.3050000000000005
 30
0
 11
5.693250000000001
 21
-0.2975000000000005
 31
0
  0
LINE
  8
0
 62
7
 10
5.693250000000001
 20
-0.2975000000000005
 30
0
 11
5.7
 21
-0.2875000000000005
 31
0
  0
LINE
  8
0
 62
7
 10
5.7
 20
-0.2875000000000005
 30
0
 11
5.706750000000001
 21
-0.2825000000000005
 31
0
  0
LINE
  8
0
 62
7
 10
5.706750000000001
 20
-0.2825000000000005
 30
0
 11
5.7135
 21
-0.2800000000000005
 31
0
  0
LINE
  8
0
 62
7
 10
5.7135
 20
-0.2800000000000005
 30
0
 11
5.7225
 21
-0.2800000000000005
 31
0
  0
LINE
  8
0
 62
7
 10
5.7225
 20
-0.2800000000000005
 30
0
 11
5.729250000000001
 21
-0.2825000000000005
 31
0
  0
LINE
  8
0
 62
7
 10
5.729250000000001
 20
-0.2825000000000005
 30
0
 11
5.736000000000001
 21
-0.2875000000000005
 31
0
  0
LINE
  8
0
 62
7
 10
5.736000000000001
 20
-0.2875000000000005
 30
0
 11
5.742750000000001
 21
-0.2975000000000005
 31
0
  0
LINE
  8
0
 62
7
 10
5.742750000000001
 20
-0.2975000000000005
 30
0
 11
5.745000000000001
 21
-0.3050000000000005
 31
0
  0
LINE
  8
0
 62
7
 10
5.745000000000001
 20
-0.3050000000000005
 30
0
 11
5.745000000000001
 21
-0.3150000000000006
 31
0
  0
LINE
  8
0
 62
7
 10
5.745000000000001
 20
-0.3150000000000006
 30
0
 11
5.691000000000001
 21
-0.3150000000000006
 31
0
  0
LINE
  8
0
 62
7
 10
5.691000000000001
 20
-0.3150000000000006
 30
0
 11
5.691000000000001
 21
-0.3050000000000005
 31
0
  0
LINE
  8
0
 62
7
 10
5.763000000000002
 20
-0.3050000000000005
 30
0
 11
5.765250000000001
 21
-0.2975000000000005
 31
0
  0
LINE
  8
0
 62
7
 10
5.765250000000001
 20
-0.2975000000000005
 30
0
 11
5.772
 21
-0.2875000000000005
 31
0
  0
LINE
  8
0
 62
7
 10
5.772
 20
-0.2875000000000005
 30
0
 11
5.77875
 21
-0.2825000000000005
 31
0
  0
LINE
  8
0
 62
7
 10
5.77875
 20
-0.2825000000000005
 30
0
 11
5.785500000000002
 21
-0.2800000000000005
 31
0
  0
LINE
  8
0
 62
7
 10
5.785500000000002
 20
-0.2800000000000005
 30
0
 11
5.7945
 21
-0.2800000000000005
 31
0
  0
LINE
  8
0
 62
7
 10
5.7945
 20
-0.2800000000000005
 30
0
 11
5.80125
 21
-0.2825000000000005
 31
0
  0
LINE
  8
0
 62
7
 10
5.80125
 20
-0.2825000000000005
 30
0
 11
5.808000000000002
 21
-0.2875000000000005
 31
0
  0
LINE
  8
0
 62
7
 10
5.808000000000002
 20
-0.2875000000000005
 30
0
 11
5.81475
 21
-0.2975000000000005
 31
0
  0
LINE
  8
0
 62
7
 10
5.81475
 20
-0.2975000000000005
 30
0
 11
5.817
 21
-0.3050000000000005
 31
0
  0
LINE
  8
0
 62
7
 10
5.817
 20
-0.3050000000000005
 30
0
 11
5.817
 21
-0.3500000000000005
 31
0
  0
LINE
  8
0
 62
7
 10
5.763000000000002
 20
-0.2800000000000005
 30
0
 11
5.763000000000002
 21
-0.3050000000000005
 31
0
  0
LINE
  8
0
 62
7
 10
5.763000000000002
 20
-0.3050000000000005
 30
0
 11
5.763000000000002
 21
-0.3500000000000005
 31
0
  0
ARC
  8
0
 62
7
 10
4.668826476237999
 20
1.274662657975801
 30
0
 40
0.6199999999999491
 50
340.7065983147116
 51
3.809735215150281
  0
ARC
  8
0
 62
7
 10
4.668826476237999
 20
1.274662657975801
 30
0
 40
0.6200000000000079
 50
3.809735215150281
 51
26.91287211557847
  0
ARC
  8
0
 62
7
 10
4.668826476237999
 20
1.274662657975801
 30
0
 40
0.6199999999998929
 50
26.91287211557847
 51
50.0160090160163
  0
ARC
  8
0
 62
7
 10
1.968826476237999
 20
1.274662657975801
 30
0
 40
1.045000000000007
 50
53.47951623308052
 51
126.5204837669208
  0
ARC
  8
0
 62
7
 10
1.968826476237999
 20
1.274662657975801
 30
0
 40
0.6199999999999752
 50
129.9839909839837
 51
132.7783662107937
  0
ARC
  8
0
 62
7
 10
1.968826476237999
 20
1.274662657975801
 30
0
 40
0.6200000000000183
 50
109.6752293103571
 51
129.9839909839837
  0
ARC
  8
0
 62
7
 10
1.968826476237999
 20
1.274662657975801
 30
0
 40
0.6200000000000366
 50
132.7783662107937
 51
155.8815031112323
  0
ARC
  8
0
 62
7
 10
1.968826476237999
 20
1.274662657975801
 30
0
 40
0.6199999999999591
 50
155.8815031112323
 51
178.9846400116578
  0
ARC
  8
0
 62
7
 10
1.968826476237999
 20
1.274662657975801
 30
0
 40
0.6199999999999857
 50
178.9846400116578
 51
202.087776912099
  0
ARC
  8
0
 62
7
 10
1.968826476237999
 20
1.274662657975801
 30
0
 40
0.6200000000000309
 50
202.087776912099
 51
225.1909138125256
  0
ARC
  8
0
 62
7
 10
1.968826476237999
 20
1.274662657975801
 30
0
 40
0.6199999999999987
 50
225.1909138125256
 51
248.2940507129643
  0
ARC
  8
0
 62
7
 10
1.968826476237999
 20
1.274662657975801
 30
0
 40
0.6199999999999353
 50
248.2940507129643
 51
271.3971876134051
  0
ARC
  8
0
 62
7
 10
1.968826476237999
 20
1.274662657975801
 30
0
 40
0.6200000000000681
 50
271.3971876134051
 51
294.5003245138359
  0
ARC
  8
0
 62
7
 10
1.968826476237999
 20
1.274662657975801
 30
0
 40
0.6200000000000119
 50
294.5003245138359
 51
317.6034614142752
  0
ARC
  8
0
 62
7
 10
1.968826476237999
 20
1.274662657975801
 30
0
 40
0.6200000000000868
 50
317.6034614142752
 51
340.7065983147116
  0
ARC
  8
0
 62
7
 10
1.968826476237999
 20
1.274662657975801
 30
0
 40
0.619999999999949
 50
340.7065983147116
 51
3.809735215150277
  0
ARC
  8
0
 62
7
 10
1.968826476237999
 20
1.274662657975801
 30
0
 40
0.6200000000000085
 50
3.809735215150277
 51
26.91287211557843
  0
ARC
  8
0
 62
7
 10
1.968826476237999
 20
1.274662657975801
 30
0
 40
0.619999999999894
 50
26.91287211557843
 51
50.01600901601628
  0
ARC
  8
0
 62
7
  6
DASHDOT
 10
1.968826476237999
 20
1.274662657975801
 30
0
 40
1.075
 50
90
 51
180
  0
ARC
  8
0
 62
7
  6
DASHDOT
 10
1.968826476237999
 20
1.274662657975801
 30
0
 40
1.075
 50
180
 51
270
  0
ARC
  8
0
 62
7
  6
DASHDOT
 10
1.968826476237999
 20
1.274662657975801
 30
0
 40
1.075
 50
270
 51
90
  0
CIRCLE
  8
0
 62
7
  6
DASHED
 10
1.760079791689204
 20
1.858464697788877
 30
0
 40
0.06000000000000005
  0
DIMENSION
  8
0
  6
CONTINUOUS
 62
7
  2
*D0
  3
DMST_1
 10
0.8938264762379988
 20
6.966905055850861
 30
0
 11
1.96346260483943
 21
6.966905055850861
 31
0
 12
0
 22
0
 32
0
 70
0
 13
3.043826476237999
 23
6.394662657975801
 33
0
 14
0.8938264762379987
 24
6.394662657975801
 34
0
 53
0
  0
DIMENSION
  8
0
  6
CONTINUOUS
 62
7
  2
*D2
  3
DMST_2
 10
2.968826476238
 20
2.684250673203771
 30
0
 11
1.98384924663008
 21
2.684250673203771
 31
0
 12
0
 22
0
 32
0
 70
0
 13
0.9688264762379988
 23
1.274662657975801
 33
0
 14
2.968826476238
 24
1.274662657975801
 34
0
 53
0
  0
DIMENSION
  8
0
  6
CONTINUOUS
 62
7
  2
*D3
  3
DMST_2
 10
5.743826476238
 20
2.69299834910608
 30
0
 11
4.67813342453976
 21
2.69299834910608
 31
0
 12
0
 22
0
 32
0
 70
0
 13
3.593826476238
 23
2.349662657975801
 33
0
 14
5.743826476238
 24
2.349662657975801
 34
0
 53
0
  0
DIMENSION
  8
0
  6
CONTINUOUS
 62
7
  2
*D4
  3
DMST_2
 10
3.32141900415599
 20
0.199662657975801
 30
0
 11
3.32141900415599
 21
1.22262931360915
 31
0
 12
0
 22
0
 32
0
 70
0
 13
1.968826476237999
 23
2.349662657975801
 33
0
 14
1.968826476237999
 24
0.1996626579758008
 34
0
 50
90
 53
0
  0
INSERT
  8
0
  2
*D1
 10
0
 20
0
 30
0
  0
ENDSEC
  0
EOF
