  0
SECTION
  2
HEADER
  9
$ACADVER
  1
AC1009
  9
$INSBASE
 10
0
 20
0
  9
$EXTMIN
 10
0.595058948974834
 20
2.890000000000003
  9
$EXTMAX
 10
8.25
 20
11.5169278968784
  9
$LIMMIN
 10
0.595058948974834
 20
2.890000000000003
  9
$LIMMAX
 10
8.25
 20
11.5169278968784
  9
$VIEWCTR
 10
10
 20
10
  9
$VIEWSIZE
 40
10
  9
$SNAPMODE
 70
0
  9
$SNAPUNIT
 10
1
 20
1
  9
$SNAPBASE
 10
0
 20
0
  9
$SNAPANG
 50
0
  9
$SNAPSTYLE
 70
0
  9
$SNAPISOPAIR
 70
0
  9
$GRIDMODE
 70
0
  9
$GRIDUNIT
 10
0
 20
0
  9
$ORTHOMODE
 70
0
  9
$REGENMODE
 70
1
  9
$FILLMODE
 70
1
  9
$QTEXTMODE
 70
0
  9
$DRAGMODE
 70
2
  9
$LTSCALE
 40
1
  9
$OSMODE
 70
0
  9
$ATTMODE
 70
1
  9
$TEXTSIZE
 40
3.5
  9
$TRACEWID
 40
0.5
  9
$TEXTSTYLE
  7
STANDARD
  9
$CLAYER
  8
0
  9
$CELTYPE
  6
BYLAYER
  9
$CECOLOR
 62
256
  9
$DIMSCALE
 40
1
  9
$DIMASZ
 40
0.18
  9
$DIMEXO
 40
0.0625
  9
$DIMDLI
 40
0.38
  9
$DIMRND
 40
0
  9
$DIMDLE
 40
0
  9
$DIMEXE
 40
0.18
  9
$DIMTP
 40
0
  9
$DIMTM
 40
0
  9
$DIMTXT
 40
0.18
  9
$DIMCEN
 40
0.09
  9
$DIMTSZ
 40
0
  9
$DIMTOL
 70
0
  9
$DIMLIM
 70
0
  9
$DIMTIH
 70
1
  9
$DIMTOH
 70
1
  9
$DIMSE1
 70
0
  9
$DIMSE2
 70
0
  9
$DIMTAD
 70
0
  9
$DIMZIN
 70
0
  9
$DIMBLK
  1

  9
$DIMASO
 70
1
  9
$DIMSHO
 70
1
  9
$DIMPOST
  1

  9
$DIMAPOST
  1

  9
$DIMALT
 70
0
  9
$DIMALTD
 70
2
  9
$DIMALTF
 40
25.4
  9
$DIMLFAC
 40
1
  9
$DIMTOFL
 70
0
  9
$DIMTVP
 40
0
  9
$DIMTIX
 70
0
  9
$DIMSOXD
 70
0
  9
$DIMSAH
 70
0
  9
$DIMBLK1
  1

  9
$DIMBLK2
  1

  9
$DIMSTYLE
  2
*UNNAMED
  9
$DIMCLRD
 70
0
  9
$DIMCLRE
 70
0
  9
$DIMCLRT
 70
0
  9
$DIMTFAC
 40
1
  9
$DIMGAP
 40
0.09
  9
$LUNITS
 70
2
  9
$LUPREC
 70
4
  9
$AXISMODE
 70
0
  9
$AXISUNIT
 10
0
 20
0
  9
$SKETCHINC
 40
0.1
  9
$FILLETRAD
 40
2
  9
$AUNITS
 70
0
  9
$AUPREC
 70
0
  9
$MENU
  1
ACAD
  9
$ELEVATION
 40
0
  9
$THICKNESS
 40
0
  9
$VIEWDIR
 10
0
 20
0
 30
1
  9
$LIMCHECK
 70
0
  9
$BLIPMODE
 70
1
  9
$CHAMFERA
 40
0
  9
$CHAMFERB
 40
0
  9
$FASTZOOM
 70
1
  9
$SKPOLY
 70
0
  9
$ANGBASE
 50
0
  9
$ANGDIR
 70
0
  9
$PDMODE
 70
0
  9
$PDSIZE
 40
0
  9
$PLINEWID
 40
0
  9
$COORDS
 70
2
  0
ENDSEC
  0
SECTION
  2
TABLES
  0
TABLE
  2
DIMSTYLE
 70
1
  0
DIMSTYLE
  2
DMST_1
 70
0
  3

  4

  5

  6

  7

 40
1
 41
0.1
 42
0
 43
0.7
 44
0.2
 45
0
 46
0
 47
0
 48
0
140
0.1
141
0
142
0.1
143
25.4
144
1
145
0
146
1
147
0.25
 71
0
 72
0
 73
0
 74
0
 75
0
 76
0
 77
0
 78
9
170
0
171
2
172
0
173
0
174
0
175
0
176
7
177
7
178
7
  0
ENDTAB
  0
TABLE
  2
LTYPE
 70
9
  0
LTYPE
  2
CONTINUOUS
 70
64
  3
Solid line
 72
65
 73
0
 40
0
  0
LTYPE
  2
BORDER
 70
64
  3
__ __ . __ __ .
 72
65
 73
6
 40
0.3972927320930841
 49
0.1135122091694526
 49
-0.0567561045847263
 49
0.1135122091694526
 49
-0.0567561045847263
 49
0
 49
-0.0567561045847263
  0
LTYPE
  2
CENTER
 70
64
  3
____ _ ____ _
 72
65
 73
4
 40
0.4540488366778104
 49
0.2837805229236315
 49
-0.0567561045847263
 49
0.0567561045847263
 49
-0.0567561045847263
  0
LTYPE
  2
DASHDOT
 70
64
  3
__ . __ . __ .
 72
65
 73
4
 40
0.2270244183389052
 49
0.1135122091694526
 49
-0.0567561045847263
 49
0
 49
-0.0567561045847263
  0
LTYPE
  2
DASHED
 70
64
  3
__ __ __ __ __
 72
65
 73
2
 40
0.1702683137541789
 49
0.1135122091694526
 49
-0.0567561045847263
  0
LTYPE
  2
DIVIDE
 70
64
  3
__ . . __ . . 
 72
65
 73
6
 40
0.2837805229236315
 49
0.1135122091694526
 49
-0.0567561045847263
 49
0
 49
-0.0567561045847263
 49
0
 49
-0.0567561045847263
  0
LTYPE
  2
DOT
 70
64
  3
..............
 72
65
 73
4
 40
0.1135122091694526
 49
0
 49
-0.0567561045847263
 49
0
 49
-0.0567561045847263
  0
LTYPE
  2
HIDDEN
 70
64
  3
_ _ _ _ _ _ _
 72
65
 73
2
 40
0.08513415687708945
 49
0.0567561045847263
 49
-0.02837805229236315
  0
LTYPE
  2
PHANTOM
 70
64
  3
_____ _ _ _____ _ _ 
 72
65
 73
6
 40
0.567561045847263
 49
0.2837805229236315
 49
-0.0567561045847263
 49
0.0567561045847263
 49
-0.0567561045847263
 49
0.0567561045847263
 49
-0.0567561045847263
  0
ENDTAB
  0
TABLE
  2
LAYER
 70
2
  0
LAYER
  2
0
 70
0
 62
7
  6
CONTINUOUS
  0
ENDTAB
  0
TABLE
  2
STYLE
 70
4
  0
STYLE
  2
STANDARD
 70
0
 40
0
 41
1
 50
0
 71
0
 42
3.5
  3
txt
  4

  0
STYLE
  2
SIMPLEX
 70
0
 40
0
 41
1
 50
0
 71
0
 42
3.5
  3
simplex
  4

  0
STYLE
  2
COMPLEX
 70
0
 40
0
 41
1
 50
0
 71
0
 42
3.5
  3
complex
  4

  0
STYLE
  2
ITALIC
 70
0
 40
0
 41
1
 50
0
 71
0
 42
3.5
  3
italic
  4

  0
ENDTAB
  0
TABLE
  2
VIEW
 70
0
  0
ENDTAB
  0
ENDSEC
  0
SECTION
  2
BLOCKS
  0
BLOCK
  8
0
  2
*X0
 70
1
 10
0
 20
0
 30
0
  0
LINE
  8
0
 62
7
  6
DASHED
 10
7.960000000000002
 20
8.278198051533948
 30
0
 11
7.98180194846605
 21
8.299999999999997
 31
0
  0
LINE
  8
0
 62
7
  6
DASHED
 10
7.993933982822015
 20
8.099999999999998
 30
0
 11
8.193933982822013
 21
8.299999999999997
 31
0
  0
LINE
  8
0
 62
7
 10
7.960000000000001
 20
8.172132034355965
 30
0
 11
8.087867965644033
 21
8.299999999999995
 31
0
  0
LINE
  8
0
 62
7
 10
8.099999999999998
 20
8.099999999999998
 30
0
 11
8.200000000000003
 21
8.200000000000001
 31
0
  0
ENDBLK
  8
0
  0
BLOCK
  8
0
  2
*X1
 70
1
 10
0
 20
0
 30
0
  0
LINE
  8
0
 62
7
  6
DASHED
 10
7.959999999999999
 20
11.03591449816148
 30
0
 11
7.97408550183852
 21
11.05
 31
0
  0
LINE
  8
0
 62
7
  6
DASHED
 10
7.986217536194484
 20
10.85
 30
0
 11
8.186217536194484
 21
11.05
 31
0
  0
LINE
  8
0
 62
7
  6
DASHED
 10
8.198349570550448
 20
10.85
 30
0
 11
8.200000000000001
 21
10.85165042944955
 31
0
  0
LINE
  8
0
 62
7
 10
7.960000000000002
 20
10.9298484809835
 30
0
 11
8.0801515190165
 21
11.05
 31
0
  0
LINE
  8
0
 62
7
 10
8.092283553372464
 20
10.85
 30
0
 11
8.199999999999999
 21
10.95771644662753
 31
0
  0
ENDBLK
  8
0
  0
BLOCK
  8
0
  2
*X2
 70
1
 10
0
 20
0
 30
0
  0
LINE
  8
0
 62
7
  6
DASHED
 10
6.579999999999998
 20
10.92870670429726
 30
0
 11
6.701293295702735
 21
11.05
 31
0
  0
LINE
  8
0
 62
7
  6
DASHED
 10
6.713425330058699
 20
10.85
 30
0
 11
6.879999999999998
 21
11.0165746699413
 31
0
  0
LINE
  8
0
 62
7
 10
6.58
 20
11.03477272147525
 30
0
 11
6.595227278524755
 21
11.05
 31
0
  0
LINE
  8
0
 62
7
 10
6.607359312880718
 20
10.85
 30
0
 11
6.807359312880719
 21
11.05
 31
0
  0
LINE
  8
0
 62
7
 10
6.819491347236681
 20
10.85
 30
0
 11
6.880000000000001
 21
10.91050865276332
 31
0
  0
ENDBLK
  8
0
  0
BLOCK
  8
0
  2
*X3
 70
1
 10
0
 20
0
 30
0
  0
LINE
  8
0
 62
7
  6
DASHED
 10
6.58
 20
8.170990257669731
 30
0
 11
6.709009742330267
 21
8.299999999999997
 31
0
  0
LINE
  8
0
 62
7
  6
DASHED
 10
6.721141776686231
 20
8.099999999999998
 30
0
 11
6.88
 21
8.258858223313766
 31
0
  0
LINE
  8
0
 62
7
 10
6.580000000000001
 20
8.277056274847714
 30
0
 11
6.602943725152285
 21
8.299999999999997
 31
0
  0
LINE
  8
0
 62
7
 10
6.61507575950825
 20
8.099999999999998
 30
0
 11
6.815075759508249
 21
8.299999999999997
 31
0
  0
LINE
  8
0
 62
7
 10
6.827207793864214
 20
8.099999999999998
 30
0
 11
6.880000000000001
 21
8.152792206135784
 31
0
  0
ENDBLK
  8
0
  0
BLOCK
  8
0
  2
*X4
 70
1
 10
0
 20
0
 30
0
  0
LINE
  8
0
 62
7
 10
7.97408550183852
 20
11.05
 30
0
 11
8.12408550183852
 21
11.2
 31
0
  0
LINE
  8
0
 62
7
 10
8.186217536194484
 20
11.05
 30
0
 11
8.200000000000001
 21
11.06378246380552
 31
0
  0
LINE
  8
0
 62
7
 10
7.960000000000002
 20
11.14198051533946
 30
0
 11
8.018019484660535
 21
11.2
 31
0
  0
LINE
  8
0
 62
7
 10
8.0801515190165
 20
11.05
 30
0
 11
8.199999999999999
 21
11.1698484809835
 31
0
  0
ENDBLK
  8
0
  0
BLOCK
  8
0
  2
*X5
 70
1
 10
0
 20
0
 30
0
  0
LINE
  8
0
 62
7
 10
7.960000000000001
 20
10.82378246380551
 30
0
 11
7.986217536194484
 21
10.85
 31
0
  0
LINE
  8
0
 62
7
 10
7.960000000000001
 20
10.61165042944955
 30
0
 11
8.198349570550448
 21
10.85
 31
0
  0
LINE
  8
0
 62
7
 10
7.960000000000001
 20
10.39951839509358
 30
0
 11
8.200000000000001
 21
10.63951839509359
 31
0
  0
LINE
  8
0
 62
7
 10
7.960000000000001
 20
10.18738636073762
 30
0
 11
8.200000000000001
 21
10.42738636073762
 31
0
  0
LINE
  8
0
 62
7
 10
7.960000000000001
 20
9.975254326381657
 30
0
 11
8.200000000000001
 21
10.21525432638166
 31
0
  0
LINE
  8
0
 62
7
 10
7.960000000000001
 20
9.763122292025693
 30
0
 11
8.200000000000001
 21
10.0031222920257
 31
0
  0
LINE
  8
0
 62
7
 10
7.960000000000001
 20
9.55099025766973
 30
0
 11
8.200000000000001
 21
9.790990257669732
 31
0
  0
LINE
  8
0
 62
7
 10
7.960000000000001
 20
9.338858223313766
 30
0
 11
8.200000000000001
 21
9.578858223313768
 31
0
  0
LINE
  8
0
 62
7
 10
7.960000000000001
 20
9.126726188957802
 30
0
 11
8.200000000000001
 21
9.366726188957804
 31
0
  0
LINE
  8
0
 62
7
 10
7.960000000000001
 20
8.914594154601838
 30
0
 11
8.200000000000001
 21
9.15459415460184
 31
0
  0
LINE
  8
0
 62
7
 10
7.960000000000001
 20
8.702462120245874
 30
0
 11
8.200000000000001
 21
8.942462120245876
 31
0
  0
LINE
  8
0
 62
7
 10
7.960000000000001
 20
8.49033008588991
 30
0
 11
8.200000000000001
 21
8.730330085889912
 31
0
  0
LINE
  8
0
 62
7
 10
7.98180194846605
 20
8.299999999999997
 30
0
 11
8.200000000000001
 21
8.518198051533949
 31
0
  0
LINE
  8
0
 62
7
 10
8.193933982822013
 20
8.299999999999997
 30
0
 11
8.200000000000001
 21
8.306066017177985
 31
0
  0
LINE
  8
0
 62
7
 10
7.960000000000003
 20
10.71771644662753
 30
0
 11
8.092283553372464
 21
10.85
 31
0
  0
LINE
  8
0
 62
7
 10
7.960000000000003
 20
10.50558441227157
 30
0
 11
8.200000000000001
 21
10.74558441227157
 31
0
  0
LINE
  8
0
 62
7
 10
7.960000000000003
 20
10.2934523779156
 30
0
 11
8.200000000000001
 21
10.5334523779156
 31
0
  0
LINE
  8
0
 62
7
 10
7.960000000000003
 20
10.08132034355964
 30
0
 11
8.200000000000001
 21
10.32132034355964
 31
0
  0
LINE
  8
0
 62
7
 10
7.960000000000003
 20
9.869188309203675
 30
0
 11
8.200000000000001
 21
10.10918830920367
 31
0
  0
LINE
  8
0
 62
7
 10
7.960000000000003
 20
9.657056274847712
 30
0
 11
8.200000000000001
 21
9.89705627484771
 31
0
  0
LINE
  8
0
 62
7
 10
7.960000000000003
 20
9.444924240491748
 30
0
 11
8.200000000000001
 21
9.684924240491746
 31
0
  0
LINE
  8
0
 62
7
 10
7.960000000000003
 20
9.232792206135784
 30
0
 11
8.200000000000001
 21
9.472792206135782
 31
0
  0
LINE
  8
0
 62
7
 10
7.960000000000003
 20
9.02066017177982
 30
0
 11
8.200000000000001
 21
9.260660171779818
 31
0
  0
LINE
  8
0
 62
7
 10
7.960000000000003
 20
8.808528137423856
 30
0
 11
8.200000000000001
 21
9.048528137423855
 31
0
  0
LINE
  8
0
 62
7
 10
7.960000000000003
 20
8.596396103067892
 30
0
 11
8.200000000000001
 21
8.836396103067891
 31
0
  0
LINE
  8
0
 62
7
 10
7.960000000000003
 20
8.384264068711929
 30
0
 11
8.200000000000001
 21
8.624264068711927
 31
0
  0
LINE
  8
0
 62
7
 10
8.087867965644033
 20
8.299999999999995
 30
0
 11
8.200000000000001
 21
8.412132034355963
 31
0
  0
ENDBLK
  8
0
  0
BLOCK
  8
0
  2
*X6
 70
1
 10
0
 20
0
 30
0
  0
LINE
  8
0
 62
7
 10
7.960000000000004
 20
8.066066017177985
 30
0
 11
7.993933982822015
 21
8.099999999999998
 31
0
  0
LINE
  8
0
 62
7
 10
8.056066017177983
 20
7.949999999999998
 30
0
 11
8.200000000000001
 21
8.093933982822016
 31
0
  0
LINE
  8
0
 62
7
 10
7.960000000000002
 20
7.960000000000001
 30
0
 11
8.099999999999998
 21
8.099999999999998
 31
0
  0
LINE
  8
0
 62
7
 10
8.162132034355965
 20
7.949999999999999
 30
0
 11
8.200000000000003
 21
7.987867965644037
 31
0
  0
ENDBLK
  8
0
  0
BLOCK
  8
0
  2
*X7
 70
1
 10
0
 20
0
 30
0
  0
LINE
  8
0
 62
7
  6
DASHED
 10
1.100000000000001
 20
10.96413959755234
 30
0
 11
1.185860402447666
 21
11.05
 31
0
  0
LINE
  8
0
 62
7
  6
DASHED
 10
1.197992436803632
 20
10.85
 30
0
 11
1.397992436803631
 21
11.05
 31
0
  0
LINE
  8
0
 62
7
  6
DASHED
 10
1.410124471159596
 20
10.85
 30
0
 11
1.610124471159595
 21
11.05
 31
0
  0
LINE
  8
0
 62
7
  6
DASHED
 10
1.62225650551556
 20
10.85
 30
0
 11
1.822256505515559
 21
11.05
 31
0
  0
LINE
  8
0
 62
7
  6
DASHED
 10
1.834388539871525
 20
10.85
 30
0
 11
2.034388539871523
 21
11.05
 31
0
  0
LINE
  8
0
 62
7
  6
DASHED
 10
2.046520574227489
 20
10.85
 30
0
 11
2.246520574227488
 21
11.05
 31
0
  0
LINE
  8
0
 62
7
  6
DASHED
 10
2.258652608583453
 20
10.85
 30
0
 11
2.458652608583452
 21
11.05
 31
0
  0
LINE
  8
0
 62
7
  6
DASHED
 10
2.470784642939417
 20
10.85
 30
0
 11
2.670784642939416
 21
11.05
 31
0
  0
LINE
  8
0
 62
7
  6
DASHED
 10
2.682916677295382
 20
10.85
 30
0
 11
2.88291667729538
 21
11.05
 31
0
  0
LINE
  8
0
 62
7
  6
DASHED
 10
2.895048711651346
 20
10.85
 30
0
 11
3.095048711651345
 21
11.05
 31
0
  0
LINE
  8
0
 62
7
  6
DASHED
 10
3.10718074600731
 20
10.85
 30
0
 11
3.307180746007309
 21
11.05
 31
0
  0
LINE
  8
0
 62
7
  6
DASHED
 10
3.319312780363274
 20
10.85
 30
0
 11
3.519312780363273
 21
11.05
 31
0
  0
LINE
  8
0
 62
7
  6
DASHED
 10
3.531444814719239
 20
10.85
 30
0
 11
3.731444814719238
 21
11.05
 31
0
  0
LINE
  8
0
 62
7
  6
DASHED
 10
3.743576849075203
 20
10.85
 30
0
 11
3.943576849075202
 21
11.05
 31
0
  0
LINE
  8
0
 62
7
  6
DASHED
 10
3.955708883431167
 20
10.85
 30
0
 11
4.155708883431166
 21
11.05
 31
0
  0
LINE
  8
0
 62
7
  6
DASHED
 10
4.167840917787132
 20
10.85
 30
0
 11
4.36784091778713
 21
11.05
 31
0
  0
LINE
  8
0
 62
7
  6
DASHED
 10
4.379972952143095
 20
10.85
 30
0
 11
4.579972952143094
 21
11.05
 31
0
  0
LINE
  8
0
 62
7
  6
DASHED
 10
4.592104986499059
 20
10.85
 30
0
 11
4.792104986499058
 21
11.05
 31
0
  0
LINE
  8
0
 62
7
  6
DASHED
 10
4.804237020855023
 20
10.85
 30
0
 11
5.004237020855022
 21
11.05
 31
0
  0
LINE
  8
0
 62
7
  6
DASHED
 10
5.016369055210987
 20
10.85
 30
0
 11
5.216369055210985
 21
11.05
 31
0
  0
LINE
  8
0
 62
7
  6
DASHED
 10
5.228501089566951
 20
10.85
 30
0
 11
5.325000000000001
 21
10.94649891043305
 31
0
  0
LINE
  8
0
 62
7
 10
1.1
 20
10.85807358037435
 30
0
 11
1.291926419625649
 21
11.05
 31
0
  0
LINE
  8
0
 62
7
 10
1.304058453981612
 20
10.85
 30
0
 11
1.504058453981614
 21
11.05
 31
0
  0
LINE
  8
0
 62
7
 10
1.516190488337577
 20
10.85
 30
0
 11
1.716190488337578
 21
11.05
 31
0
  0
LINE
  8
0
 62
7
 10
1.728322522693541
 20
10.85
 30
0
 11
1.928322522693542
 21
11.05
 31
0
  0
LINE
  8
0
 62
7
 10
1.940454557049505
 20
10.85
 30
0
 11
2.140454557049507
 21
11.05
 31
0
  0
LINE
  8
0
 62
7
 10
2.152586591405469
 20
10.85
 30
0
 11
2.352586591405471
 21
11.05
 31
0
  0
LINE
  8
0
 62
7
 10
2.364718625761434
 20
10.85
 30
0
 11
2.564718625761435
 21
11.05
 31
0
  0
LINE
  8
0
 62
7
 10
2.576850660117398
 20
10.85
 30
0
 11
2.776850660117399
 21
11.05
 31
0
  0
LINE
  8
0
 62
7
 10
2.788982694473362
 20
10.85
 30
0
 11
2.988982694473364
 21
11.05
 31
0
  0
LINE
  8
0
 62
7
 10
3.001114728829327
 20
10.85
 30
0
 11
3.201114728829328
 21
11.05
 31
0
  0
LINE
  8
0
 62
7
 10
3.213246763185291
 20
10.85
 30
0
 11
3.413246763185292
 21
11.05
 31
0
  0
LINE
  8
0
 62
7
 10
3.425378797541255
 20
10.85
 30
0
 11
3.625378797541257
 21
11.05
 31
0
  0
LINE
  8
0
 62
7
 10
3.637510831897219
 20
10.85
 30
0
 11
3.837510831897221
 21
11.05
 31
0
  0
LINE
  8
0
 62
7
 10
3.849642866253184
 20
10.85
 30
0
 11
4.049642866253185
 21
11.05
 31
0
  0
LINE
  8
0
 62
7
 10
4.061774900609148
 20
10.85
 30
0
 11
4.261774900609149
 21
11.05
 31
0
  0
LINE
  8
0
 62
7
 10
4.273906934965112
 20
10.85
 30
0
 11
4.473906934965113
 21
11.05
 31
0
  0
LINE
  8
0
 62
7
 10
4.486038969321076
 20
10.85
 30
0
 11
4.686038969321077
 21
11.05
 31
0
  0
LINE
  8
0
 62
7
 10
4.698171003677039
 20
10.85
 30
0
 11
4.898171003677041
 21
11.05
 31
0
  0
LINE
  8
0
 62
7
 10
4.910303038033003
 20
10.85
 30
0
 11
5.110303038033004
 21
11.05
 31
0
  0
LINE
  8
0
 62
7
 10
5.122435072388967
 20
10.85
 30
0
 11
5.322435072388968
 21
11.05
 31
0
  0
ENDBLK
  8
0
  0
BLOCK
  8
0
  2
*X8
 70
1
 10
0
 20
0
 30
0
  0
LINE
  8
0
 62
7
  6
DASHED
 10
1.1
 20
8.206423150924801
 30
0
 11
1.193576849075198
 21
8.299999999999997
 31
0
  0
LINE
  8
0
 62
7
  6
DASHED
 10
1.205708883431162
 20
8.099999999999998
 30
0
 11
1.405708883431162
 21
8.299999999999997
 31
0
  0
LINE
  8
0
 62
7
  6
DASHED
 10
1.417840917787127
 20
8.099999999999998
 30
0
 11
1.617840917787126
 21
8.299999999999997
 31
0
  0
LINE
  8
0
 62
7
  6
DASHED
 10
1.629972952143091
 20
8.099999999999998
 30
0
 11
1.829972952143091
 21
8.299999999999997
 31
0
  0
LINE
  8
0
 62
7
  6
DASHED
 10
1.842104986499055
 20
8.099999999999998
 30
0
 11
2.042104986499055
 21
8.299999999999997
 31
0
  0
LINE
  8
0
 62
7
  6
DASHED
 10
2.05423702085502
 20
8.099999999999998
 30
0
 11
2.254237020855019
 21
8.299999999999997
 31
0
  0
LINE
  8
0
 62
7
  6
DASHED
 10
2.266369055210984
 20
8.099999999999998
 30
0
 11
2.466369055210984
 21
8.299999999999997
 31
0
  0
LINE
  8
0
 62
7
  6
DASHED
 10
2.478501089566948
 20
8.099999999999998
 30
0
 11
2.678501089566948
 21
8.299999999999997
 31
0
  0
LINE
  8
0
 62
7
  6
DASHED
 10
2.690633123922912
 20
8.099999999999998
 30
0
 11
2.890633123922912
 21
8.299999999999997
 31
0
  0
LINE
  8
0
 62
7
  6
DASHED
 10
2.902765158278877
 20
8.099999999999998
 30
0
 11
3.102765158278876
 21
8.299999999999997
 31
0
  0
LINE
  8
0
 62
7
  6
DASHED
 10
3.114897192634841
 20
8.099999999999998
 30
0
 11
3.314897192634841
 21
8.299999999999997
 31
0
  0
LINE
  8
0
 62
7
  6
DASHED
 10
3.327029226990805
 20
8.099999999999998
 30
0
 11
3.527029226990805
 21
8.299999999999997
 31
0
  0
LINE
  8
0
 62
7
  6
DASHED
 10
3.53916126134677
 20
8.099999999999998
 30
0
 11
3.739161261346769
 21
8.299999999999997
 31
0
  0
LINE
  8
0
 62
7
  6
DASHED
 10
3.751293295702734
 20
8.099999999999998
 30
0
 11
3.951293295702734
 21
8.299999999999997
 31
0
  0
LINE
  8
0
 62
7
  6
DASHED
 10
3.963425330058698
 20
8.099999999999998
 30
0
 11
4.163425330058698
 21
8.299999999999997
 31
0
  0
LINE
  8
0
 62
7
  6
DASHED
 10
4.175557364414662
 20
8.099999999999998
 30
0
 11
4.375557364414662
 21
8.299999999999997
 31
0
  0
LINE
  8
0
 62
7
  6
DASHED
 10
4.387689398770626
 20
8.099999999999998
 30
0
 11
4.587689398770626
 21
8.299999999999997
 31
0
  0
LINE
  8
0
 62
7
  6
DASHED
 10
4.59982143312659
 20
8.099999999999998
 30
0
 11
4.799821433126589
 21
8.299999999999997
 31
0
  0
LINE
  8
0
 62
7
  6
DASHED
 10
4.811953467482554
 20
8.099999999999998
 30
0
 11
5.011953467482553
 21
8.299999999999997
 31
0
  0
LINE
  8
0
 62
7
  6
DASHED
 10
5.024085501838518
 20
8.099999999999998
 30
0
 11
5.224085501838517
 21
8.299999999999997
 31
0
  0
LINE
  8
0
 62
7
  6
DASHED
 10
5.236217536194482
 20
8.099999999999998
 30
0
 11
5.325
 21
8.188782463805516
 31
0
  0
LINE
  8
0
 62
7
 10
1.100000000000001
 20
8.100357133746821
 30
0
 11
1.299642866253179
 21
8.299999999999997
 31
0
  0
LINE
  8
0
 62
7
 10
1.311774900609144
 20
8.099999999999998
 30
0
 11
1.511774900609144
 21
8.299999999999997
 31
0
  0
LINE
  8
0
 62
7
 10
1.523906934965108
 20
8.099999999999998
 30
0
 11
1.723906934965108
 21
8.299999999999997
 31
0
  0
LINE
  8
0
 62
7
 10
1.736038969321072
 20
8.099999999999998
 30
0
 11
1.936038969321072
 21
8.299999999999997
 31
0
  0
LINE
  8
0
 62
7
 10
1.948171003677037
 20
8.099999999999998
 30
0
 11
2.148171003677037
 21
8.299999999999997
 31
0
  0
LINE
  8
0
 62
7
 10
2.160303038033001
 20
8.099999999999998
 30
0
 11
2.360303038033001
 21
8.299999999999997
 31
0
  0
LINE
  8
0
 62
7
 10
2.372435072388965
 20
8.099999999999998
 30
0
 11
2.572435072388965
 21
8.299999999999997
 31
0
  0
LINE
  8
0
 62
7
 10
2.58456710674493
 20
8.099999999999998
 30
0
 11
2.784567106744929
 21
8.299999999999997
 31
0
  0
LINE
  8
0
 62
7
 10
2.796699141100894
 20
8.099999999999998
 30
0
 11
2.996699141100894
 21
8.299999999999997
 31
0
  0
LINE
  8
0
 62
7
 10
3.008831175456858
 20
8.099999999999998
 30
0
 11
3.208831175456858
 21
8.299999999999997
 31
0
  0
LINE
  8
0
 62
7
 10
3.220963209812822
 20
8.099999999999998
 30
0
 11
3.420963209812822
 21
8.299999999999997
 31
0
  0
LINE
  8
0
 62
7
 10
3.433095244168787
 20
8.099999999999998
 30
0
 11
3.633095244168786
 21
8.299999999999997
 31
0
  0
LINE
  8
0
 62
7
 10
3.645227278524751
 20
8.099999999999998
 30
0
 11
3.845227278524751
 21
8.299999999999997
 31
0
  0
LINE
  8
0
 62
7
 10
3.857359312880715
 20
8.099999999999998
 30
0
 11
4.057359312880715
 21
8.299999999999997
 31
0
  0
LINE
  8
0
 62
7
 10
4.06949134723668
 20
8.099999999999998
 30
0
 11
4.269491347236679
 21
8.299999999999997
 31
0
  0
LINE
  8
0
 62
7
 10
4.281623381592643
 20
8.099999999999998
 30
0
 11
4.481623381592643
 21
8.299999999999997
 31
0
  0
LINE
  8
0
 62
7
 10
4.493755415948607
 20
8.099999999999998
 30
0
 11
4.693755415948607
 21
8.299999999999997
 31
0
  0
LINE
  8
0
 62
7
 10
4.705887450304571
 20
8.099999999999998
 30
0
 11
4.90588745030457
 21
8.299999999999997
 31
0
  0
LINE
  8
0
 62
7
 10
4.918019484660535
 20
8.099999999999998
 30
0
 11
5.118019484660534
 21
8.299999999999997
 31
0
  0
LINE
  8
0
 62
7
 10
5.130151519016499
 20
8.099999999999998
 30
0
 11
5.325000000000001
 21
8.2948484809835
 31
0
  0
ENDBLK
  8
0
  0
BLOCK
  8
0
  2
*X9
 70
1
 10
0
 20
0
 30
0
  0
LINE
  8
0
 62
7
 10
5.004237020855022
 20
11.05
 30
0
 11
5.15423702085502
 21
11.2
 31
0
  0
LINE
  8
0
 62
7
 10
5
 20
11.15182899632296
 30
0
 11
5.048171003677039
 21
11.2
 31
0
  0
LINE
  8
0
 62
7
 10
5.110303038033003
 20
11.05
 30
0
 11
5.175000000000002
 21
11.114696961967
 31
0
  0
ENDBLK
  8
0
  0
BLOCK
  8
0
  2
*X10
 70
1
 10
0
 20
0
 30
0
  0
LINE
  8
0
 62
7
 10
5.000000000000002
 20
10.83363094478901
 30
0
 11
5.016369055210983
 21
10.85
 31
0
  0
LINE
  8
0
 62
7
 10
5.000000000000002
 20
10.62149891043305
 30
0
 11
5.175000000000001
 21
10.79649891043305
 31
0
  0
LINE
  8
0
 62
7
 10
5.000000000000002
 20
10.40936687607709
 30
0
 11
5.175000000000001
 21
10.58436687607708
 31
0
  0
LINE
  8
0
 62
7
 10
5.000000000000002
 20
10.19723484172112
 30
0
 11
5.175000000000001
 21
10.37223484172112
 31
0
  0
LINE
  8
0
 62
7
 10
5.000000000000002
 20
9.985102807365159
 30
0
 11
5.175000000000001
 21
10.16010280736515
 31
0
  0
LINE
  8
0
 62
7
 10
5.000000000000002
 20
9.772970773009195
 30
0
 11
5.175000000000001
 21
9.947970773009191
 31
0
  0
LINE
  8
0
 62
7
 10
5.000000000000002
 20
9.560838738653231
 30
0
 11
5.175000000000001
 21
9.735838738653227
 31
0
  0
LINE
  8
0
 62
7
 10
5.000000000000002
 20
9.348706704297268
 30
0
 11
5.175000000000001
 21
9.523706704297263
 31
0
  0
LINE
  8
0
 62
7
 10
5.000000000000002
 20
9.136574669941304
 30
0
 11
5.175000000000001
 21
9.311574669941299
 31
0
  0
LINE
  8
0
 62
7
 10
5.000000000000002
 20
8.92444263558534
 30
0
 11
5.175000000000001
 21
9.099442635585335
 31
0
  0
LINE
  8
0
 62
7
 10
5.000000000000002
 20
8.712310601229376
 30
0
 11
5.175000000000001
 21
8.887310601229371
 31
0
  0
LINE
  8
0
 62
7
 10
5.000000000000002
 20
8.500178566873412
 30
0
 11
5.175000000000001
 21
8.675178566873408
 31
0
  0
LINE
  8
0
 62
7
 10
5.011953467482551
 20
8.299999999999995
 30
0
 11
5.175000000000001
 21
8.463046532517444
 31
0
  0
LINE
  8
0
 62
7
 10
5.000000000000002
 20
10.72756492761103
 30
0
 11
5.122435072388966
 21
10.85
 31
0
  0
LINE
  8
0
 62
7
 10
5.000000000000002
 20
10.51543289325507
 30
0
 11
5.175000000000002
 21
10.69043289325507
 31
0
  0
LINE
  8
0
 62
7
 10
5.000000000000002
 20
10.3033008588991
 30
0
 11
5.175000000000002
 21
10.4783008588991
 31
0
  0
LINE
  8
0
 62
7
 10
5.000000000000002
 20
10.09116882454314
 30
0
 11
5.175000000000002
 21
10.26616882454314
 31
0
  0
LINE
  8
0
 62
7
 10
5.000000000000002
 20
9.879036790187175
 30
0
 11
5.175000000000002
 21
10.05403679018717
 31
0
  0
LINE
  8
0
 62
7
 10
5.000000000000002
 20
9.666904755831212
 30
0
 11
5.175000000000002
 21
9.84190475583121
 31
0
  0
LINE
  8
0
 62
7
 10
5.000000000000002
 20
9.454772721475248
 30
0
 11
5.175000000000002
 21
9.629772721475247
 31
0
  0
LINE
  8
0
 62
7
 10
5.000000000000002
 20
9.242640687119284
 30
0
 11
5.175000000000002
 21
9.417640687119283
 31
0
  0
LINE
  8
0
 62
7
 10
5.000000000000002
 20
9.03050865276332
 30
0
 11
5.175000000000002
 21
9.205508652763319
 31
0
  0
LINE
  8
0
 62
7
 10
5.000000000000002
 20
8.818376618407356
 30
0
 11
5.175000000000002
 21
8.993376618407355
 31
0
  0
LINE
  8
0
 62
7
 10
5.000000000000002
 20
8.606244584051392
 30
0
 11
5.175000000000002
 21
8.781244584051391
 31
0
  0
LINE
  8
0
 62
7
 10
5.000000000000002
 20
8.394112549695429
 30
0
 11
5.175000000000002
 21
8.569112549695427
 31
0
  0
LINE
  8
0
 62
7
 10
5.118019484660534
 20
8.299999999999997
 30
0
 11
5.175000000000002
 21
8.356980515339464
 31
0
  0
ENDBLK
  8
0
  0
BLOCK
  8
0
  2
*X11
 70
1
 10
0
 20
0
 30
0
  0
LINE
  8
0
 62
7
 10
5
 20
8.075914498161481
 30
0
 11
5.024085501838519
 21
8.1
 31
0
  0
LINE
  8
0
 62
7
 10
5.086217536194482
 20
7.949999999999998
 30
0
 11
5.175000000000001
 21
8.038782463805518
 31
0
  0
LINE
  8
0
 62
7
 10
5.000000000000001
 20
7.969848480983499
 30
0
 11
5.130151519016499
 21
8.099999999999998
 31
0
  0
ENDBLK
  8
0
  0
BLOCK
  8
0
  2
*X12
 70
1
 10
0
 20
0
 30
0
  0
LINE
  8
0
 62
7
 10
1.099999999999999
 20
4.494112549695427
 30
0
 11
1.275887450304575
 21
4.67
 31
0
  0
LINE
  8
0
 62
7
 10
1.248019484660537
 20
4.430000000000001
 30
0
 11
1.488019484660539
 21
4.67
 31
0
  0
LINE
  8
0
 62
7
 10
1.460151519016502
 20
4.430000000000001
 30
0
 11
1.700151519016503
 21
4.67
 31
0
  0
LINE
  8
0
 62
7
 10
1.672283553372467
 20
4.430000000000001
 30
0
 11
1.912283553372467
 21
4.67
 31
0
  0
LINE
  8
0
 62
7
 10
1.884415587728431
 20
4.430000000000001
 30
0
 11
2.124415587728432
 21
4.67
 31
0
  0
LINE
  8
0
 62
7
 10
2.096547622084395
 20
4.430000000000001
 30
0
 11
2.336547622084396
 21
4.67
 31
0
  0
LINE
  8
0
 62
7
 10
2.30867965644036
 20
4.430000000000001
 30
0
 11
2.54867965644036
 21
4.67
 31
0
  0
LINE
  8
0
 62
7
 10
2.520811690796324
 20
4.430000000000001
 30
0
 11
2.760811690796324
 21
4.67
 31
0
  0
LINE
  8
0
 62
7
 10
2.732943725152288
 20
4.430000000000001
 30
0
 11
2.972943725152289
 21
4.67
 31
0
  0
LINE
  8
0
 62
7
 10
2.945075759508252
 20
4.430000000000001
 30
0
 11
3.185075759508253
 21
4.67
 31
0
  0
LINE
  8
0
 62
7
 10
3.157207793864217
 20
4.430000000000001
 30
0
 11
3.397207793864217
 21
4.67
 31
0
  0
LINE
  8
0
 62
7
 10
3.369339828220181
 20
4.430000000000001
 30
0
 11
3.609339828220182
 21
4.67
 31
0
  0
LINE
  8
0
 62
7
 10
3.581471862576145
 20
4.430000000000001
 30
0
 11
3.821471862576146
 21
4.67
 31
0
  0
LINE
  8
0
 62
7
 10
3.79360389693211
 20
4.430000000000001
 30
0
 11
4.03360389693211
 21
4.67
 31
0
  0
LINE
  8
0
 62
7
 10
4.005735931288074
 20
4.430000000000001
 30
0
 11
4.245735931288074
 21
4.67
 31
0
  0
LINE
  8
0
 62
7
 10
4.217867965644038
 20
4.430000000000001
 30
0
 11
4.457867965644038
 21
4.67
 31
0
  0
LINE
  8
0
 62
7
 10
4.430000000000001
 20
4.430000000000001
 30
0
 11
4.670000000000002
 21
4.67
 31
0
  0
LINE
  8
0
 62
7
 10
4.642132034355965
 20
4.430000000000001
 30
0
 11
4.882132034355966
 21
4.67
 31
0
  0
LINE
  8
0
 62
7
 10
4.854264068711929
 20
4.430000000000001
 30
0
 11
5.094264068711929
 21
4.67
 31
0
  0
LINE
  8
0
 62
7
 10
5
 20
4.363603896932107
 30
0
 11
5.175000000000001
 21
4.538603896932107
 31
0
  0
LINE
  8
0
 62
7
 10
5
 20
4.151471862576143
 30
0
 11
5.175000000000001
 21
4.326471862576143
 31
0
  0
LINE
  8
0
 62
7
 10
5
 20
3.939339828220179
 30
0
 11
5.175000000000001
 21
4.114339828220179
 31
0
  0
LINE
  8
0
 62
7
 10
5
 20
3.727207793864214
 30
0
 11
5.175000000000001
 21
3.902207793864215
 31
0
  0
LINE
  8
0
 62
7
 10
5
 20
3.51507575950825
 30
0
 11
5.175000000000001
 21
3.69007575950825
 31
0
  0
LINE
  8
0
 62
7
 10
5
 20
3.302943725152285
 30
0
 11
5.175000000000001
 21
3.477943725152286
 31
0
  0
LINE
  8
0
 62
7
 10
5.159188309203679
 20
3.250000000000001
 30
0
 11
5.175000000000001
 21
3.265811690796322
 31
0
  0
ENDBLK
  8
0
  0
BLOCK
  8
0
  2
*X13
 70
1
 10
0
 20
0
 30
0
  0
LINE
  8
0
 62
7
 10
1.1
 20
4.918376618407356
 30
0
 11
1.131623381592643
 21
4.949999999999998
 31
0
  0
LINE
  8
0
 62
7
 10
1.103755415948609
 20
4.71
 30
0
 11
1.343755415948607
 21
4.949999999999998
 31
0
  0
LINE
  8
0
 62
7
 10
1.315887450304574
 20
4.71
 30
0
 11
1.555887450304572
 21
4.949999999999998
 31
0
  0
LINE
  8
0
 62
7
 10
1.528019484660538
 20
4.71
 30
0
 11
1.768019484660536
 21
4.949999999999998
 31
0
  0
LINE
  8
0
 62
7
 10
1.740151519016502
 20
4.71
 30
0
 11
1.9801515190165
 21
4.949999999999998
 31
0
  0
LINE
  8
0
 62
7
 10
1.952283553372467
 20
4.71
 30
0
 11
2.192283553372464
 21
4.949999999999998
 31
0
  0
LINE
  8
0
 62
7
 10
2.164415587728431
 20
4.71
 30
0
 11
2.404415587728429
 21
4.949999999999998
 31
0
  0
LINE
  8
0
 62
7
 10
2.376547622084395
 20
4.71
 30
0
 11
2.616547622084393
 21
4.949999999999998
 31
0
  0
LINE
  8
0
 62
7
 10
2.588679656440359
 20
4.71
 30
0
 11
2.828679656440357
 21
4.949999999999998
 31
0
  0
LINE
  8
0
 62
7
 10
2.800811690796324
 20
4.71
 30
0
 11
3.040811690796322
 21
4.949999999999998
 31
0
  0
LINE
  8
0
 62
7
 10
3.012943725152288
 20
4.71
 30
0
 11
3.252943725152286
 21
4.949999999999998
 31
0
  0
LINE
  8
0
 62
7
 10
3.225075759508252
 20
4.71
 30
0
 11
3.46507575950825
 21
4.949999999999998
 31
0
  0
LINE
  8
0
 62
7
 10
3.437207793864216
 20
4.71
 30
0
 11
3.677207793864214
 21
4.949999999999998
 31
0
  0
LINE
  8
0
 62
7
 10
3.649339828220181
 20
4.71
 30
0
 11
3.889339828220179
 21
4.949999999999998
 31
0
  0
LINE
  8
0
 62
7
 10
3.861471862576145
 20
4.71
 30
0
 11
4.101471862576143
 21
4.949999999999998
 31
0
  0
LINE
  8
0
 62
7
 10
4.073603896932109
 20
4.71
 30
0
 11
4.313603896932107
 21
4.949999999999998
 31
0
  0
LINE
  8
0
 62
7
 10
4.285735931288073
 20
4.71
 30
0
 11
4.525735931288071
 21
4.949999999999998
 31
0
  0
LINE
  8
0
 62
7
 10
4.497867965644037
 20
4.71
 30
0
 11
4.737867965644035
 21
4.949999999999998
 31
0
  0
LINE
  8
0
 62
7
 10
5.000000000000001
 20
5
 30
0
 11
5.099999999999999
 21
5.099999999999998
 31
0
  0
LINE
  8
0
 62
7
 10
4.710000000000001
 20
4.71
 30
0
 11
4.949999999999998
 21
4.949999999999998
 31
0
  0
LINE
  8
0
 62
7
 10
4.922132034355965
 20
4.71
 30
0
 11
5.175000000000001
 21
4.962867965644037
 31
0
  0
LINE
  8
0
 62
7
 10
5.134264068711929
 20
4.71
 30
0
 11
5.175000000000001
 21
4.750735931288073
 31
0
  0
ENDBLK
  8
0
  0
BLOCK
  8
0
  2
*D0
 70
1
 10
0
 20
0
 30
0
  0
LINE
  8
0
 62
7
 10
3.51689969248634
 20
11.4619278968784
 30
0
 11
5
 21
11.4619278968784
 31
0
  0
LINE
  8
0
 62
7
 10
1.24
 20
11.4619278968784
 30
0
 11
2.74189969248634
 21
11.4619278968784
 31
0
  0
LINE
  8
0
 62
7
 10
5
 20
11.05
 30
0
 11
5
 21
11.5119278968784
 31
0
  0
LINE
  8
0
 62
7
 10
1.24
 20
11.05
 30
0
 11
1.24
 21
11.5119278968784
 31
0
  0
LINE
  8
0
 62
7
 10
1.275355339059327
 20
11.49728323593773
 30
0
 11
1.204644660940673
 21
11.42657255781907
 31
0
  0
LINE
  8
0
 62
7
 10
4.964644660940673
 20
11.42657255781907
 30
0
 11
5.035355339059327
 21
11.49728323593773
 31
0
  0
TEXT
  8
0
 62
7
 10
2.99189969248634
 20
11.4169278968784
 30
0
 40
0.1
  1
3,76
 41
0.9
  0
ENDBLK
  8
0
  0
BLOCK
  8
0
  2
*D1
 70
1
 10
0
 20
0
 30
0
  0
LINE
  8
0
 62
7
 10
3.505171201054581
 20
5.29274140377082
 30
0
 11
5.000000000000001
 21
5.29274140377082
 31
0
  0
LINE
  8
0
 62
7
 10
1.240000000000001
 20
5.29274140377082
 30
0
 11
2.730171201054581
 21
5.29274140377082
 31
0
  0
LINE
  8
0
 62
7
 10
5.000000000000001
 20
4.430000000000001
 30
0
 11
5.000000000000001
 21
5.34274140377082
 31
0
  0
LINE
  8
0
 62
7
 10
1.240000000000001
 20
4.430000000000001
 30
0
 11
1.240000000000001
 21
5.34274140377082
 31
0
  0
LINE
  8
0
 62
7
 10
1.275355339059328
 20
5.328096742830147
 30
0
 11
1.204644660940674
 21
5.257386064711493
 31
0
  0
LINE
  8
0
 62
7
 10
4.964644660940674
 20
5.257386064711493
 30
0
 11
5.035355339059328
 21
5.328096742830147
 31
0
  0
TEXT
  8
0
 62
7
 10
2.980171201054581
 20
5.24774140377082
 30
0
 40
0.1
  1
3,76
 41
0.9
  0
ENDBLK
  8
0
  0
BLOCK
  8
0
  2
*D2
 70
1
 10
0
 20
0
 30
0
  0
LINE
  8
0
 62
7
 10
1.01827123476892
 20
4.2578224319592
 30
0
 11
1.01827123476892
 21
4.43
 31
0
  0
LINE
  8
0
 62
7
 10
1.01827123476892
 20
3.350000000000001
 30
0
 11
1.01827123476892
 21
3.5128224319592
 31
0
  0
LINE
  8
0
 62
7
 10
1.24
 20
4.43
 30
0
 11
0.96827123476892
 21
4.43
 31
0
  0
LINE
  8
0
 62
7
 10
1.24
 20
3.350000000000001
 30
0
 11
0.96827123476892
 21
3.350000000000001
 31
0
  0
LINE
  8
0
 62
7
 10
1.053626573828247
 20
4.394644660940672
 30
0
 11
0.9829158957095926
 21
4.465355339059327
 31
0
  0
LINE
  8
0
 62
7
 10
0.9829158957095926
 20
3.385355339059328
 30
0
 11
1.053626573828247
 21
3.314644660940673
 31
0
  0
TEXT
  8
0
 62
7
 10
1.06327123476892
 20
3.7628224319592
 30
0
 40
0.1
  1
1,08
 50
90
 41
0.9
  0
ENDBLK
  8
0
  0
BLOCK
  8
0
  2
*D3
 70
1
 10
0
 20
0
 30
0
  0
LINE
  8
0
 62
7
 10
5.46336948740727
 20
4.19590846623215
 30
0
 11
5.46336948740727
 21
4.430000000000001
 31
0
  0
LINE
  8
0
 62
7
 10
5.46336948740727
 20
3.250000000000001
 30
0
 11
5.46336948740727
 21
3.48090846623215
 31
0
  0
LINE
  8
0
 62
7
 10
5
 20
4.430000000000001
 30
0
 11
5.51336948740727
 21
4.430000000000001
 31
0
  0
LINE
  8
0
 62
7
 10
5
 20
3.250000000000001
 30
0
 11
5.51336948740727
 21
3.250000000000001
 31
0
  0
LINE
  8
0
 62
7
 10
5.498724826466598
 20
4.394644660940673
 30
0
 11
5.428014148347943
 21
4.465355339059328
 31
0
  0
LINE
  8
0
 62
7
 10
5.428014148347943
 20
3.285355339059328
 30
0
 11
5.498724826466598
 21
3.214644660940674
 31
0
  0
TEXT
  8
0
 62
7
 10
5.50836948740727
 20
3.73090846623215
 30
0
 40
0.1
  1
1,18
 50
90
 41
0.9
  0
ENDBLK
  8
0
  0
BLOCK
  8
0
  2
*D4
 70
1
 10
0
 20
0
 30
0
  0
LINE
  8
0
 62
7
 10
0.725058948974834
 20
10.20746870781858
 30
0
 11
0.725058948974834
 21
11.05
 31
0
  0
LINE
  8
0
 62
7
 10
0.725058948974834
 20
8.299999999999997
 30
0
 11
0.725058948974834
 21
9.127468707818579
 31
0
  0
LINE
  8
0
 62
7
 10
1.1
 20
11.05
 30
0
 11
0.675058948974834
 21
11.05
 31
0
  0
LINE
  8
0
 62
7
 10
1.1
 20
8.299999999999997
 30
0
 11
0.675058948974834
 21
8.299999999999997
 31
0
  0
LINE
  8
0
 62
7
 10
0.6897036099155066
 20
8.335355339059324
 30
0
 11
0.7604142880341614
 21
8.26464466094067
 31
0
  0
LINE
  8
0
 62
7
 10
0.7604142880341614
 20
11.01464466094067
 30
0
 11
0.6897036099155066
 21
11.08535533905933
 31
0
  0
TEXT
  8
0
 62
7
 10
0.695058948974834
 20
9.529968707818581
 30
0
 40
0.1
  1
2,75
 50
90
 41
0.9
  0
TEXT
  8
0
 62
7
 10
0.855058948974834
 20
9.32746870781858
 30
0
 40
0.1
  1
(260-280)
 50
90
 41
0.9
  0
ENDBLK
  8
0
  0
ENDSEC
  0
SECTION
  2
ENTITIES
  0
INSERT
  8
0
  2
*X0
 10
0
 20
0
 30
0
  0
INSERT
  8
0
  2
*X1
 10
0
 20
0
 30
0
  0
INSERT
  8
0
  2
*X2
 10
0
 20
0
 30
0
  0
INSERT
  8
0
  2
*X3
 10
0
 20
0
 30
0
  0
INSERT
  8
0
  2
*X4
 10
0
 20
0
 30
0
  0
INSERT
  8
0
  2
*X5
 10
0
 20
0
 30
0
  0
INSERT
  8
0
  2
*X6
 10
0
 20
0
 30
0
  0
INSERT
  8
0
  2
*X7
 10
0
 20
0
 30
0
  0
INSERT
  8
0
  2
*X8
 10
0
 20
0
 30
0
  0
INSERT
  8
0
  2
*X9
 10
0
 20
0
 30
0
  0
INSERT
  8
0
  2
*X10
 10
0
 20
0
 30
0
  0
INSERT
  8
0
  2
*X11
 10
0
 20
0
 30
0
  0
INSERT
  8
0
  2
*X12
 10
0
 20
0
 30
0
  0
INSERT
  8
0
  2
*X13
 10
0
 20
0
 30
0
  0
LINE
  8
0
 62
7
 10
3.706316977155142
 20
3.425000000000001
 30
0
 11
3.926429207984471
 21
3.425000000000001
 31
0
  0
LINE
  8
0
 62
7
 10
3.926429207984471
 20
3.425000000000001
 30
0
 11
3.995000000000001
 21
3.383404998152006
 31
0
  0
LINE
  8
0
 62
7
 10
3.995000000000001
 20
3.383404998152006
 30
0
 11
3.995000000000001
 21
3.250000000000003
 31
0
  0
LINE
  8
0
 62
7
 10
3.995000000000001
 20
3.250000000000003
 30
0
 11
4.945
 21
3.250000000000003
 31
0
  0
LINE
  8
0
 62
7
 10
4.945
 20
3.250000000000003
 30
0
 11
4.945
 21
3.759001562347941
 31
0
  0
LINE
  8
0
 62
7
 10
4.029401353290782
 20
3.362537157608772
 30
0
 11
4.945
 21
3.664241322575231
 31
0
  0
LINE
  8
0
 62
7
 10
3.995000000000001
 20
3.383404998152006
 30
0
 11
4.029401353290782
 21
3.362537157608772
 31
0
  0
LINE
  8
0
 62
7
 10
4.945
 20
3.664241322575231
 30
0
 11
4.945
 21
4.285082676167751
 31
0
  0
LINE
  8
0
 62
7
 10
3.932353773048304
 20
3.425000000000001
 30
0
 11
4.945
 21
4.173182486756992
 31
0
  0
LINE
  8
0
 62
7
 10
3.926429207984471
 20
3.425000000000001
 30
0
 11
3.932353773048304
 21
3.425000000000001
 31
0
  0
LINE
  8
0
 62
7
 10
4.945
 20
4.375
 30
0
 11
4.385843854034582
 21
4.375
 31
0
  0
LINE
  8
0
 62
7
 10
4.945
 20
4.173182486756992
 30
0
 11
4.945
 21
4.375
 31
0
  0
LINE
  8
0
 62
7
 10
3.816970937978153
 20
3.425000000000001
 30
0
 11
4.496497814857593
 21
4.375
 31
0
  0
LINE
  8
0
 62
7
 10
3.597111897731571
 20
3.425000000000001
 30
0
 11
3.816970937978153
 21
3.425000000000001
 31
0
  0
LINE
  8
0
 62
7
 10
4.496497814857593
 20
4.375
 30
0
 11
3.978213657935743
 21
4.375
 31
0
  0
LINE
  8
0
 62
7
 10
3.694083677435552
 20
3.425000000000001
 30
0
 11
4.07518543763972
 21
4.375
 31
0
  0
LINE
  8
0
 62
7
 10
3.482280665428602
 20
3.425000000000001
 30
0
 11
3.694083677435552
 21
3.425000000000001
 31
0
  0
LINE
  8
0
 62
7
 10
4.07518543763972
 20
4.375
 30
0
 11
3.5936461298674
 21
4.375
 31
0
  0
LINE
  8
0
 62
7
 10
3.572896950953023
 20
3.425000000000001
 30
0
 11
3.684262415391822
 21
4.375
 31
0
  0
LINE
  8
0
 62
7
 10
3.280208499002862
 20
3.425000000000001
 30
0
 11
3.572896950953023
 21
3.425000000000001
 31
0
  0
LINE
  8
0
 62
7
 10
3.684262415391822
 20
4.375
 30
0
 11
3.280208499002862
 21
4.375
 31
0
  0
LINE
  8
0
 62
7
 10
3.370208499002862
 20
3.425000000000001
 30
0
 11
3.370208499002862
 21
4.375
 31
0
  0
LINE
  8
0
 62
7
 10
3.020208499002862
 20
3.425000000000001
 30
0
 11
3.370208499002862
 21
3.425000000000001
 31
0
  0
LINE
  8
0
 62
7
 10
3.370208499002862
 20
4.375
 30
0
 11
3.020208499002862
 21
4.375
 31
0
  0
LINE
  8
0
 62
7
 10
3.110208499002862
 20
3.425000000000001
 30
0
 11
3.110208499002862
 21
4.375
 31
0
  0
LINE
  8
0
 62
7
 10
2.760208499002862
 20
3.425000000000001
 30
0
 11
3.110208499002862
 21
3.425000000000001
 31
0
  0
LINE
  8
0
 62
7
 10
3.110208499002862
 20
4.375
 30
0
 11
2.760208499002862
 21
4.375
 31
0
  0
LINE
  8
0
 62
7
 10
2.850208499002862
 20
3.425000000000001
 30
0
 11
2.850208499002862
 21
4.375
 31
0
  0
LINE
  8
0
 62
7
 10
2.500208499002862
 20
3.425000000000001
 30
0
 11
2.850208499002862
 21
3.425000000000001
 31
0
  0
LINE
  8
0
 62
7
 10
2.850208499002862
 20
4.375
 30
0
 11
2.500208499002862
 21
4.375
 31
0
  0
LINE
  8
0
 62
7
 10
2.590208499002862
 20
3.425000000000001
 30
0
 11
2.590208499002862
 21
4.375
 31
0
  0
LINE
  8
0
 62
7
 10
2.240208499002862
 20
3.425000000000001
 30
0
 11
2.590208499002862
 21
3.425000000000001
 31
0
  0
LINE
  8
0
 62
7
 10
2.590208499002862
 20
4.375
 30
0
 11
2.240208499002862
 21
4.375
 31
0
  0
LINE
  8
0
 62
7
 10
2.330208499002862
 20
3.425000000000001
 30
0
 11
2.330208499002862
 21
4.375
 31
0
  0
LINE
  8
0
 62
7
 10
1.980208499002862
 20
3.425000000000001
 30
0
 11
2.330208499002862
 21
3.425000000000001
 31
0
  0
LINE
  8
0
 62
7
 10
2.330208499002862
 20
4.375
 30
0
 11
1.980208499002862
 21
4.375
 31
0
  0
LINE
  8
0
 62
7
 10
2.070208499002862
 20
3.425000000000001
 30
0
 11
2.070208499002862
 21
4.375
 31
0
  0
LINE
  8
0
 62
7
 10
1.720208499002862
 20
3.425000000000001
 30
0
 11
2.070208499002862
 21
3.425000000000001
 31
0
  0
LINE
  8
0
 62
7
 10
2.070208499002862
 20
4.375
 30
0
 11
1.720208499002862
 21
4.375
 31
0
  0
LINE
  8
0
 62
7
 10
1.810208499002862
 20
3.425000000000001
 30
0
 11
1.810208499002862
 21
4.375
 31
0
  0
LINE
  8
0
 62
7
 10
1.46020849900286
 20
3.425000000000001
 30
0
 11
1.810208499002862
 21
3.425000000000001
 31
0
  0
LINE
  8
0
 62
7
 10
1.810208499002862
 20
4.375
 30
0
 11
1.46020849900286
 21
4.375
 31
0
  0
LINE
  8
0
 62
7
 10
1.550208499002862
 20
3.425000000000001
 30
0
 11
1.550208499002862
 21
4.375
 31
0
  0
LINE
  8
0
 62
7
 10
1.28
 20
3.425000000000001
 30
0
 11
1.550208499002862
 21
3.425000000000001
 31
0
  0
LINE
  8
0
 62
7
 10
1.550208499002862
 20
4.375
 30
0
 11
1.28
 21
4.375
 31
0
  0
LINE
  8
0
 62
7
 10
4.483894568183392
 20
3.425000000016201
 30
0
 11
4.483894568183392
 21
3.250000000000003
 31
0
  0
LINE
  8
0
 62
7
 10
1.351
 20
3.808239468921691
 30
0
 11
1.29
 21
3.913894568183391
 31
0
  0
LINE
  8
0
 62
7
 10
1.351
 20
4.019549667445093
 30
0
 11
1.351
 21
3.808239468921691
 31
0
  0
LINE
  8
0
 62
7
 10
1.29
 20
3.913894568183391
 30
0
 11
1.351
 21
4.019549667445093
 31
0
  0
LINE
  8
0
 62
7
 10
1.29
 20
3.913894568183391
 30
0
 11
3.994999999990712
 21
3.913894568183391
 31
0
  0
LINE
  8
0
 62
7
 10
3.994999959999982
 20
8.583333226666666
 30
0
 11
4.945000029999981
 21
8.583333226666666
 31
0
  0
LINE
  8
0
 62
7
 10
4.945000029999981
 20
8.583333226666666
 30
0
 11
4.945000029999981
 21
8.518333226666666
 31
0
  0
LINE
  8
0
 62
7
 10
3.994999959999982
 20
8.518333226666666
 30
0
 11
3.994999959999982
 21
8.583333226666666
 31
0
  0
LINE
  8
0
 62
7
 10
4.945000029999981
 20
8.518333226666666
 30
0
 11
3.994999959999982
 21
8.518333226666666
 31
0
  0
LINE
  8
0
 62
7
 10
3.846512639999981
 20
8.766666566666665
 30
0
 11
4.944999999999993
 21
8.766666566666665
 31
0
  0
LINE
  8
0
 62
7
 10
4.944999999999993
 20
8.701666566666665
 30
0
 11
3.846512639999981
 21
8.701666566666665
 31
0
  0
LINE
  8
0
 62
7
 10
4.944999999999993
 20
8.766666566666665
 30
0
 11
4.944999999999993
 21
8.701666566666665
 31
0
  0
LINE
  8
0
 62
7
 10
3.846512639999981
 20
8.701666566666665
 30
0
 11
3.846512639999981
 21
8.766666566666665
 31
0
  0
LINE
  8
0
 62
7
 10
4.945000019999984
 20
8.884999906666664
 30
0
 11
3.706317099999982
 21
8.884999906666664
 31
0
  0
LINE
  8
0
 62
7
 10
3.706317099999982
 20
8.949999906666665
 30
0
 11
4.945000019999984
 21
8.949999906666665
 31
0
  0
LINE
  8
0
 62
7
 10
4.945000019999984
 20
8.949999906666665
 30
0
 11
4.945000019999984
 21
8.884999906666664
 31
0
  0
LINE
  8
0
 62
7
 10
3.706317099999982
 20
8.884999906666664
 30
0
 11
3.706317099999982
 21
8.949999906666665
 31
0
  0
LINE
  8
0
 62
7
 10
4.49649790999998
 20
9.068333226666665
 30
0
 11
3.597111929999981
 21
9.068333226666665
 31
0
  0
LINE
  8
0
 62
7
 10
3.597111929999981
 20
9.133333226666666
 30
0
 11
4.49649790999998
 21
9.133333226666666
 31
0
  0
LINE
  8
0
 62
7
 10
4.49649790999998
 20
9.133333226666666
 30
0
 11
4.49649790999998
 21
9.068333226666665
 31
0
  0
LINE
  8
0
 62
7
 10
3.597111929999981
 20
9.068333226666665
 30
0
 11
3.597111929999981
 21
9.133333226666666
 31
0
  0
LINE
  8
0
 62
7
 10
4.075185499999982
 20
9.251666586666667
 30
0
 11
3.482280539999982
 21
9.251666586666667
 31
0
  0
LINE
  8
0
 62
7
 10
3.482280539999982
 20
9.316666586666667
 30
0
 11
4.075185499999982
 21
9.316666586666667
 31
0
  0
LINE
  8
0
 62
7
 10
4.075185499999982
 20
9.316666586666667
 30
0
 11
4.075185499999982
 21
9.251666586666667
 31
0
  0
LINE
  8
0
 62
7
 10
3.482280539999982
 20
9.251666586666667
 30
0
 11
3.482280539999982
 21
9.316666586666667
 31
0
  0
LINE
  8
0
 62
7
 10
3.280208539999983
 20
9.499999946666664
 30
0
 11
3.684262499999983
 21
9.499999946666664
 31
0
  0
LINE
  8
0
 62
7
 10
3.684262499999983
 20
9.434999946666663
 30
0
 11
3.280208539999983
 21
9.434999946666663
 31
0
  0
LINE
  8
0
 62
7
 10
3.684262499999983
 20
9.499999946666664
 30
0
 11
3.684262499999983
 21
9.434999946666663
 31
0
  0
LINE
  8
0
 62
7
 10
3.280208539999983
 20
9.434999946666663
 30
0
 11
3.280208539999983
 21
9.499999946666664
 31
0
  0
LINE
  8
0
 62
7
 10
3.020208389999981
 20
9.683333226666665
 30
0
 11
3.370208539999982
 21
9.683333226666665
 31
0
  0
LINE
  8
0
 62
7
 10
3.370208539999982
 20
9.683333226666665
 30
0
 11
3.370208539999982
 21
9.618333226666664
 31
0
  0
LINE
  8
0
 62
7
 10
3.020208389999981
 20
9.618333226666664
 30
0
 11
3.020208389999981
 21
9.683333226666665
 31
0
  0
LINE
  8
0
 62
7
 10
3.370208539999982
 20
9.618333226666664
 30
0
 11
3.020208389999981
 21
9.618333226666664
 31
0
  0
LINE
  8
0
 62
7
 10
3.110208389999983
 20
9.866666666666665
 30
0
 11
3.110208389999983
 21
9.801666666666666
 31
0
  0
LINE
  8
0
 62
7
 10
2.760208389999981
 20
9.866666666666665
 30
0
 11
3.110208389999983
 21
9.866666666666665
 31
0
  0
LINE
  8
0
 62
7
 10
2.760208389999981
 20
9.801666666666666
 30
0
 11
2.760208389999981
 21
9.866666666666665
 31
0
  0
LINE
  8
0
 62
7
 10
3.110208389999983
 20
9.801666666666666
 30
0
 11
2.760208389999981
 21
9.801666666666666
 31
0
  0
LINE
  8
0
 62
7
 10
2.850208389999981
 20
10.04999994666666
 30
0
 11
2.850208389999981
 21
9.984999946666663
 31
0
  0
LINE
  8
0
 62
7
 10
2.500208239999991
 20
10.04999994666666
 30
0
 11
2.850208389999981
 21
10.04999994666666
 31
0
  0
LINE
  8
0
 62
7
 10
2.500208239999991
 20
9.984999946666663
 30
0
 11
2.500208239999991
 21
10.04999994666666
 31
0
  0
LINE
  8
0
 62
7
 10
2.850208389999981
 20
9.984999946666663
 30
0
 11
2.500208239999991
 21
9.984999946666663
 31
0
  0
LINE
  8
0
 62
7
 10
2.240208539999982
 20
10.23333322666666
 30
0
 11
2.590208539999983
 21
10.23333322666666
 31
0
  0
LINE
  8
0
 62
7
 10
2.590208539999983
 20
10.23333322666666
 30
0
 11
2.590208539999983
 21
10.16833322666666
 31
0
  0
LINE
  8
0
 62
7
 10
2.240208539999982
 20
10.16833322666666
 30
0
 11
2.240208539999982
 21
10.23333322666666
 31
0
  0
LINE
  8
0
 62
7
 10
2.590208539999983
 20
10.16833322666666
 30
0
 11
2.240208539999982
 21
10.16833322666666
 31
0
  0
LINE
  8
0
 62
7
 10
2.330208539999982
 20
10.41666666666667
 30
0
 11
2.330208539999982
 21
10.35166666666667
 31
0
  0
LINE
  8
0
 62
7
 10
1.980208539999982
 20
10.41666666666667
 30
0
 11
2.330208539999982
 21
10.41666666666667
 31
0
  0
LINE
  8
0
 62
7
 10
1.980208539999982
 20
10.35166666666667
 30
0
 11
1.980208539999982
 21
10.41666666666667
 31
0
  0
LINE
  8
0
 62
7
 10
2.330208539999982
 20
10.35166666666667
 30
0
 11
1.980208539999982
 21
10.35166666666667
 31
0
  0
LINE
  8
0
 62
7
 10
1.720208539999982
 20
10.59999994666666
 30
0
 11
2.070208849999981
 21
10.59999994666666
 31
0
  0
LINE
  8
0
 62
7
 10
2.070208849999981
 20
10.59999994666666
 30
0
 11
2.070208849999981
 21
10.53499994666666
 31
0
  0
LINE
  8
0
 62
7
 10
1.720208539999982
 20
10.53499994666666
 30
0
 11
1.720208539999982
 21
10.59999994666666
 31
0
  0
LINE
  8
0
 62
7
 10
2.070208849999981
 20
10.53499994666666
 30
0
 11
1.720208539999982
 21
10.53499994666666
 31
0
  0
LINE
  8
0
 62
7
 10
1.810208539999982
 20
10.78333322666666
 30
0
 11
1.810208539999982
 21
10.71833322666666
 31
0
  0
LINE
  8
0
 62
7
 10
1.460208539999985
 20
10.78333322666666
 30
0
 11
1.810208539999982
 21
10.78333322666666
 31
0
  0
LINE
  8
0
 62
7
 10
1.460208539999985
 20
10.71833322666666
 30
0
 11
1.460208539999985
 21
10.78333322666666
 31
0
  0
LINE
  8
0
 62
7
 10
1.810208539999982
 20
10.71833322666666
 30
0
 11
1.460208539999985
 21
10.71833322666666
 31
0
  0
LINE
  8
0
 62
7
  6
DASHED
 10
1.279999799999985
 20
10.96666666666667
 30
0
 11
1.550208539999982
 21
10.96666666666667
 31
0
  0
LINE
  8
0
 62
7
  6
DASHED
 10
1.550208539999982
 20
10.96666666666667
 30
0
 11
1.550208539999982
 21
10.90166666666667
 31
0
  0
LINE
  8
0
 62
7
  6
DASHED
 10
1.279999799999985
 20
10.90166666666667
 30
0
 11
1.279999799999985
 21
10.96666666666667
 31
0
  0
LINE
  8
0
 62
7
  6
DASHED
 10
1.550208539999982
 20
10.90166666666667
 30
0
 11
1.279999799999985
 21
10.90166666666667
 31
0
  0
LINE
  8
0
 62
7
 10
6.779999530000001
 20
8.583333226666666
 30
0
 11
7.289001010000004
 21
8.583333226666666
 31
0
  0
LINE
  8
0
 62
7
 10
7.289001010000004
 20
8.518333226666666
 30
0
 11
6.779999530000001
 21
8.518333226666666
 31
0
  0
LINE
  8
0
 62
7
 10
6.779999530000001
 20
8.518333226666666
 30
0
 11
6.779999530000001
 21
8.583333226666666
 31
0
  0
LINE
  8
0
 62
7
 10
7.289001010000004
 20
8.583333226666666
 30
0
 11
7.289001010000004
 21
8.518333226666666
 31
0
  0
LINE
  8
0
 62
7
 10
7.815082320000002
 20
8.701666566666665
 30
0
 11
6.892536740000001
 21
8.701666566666665
 31
0
  0
LINE
  8
0
 62
7
 10
6.892536740000001
 20
8.766666566666665
 30
0
 11
7.815082320000002
 21
8.766666566666665
 31
0
  0
LINE
  8
0
 62
7
 10
6.892536740000001
 20
8.701666566666665
 30
0
 11
6.892536740000001
 21
8.766666566666665
 31
0
  0
LINE
  8
0
 62
7
 10
7.815082320000002
 20
8.766666566666665
 30
0
 11
7.815082320000002
 21
8.701666566666665
 31
0
  0
LINE
  8
0
 62
7
 10
6.954999280000004
 20
8.949999906666665
 30
0
 11
7.904999550000003
 21
8.949999906666665
 31
0
  0
LINE
  8
0
 62
7
 10
7.904999550000003
 20
8.884999906666664
 30
0
 11
6.954999280000004
 21
8.884999906666664
 31
0
  0
LINE
  8
0
 62
7
 10
6.954999280000004
 20
8.884999906666664
 30
0
 11
6.954999280000004
 21
8.949999906666665
 31
0
  0
LINE
  8
0
 62
7
 10
7.904999550000003
 20
8.949999906666665
 30
0
 11
7.904999550000003
 21
8.884999906666664
 31
0
  0
LINE
  8
0
 62
7
 10
6.954999660000003
 20
9.133333226666666
 30
0
 11
7.904999700000002
 21
9.133333226666666
 31
0
  0
LINE
  8
0
 62
7
 10
6.954999660000003
 20
9.068333226666665
 30
0
 11
6.954999660000003
 21
9.133333226666666
 31
0
  0
LINE
  8
0
 62
7
 10
7.904999700000002
 20
9.133333226666666
 30
0
 11
7.904999700000002
 21
9.068333226666665
 31
0
  0
LINE
  8
0
 62
7
 10
7.904999700000002
 20
9.068333226666665
 30
0
 11
6.954999660000003
 21
9.068333226666665
 31
0
  0
LINE
  8
0
 62
7
 10
6.954999430000003
 20
9.316666586666667
 30
0
 11
7.904999390000004
 21
9.316666586666667
 31
0
  0
LINE
  8
0
 62
7
 10
6.954999430000003
 20
9.251666586666667
 30
0
 11
6.954999430000003
 21
9.316666586666667
 31
0
  0
LINE
  8
0
 62
7
 10
7.904999390000004
 20
9.316666586666667
 30
0
 11
7.904999390000004
 21
9.251666586666667
 31
0
  0
LINE
  8
0
 62
7
 10
7.904999390000004
 20
9.251666586666667
 30
0
 11
6.954999430000003
 21
9.251666586666667
 31
0
  0
LINE
  8
0
 62
7
 10
6.954999280000004
 20
9.499999946666668
 30
0
 11
7.904999700000002
 21
9.499999946666668
 31
0
  0
LINE
  8
0
 62
7
 10
6.954999280000004
 20
9.434999946666668
 30
0
 11
6.954999280000004
 21
9.499999946666668
 31
0
  0
LINE
  8
0
 62
7
 10
7.904999700000002
 20
9.499999946666668
 30
0
 11
7.904999700000002
 21
9.434999946666668
 31
0
  0
LINE
  8
0
 62
7
 10
7.904999700000002
 20
9.434999946666668
 30
0
 11
6.954999280000004
 21
9.434999946666668
 31
0
  0
LINE
  8
0
 62
7
 10
6.954999320000003
 20
9.683333226666667
 30
0
 11
7.904999550000003
 21
9.683333226666667
 31
0
  0
LINE
  8
0
 62
7
 10
6.954999320000003
 20
9.618333226666666
 30
0
 11
6.954999320000003
 21
9.683333226666667
 31
0
  0
LINE
  8
0
 62
7
 10
7.904999550000003
 20
9.683333226666667
 30
0
 11
7.904999550000003
 21
9.618333226666666
 31
0
  0
LINE
  8
0
 62
7
 10
7.904999550000003
 20
9.618333226666666
 30
0
 11
6.954999320000003
 21
9.618333226666666
 31
0
  0
LINE
  8
0
 62
7
 10
6.954999390000002
 20
9.866666666666667
 30
0
 11
7.904999550000003
 21
9.866666666666667
 31
0
  0
LINE
  8
0
 62
7
 10
6.954999390000002
 20
9.801666666666668
 30
0
 11
6.954999390000002
 21
9.866666666666667
 31
0
  0
LINE
  8
0
 62
7
 10
7.904999550000003
 20
9.866666666666667
 30
0
 11
7.904999550000003
 21
9.801666666666668
 31
0
  0
LINE
  8
0
 62
7
 10
7.904999550000003
 20
9.801666666666668
 30
0
 11
6.954999390000002
 21
9.801666666666668
 31
0
  0
LINE
  8
0
 62
7
 10
6.954999700000004
 20
10.04999994666667
 30
0
 11
7.904999390000004
 21
10.04999994666667
 31
0
  0
LINE
  8
0
 62
7
 10
6.954999700000004
 20
9.984999946666669
 30
0
 11
6.954999700000004
 21
10.04999994666667
 31
0
  0
LINE
  8
0
 62
7
 10
7.904999390000004
 20
10.04999994666667
 30
0
 11
7.904999390000004
 21
9.984999946666669
 31
0
  0
LINE
  8
0
 62
7
 10
7.904999390000004
 20
9.984999946666669
 30
0
 11
6.954999700000004
 21
9.984999946666669
 31
0
  0
LINE
  8
0
 62
7
 10
6.954999160000003
 20
10.23333322666667
 30
0
 11
7.904999850000005
 21
10.23333322666667
 31
0
  0
LINE
  8
0
 62
7
 10
6.954999160000003
 20
10.16833322666667
 30
0
 11
6.954999160000003
 21
10.23333322666667
 31
0
  0
LINE
  8
0
 62
7
 10
7.904999850000005
 20
10.23333322666667
 30
0
 11
7.904999850000005
 21
10.16833322666667
 31
0
  0
LINE
  8
0
 62
7
 10
7.904999850000005
 20
10.16833322666667
 30
0
 11
6.954999160000003
 21
10.16833322666667
 31
0
  0
LINE
  8
0
 62
7
 10
6.954997600000003
 20
10.41666666666667
 30
0
 11
7.904999550000003
 21
10.41666666666667
 31
0
  0
LINE
  8
0
 62
7
 10
6.954997600000003
 20
10.35166666666667
 30
0
 11
6.954997600000003
 21
10.41666666666667
 31
0
  0
LINE
  8
0
 62
7
 10
7.904999550000003
 20
10.41666666666667
 30
0
 11
7.904999550000003
 21
10.35166666666667
 31
0
  0
LINE
  8
0
 62
7
 10
7.904999550000003
 20
10.35166666666667
 30
0
 11
6.954997600000003
 21
10.35166666666667
 31
0
  0
LINE
  8
0
 62
7
 10
6.954998060000003
 20
10.59999994666666
 30
0
 11
7.904999700000002
 21
10.59999994666666
 31
0
  0
LINE
  8
0
 62
7
 10
6.954998060000003
 20
10.53499994666666
 30
0
 11
6.954998060000003
 21
10.59999994666666
 31
0
  0
LINE
  8
0
 62
7
 10
7.904999700000002
 20
10.59999994666666
 30
0
 11
7.904999700000002
 21
10.53499994666666
 31
0
  0
LINE
  8
0
 62
7
 10
7.904999700000002
 20
10.53499994666666
 30
0
 11
6.954998060000003
 21
10.53499994666666
 31
0
  0
LINE
  8
0
 62
7
 10
6.955000160000001
 20
10.78333322666667
 30
0
 11
7.904999550000003
 21
10.78333322666667
 31
0
  0
LINE
  8
0
 62
7
 10
6.955000160000001
 20
10.71833322666667
 30
0
 11
6.955000160000001
 21
10.78333322666667
 31
0
  0
LINE
  8
0
 62
7
 10
7.904999550000003
 20
10.78333322666667
 30
0
 11
7.904999550000003
 21
10.71833322666667
 31
0
  0
LINE
  8
0
 62
7
 10
7.904999550000003
 20
10.71833322666667
 30
0
 11
6.955000160000001
 21
10.71833322666667
 31
0
  0
LINE
  8
0
 62
7
 10
6.954997750000001
 20
10.96666666666667
 30
0
 11
7.905000000000001
 21
10.96666666666667
 31
0
  0
LINE
  8
0
 62
7
 10
6.954997750000001
 20
10.90166666666667
 30
0
 11
6.954997750000001
 21
10.96666666666667
 31
0
  0
LINE
  8
0
 62
7
 10
7.905000000000001
 20
10.96666666666667
 30
0
 11
7.905000000000001
 21
10.90166666666667
 31
0
  0
LINE
  8
0
 62
7
 10
7.905000000000001
 20
10.90166666666667
 30
0
 11
6.954997750000001
 21
10.90166666666667
 31
0
  0
LINE
  8
0
 62
7
 10
7.960000000000001
 20
11.05
 30
0
 11
7.960000000000001
 21
11.15
 31
0
  0
LINE
  8
0
 62
7
 10
7.960000000000001
 20
11.15
 30
0
 11
6.88
 21
11.15
 31
0
  0
LINE
  8
0
 62
7
 10
1.1
 20
10.85
 30
0
 11
1.24
 21
10.85
 31
0
  0
LINE
  8
0
 62
7
 10
1.24
 20
10.85
 30
0
 11
1.24
 21
11.05
 31
0
  0
LINE
  8
0
 62
7
 10
5
 20
11.05
 30
0
 11
5
 21
11.15
 31
0
  0
LINE
  8
0
 62
7
 10
5
 20
11.15
 30
0
 11
1.1
 21
11.15
 31
0
  0
LINE
  8
0
 62
7
 10
1.1
 20
8.299999999999997
 30
0
 11
1.24
 21
8.299999999999997
 31
0
  0
LINE
  8
0
 62
7
 10
5
 20
8.299999999999997
 30
0
 11
5
 21
8.399999999999997
 31
0
  0
LINE
  8
0
 62
7
 10
1.1
 20
8.399999999999997
 30
0
 11
5
 21
8.399999999999997
 31
0
  0
LINE
  8
0
 62
7
  6
DASHDOT
 10
5
 20
3.350000000000001
 30
0
 11
1.29
 21
3.350000000000001
 31
0
  0
LINE
  8
0
 62
7
 10
1.24
 20
4.430000000000001
 30
0
 11
1.29
 21
4.430000000000001
 31
0
  0
LINE
  8
0
 62
7
 10
1.29
 20
3.350000000000001
 30
0
 11
1.29
 21
4.430000000000001
 31
0
  0
LINE
  8
0
 62
7
  6
DASHDOT
 10
1.1
 20
4.380000000000001
 30
0
 11
1.1
 21
4.430000000000001
 31
0
  0
LINE
  8
0
 62
7
 10
1.1
 20
4.430000000000001
 30
0
 11
1.24
 21
4.430000000000001
 31
0
  0
LINE
  8
0
 62
7
 10
1.1
 20
4.71
 30
0
 11
5.175000000000001
 21
4.71
 31
0
  0
LINE
  8
0
 62
7
 10
5.175000000000001
 20
4.71
 30
0
 11
5.175000000000001
 21
5.099999999999998
 31
0
  0
LINE
  8
0
 62
7
 10
1.1
 20
4.670000000000001
 30
0
 11
5.175000000000001
 21
4.670000000000001
 31
0
  0
LINE
  8
0
 62
7
  6
DASHDOT
 10
1.1
 20
4.430000000000001
 30
0
 11
1.1
 21
4.670000000000001
 31
0
  0
LINE
  8
0
 62
7
  6
DASHDOT
 10
1.1
 20
4.670000000000001
 30
0
 11
1.1
 21
4.71
 31
0
  0
LINE
  8
0
 62
7
  6
DASHDOT
 10
4.95
 20
5.099999999999998
 30
0
 11
5
 21
5.099999999999998
 31
0
  0
LINE
  8
0
 62
7
  6
DASHDOT
 10
5
 20
5.099999999999998
 30
0
 11
5.175000000000001
 21
5.099999999999998
 31
0
  0
LINE
  8
0
 62
7
  6
DASHDOT
 10
1.1
 20
4.71
 30
0
 11
1.1
 21
4.949999999999998
 31
0
  0
LINE
  8
0
 62
7
  6
DASHDOT
 10
1.1
 20
4.949999999999998
 30
0
 11
1.1
 21
4.999999999999997
 31
0
  0
LINE
  8
0
 62
7
  6
DASHDOT
 10
5.175000000000001
 20
5.099999999999998
 30
0
 11
5.225000000000001
 21
5.099999999999998
 31
0
  0
LINE
  8
0
 62
7
 10
5
 20
4.430000000000001
 30
0
 11
5
 21
3.350000000000001
 31
0
  0
LINE
  8
0
 62
7
  6
DASHDOT
 10
1.29
 20
3.350000000000001
 30
0
 11
1.24
 21
3.350000000000001
 31
0
  0
LINE
  8
0
 62
7
  6
DASHDOT
 10
1.24
 20
3.350000000000001
 30
0
 11
1.24
 21
4.430000000000001
 31
0
  0
LINE
  8
0
 62
7
 10
1.29
 20
4.430000000000001
 30
0
 11
5
 21
4.430000000000001
 31
0
  0
LINE
  8
0
 62
7
 10
5.175000000000001
 20
3.250000000000001
 30
0
 11
5.175000000000001
 21
4.670000000000001
 31
0
  0
LINE
  8
0
 62
7
 10
5
 20
3.250000000000001
 30
0
 11
5.175000000000001
 21
3.250000000000001
 31
0
  0
LINE
  8
0
 62
7
 10
5
 20
3.350000000000001
 30
0
 11
5
 21
3.250000000000001
 31
0
  0
LINE
  8
0
 62
7
 10
1.1
 20
4.949999999999998
 30
0
 11
5
 21
4.949999999999998
 31
0
  0
LINE
  8
0
 62
7
 10
5
 20
4.949999999999998
 30
0
 11
5
 21
5.099999999999998
 31
0
  0
LINE
  8
0
 62
7
  6
DASHED
 10
6.88
 20
8.099999999999998
 30
0
 11
7.960000000000001
 21
8.099999999999998
 31
0
  0
LINE
  8
0
 62
7
  6
DASHED
 10
6.88
 20
8.299999999999997
 30
0
 11
7.960000000000001
 21
8.299999999999997
 31
0
  0
LINE
  8
0
 62
7
  6
DASHED
 10
6.88
 20
10.85
 30
0
 11
7.960000000000001
 21
10.85
 31
0
  0
LINE
  8
0
 62
7
  6
DASHED
 10
6.88
 20
11.05
 30
0
 11
7.960000000000001
 21
11.05
 31
0
  0
LINE
  8
0
 62
7
  6
DASHDOT
 10
6.58
 20
10.85
 30
0
 11
6.58
 21
11.05
 31
0
  0
LINE
  8
0
 62
7
  6
DASHDOT
 10
6.58
 20
10.8
 30
0
 11
6.58
 21
10.85
 31
0
  0
LINE
  8
0
 62
7
  6
DASHDOT
 10
7.960000000000001
 20
11.2
 30
0
 11
8.200000000000001
 21
11.2
 31
0
  0
LINE
  8
0
 62
7
  6
DASHDOT
 10
7.910000000000001
 20
11.2
 30
0
 11
7.960000000000001
 21
11.2
 31
0
  0
LINE
  8
0
 62
7
  6
DASHDOT
 10
7.910000000000001
 20
7.949999999999998
 30
0
 11
7.960000000000001
 21
7.949999999999998
 31
0
  0
LINE
  8
0
 62
7
  6
DASHDOT
 10
7.960000000000001
 20
7.949999999999998
 30
0
 11
8.200000000000001
 21
7.949999999999998
 31
0
  0
LINE
  8
0
 62
7
  6
DASHDOT
 10
6.58
 20
8.299999999999997
 30
0
 11
6.58
 21
8.099999999999998
 31
0
  0
LINE
  8
0
 62
7
  6
DASHDOT
 10
6.58
 20
8.399999999999997
 30
0
 11
6.58
 21
8.299999999999997
 31
0
  0
LINE
  8
0
 62
7
  6
DASHDOT
 10
6.58
 20
11.05
 30
0
 11
6.58
 21
11.15
 31
0
  0
LINE
  8
0
 62
7
 10
6.58
 20
11.15
 30
0
 11
6.88
 21
11.15
 31
0
  0
LINE
  8
0
 62
7
  6
DASHDOT
 10
6.58
 20
8.449999999999998
 30
0
 11
6.58
 21
8.399999999999997
 31
0
  0
LINE
  8
0
 62
7
 10
6.58
 20
8.399999999999997
 30
0
 11
6.88
 21
8.399999999999997
 31
0
  0
LINE
  8
0
 62
7
  6
DASHDOT
 10
8.200000000000001
 20
7.949999999999998
 30
0
 11
8.25
 21
7.949999999999998
 31
0
  0
LINE
  8
0
 62
7
  6
DASHDOT
 10
6.58
 20
8.099999999999998
 30
0
 11
6.58
 21
8.049999999999997
 31
0
  0
LINE
  8
0
 62
7
  6
DASHDOT
 10
6.58
 20
11.15
 30
0
 11
6.58
 21
11.2
 31
0
  0
LINE
  8
0
 62
7
  6
DASHDOT
 10
8.200000000000001
 20
11.2
 30
0
 11
8.25
 21
11.2
 31
0
  0
LINE
  8
0
 62
7
 10
6.58
 20
8.099999999999998
 30
0
 11
6.88
 21
8.099999999999998
 31
0
  0
LINE
  8
0
 62
7
 10
6.88
 20
8.099999999999998
 30
0
 11
6.88
 21
8.299999999999997
 31
0
  0
LINE
  8
0
 62
7
 10
6.58
 20
8.299999999999997
 30
0
 11
6.88
 21
8.299999999999997
 31
0
  0
LINE
  8
0
 62
7
 10
6.58
 20
11.05
 30
0
 11
6.88
 21
11.05
 31
0
  0
LINE
  8
0
 62
7
 10
6.58
 20
10.85
 30
0
 11
6.88
 21
10.85
 31
0
  0
LINE
  8
0
 62
7
 10
6.88
 20
10.85
 30
0
 11
6.88
 21
11.05
 31
0
  0
LINE
  8
0
 62
7
 10
7.960000000000001
 20
7.949999999999998
 30
0
 11
7.960000000000001
 21
8.099999999999998
 31
0
  0
LINE
  8
0
 62
7
 10
8.200000000000001
 20
8.299999999999997
 30
0
 11
8.200000000000001
 21
8.099999999999998
 31
0
  0
LINE
  8
0
 62
7
 10
7.960000000000001
 20
8.099999999999998
 30
0
 11
8.200000000000001
 21
8.099999999999998
 31
0
  0
LINE
  8
0
 62
7
 10
7.960000000000001
 20
8.099999999999998
 30
0
 11
7.960000000000001
 21
8.299999999999997
 31
0
  0
LINE
  8
0
 62
7
 10
8.200000000000001
 20
10.85
 30
0
 11
8.200000000000001
 21
8.299999999999997
 31
0
  0
LINE
  8
0
 62
7
 10
7.960000000000001
 20
8.299999999999997
 30
0
 11
8.200000000000001
 21
8.299999999999997
 31
0
  0
LINE
  8
0
 62
7
 10
7.960000000000001
 20
8.299999999999997
 30
0
 11
7.960000000000001
 21
10.85
 31
0
  0
LINE
  8
0
 62
7
 10
8.200000000000001
 20
11.05
 30
0
 11
8.200000000000001
 21
10.85
 31
0
  0
LINE
  8
0
 62
7
 10
7.960000000000001
 20
10.85
 30
0
 11
8.200000000000001
 21
10.85
 31
0
  0
LINE
  8
0
 62
7
 10
7.960000000000001
 20
10.85
 30
0
 11
7.960000000000001
 21
11.05
 31
0
  0
LINE
  8
0
 62
7
 10
8.200000000000001
 20
11.2
 30
0
 11
8.200000000000001
 21
11.05
 31
0
  0
LINE
  8
0
 62
7
 10
7.960000000000001
 20
11.05
 30
0
 11
8.200000000000001
 21
11.05
 31
0
  0
LINE
  8
0
 62
7
 10
7.960000000000001
 20
11.15
 30
0
 11
7.960000000000001
 21
11.2
 31
0
  0
LINE
  8
0
 62
7
 10
8.200000000000001
 20
8.099999999999998
 30
0
 11
8.200000000000001
 21
7.949999999999998
 31
0
  0
LINE
  8
0
 62
7
  6
DASHDOT
 10
5.175000000000001
 20
11.2
 30
0
 11
5.225000000000001
 21
11.2
 31
0
  0
LINE
  8
0
 62
7
  6
DASHDOT
 10
5
 20
11.2
 30
0
 11
5.175000000000001
 21
11.2
 31
0
  0
LINE
  8
0
 62
7
  6
DASHDOT
 10
5.325
 20
11.05
 30
0
 11
5.325
 21
11.15
 31
0
  0
LINE
  8
0
 62
7
  6
DASHDOT
 10
5.325
 20
10.85
 30
0
 11
5.325
 21
11.05
 31
0
  0
LINE
  8
0
 62
7
  6
DASHDOT
 10
1.1
 20
11.05
 30
0
 11
1.1
 21
11.15
 31
0
  0
LINE
  8
0
 62
7
  6
DASHDOT
 10
1.1
 20
10.85
 30
0
 11
1.1
 21
11.05
 31
0
  0
LINE
  8
0
 62
7
  6
DASHDOT
 10
1.1
 20
8.299999999999997
 30
0
 11
1.1
 21
8.399999999999997
 31
0
  0
LINE
  8
0
 62
7
  6
DASHDOT
 10
1.1
 20
8.099999999999998
 30
0
 11
1.1
 21
8.299999999999997
 31
0
  0
LINE
  8
0
 62
7
  6
DASHDOT
 10
5.175000000000001
 20
7.949999999999998
 30
0
 11
5.225000000000001
 21
7.949999999999998
 31
0
  0
LINE
  8
0
 62
7
  6
DASHDOT
 10
5
 20
7.949999999999998
 30
0
 11
5.175000000000001
 21
7.949999999999998
 31
0
  0
LINE
  8
0
 62
7
  6
DASHDOT
 10
5.325
 20
8.299999999999997
 30
0
 11
5.325
 21
8.399999999999997
 31
0
  0
LINE
  8
0
 62
7
  6
DASHDOT
 10
5.325
 20
8.099999999999998
 30
0
 11
5.325
 21
8.299999999999997
 31
0
  0
LINE
  8
0
 62
7
  6
DASHDOT
 10
5.325
 20
11.15
 30
0
 11
5.325
 21
11.2
 31
0
  0
LINE
  8
0
 62
7
 10
5.175000000000001
 20
11.15
 30
0
 11
5.175000000000001
 21
11.2
 31
0
  0
LINE
  8
0
 62
7
 10
5.175000000000001
 20
11.15
 30
0
 11
5.325
 21
11.15
 31
0
  0
LINE
  8
0
 62
7
 10
5
 20
11.15
 30
0
 11
5
 21
11.2
 31
0
  0
LINE
  8
0
 62
7
  6
DASHDOT
 10
1.1
 20
11.15
 30
0
 11
1.1
 21
11.2
 31
0
  0
LINE
  8
0
 62
7
  6
DASHDOT
 10
5.325
 20
8.399999999999997
 30
0
 11
5.325
 21
8.449999999999998
 31
0
  0
LINE
  8
0
 62
7
 10
5.175000000000001
 20
8.399999999999997
 30
0
 11
5.175000000000001
 21
10.85
 31
0
  0
LINE
  8
0
 62
7
 10
5.175000000000001
 20
8.399999999999997
 30
0
 11
5.325
 21
8.399999999999997
 31
0
  0
LINE
  8
0
 62
7
 10
5
 20
8.399999999999997
 30
0
 11
5
 21
10.85
 31
0
  0
LINE
  8
0
 62
7
  6
DASHDOT
 10
1.1
 20
8.399999999999997
 30
0
 11
1.1
 21
8.449999999999998
 31
0
  0
LINE
  8
0
 62
7
  6
DASHDOT
 10
4.95
 20
7.949999999999998
 30
0
 11
5
 21
7.949999999999998
 31
0
  0
LINE
  8
0
 62
7
  6
DASHDOT
 10
4.95
 20
11.2
 30
0
 11
5
 21
11.2
 31
0
  0
LINE
  8
0
 62
7
  6
DASHDOT
 10
5.325
 20
10.8
 30
0
 11
5.325
 21
10.85
 31
0
  0
LINE
  8
0
 62
7
  6
DASHDOT
 10
5.325
 20
8.049999999999997
 30
0
 11
5.325
 21
8.099999999999998
 31
0
  0
LINE
  8
0
 62
7
  6
DASHDOT
 10
1.1
 20
10.8
 30
0
 11
1.1
 21
10.85
 31
0
  0
LINE
  8
0
 62
7
  6
DASHDOT
 10
1.1
 20
8.049999999999997
 30
0
 11
1.1
 21
8.099999999999998
 31
0
  0
LINE
  8
0
 62
7
 10
5.175000000000001
 20
11.05
 30
0
 11
5.325
 21
11.05
 31
0
  0
LINE
  8
0
 62
7
 10
5.175000000000001
 20
11.05
 30
0
 11
5.175000000000001
 21
11.15
 31
0
  0
LINE
  8
0
 62
7
 10
5.175000000000001
 20
10.85
 30
0
 11
5.325
 21
10.85
 31
0
  0
LINE
  8
0
 62
7
 10
5.175000000000001
 20
8.299999999999997
 30
0
 11
5.325
 21
8.299999999999997
 31
0
  0
LINE
  8
0
 62
7
 10
5.175000000000001
 20
8.299999999999997
 30
0
 11
5.175000000000001
 21
8.399999999999997
 31
0
  0
LINE
  8
0
 62
7
 10
5.175000000000001
 20
8.099999999999998
 30
0
 11
5.325
 21
8.099999999999998
 31
0
  0
LINE
  8
0
 62
7
 10
5.175000000000001
 20
7.949999999999998
 30
0
 11
5.175000000000001
 21
8.099999999999998
 31
0
  0
LINE
  8
0
 62
7
 10
5
 20
11.05
 30
0
 11
5.175000000000001
 21
11.05
 31
0
  0
LINE
  8
0
 62
7
 10
5
 20
10.85
 30
0
 11
5.175000000000001
 21
10.85
 31
0
  0
LINE
  8
0
 62
7
 10
5
 20
8.299999999999997
 30
0
 11
5.175000000000001
 21
8.299999999999997
 31
0
  0
LINE
  8
0
 62
7
 10
5
 20
8.099999999999998
 30
0
 11
5.175000000000001
 21
8.099999999999998
 31
0
  0
LINE
  8
0
 62
7
 10
5
 20
7.949999999999998
 30
0
 11
5
 21
8.099999999999998
 31
0
  0
LINE
  8
0
 62
7
 10
1.24
 20
11.05
 30
0
 11
5
 21
11.05
 31
0
  0
LINE
  8
0
 62
7
 10
1.24
 20
10.85
 30
0
 11
5
 21
10.85
 31
0
  0
LINE
  8
0
 62
7
 10
1.24
 20
8.299999999999997
 30
0
 11
5
 21
8.299999999999997
 31
0
  0
LINE
  8
0
 62
7
 10
1.1
 20
8.099999999999998
 30
0
 11
5
 21
8.099999999999998
 31
0
  0
LINE
  8
0
 62
7
 10
1.065
 20
11.05
 30
0
 11
1.24
 21
11.05
 31
0
  0
LINE
  8
0
 62
7
 10
1.1
 20
11.05
 30
0
 11
1.24
 21
11.05
 31
0
  0
LINE
  8
0
 62
7
 10
2.168672926105721
 20
4.09901868392665
 30
0
 11
2.168672926105721
 21
4.219018683926651
 31
0
  0
LINE
  8
0
 62
7
 10
2.244272926105721
 20
4.219018683926651
 30
0
 11
2.190272926105721
 21
4.15901868392665
 31
0
  0
LINE
  8
0
 62
7
 10
2.190272926105721
 20
4.15901868392665
 30
0
 11
2.244272926105721
 21
4.09901868392665
 31
0
  0
LINE
  8
0
 62
7
 10
2.190272926105721
 20
4.15901868392665
 30
0
 11
2.168672926105721
 21
4.13501868392665
 31
0
  0
LINE
  8
0
 62
7
 10
2.352272926105721
 20
4.219018683926651
 30
0
 11
2.276672926105721
 21
4.219018683926651
 31
0
  0
LINE
  8
0
 62
7
 10
2.276672926105721
 20
4.219018683926651
 30
0
 11
2.276672926105721
 21
4.15901868392665
 31
0
  0
LINE
  8
0
 62
7
 10
2.276672926105721
 20
4.09901868392665
 30
0
 11
2.352272926105721
 21
4.09901868392665
 31
0
  0
LINE
  8
0
 62
7
 10
2.341472926105722
 20
4.15901868392665
 30
0
 11
2.276672926105721
 21
4.15901868392665
 31
0
  0
LINE
  8
0
 62
7
 10
2.276672926105721
 20
4.15901868392665
 30
0
 11
2.276672926105721
 21
4.09901868392665
 31
0
  0
LINE
  8
0
 62
7
 10
2.384672926105721
 20
4.09901868392665
 30
0
 11
2.384672926105721
 21
4.219018683926651
 31
0
  0
LINE
  8
0
 62
7
 10
2.384672926105721
 20
4.219018683926651
 30
0
 11
2.460272926105722
 21
4.09901868392665
 31
0
  0
LINE
  8
0
 62
7
 10
2.460272926105722
 20
4.09901868392665
 30
0
 11
2.460272926105722
 21
4.219018683926651
 31
0
  0
LINE
  8
0
 62
7
 10
2.492672926105721
 20
4.09901868392665
 30
0
 11
2.492672926105721
 21
4.219018683926651
 31
0
  0
LINE
  8
0
 62
7
 10
2.492672926105721
 20
4.219018683926651
 30
0
 11
2.568272926105721
 21
4.09901868392665
 31
0
  0
LINE
  8
0
 62
7
 10
2.568272926105721
 20
4.09901868392665
 30
0
 11
2.568272926105721
 21
4.219018683926651
 31
0
  0
LINE
  8
0
 62
7
 10
2.676272926105721
 20
4.18301868392665
 30
0
 11
2.673572926105721
 21
4.195018683926651
 31
0
  0
LINE
  8
0
 62
7
 10
2.673572926105721
 20
4.195018683926651
 30
0
 11
2.668172926105722
 21
4.20401868392665
 31
0
  0
LINE
  8
0
 62
7
 10
2.668172926105722
 20
4.20401868392665
 30
0
 11
2.662772926105721
 21
4.21001868392665
 31
0
  0
LINE
  8
0
 62
7
 10
2.662772926105721
 20
4.21001868392665
 30
0
 11
2.654672926105721
 21
4.21601868392665
 31
0
  0
LINE
  8
0
 62
7
 10
2.654672926105721
 20
4.21601868392665
 30
0
 11
2.646572926105721
 21
4.219018683926651
 31
0
  0
LINE
  8
0
 62
7
 10
2.646572926105721
 20
4.219018683926651
 30
0
 11
2.630372926105721
 21
4.219018683926651
 31
0
  0
LINE
  8
0
 62
7
 10
2.630372926105721
 20
4.219018683926651
 30
0
 11
2.622272926105721
 21
4.21601868392665
 31
0
  0
LINE
  8
0
 62
7
 10
2.622272926105721
 20
4.21601868392665
 30
0
 11
2.614172926105721
 21
4.21001868392665
 31
0
  0
LINE
  8
0
 62
7
 10
2.614172926105721
 20
4.21001868392665
 30
0
 11
2.608772926105722
 21
4.20401868392665
 31
0
  0
LINE
  8
0
 62
7
 10
2.608772926105722
 20
4.20401868392665
 30
0
 11
2.603372926105721
 21
4.195018683926651
 31
0
  0
LINE
  8
0
 62
7
 10
2.603372926105721
 20
4.195018683926651
 30
0
 11
2.600672926105721
 21
4.18301868392665
 31
0
  0
LINE
  8
0
 62
7
 10
2.600672926105721
 20
4.18301868392665
 30
0
 11
2.600672926105721
 21
4.13501868392665
 31
0
  0
LINE
  8
0
 62
7
 10
2.600672926105721
 20
4.13501868392665
 30
0
 11
2.603372926105721
 21
4.12301868392665
 31
0
  0
LINE
  8
0
 62
7
 10
2.603372926105721
 20
4.12301868392665
 30
0
 11
2.608772926105722
 21
4.11401868392665
 31
0
  0
LINE
  8
0
 62
7
 10
2.608772926105722
 20
4.11401868392665
 30
0
 11
2.614172926105721
 21
4.10801868392665
 31
0
  0
LINE
  8
0
 62
7
 10
2.614172926105721
 20
4.10801868392665
 30
0
 11
2.622272926105721
 21
4.102018683926651
 31
0
  0
LINE
  8
0
 62
7
 10
2.622272926105721
 20
4.102018683926651
 30
0
 11
2.630372926105721
 21
4.09901868392665
 31
0
  0
LINE
  8
0
 62
7
 10
2.630372926105721
 20
4.09901868392665
 30
0
 11
2.646572926105721
 21
4.09901868392665
 31
0
  0
LINE
  8
0
 62
7
 10
2.646572926105721
 20
4.09901868392665
 30
0
 11
2.654672926105721
 21
4.102018683926651
 31
0
  0
LINE
  8
0
 62
7
 10
2.654672926105721
 20
4.102018683926651
 30
0
 11
2.662772926105721
 21
4.10801868392665
 31
0
  0
LINE
  8
0
 62
7
 10
2.662772926105721
 20
4.10801868392665
 30
0
 11
2.668172926105722
 21
4.11401868392665
 31
0
  0
LINE
  8
0
 62
7
 10
2.668172926105722
 20
4.11401868392665
 30
0
 11
2.673572926105721
 21
4.12301868392665
 31
0
  0
LINE
  8
0
 62
7
 10
2.673572926105721
 20
4.12301868392665
 30
0
 11
2.676272926105721
 21
4.13501868392665
 31
0
  0
LINE
  8
0
 62
7
 10
2.676272926105721
 20
4.13501868392665
 30
0
 11
2.676272926105721
 21
4.15901868392665
 31
0
  0
LINE
  8
0
 62
7
 10
2.676272926105721
 20
4.15901868392665
 30
0
 11
2.643872926105721
 21
4.15901868392665
 31
0
  0
LINE
  8
0
 62
7
 10
2.754572926105722
 20
4.219018683926651
 30
0
 11
2.738372926105721
 21
4.219018683926651
 31
0
  0
LINE
  8
0
 62
7
 10
2.738372926105721
 20
4.219018683926651
 30
0
 11
2.730272926105721
 21
4.21601868392665
 31
0
  0
LINE
  8
0
 62
7
 10
2.730272926105721
 20
4.21601868392665
 30
0
 11
2.722172926105721
 21
4.21001868392665
 31
0
  0
LINE
  8
0
 62
7
 10
2.722172926105721
 20
4.21001868392665
 30
0
 11
2.716772926105721
 21
4.20401868392665
 31
0
  0
LINE
  8
0
 62
7
 10
2.716772926105721
 20
4.20401868392665
 30
0
 11
2.711372926105721
 21
4.195018683926651
 31
0
  0
LINE
  8
0
 62
7
 10
2.711372926105721
 20
4.195018683926651
 30
0
 11
2.708672926105721
 21
4.18301868392665
 31
0
  0
LINE
  8
0
 62
7
 10
2.708672926105721
 20
4.18301868392665
 30
0
 11
2.708672926105721
 21
4.13501868392665
 31
0
  0
LINE
  8
0
 62
7
 10
2.708672926105721
 20
4.13501868392665
 30
0
 11
2.711372926105721
 21
4.12301868392665
 31
0
  0
LINE
  8
0
 62
7
 10
2.711372926105721
 20
4.12301868392665
 30
0
 11
2.716772926105721
 21
4.11401868392665
 31
0
  0
LINE
  8
0
 62
7
 10
2.716772926105721
 20
4.11401868392665
 30
0
 11
2.722172926105721
 21
4.10801868392665
 31
0
  0
LINE
  8
0
 62
7
 10
2.722172926105721
 20
4.10801868392665
 30
0
 11
2.730272926105721
 21
4.102018683926651
 31
0
  0
LINE
  8
0
 62
7
 10
2.730272926105721
 20
4.102018683926651
 30
0
 11
2.738372926105721
 21
4.09901868392665
 31
0
  0
LINE
  8
0
 62
7
 10
2.738372926105721
 20
4.09901868392665
 30
0
 11
2.754572926105722
 21
4.09901868392665
 31
0
  0
LINE
  8
0
 62
7
 10
2.754572926105722
 20
4.09901868392665
 30
0
 11
2.762672926105722
 21
4.102018683926651
 31
0
  0
LINE
  8
0
 62
7
 10
2.762672926105722
 20
4.102018683926651
 30
0
 11
2.770772926105721
 21
4.10801868392665
 31
0
  0
LINE
  8
0
 62
7
 10
2.770772926105721
 20
4.10801868392665
 30
0
 11
2.776172926105721
 21
4.11401868392665
 31
0
  0
LINE
  8
0
 62
7
 10
2.776172926105721
 20
4.11401868392665
 30
0
 11
2.781572926105721
 21
4.12301868392665
 31
0
  0
LINE
  8
0
 62
7
 10
2.781572926105721
 20
4.12301868392665
 30
0
 11
2.784272926105722
 21
4.13501868392665
 31
0
  0
LINE
  8
0
 62
7
 10
2.784272926105722
 20
4.13501868392665
 30
0
 11
2.784272926105722
 21
4.18301868392665
 31
0
  0
LINE
  8
0
 62
7
 10
2.784272926105722
 20
4.18301868392665
 30
0
 11
2.781572926105721
 21
4.195018683926651
 31
0
  0
LINE
  8
0
 62
7
 10
2.781572926105721
 20
4.195018683926651
 30
0
 11
2.776172926105721
 21
4.20401868392665
 31
0
  0
LINE
  8
0
 62
7
 10
2.776172926105721
 20
4.20401868392665
 30
0
 11
2.770772926105721
 21
4.21001868392665
 31
0
  0
LINE
  8
0
 62
7
 10
2.770772926105721
 20
4.21001868392665
 30
0
 11
2.762672926105722
 21
4.21601868392665
 31
0
  0
LINE
  8
0
 62
7
 10
2.762672926105722
 20
4.21601868392665
 30
0
 11
2.754572926105722
 21
4.219018683926651
 31
0
  0
LINE
  8
0
 62
7
 10
2.805872926105721
 20
4.219018683926651
 30
0
 11
2.843672926105722
 21
4.219018683926651
 31
0
  0
LINE
  8
0
 62
7
 10
2.843672926105722
 20
4.219018683926651
 30
0
 11
2.843672926105722
 21
4.09901868392665
 31
0
  0
LINE
  8
0
 62
7
 10
2.843672926105722
 20
4.219018683926651
 30
0
 11
2.881472926105722
 21
4.219018683926651
 31
0
  0
LINE
  8
0
 62
7
 10
2.913872926105723
 20
4.219018683926651
 30
0
 11
2.951672926105722
 21
4.219018683926651
 31
0
  0
LINE
  8
0
 62
7
 10
2.951672926105722
 20
4.219018683926651
 30
0
 11
2.951672926105722
 21
4.09901868392665
 31
0
  0
LINE
  8
0
 62
7
 10
2.951672926105722
 20
4.219018683926651
 30
0
 11
2.989472926105722
 21
4.219018683926651
 31
0
  0
LINE
  8
0
 62
7
 10
3.108272926105722
 20
4.14101868392665
 30
0
 11
3.162272926105721
 21
4.14101868392665
 31
0
  0
LINE
  8
0
 62
7
 10
3.270272926105722
 20
4.219018683926651
 30
0
 11
3.308072926105722
 21
4.219018683926651
 31
0
  0
LINE
  8
0
 62
7
 10
3.308072926105722
 20
4.219018683926651
 30
0
 11
3.308072926105722
 21
4.09901868392665
 31
0
  0
LINE
  8
0
 62
7
 10
3.308072926105722
 20
4.219018683926651
 30
0
 11
3.345872926105721
 21
4.219018683926651
 31
0
  0
LINE
  8
0
 62
7
 10
3.378272926105722
 20
4.09901868392665
 30
0
 11
3.378272926105722
 21
4.219018683926651
 31
0
  0
LINE
  8
0
 62
7
 10
3.378272926105722
 20
4.219018683926651
 30
0
 11
3.429572926105723
 21
4.219018683926651
 31
0
  0
LINE
  8
0
 62
7
 10
3.429572926105723
 20
4.219018683926651
 30
0
 11
3.440372926105721
 21
4.21601868392665
 31
0
  0
LINE
  8
0
 62
7
 10
3.440372926105721
 20
4.21601868392665
 30
0
 11
3.448472926105721
 21
4.21001868392665
 31
0
  0
LINE
  8
0
 62
7
 10
3.448472926105721
 20
4.21001868392665
 30
0
 11
3.451172926105722
 21
4.20401868392665
 31
0
  0
LINE
  8
0
 62
7
 10
3.451172926105722
 20
4.20401868392665
 30
0
 11
3.453872926105721
 21
4.195018683926651
 31
0
  0
LINE
  8
0
 62
7
 10
3.453872926105721
 20
4.195018683926651
 30
0
 11
3.453872926105721
 21
4.18301868392665
 31
0
  0
LINE
  8
0
 62
7
 10
3.453872926105721
 20
4.18301868392665
 30
0
 11
3.451172926105722
 21
4.17401868392665
 31
0
  0
LINE
  8
0
 62
7
 10
3.451172926105722
 20
4.17401868392665
 30
0
 11
3.448472926105721
 21
4.16801868392665
 31
0
  0
LINE
  8
0
 62
7
 10
3.448472926105721
 20
4.16801868392665
 30
0
 11
3.440372926105721
 21
4.16201868392665
 31
0
  0
LINE
  8
0
 62
7
 10
3.440372926105721
 20
4.16201868392665
 30
0
 11
3.429572926105723
 21
4.15901868392665
 31
0
  0
LINE
  8
0
 62
7
 10
3.429572926105723
 20
4.15901868392665
 30
0
 11
3.421472926105721
 21
4.15901868392665
 31
0
  0
LINE
  8
0
 62
7
 10
3.421472926105721
 20
4.15901868392665
 30
0
 11
3.453872926105721
 21
4.09901868392665
 31
0
  0
LINE
  8
0
 62
7
 10
3.421472926105721
 20
4.15901868392665
 30
0
 11
3.378272926105722
 21
4.15901868392665
 31
0
  0
LINE
  8
0
 62
7
 10
3.551072926105721
 20
4.219018683926651
 30
0
 11
3.475472926105722
 21
4.219018683926651
 31
0
  0
LINE
  8
0
 62
7
 10
3.475472926105722
 20
4.219018683926651
 30
0
 11
3.475472926105722
 21
4.15901868392665
 31
0
  0
LINE
  8
0
 62
7
 10
3.475472926105722
 20
4.09901868392665
 30
0
 11
3.551072926105721
 21
4.09901868392665
 31
0
  0
LINE
  8
0
 62
7
 10
3.540272926105723
 20
4.15901868392665
 30
0
 11
3.475472926105722
 21
4.15901868392665
 31
0
  0
LINE
  8
0
 62
7
 10
3.475472926105722
 20
4.15901868392665
 30
0
 11
3.475472926105722
 21
4.09901868392665
 31
0
  0
LINE
  8
0
 62
7
 10
3.583472926105721
 20
4.09901868392665
 30
0
 11
3.583472926105721
 21
4.15901868392665
 31
0
  0
LINE
  8
0
 62
7
 10
3.583472926105721
 20
4.219018683926651
 30
0
 11
3.634772926105722
 21
4.219018683926651
 31
0
  0
LINE
  8
0
 62
7
 10
3.634772926105722
 20
4.219018683926651
 30
0
 11
3.645572926105722
 21
4.21601868392665
 31
0
  0
LINE
  8
0
 62
7
 10
3.645572926105722
 20
4.21601868392665
 30
0
 11
3.653672926105721
 21
4.21001868392665
 31
0
  0
LINE
  8
0
 62
7
 10
3.653672926105721
 20
4.21001868392665
 30
0
 11
3.656372926105723
 21
4.20401868392665
 31
0
  0
LINE
  8
0
 62
7
 10
3.656372926105723
 20
4.20401868392665
 30
0
 11
3.659072926105722
 21
4.195018683926651
 31
0
  0
LINE
  8
0
 62
7
 10
3.659072926105722
 20
4.195018683926651
 30
0
 11
3.659072926105722
 21
4.18301868392665
 31
0
  0
LINE
  8
0
 62
7
 10
3.659072926105722
 20
4.18301868392665
 30
0
 11
3.656372926105723
 21
4.17401868392665
 31
0
  0
LINE
  8
0
 62
7
 10
3.656372926105723
 20
4.17401868392665
 30
0
 11
3.653672926105721
 21
4.16801868392665
 31
0
  0
LINE
  8
0
 62
7
 10
3.653672926105721
 20
4.16801868392665
 30
0
 11
3.645572926105722
 21
4.16201868392665
 31
0
  0
LINE
  8
0
 62
7
 10
3.645572926105722
 20
4.16201868392665
 30
0
 11
3.634772926105722
 21
4.15901868392665
 31
0
  0
LINE
  8
0
 62
7
 10
3.634772926105722
 20
4.15901868392665
 30
0
 11
3.583472926105721
 21
4.15901868392665
 31
0
  0
LINE
  8
0
 62
7
 10
3.583472926105721
 20
4.15901868392665
 30
0
 11
3.583472926105721
 21
4.219018683926651
 31
0
  0
LINE
  8
0
 62
7
 10
3.680672926105722
 20
4.09901868392665
 30
0
 11
3.680672926105722
 21
4.15901868392665
 31
0
  0
LINE
  8
0
 62
7
 10
3.680672926105722
 20
4.219018683926651
 30
0
 11
3.731972926105723
 21
4.219018683926651
 31
0
  0
LINE
  8
0
 62
7
 10
3.731972926105723
 20
4.219018683926651
 30
0
 11
3.742772926105722
 21
4.21601868392665
 31
0
  0
LINE
  8
0
 62
7
 10
3.742772926105722
 20
4.21601868392665
 30
0
 11
3.750872926105721
 21
4.21001868392665
 31
0
  0
LINE
  8
0
 62
7
 10
3.750872926105721
 20
4.21001868392665
 30
0
 11
3.753572926105722
 21
4.20401868392665
 31
0
  0
LINE
  8
0
 62
7
 10
3.753572926105722
 20
4.20401868392665
 30
0
 11
3.756272926105722
 21
4.195018683926651
 31
0
  0
LINE
  8
0
 62
7
 10
3.756272926105722
 20
4.195018683926651
 30
0
 11
3.756272926105722
 21
4.18301868392665
 31
0
  0
LINE
  8
0
 62
7
 10
3.756272926105722
 20
4.18301868392665
 30
0
 11
3.753572926105722
 21
4.17401868392665
 31
0
  0
LINE
  8
0
 62
7
 10
3.753572926105722
 20
4.17401868392665
 30
0
 11
3.750872926105721
 21
4.16801868392665
 31
0
  0
LINE
  8
0
 62
7
 10
3.750872926105721
 20
4.16801868392665
 30
0
 11
3.742772926105722
 21
4.16201868392665
 31
0
  0
LINE
  8
0
 62
7
 10
3.742772926105722
 20
4.16201868392665
 30
0
 11
3.731972926105723
 21
4.15901868392665
 31
0
  0
LINE
  8
0
 62
7
 10
3.731972926105723
 20
4.15901868392665
 30
0
 11
3.680672926105722
 21
4.15901868392665
 31
0
  0
LINE
  8
0
 62
7
 10
3.680672926105722
 20
4.15901868392665
 30
0
 11
3.680672926105722
 21
4.219018683926651
 31
0
  0
LINE
  8
0
 62
7
 10
3.853472926105721
 20
4.219018683926651
 30
0
 11
3.777872926105722
 21
4.219018683926651
 31
0
  0
LINE
  8
0
 62
7
 10
3.777872926105722
 20
4.219018683926651
 30
0
 11
3.777872926105722
 21
4.15901868392665
 31
0
  0
LINE
  8
0
 62
7
 10
3.777872926105722
 20
4.09901868392665
 30
0
 11
3.853472926105721
 21
4.09901868392665
 31
0
  0
LINE
  8
0
 62
7
 10
3.842672926105723
 20
4.15901868392665
 30
0
 11
3.777872926105722
 21
4.15901868392665
 31
0
  0
LINE
  8
0
 62
7
 10
3.777872926105722
 20
4.15901868392665
 30
0
 11
3.777872926105722
 21
4.09901868392665
 31
0
  0
LINE
  8
0
 62
7
 10
0.625
 20
3.010000000000003
 30
0
 11
0.7006000000000001
 21
3.010000000000003
 31
0
  0
LINE
  8
0
 62
7
 10
0.7006000000000001
 20
3.010000000000003
 30
0
 11
0.625
 21
2.890000000000003
 31
0
  0
LINE
  8
0
 62
7
 10
0.625
 20
2.890000000000003
 30
0
 11
0.7006000000000001
 21
2.890000000000003
 31
0
  0
LINE
  8
0
 62
7
 10
0.8086000000000002
 20
3.010000000000003
 30
0
 11
0.8086000000000002
 21
2.926000000000004
 31
0
  0
LINE
  8
0
 62
7
 10
0.8086000000000002
 20
2.926000000000004
 30
0
 11
0.8059000000000002
 21
2.914000000000003
 31
0
  0
LINE
  8
0
 62
7
 10
0.8059000000000002
 20
2.914000000000003
 30
0
 11
0.8005000000000001
 21
2.905000000000003
 31
0
  0
LINE
  8
0
 62
7
 10
0.8005000000000001
 20
2.905000000000003
 30
0
 11
0.7951000000000001
 21
2.899000000000004
 31
0
  0
LINE
  8
0
 62
7
 10
0.7951000000000001
 20
2.899000000000004
 30
0
 11
0.787
 21
2.893000000000003
 31
0
  0
LINE
  8
0
 62
7
 10
0.787
 20
2.893000000000003
 30
0
 11
0.7789
 21
2.890000000000003
 31
0
  0
LINE
  8
0
 62
7
 10
0.7789
 20
2.890000000000003
 30
0
 11
0.7627000000000002
 21
2.890000000000003
 31
0
  0
LINE
  8
0
 62
7
 10
0.7627000000000002
 20
2.890000000000003
 30
0
 11
0.7546000000000002
 21
2.893000000000003
 31
0
  0
LINE
  8
0
 62
7
 10
0.7546000000000002
 20
2.893000000000003
 30
0
 11
0.7465000000000001
 21
2.899000000000004
 31
0
  0
LINE
  8
0
 62
7
 10
0.7465000000000001
 20
2.899000000000004
 30
0
 11
0.7411000000000001
 21
2.905000000000003
 31
0
  0
LINE
  8
0
 62
7
 10
0.7411000000000001
 20
2.905000000000003
 30
0
 11
0.7357
 21
2.914000000000003
 31
0
  0
LINE
  8
0
 62
7
 10
0.7357
 20
2.914000000000003
 30
0
 11
0.7330000000000001
 21
2.926000000000004
 31
0
  0
LINE
  8
0
 62
7
 10
0.7330000000000001
 20
2.926000000000004
 30
0
 11
0.7330000000000001
 21
3.010000000000003
 31
0
  0
LINE
  8
0
 62
7
 10
0.8410000000000002
 20
3.010000000000003
 30
0
 11
0.8788
 21
2.890000000000003
 31
0
  0
LINE
  8
0
 62
7
 10
0.8788
 20
2.890000000000003
 30
0
 11
0.9166000000000003
 21
3.010000000000003
 31
0
  0
LINE
  8
0
 62
7
 10
0.9490000000000001
 20
2.992000000000003
 30
0
 11
0.9544000000000001
 21
3.001000000000003
 31
0
  0
LINE
  8
0
 62
7
 10
0.9544000000000001
 20
3.001000000000003
 30
0
 11
0.9625
 21
3.007000000000003
 31
0
  0
LINE
  8
0
 62
7
 10
0.9625
 20
3.007000000000003
 30
0
 11
0.9733000000000001
 21
3.010000000000003
 31
0
  0
LINE
  8
0
 62
7
 10
0.9733000000000001
 20
3.010000000000003
 30
0
 11
0.9895
 21
3.010000000000003
 31
0
  0
LINE
  8
0
 62
7
 10
0.9895
 20
3.010000000000003
 30
0
 11
0.9976000000000002
 21
3.007000000000003
 31
0
  0
LINE
  8
0
 62
7
 10
0.9976000000000002
 20
3.007000000000003
 30
0
 11
1.0057
 21
3.001000000000003
 31
0
  0
LINE
  8
0
 62
7
 10
1.0057
 20
3.001000000000003
 30
0
 11
1.0111
 21
2.992000000000003
 31
0
  0
LINE
  8
0
 62
7
 10
1.0111
 20
2.992000000000003
 30
0
 11
1.0138
 21
2.980000000000003
 31
0
  0
LINE
  8
0
 62
7
 10
1.0138
 20
2.980000000000003
 30
0
 11
1.0138
 21
2.971000000000004
 31
0
  0
LINE
  8
0
 62
7
 10
1.0138
 20
2.971000000000004
 30
0
 11
1.0111
 21
2.962000000000003
 31
0
  0
LINE
  8
0
 62
7
 10
1.0111
 20
2.962000000000003
 30
0
 11
1.0057
 21
2.956000000000003
 31
0
  0
LINE
  8
0
 62
7
 10
1.0057
 20
2.956000000000003
 30
0
 11
0.9922000000000003
 21
2.950000000000003
 31
0
  0
LINE
  8
0
 62
7
 10
0.9733000000000001
 20
2.950000000000003
 30
0
 11
0.9922000000000003
 21
2.950000000000003
 31
0
  0
LINE
  8
0
 62
7
 10
0.9922000000000003
 20
2.950000000000003
 30
0
 11
1.0057
 21
2.944000000000004
 31
0
  0
LINE
  8
0
 62
7
 10
1.0057
 20
2.944000000000004
 30
0
 11
1.0111
 21
2.938000000000003
 31
0
  0
LINE
  8
0
 62
7
 10
1.0111
 20
2.938000000000003
 30
0
 11
1.0138
 21
2.929000000000003
 31
0
  0
LINE
  8
0
 62
7
 10
1.0138
 20
2.929000000000003
 30
0
 11
1.0138
 21
2.920000000000003
 31
0
  0
LINE
  8
0
 62
7
 10
1.0138
 20
2.920000000000003
 30
0
 11
1.0111
 21
2.908000000000003
 31
0
  0
LINE
  8
0
 62
7
 10
1.0111
 20
2.908000000000003
 30
0
 11
1.0057
 21
2.899000000000004
 31
0
  0
LINE
  8
0
 62
7
 10
1.0057
 20
2.899000000000004
 30
0
 11
0.9976000000000002
 21
2.893000000000003
 31
0
  0
LINE
  8
0
 62
7
 10
0.9976000000000002
 20
2.893000000000003
 30
0
 11
0.9895
 21
2.890000000000003
 31
0
  0
LINE
  8
0
 62
7
 10
0.9895
 20
2.890000000000003
 30
0
 11
0.9733000000000001
 21
2.890000000000003
 31
0
  0
LINE
  8
0
 62
7
 10
0.9733000000000001
 20
2.890000000000003
 30
0
 11
0.9625
 21
2.893000000000003
 31
0
  0
LINE
  8
0
 62
7
 10
0.9625
 20
2.893000000000003
 30
0
 11
0.9544000000000001
 21
2.899000000000004
 31
0
  0
LINE
  8
0
 62
7
 10
0.9544000000000001
 20
2.899000000000004
 30
0
 11
0.9490000000000001
 21
2.908000000000003
 31
0
  0
LINE
  8
0
 62
7
 10
1.0462
 20
2.998000000000003
 30
0
 11
1.0462
 21
3.010000000000003
 31
0
  0
LINE
  8
0
 62
7
 10
1.0462
 20
3.010000000000003
 30
0
 11
1.111
 21
3.010000000000003
 31
0
  0
LINE
  8
0
 62
7
 10
1.111
 20
3.010000000000003
 30
0
 11
1.057
 21
2.890000000000003
 31
0
  0
LINE
  8
0
 62
7
 10
1.1434
 20
2.938000000000003
 30
0
 11
1.1461
 21
2.950000000000003
 31
0
  0
LINE
  8
0
 62
7
 10
1.1461
 20
2.950000000000003
 30
0
 11
1.1515
 21
2.959000000000003
 31
0
  0
LINE
  8
0
 62
7
 10
1.1515
 20
2.959000000000003
 30
0
 11
1.1596
 21
2.965000000000003
 31
0
  0
LINE
  8
0
 62
7
 10
1.1596
 20
2.965000000000003
 30
0
 11
1.1677
 21
2.968000000000003
 31
0
  0
LINE
  8
0
 62
7
 10
1.1677
 20
2.968000000000003
 30
0
 11
1.1839
 21
2.968000000000003
 31
0
  0
LINE
  8
0
 62
7
 10
1.1839
 20
2.968000000000003
 30
0
 11
1.192
 21
2.965000000000003
 31
0
  0
LINE
  8
0
 62
7
 10
1.192
 20
2.965000000000003
 30
0
 11
1.2001
 21
2.959000000000003
 31
0
  0
LINE
  8
0
 62
7
 10
1.2001
 20
2.959000000000003
 30
0
 11
1.2055
 21
2.950000000000003
 31
0
  0
LINE
  8
0
 62
7
 10
1.2055
 20
2.950000000000003
 30
0
 11
1.2082
 21
2.938000000000003
 31
0
  0
LINE
  8
0
 62
7
 10
1.2082
 20
2.938000000000003
 30
0
 11
1.2082
 21
2.920000000000003
 31
0
  0
LINE
  8
0
 62
7
 10
1.2082
 20
2.920000000000003
 30
0
 11
1.2055
 21
2.908000000000003
 31
0
  0
LINE
  8
0
 62
7
 10
1.2055
 20
2.908000000000003
 30
0
 11
1.2001
 21
2.899000000000004
 31
0
  0
LINE
  8
0
 62
7
 10
1.2001
 20
2.899000000000004
 30
0
 11
1.192
 21
2.893000000000003
 31
0
  0
LINE
  8
0
 62
7
 10
1.192
 20
2.893000000000003
 30
0
 11
1.1839
 21
2.890000000000003
 31
0
  0
LINE
  8
0
 62
7
 10
1.1839
 20
2.890000000000003
 30
0
 11
1.1677
 21
2.890000000000003
 31
0
  0
LINE
  8
0
 62
7
 10
1.1677
 20
2.890000000000003
 30
0
 11
1.1596
 21
2.893000000000003
 31
0
  0
LINE
  8
0
 62
7
 10
1.1596
 20
2.893000000000003
 30
0
 11
1.1515
 21
2.899000000000004
 31
0
  0
LINE
  8
0
 62
7
 10
1.1515
 20
2.899000000000004
 30
0
 11
1.1461
 21
2.908000000000003
 31
0
  0
LINE
  8
0
 62
7
 10
1.1461
 20
2.908000000000003
 30
0
 11
1.1434
 21
2.920000000000003
 31
0
  0
LINE
  8
0
 62
7
 10
1.1434
 20
2.920000000000003
 30
0
 11
1.1434
 21
2.938000000000003
 31
0
  0
LINE
  8
0
 62
7
 10
1.1434
 20
2.980000000000003
 30
0
 11
1.1461
 21
2.992000000000003
 31
0
  0
LINE
  8
0
 62
7
 10
1.1461
 20
2.992000000000003
 30
0
 11
1.1515
 21
3.001000000000003
 31
0
  0
LINE
  8
0
 62
7
 10
1.1515
 20
3.001000000000003
 30
0
 11
1.1596
 21
3.007000000000003
 31
0
  0
LINE
  8
0
 62
7
 10
1.1596
 20
3.007000000000003
 30
0
 11
1.1677
 21
3.010000000000003
 31
0
  0
LINE
  8
0
 62
7
 10
1.1677
 20
3.010000000000003
 30
0
 11
1.1839
 21
3.010000000000003
 31
0
  0
LINE
  8
0
 62
7
 10
1.1839
 20
3.010000000000003
 30
0
 11
1.192
 21
3.007000000000003
 31
0
  0
LINE
  8
0
 62
7
 10
1.192
 20
3.007000000000003
 30
0
 11
1.2001
 21
3.001000000000003
 31
0
  0
LINE
  8
0
 62
7
 10
1.2001
 20
3.001000000000003
 30
0
 11
1.2055
 21
2.992000000000003
 31
0
  0
LINE
  8
0
 62
7
 10
1.1434
 20
2.938000000000003
 30
0
 11
1.1434
 21
2.980000000000003
 31
0
  0
LINE
  8
0
 62
7
 10
1.3054
 20
2.890000000000003
 30
0
 11
1.2406
 21
2.890000000000003
 31
0
  0
LINE
  8
0
 62
7
 10
1.2406
 20
2.890000000000003
 30
0
 11
1.2406
 21
3.010000000000003
 31
0
  0
LINE
  8
0
 62
7
 10
1.3378
 20
2.938000000000003
 30
0
 11
1.3405
 21
2.950000000000003
 31
0
  0
LINE
  8
0
 62
7
 10
1.3405
 20
2.950000000000003
 30
0
 11
1.3459
 21
2.959000000000003
 31
0
  0
LINE
  8
0
 62
7
 10
1.3459
 20
2.959000000000003
 30
0
 11
1.354
 21
2.965000000000003
 31
0
  0
LINE
  8
0
 62
7
 10
1.354
 20
2.965000000000003
 30
0
 11
1.3621
 21
2.968000000000003
 31
0
  0
LINE
  8
0
 62
7
 10
1.3621
 20
2.968000000000003
 30
0
 11
1.3783
 21
2.968000000000003
 31
0
  0
LINE
  8
0
 62
7
 10
1.3783
 20
2.968000000000003
 30
0
 11
1.3864
 21
2.965000000000003
 31
0
  0
LINE
  8
0
 62
7
 10
1.3864
 20
2.965000000000003
 30
0
 11
1.3945
 21
2.959000000000003
 31
0
  0
LINE
  8
0
 62
7
 10
1.3945
 20
2.959000000000003
 30
0
 11
1.3999
 21
2.950000000000003
 31
0
  0
LINE
  8
0
 62
7
 10
1.3999
 20
2.950000000000003
 30
0
 11
1.4026
 21
2.938000000000003
 31
0
  0
LINE
  8
0
 62
7
 10
1.4026
 20
2.938000000000003
 30
0
 11
1.4026
 21
2.920000000000003
 31
0
  0
LINE
  8
0
 62
7
 10
1.4026
 20
2.920000000000003
 30
0
 11
1.3999
 21
2.908000000000003
 31
0
  0
LINE
  8
0
 62
7
 10
1.3999
 20
2.908000000000003
 30
0
 11
1.3945
 21
2.899000000000004
 31
0
  0
LINE
  8
0
 62
7
 10
1.3945
 20
2.899000000000004
 30
0
 11
1.3864
 21
2.893000000000003
 31
0
  0
LINE
  8
0
 62
7
 10
1.3864
 20
2.893000000000003
 30
0
 11
1.3783
 21
2.890000000000003
 31
0
  0
LINE
  8
0
 62
7
 10
1.3783
 20
2.890000000000003
 30
0
 11
1.3621
 21
2.890000000000003
 31
0
  0
LINE
  8
0
 62
7
 10
1.3621
 20
2.890000000000003
 30
0
 11
1.354
 21
2.893000000000003
 31
0
  0
LINE
  8
0
 62
7
 10
1.354
 20
2.893000000000003
 30
0
 11
1.3459
 21
2.899000000000004
 31
0
  0
LINE
  8
0
 62
7
 10
1.3459
 20
2.899000000000004
 30
0
 11
1.3405
 21
2.908000000000003
 31
0
  0
LINE
  8
0
 62
7
 10
1.3405
 20
2.908000000000003
 30
0
 11
1.3378
 21
2.920000000000003
 31
0
  0
LINE
  8
0
 62
7
 10
1.3378
 20
2.920000000000003
 30
0
 11
1.3378
 21
2.938000000000003
 31
0
  0
LINE
  8
0
 62
7
 10
1.3378
 20
2.980000000000003
 30
0
 11
1.3405
 21
2.992000000000003
 31
0
  0
LINE
  8
0
 62
7
 10
1.3405
 20
2.992000000000003
 30
0
 11
1.3459
 21
3.001000000000003
 31
0
  0
LINE
  8
0
 62
7
 10
1.3459
 20
3.001000000000003
 30
0
 11
1.354
 21
3.007000000000003
 31
0
  0
LINE
  8
0
 62
7
 10
1.354
 20
3.007000000000003
 30
0
 11
1.3621
 21
3.010000000000003
 31
0
  0
LINE
  8
0
 62
7
 10
1.3621
 20
3.010000000000003
 30
0
 11
1.3783
 21
3.010000000000003
 31
0
  0
LINE
  8
0
 62
7
 10
1.3783
 20
3.010000000000003
 30
0
 11
1.3864
 21
3.007000000000003
 31
0
  0
LINE
  8
0
 62
7
 10
1.3864
 20
3.007000000000003
 30
0
 11
1.3945
 21
3.001000000000003
 31
0
  0
LINE
  8
0
 62
7
 10
1.3945
 20
3.001000000000003
 30
0
 11
1.3999
 21
2.992000000000003
 31
0
  0
LINE
  8
0
 62
7
 10
1.3378
 20
2.938000000000003
 30
0
 11
1.3378
 21
2.980000000000003
 31
0
  0
LINE
  8
0
 62
7
 10
3.125
 20
2.890000000000003
 30
0
 11
3.125
 21
2.990000000000003
 31
0
  0
LINE
  8
0
 62
7
 10
3.125
 20
2.990000000000003
 30
0
 11
3.188
 21
2.890000000000003
 31
0
  0
LINE
  8
0
 62
7
 10
3.188
 20
2.890000000000003
 30
0
 11
3.188
 21
2.990000000000003
 31
0
  0
LINE
  8
0
 62
7
 10
3.269
 20
2.890000000000003
 30
0
 11
3.215
 21
2.890000000000003
 31
0
  0
LINE
  8
0
 62
7
 10
3.215
 20
2.890000000000003
 30
0
 11
3.215
 21
2.990000000000003
 31
0
  0
LINE
  8
0
 62
7
 10
3.296
 20
2.940000000000003
 30
0
 11
3.332
 21
2.940000000000003
 31
0
  0
LINE
  8
0
 62
7
 10
3.332
 20
2.940000000000003
 30
0
 11
3.3365
 21
2.940000000000003
 31
0
  0
LINE
  8
0
 62
7
 10
3.3365
 20
2.940000000000003
 30
0
 11
3.3455
 21
2.935000000000003
 31
0
  0
LINE
  8
0
 62
7
 10
3.3455
 20
2.935000000000003
 30
0
 11
3.35
 21
2.930000000000003
 31
0
  0
LINE
  8
0
 62
7
 10
3.35
 20
2.930000000000003
 30
0
 11
3.3545
 21
2.920000000000003
 31
0
  0
LINE
  8
0
 62
7
 10
3.3545
 20
2.920000000000003
 30
0
 11
3.3545
 21
2.910000000000003
 31
0
  0
LINE
  8
0
 62
7
 10
3.3545
 20
2.910000000000003
 30
0
 11
3.35
 21
2.900000000000003
 31
0
  0
LINE
  8
0
 62
7
 10
3.35
 20
2.900000000000003
 30
0
 11
3.3455
 21
2.895000000000003
 31
0
  0
LINE
  8
0
 62
7
 10
3.3455
 20
2.895000000000003
 30
0
 11
3.3365
 21
2.890000000000003
 31
0
  0
LINE
  8
0
 62
7
 10
3.3365
 20
2.890000000000003
 30
0
 11
3.296
 21
2.890000000000003
 31
0
  0
LINE
  8
0
 62
7
 10
3.296
 20
2.890000000000003
 30
0
 11
3.296
 21
2.940000000000003
 31
0
  0
LINE
  8
0
 62
7
 10
3.296
 20
2.990000000000003
 30
0
 11
3.32975
 21
2.990000000000003
 31
0
  0
LINE
  8
0
 62
7
 10
3.32975
 20
2.990000000000003
 30
0
 11
3.341000000000001
 21
2.987500000000003
 31
0
  0
LINE
  8
0
 62
7
 10
3.341000000000001
 20
2.987500000000003
 30
0
 11
3.34775
 21
2.980000000000003
 31
0
  0
LINE
  8
0
 62
7
 10
3.34775
 20
2.980000000000003
 30
0
 11
3.35
 21
2.970000000000003
 31
0
  0
LINE
  8
0
 62
7
 10
3.35
 20
2.970000000000003
 30
0
 11
3.35
 21
2.960000000000003
 31
0
  0
LINE
  8
0
 62
7
 10
3.35
 20
2.960000000000003
 30
0
 11
3.3455
 21
2.950000000000003
 31
0
  0
LINE
  8
0
 62
7
 10
3.3455
 20
2.950000000000003
 30
0
 11
3.338750000000001
 21
2.942500000000003
 31
0
  0
LINE
  8
0
 62
7
 10
3.338750000000001
 20
2.942500000000003
 30
0
 11
3.332
 21
2.940000000000003
 31
0
  0
LINE
  8
0
 62
7
 10
3.296
 20
2.940000000000003
 30
0
 11
3.296
 21
2.990000000000003
 31
0
  0
LINE
  8
0
 62
7
 10
3.49625
 20
2.942500000000003
 30
0
 11
3.4895
 21
2.952500000000003
 31
0
  0
LINE
  8
0
 62
7
 10
3.4895
 20
2.952500000000003
 30
0
 11
3.48275
 21
2.957500000000003
 31
0
  0
LINE
  8
0
 62
7
 10
3.48275
 20
2.957500000000003
 30
0
 11
3.476
 21
2.960000000000003
 31
0
  0
LINE
  8
0
 62
7
 10
3.476
 20
2.960000000000003
 30
0
 11
3.467000000000001
 21
2.960000000000003
 31
0
  0
LINE
  8
0
 62
7
 10
3.467000000000001
 20
2.960000000000003
 30
0
 11
3.46025
 21
2.957500000000003
 31
0
  0
LINE
  8
0
 62
7
 10
3.46025
 20
2.957500000000003
 30
0
 11
3.4535
 21
2.952500000000003
 31
0
  0
LINE
  8
0
 62
7
 10
3.4535
 20
2.952500000000003
 30
0
 11
3.44675
 21
2.942500000000003
 31
0
  0
LINE
  8
0
 62
7
 10
3.44675
 20
2.942500000000003
 30
0
 11
3.4445
 21
2.935000000000003
 31
0
  0
LINE
  8
0
 62
7
 10
3.4445
 20
2.935000000000003
 30
0
 11
3.4445
 21
2.915000000000003
 31
0
  0
LINE
  8
0
 62
7
 10
3.4445
 20
2.915000000000003
 30
0
 11
3.44675
 21
2.907500000000003
 31
0
  0
LINE
  8
0
 62
7
 10
3.44675
 20
2.907500000000003
 30
0
 11
3.4535
 21
2.897500000000003
 31
0
  0
LINE
  8
0
 62
7
 10
3.4535
 20
2.897500000000003
 30
0
 11
3.46025
 21
2.892500000000003
 31
0
  0
LINE
  8
0
 62
7
 10
3.46025
 20
2.892500000000003
 30
0
 11
3.467000000000001
 21
2.890000000000003
 31
0
  0
LINE
  8
0
 62
7
 10
3.467000000000001
 20
2.890000000000003
 30
0
 11
3.476
 21
2.890000000000003
 31
0
  0
LINE
  8
0
 62
7
 10
3.476
 20
2.890000000000003
 30
0
 11
3.48275
 21
2.892500000000003
 31
0
  0
LINE
  8
0
 62
7
 10
3.48275
 20
2.892500000000003
 30
0
 11
3.4895
 21
2.897500000000003
 31
0
  0
LINE
  8
0
 62
7
 10
3.4895
 20
2.897500000000003
 30
0
 11
3.49625
 21
2.907500000000003
 31
0
  0
LINE
  8
0
 62
7
 10
3.56825
 20
2.935000000000003
 30
0
 11
3.566000000000001
 21
2.942500000000003
 31
0
  0
LINE
  8
0
 62
7
 10
3.566000000000001
 20
2.942500000000003
 30
0
 11
3.55925
 21
2.952500000000003
 31
0
  0
LINE
  8
0
 62
7
 10
3.55925
 20
2.952500000000003
 30
0
 11
3.5525
 21
2.957500000000003
 31
0
  0
LINE
  8
0
 62
7
 10
3.5525
 20
2.957500000000003
 30
0
 11
3.54575
 21
2.960000000000003
 31
0
  0
LINE
  8
0
 62
7
 10
3.54575
 20
2.960000000000003
 30
0
 11
3.53675
 21
2.960000000000003
 31
0
  0
LINE
  8
0
 62
7
 10
3.53675
 20
2.960000000000003
 30
0
 11
3.530000000000001
 21
2.957500000000003
 31
0
  0
LINE
  8
0
 62
7
 10
3.530000000000001
 20
2.957500000000003
 30
0
 11
3.52325
 21
2.952500000000003
 31
0
  0
LINE
  8
0
 62
7
 10
3.52325
 20
2.952500000000003
 30
0
 11
3.5165
 21
2.942500000000003
 31
0
  0
LINE
  8
0
 62
7
 10
3.5165
 20
2.942500000000003
 30
0
 11
3.51425
 21
2.935000000000003
 31
0
  0
LINE
  8
0
 62
7
 10
3.51425
 20
2.935000000000003
 30
0
 11
3.51425
 21
2.915000000000003
 31
0
  0
LINE
  8
0
 62
7
 10
3.51425
 20
2.915000000000003
 30
0
 11
3.5165
 21
2.907500000000003
 31
0
  0
LINE
  8
0
 62
7
 10
3.5165
 20
2.907500000000003
 30
0
 11
3.52325
 21
2.897500000000003
 31
0
  0
LINE
  8
0
 62
7
 10
3.52325
 20
2.897500000000003
 30
0
 11
3.530000000000001
 21
2.892500000000003
 31
0
  0
LINE
  8
0
 62
7
 10
3.530000000000001
 20
2.892500000000003
 30
0
 11
3.53675
 21
2.890000000000003
 31
0
  0
LINE
  8
0
 62
7
 10
3.53675
 20
2.890000000000003
 30
0
 11
3.54575
 21
2.890000000000003
 31
0
  0
LINE
  8
0
 62
7
 10
3.54575
 20
2.890000000000003
 30
0
 11
3.5525
 21
2.892500000000003
 31
0
  0
LINE
  8
0
 62
7
 10
3.5525
 20
2.892500000000003
 30
0
 11
3.55925
 21
2.897500000000003
 31
0
  0
LINE
  8
0
 62
7
 10
3.55925
 20
2.897500000000003
 30
0
 11
3.566000000000001
 21
2.907500000000003
 31
0
  0
LINE
  8
0
 62
7
 10
3.566000000000001
 20
2.907500000000003
 30
0
 11
3.56825
 21
2.915000000000003
 31
0
  0
LINE
  8
0
 62
7
 10
3.56825
 20
2.960000000000003
 30
0
 11
3.56825
 21
2.935000000000003
 31
0
  0
LINE
  8
0
 62
7
 10
3.56825
 20
2.892500000000003
 30
0
 11
3.5705
 21
2.890000000000003
 31
0
  0
LINE
  8
0
 62
7
 10
3.5705
 20
2.890000000000003
 30
0
 11
3.57275
 21
2.890000000000003
 31
0
  0
LINE
  8
0
 62
7
 10
3.56825
 20
2.915000000000003
 30
0
 11
3.56825
 21
2.892500000000003
 31
0
  0
LINE
  8
0
 62
7
 10
3.56825
 20
2.935000000000003
 30
0
 11
3.56825
 21
2.915000000000003
 31
0
  0
LINE
  8
0
 62
7
 10
3.59075
 20
2.890000000000003
 30
0
 11
3.59075
 21
2.892500000000003
 31
0
  0
LINE
  8
0
 62
7
 10
3.59075
 20
2.892500000000003
 30
0
 11
3.593
 21
2.892500000000003
 31
0
  0
LINE
  8
0
 62
7
 10
3.593
 20
2.892500000000003
 30
0
 11
3.593
 21
2.890000000000003
 31
0
  0
LINE
  8
0
 62
7
 10
3.593
 20
2.890000000000003
 30
0
 11
3.59075
 21
2.890000000000003
 31
0
  0
LINE
  8
0
 62
7
 10
3.716750000000001
 20
2.990000000000003
 30
0
 11
3.72575
 21
2.990000000000003
 31
0
  0
LINE
  8
0
 62
7
 10
3.72575
 20
2.990000000000003
 30
0
 11
3.7325
 21
2.987500000000003
 31
0
  0
LINE
  8
0
 62
7
 10
3.7325
 20
2.987500000000003
 30
0
 11
3.737
 21
2.982500000000003
 31
0
  0
LINE
  8
0
 62
7
 10
3.737
 20
2.982500000000003
 30
0
 11
3.7415
 21
2.975000000000003
 31
0
  0
LINE
  8
0
 62
7
 10
3.7415
 20
2.975000000000003
 30
0
 11
3.7415
 21
2.965000000000003
 31
0
  0
LINE
  8
0
 62
7
 10
3.7415
 20
2.965000000000003
 30
0
 11
3.73925
 21
2.960000000000003
 31
0
  0
LINE
  8
0
 62
7
 10
3.73925
 20
2.960000000000003
 30
0
 11
3.7325
 21
2.952500000000003
 31
0
  0
LINE
  8
0
 62
7
 10
3.7325
 20
2.952500000000003
 30
0
 11
3.72575
 21
2.950000000000003
 31
0
  0
LINE
  8
0
 62
7
 10
3.72575
 20
2.950000000000003
 30
0
 11
3.716750000000001
 21
2.950000000000003
 31
0
  0
LINE
  8
0
 62
7
 10
3.716750000000001
 20
2.950000000000003
 30
0
 11
3.71
 21
2.952500000000003
 31
0
  0
LINE
  8
0
 62
7
 10
3.71
 20
2.952500000000003
 30
0
 11
3.70325
 21
2.960000000000003
 31
0
  0
LINE
  8
0
 62
7
 10
3.70325
 20
2.960000000000003
 30
0
 11
3.701
 21
2.965000000000003
 31
0
  0
LINE
  8
0
 62
7
 10
3.701
 20
2.965000000000003
 30
0
 11
3.701
 21
2.975000000000003
 31
0
  0
LINE
  8
0
 62
7
 10
3.701
 20
2.975000000000003
 30
0
 11
3.7055
 21
2.982500000000003
 31
0
  0
LINE
  8
0
 62
7
 10
3.7055
 20
2.982500000000003
 30
0
 11
3.71
 21
2.987500000000003
 31
0
  0
LINE
  8
0
 62
7
 10
3.71
 20
2.987500000000003
 30
0
 11
3.716750000000001
 21
2.990000000000003
 31
0
  0
LINE
  8
0
 62
7
 10
3.716750000000001
 20
2.950000000000003
 30
0
 11
3.7055
 21
2.945000000000003
 31
0
  0
LINE
  8
0
 62
7
 10
3.7055
 20
2.945000000000003
 30
0
 11
3.69875
 21
2.937500000000003
 31
0
  0
LINE
  8
0
 62
7
 10
3.69875
 20
2.937500000000003
 30
0
 11
3.69425
 21
2.927500000000003
 31
0
  0
LINE
  8
0
 62
7
 10
3.69425
 20
2.927500000000003
 30
0
 11
3.69425
 21
2.912500000000003
 31
0
  0
LINE
  8
0
 62
7
 10
3.69425
 20
2.912500000000003
 30
0
 11
3.69875
 21
2.902500000000003
 31
0
  0
LINE
  8
0
 62
7
 10
3.69875
 20
2.902500000000003
 30
0
 11
3.7055
 21
2.895000000000003
 31
0
  0
LINE
  8
0
 62
7
 10
3.7055
 20
2.895000000000003
 30
0
 11
3.714500000000001
 21
2.890000000000003
 31
0
  0
LINE
  8
0
 62
7
 10
3.714500000000001
 20
2.890000000000003
 30
0
 11
3.728
 21
2.890000000000003
 31
0
  0
LINE
  8
0
 62
7
 10
3.728
 20
2.890000000000003
 30
0
 11
3.737
 21
2.895000000000003
 31
0
  0
LINE
  8
0
 62
7
 10
3.737
 20
2.895000000000003
 30
0
 11
3.74375
 21
2.902500000000003
 31
0
  0
LINE
  8
0
 62
7
 10
3.74375
 20
2.902500000000003
 30
0
 11
3.748250000000001
 21
2.912500000000003
 31
0
  0
LINE
  8
0
 62
7
 10
3.748250000000001
 20
2.912500000000003
 30
0
 11
3.748250000000001
 21
2.927500000000003
 31
0
  0
LINE
  8
0
 62
7
 10
3.748250000000001
 20
2.927500000000003
 30
0
 11
3.74375
 21
2.937500000000003
 31
0
  0
LINE
  8
0
 62
7
 10
3.74375
 20
2.937500000000003
 30
0
 11
3.737
 21
2.945000000000003
 31
0
  0
LINE
  8
0
 62
7
 10
3.737
 20
2.945000000000003
 30
0
 11
3.72575
 21
2.950000000000003
 31
0
  0
LINE
  8
0
 62
7
 10
3.83825
 20
2.950000000000003
 30
0
 11
3.836
 21
2.940000000000003
 31
0
  0
LINE
  8
0
 62
7
 10
3.836
 20
2.940000000000003
 30
0
 11
3.8315
 21
2.932500000000003
 31
0
  0
LINE
  8
0
 62
7
 10
3.8315
 20
2.932500000000003
 30
0
 11
3.82475
 21
2.927500000000003
 31
0
  0
LINE
  8
0
 62
7
 10
3.82475
 20
2.927500000000003
 30
0
 11
3.818
 21
2.925000000000003
 31
0
  0
LINE
  8
0
 62
7
 10
3.818
 20
2.925000000000003
 30
0
 11
3.8045
 21
2.925000000000003
 31
0
  0
LINE
  8
0
 62
7
 10
3.8045
 20
2.925000000000003
 30
0
 11
3.79775
 21
2.927500000000003
 31
0
  0
LINE
  8
0
 62
7
 10
3.79775
 20
2.927500000000003
 30
0
 11
3.791
 21
2.932500000000003
 31
0
  0
LINE
  8
0
 62
7
 10
3.791
 20
2.932500000000003
 30
0
 11
3.7865
 21
2.940000000000003
 31
0
  0
LINE
  8
0
 62
7
 10
3.7865
 20
2.940000000000003
 30
0
 11
3.78425
 21
2.950000000000003
 31
0
  0
LINE
  8
0
 62
7
 10
3.78425
 20
2.950000000000003
 30
0
 11
3.78425
 21
2.965000000000003
 31
0
  0
LINE
  8
0
 62
7
 10
3.78425
 20
2.965000000000003
 30
0
 11
3.7865
 21
2.975000000000003
 31
0
  0
LINE
  8
0
 62
7
 10
3.7865
 20
2.975000000000003
 30
0
 11
3.791
 21
2.982500000000003
 31
0
  0
LINE
  8
0
 62
7
 10
3.791
 20
2.982500000000003
 30
0
 11
3.79775
 21
2.987500000000003
 31
0
  0
LINE
  8
0
 62
7
 10
3.79775
 20
2.987500000000003
 30
0
 11
3.8045
 21
2.990000000000003
 31
0
  0
LINE
  8
0
 62
7
 10
3.8045
 20
2.990000000000003
 30
0
 11
3.818
 21
2.990000000000003
 31
0
  0
LINE
  8
0
 62
7
 10
3.818
 20
2.990000000000003
 30
0
 11
3.82475
 21
2.987500000000003
 31
0
  0
LINE
  8
0
 62
7
 10
3.82475
 20
2.987500000000003
 30
0
 11
3.8315
 21
2.982500000000003
 31
0
  0
LINE
  8
0
 62
7
 10
3.8315
 20
2.982500000000003
 30
0
 11
3.836
 21
2.975000000000003
 31
0
  0
LINE
  8
0
 62
7
 10
3.836
 20
2.975000000000003
 30
0
 11
3.83825
 21
2.965000000000003
 31
0
  0
LINE
  8
0
 62
7
 10
3.83825
 20
2.965000000000003
 30
0
 11
3.83825
 21
2.950000000000003
 31
0
  0
LINE
  8
0
 62
7
 10
3.83825
 20
2.915000000000003
 30
0
 11
3.836
 21
2.905000000000003
 31
0
  0
LINE
  8
0
 62
7
 10
3.836
 20
2.905000000000003
 30
0
 11
3.8315
 21
2.897500000000003
 31
0
  0
LINE
  8
0
 62
7
 10
3.8315
 20
2.897500000000003
 30
0
 11
3.82475
 21
2.892500000000003
 31
0
  0
LINE
  8
0
 62
7
 10
3.82475
 20
2.892500000000003
 30
0
 11
3.818
 21
2.890000000000003
 31
0
  0
LINE
  8
0
 62
7
 10
3.818
 20
2.890000000000003
 30
0
 11
3.8045
 21
2.890000000000003
 31
0
  0
LINE
  8
0
 62
7
 10
3.8045
 20
2.890000000000003
 30
0
 11
3.79775
 21
2.892500000000003
 31
0
  0
LINE
  8
0
 62
7
 10
3.79775
 20
2.892500000000003
 30
0
 11
3.791
 21
2.897500000000003
 31
0
  0
LINE
  8
0
 62
7
 10
3.791
 20
2.897500000000003
 30
0
 11
3.7865
 21
2.905000000000003
 31
0
  0
LINE
  8
0
 62
7
 10
3.83825
 20
2.950000000000003
 30
0
 11
3.83825
 21
2.915000000000003
 31
0
  0
LINE
  8
0
 62
7
 10
3.989
 20
2.942500000000003
 30
0
 11
3.98225
 21
2.952500000000003
 31
0
  0
LINE
  8
0
 62
7
 10
3.98225
 20
2.952500000000003
 30
0
 11
3.9755
 21
2.957500000000003
 31
0
  0
LINE
  8
0
 62
7
 10
3.9755
 20
2.957500000000003
 30
0
 11
3.96875
 21
2.960000000000003
 31
0
  0
LINE
  8
0
 62
7
 10
3.96875
 20
2.960000000000003
 30
0
 11
3.959750000000001
 21
2.960000000000003
 31
0
  0
LINE
  8
0
 62
7
 10
3.959750000000001
 20
2.960000000000003
 30
0
 11
3.953
 21
2.957500000000003
 31
0
  0
LINE
  8
0
 62
7
 10
3.953
 20
2.957500000000003
 30
0
 11
3.94625
 21
2.952500000000003
 31
0
  0
LINE
  8
0
 62
7
 10
3.94625
 20
2.952500000000003
 30
0
 11
3.939500000000001
 21
2.942500000000003
 31
0
  0
LINE
  8
0
 62
7
 10
3.939500000000001
 20
2.942500000000003
 30
0
 11
3.937250000000001
 21
2.935000000000003
 31
0
  0
LINE
  8
0
 62
7
 10
3.937250000000001
 20
2.935000000000003
 30
0
 11
3.937250000000001
 21
2.915000000000003
 31
0
  0
LINE
  8
0
 62
7
 10
3.937250000000001
 20
2.915000000000003
 30
0
 11
3.939500000000001
 21
2.907500000000003
 31
0
  0
LINE
  8
0
 62
7
 10
3.939500000000001
 20
2.907500000000003
 30
0
 11
3.94625
 21
2.897500000000003
 31
0
  0
LINE
  8
0
 62
7
 10
3.94625
 20
2.897500000000003
 30
0
 11
3.953
 21
2.892500000000003
 31
0
  0
LINE
  8
0
 62
7
 10
3.953
 20
2.892500000000003
 30
0
 11
3.959750000000001
 21
2.890000000000003
 31
0
  0
LINE
  8
0
 62
7
 10
3.959750000000001
 20
2.890000000000003
 30
0
 11
3.96875
 21
2.890000000000003
 31
0
  0
LINE
  8
0
 62
7
 10
3.96875
 20
2.890000000000003
 30
0
 11
3.9755
 21
2.892500000000003
 31
0
  0
LINE
  8
0
 62
7
 10
3.9755
 20
2.892500000000003
 30
0
 11
3.98225
 21
2.897500000000003
 31
0
  0
LINE
  8
0
 62
7
 10
3.98225
 20
2.897500000000003
 30
0
 11
3.989
 21
2.907500000000003
 31
0
  0
LINE
  8
0
 62
7
 10
4.0475
 20
2.935000000000003
 30
0
 11
4.0475
 21
2.890000000000003
 31
0
  0
LINE
  8
0
 62
7
 10
4.007000000000001
 20
2.960000000000003
 30
0
 11
4.007000000000001
 21
2.935000000000003
 31
0
  0
LINE
  8
0
 62
7
 10
4.007000000000001
 20
2.890000000000003
 30
0
 11
4.007000000000001
 21
2.935000000000003
 31
0
  0
LINE
  8
0
 62
7
 10
4.007000000000001
 20
2.935000000000003
 30
0
 11
4.009250000000001
 21
2.947500000000003
 31
0
  0
LINE
  8
0
 62
7
 10
4.009250000000001
 20
2.947500000000003
 30
0
 11
4.011500000000001
 21
2.952500000000003
 31
0
  0
LINE
  8
0
 62
7
 10
4.011500000000001
 20
2.952500000000003
 30
0
 11
4.016000000000001
 21
2.957500000000003
 31
0
  0
LINE
  8
0
 62
7
 10
4.016000000000001
 20
2.957500000000003
 30
0
 11
4.02275
 21
2.960000000000003
 31
0
  0
LINE
  8
0
 62
7
 10
4.02275
 20
2.960000000000003
 30
0
 11
4.031750000000001
 21
2.960000000000003
 31
0
  0
LINE
  8
0
 62
7
 10
4.031750000000001
 20
2.960000000000003
 30
0
 11
4.0385
 21
2.957500000000003
 31
0
  0
LINE
  8
0
 62
7
 10
4.0385
 20
2.957500000000003
 30
0
 11
4.043
 21
2.952500000000003
 31
0
  0
LINE
  8
0
 62
7
 10
4.043
 20
2.952500000000003
 30
0
 11
4.04525
 21
2.947500000000003
 31
0
  0
LINE
  8
0
 62
7
 10
4.04525
 20
2.947500000000003
 30
0
 11
4.0475
 21
2.935000000000003
 31
0
  0
LINE
  8
0
 62
7
 10
4.0475
 20
2.935000000000003
 30
0
 11
4.04975
 21
2.947500000000003
 31
0
  0
LINE
  8
0
 62
7
 10
4.04975
 20
2.947500000000003
 30
0
 11
4.052
 21
2.952500000000003
 31
0
  0
LINE
  8
0
 62
7
 10
4.052
 20
2.952500000000003
 30
0
 11
4.0565
 21
2.957500000000003
 31
0
  0
LINE
  8
0
 62
7
 10
4.0565
 20
2.957500000000003
 30
0
 11
4.06325
 21
2.960000000000003
 31
0
  0
LINE
  8
0
 62
7
 10
4.06325
 20
2.960000000000003
 30
0
 11
4.07225
 21
2.960000000000003
 31
0
  0
LINE
  8
0
 62
7
 10
4.07225
 20
2.960000000000003
 30
0
 11
4.079
 21
2.957500000000003
 31
0
  0
LINE
  8
0
 62
7
 10
4.0835
 20
2.952500000000003
 30
0
 11
4.079
 21
2.957500000000003
 31
0
  0
LINE
  8
0
 62
7
 10
4.079
 20
2.957500000000003
 30
0
 11
4.0835
 21
2.952500000000003
 31
0
  0
LINE
  8
0
 62
7
 10
4.0835
 20
2.952500000000003
 30
0
 11
4.08575
 21
2.947500000000003
 31
0
  0
LINE
  8
0
 62
7
 10
4.08575
 20
2.947500000000003
 30
0
 11
4.088
 21
2.935000000000003
 31
0
  0
LINE
  8
0
 62
7
 10
4.088
 20
2.935000000000003
 30
0
 11
4.088
 21
2.890000000000003
 31
0
  0
ARC
  8
0
 62
7
 10
3.99589538962111
 20
3.425895389621161
 30
0
 40
0.488000000000007
 50
359.8948727988335
 51
90.10512720415315
  0
CIRCLE
  8
0
 62
7
 10
4.483894568183392
 20
3.250000000000003
 30
0
 40
0.0600000000000005
  0
DIMENSION
  8
0
  6
CONTINUOUS
 62
7
  2
*D0
  3
DMST_1
 10
5
 20
11.4619278968784
 30
0
 11
3.12939969248634
 21
11.4619278968784
 31
0
 12
0
 22
0
 32
0
 70
0
 13
1.24
 23
11.05
 33
0
 14
5
 24
11.05
 34
0
 53
0
  0
DIMENSION
  8
0
  6
CONTINUOUS
 62
7
  2
*D1
  3
DMST_1
 10
1.240000000000001
 20
5.29274140377082
 30
0
 11
3.117671201054581
 21
5.29274140377082
 31
0
 12
0
 22
0
 32
0
 70
0
 13
5
 23
4.430000000000001
 33
0
 14
1.24
 24
4.430000000000001
 34
0
 53
0
  0
DIMENSION
  8
0
  6
CONTINUOUS
 62
7
  2
*D2
  3
DMST_1
 10
1.01827123476892
 20
3.350000000000001
 30
0
 11
1.01827123476892
 21
3.8853224319592
 31
0
 12
0
 22
0
 32
0
 70
0
 13
1.24
 23
4.430000000000001
 33
0
 14
1.24
 24
3.350000000000001
 34
0
 50
90
 53
0
  0
DIMENSION
  8
0
  6
CONTINUOUS
 62
7
  2
*D3
  3
DMST_1
 10
5.46336948740727
 20
3.250000000000001
 30
0
 11
5.46336948740727
 21
3.83840846623215
 31
0
 12
0
 22
0
 32
0
 70
0
 13
5
 23
4.430000000000001
 33
0
 14
5
 24
3.250000000000001
 34
0
 50
90
 53
0
  0
INSERT
  8
0
  2
*D4
 10
0
 20
0
 30
0
  0
ENDSEC
  0
EOF
