  0
SECTION
  2
HEADER
  9
$ACADVER
  1
AC1009
  9
$INSBASE
 10
0
 20
0
  9
$EXTMIN
 10
0.4500000000000009
 20
2.890000000000003
  9
$EXTMAX
 10
8.26518400033744
 20
11.5313926888491
  9
$LIMMIN
 10
0.4500000000000009
 20
2.890000000000003
  9
$LIMMAX
 10
8.26518400033744
 20
11.5313926888491
  9
$VIEWCTR
 10
10
 20
10
  9
$VIEWSIZE
 40
10
  9
$SNAPMODE
 70
0
  9
$SNAPUNIT
 10
1
 20
1
  9
$SNAPBASE
 10
0
 20
0
  9
$SNAPANG
 50
0
  9
$SNAPSTYLE
 70
0
  9
$SNAPISOPAIR
 70
0
  9
$GRIDMODE
 70
0
  9
$GRIDUNIT
 10
0
 20
0
  9
$ORTHOMODE
 70
0
  9
$REGENMODE
 70
1
  9
$FILLMODE
 70
1
  9
$QTEXTMODE
 70
0
  9
$DRAGMODE
 70
2
  9
$LTSCALE
 40
1
  9
$OSMODE
 70
0
  9
$ATTMODE
 70
1
  9
$TEXTSIZE
 40
3.5
  9
$TRACEWID
 40
0.5
  9
$TEXTSTYLE
  7
STANDARD
  9
$CLAYER
  8
0
  9
$CELTYPE
  6
BYLAYER
  9
$CECOLOR
 62
256
  9
$DIMSCALE
 40
1
  9
$DIMASZ
 40
0.18
  9
$DIMEXO
 40
0.0625
  9
$DIMDLI
 40
0.38
  9
$DIMRND
 40
0
  9
$DIMDLE
 40
0
  9
$DIMEXE
 40
0.18
  9
$DIMTP
 40
0
  9
$DIMTM
 40
0
  9
$DIMTXT
 40
0.18
  9
$DIMCEN
 40
0.09
  9
$DIMTSZ
 40
0
  9
$DIMTOL
 70
0
  9
$DIMLIM
 70
0
  9
$DIMTIH
 70
1
  9
$DIMTOH
 70
1
  9
$DIMSE1
 70
0
  9
$DIMSE2
 70
0
  9
$DIMTAD
 70
0
  9
$DIMZIN
 70
0
  9
$DIMBLK
  1

  9
$DIMASO
 70
1
  9
$DIMSHO
 70
1
  9
$DIMPOST
  1

  9
$DIMAPOST
  1

  9
$DIMALT
 70
0
  9
$DIMALTD
 70
2
  9
$DIMALTF
 40
25.4
  9
$DIMLFAC
 40
1
  9
$DIMTOFL
 70
0
  9
$DIMTVP
 40
0
  9
$DIMTIX
 70
0
  9
$DIMSOXD
 70
0
  9
$DIMSAH
 70
0
  9
$DIMBLK1
  1

  9
$DIMBLK2
  1

  9
$DIMSTYLE
  2
*UNNAMED
  9
$DIMCLRD
 70
0
  9
$DIMCLRE
 70
0
  9
$DIMCLRT
 70
0
  9
$DIMTFAC
 40
1
  9
$DIMGAP
 40
0.09
  9
$LUNITS
 70
2
  9
$LUPREC
 70
4
  9
$AXISMODE
 70
0
  9
$AXISUNIT
 10
0
 20
0
  9
$SKETCHINC
 40
0.1
  9
$FILLETRAD
 40
2
  9
$AUNITS
 70
0
  9
$AUPREC
 70
0
  9
$MENU
  1
ACAD
  9
$ELEVATION
 40
0
  9
$THICKNESS
 40
0
  9
$VIEWDIR
 10
0
 20
0
 30
1
  9
$LIMCHECK
 70
0
  9
$BLIPMODE
 70
1
  9
$CHAMFERA
 40
0
  9
$CHAMFERB
 40
0
  9
$FASTZOOM
 70
1
  9
$SKPOLY
 70
0
  9
$ANGBASE
 50
0
  9
$ANGDIR
 70
0
  9
$PDMODE
 70
0
  9
$PDSIZE
 40
0
  9
$PLINEWID
 40
0
  9
$COORDS
 70
2
  0
ENDSEC
  0
SECTION
  2
TABLES
  0
TABLE
  2
DIMSTYLE
 70
1
  0
DIMSTYLE
  2
DMST_1
 70
0
  3

  4

  5

  6

  7

 40
1
 41
0.1
 42
0
 43
0.7
 44
0.2
 45
0
 46
0
 47
0
 48
0
140
0.1
141
0
142
0.1
143
25.4
144
1
145
0
146
1
147
0.25
 71
0
 72
0
 73
0
 74
0
 75
0
 76
0
 77
0
 78
9
170
0
171
2
172
0
173
0
174
0
175
0
176
7
177
7
178
7
  0
ENDTAB
  0
TABLE
  2
LTYPE
 70
9
  0
LTYPE
  2
CONTINUOUS
 70
64
  3
Solid line
 72
65
 73
0
 40
0
  0
LTYPE
  2
BORDER
 70
64
  3
__ __ . __ __ .
 72
65
 73
6
 40
0.3979588738285769
 49
0.1137025353795934
 49
-0.0568512676897967
 49
0.1137025353795934
 49
-0.0568512676897967
 49
0
 49
-0.0568512676897967
  0
LTYPE
  2
CENTER
 70
64
  3
____ _ ____ _
 72
65
 73
4
 40
0.4548101415183736
 49
0.2842563384489835
 49
-0.0568512676897967
 49
0.0568512676897967
 49
-0.0568512676897967
  0
LTYPE
  2
DASHDOT
 70
64
  3
__ . __ . __ .
 72
65
 73
4
 40
0.2274050707591868
 49
0.1137025353795934
 49
-0.0568512676897967
 49
0
 49
-0.0568512676897967
  0
LTYPE
  2
DASHED
 70
64
  3
__ __ __ __ __
 72
65
 73
2
 40
0.1705538030693901
 49
0.1137025353795934
 49
-0.0568512676897967
  0
LTYPE
  2
DIVIDE
 70
64
  3
__ . . __ . . 
 72
65
 73
6
 40
0.2842563384489835
 49
0.1137025353795934
 49
-0.0568512676897967
 49
0
 49
-0.0568512676897967
 49
0
 49
-0.0568512676897967
  0
LTYPE
  2
DOT
 70
64
  3
..............
 72
65
 73
4
 40
0.1137025353795934
 49
0
 49
-0.0568512676897967
 49
0
 49
-0.0568512676897967
  0
LTYPE
  2
HIDDEN
 70
64
  3
_ _ _ _ _ _ _
 72
65
 73
2
 40
0.08527690153469505
 49
0.0568512676897967
 49
-0.02842563384489835
  0
LTYPE
  2
PHANTOM
 70
64
  3
_____ _ _ _____ _ _ 
 72
65
 73
6
 40
0.568512676897967
 49
0.2842563384489835
 49
-0.0568512676897967
 49
0.0568512676897967
 49
-0.0568512676897967
 49
0.0568512676897967
 49
-0.0568512676897967
  0
ENDTAB
  0
TABLE
  2
LAYER
 70
2
  0
LAYER
  2
0
 70
0
 62
7
  6
CONTINUOUS
  0
ENDTAB
  0
TABLE
  2
STYLE
 70
4
  0
STYLE
  2
STANDARD
 70
0
 40
0
 41
1
 50
0
 71
0
 42
3.5
  3
txt
  4

  0
STYLE
  2
SIMPLEX
 70
0
 40
0
 41
1
 50
0
 71
0
 42
3.5
  3
simplex
  4

  0
STYLE
  2
COMPLEX
 70
0
 40
0
 41
1
 50
0
 71
0
 42
3.5
  3
complex
  4

  0
STYLE
  2
ITALIC
 70
0
 40
0
 41
1
 50
0
 71
0
 42
3.5
  3
italic
  4

  0
ENDTAB
  0
TABLE
  2
VIEW
 70
0
  0
ENDTAB
  0
ENDSEC
  0
SECTION
  2
BLOCKS
  0
BLOCK
  8
0
  2
*X0
 70
1
 10
0
 20
0
 30
0
  0
LINE
  8
0
 62
7
  6
DASHED
 10
0.5000000000000009
 20
8.242819253992694
 30
0
 11
0.5571807460073019
 21
8.299999999999995
 31
0
  0
LINE
  8
0
 62
7
  6
DASHED
 10
0.5693127803632687
 20
8.099999999999998
 30
0
 11
0.7400000000000007
 21
8.270687219636731
 31
0
  0
LINE
  8
0
 62
7
 10
0.5000000000000009
 20
8.136753236814712
 30
0
 11
0.6632467631852856
 21
8.299999999999997
 31
0
  0
LINE
  8
0
 62
7
 10
0.6753787975412497
 20
8.099999999999998
 30
0
 11
0.7400000000000007
 21
8.164621202458747
 31
0
  0
ENDBLK
  8
0
  0
BLOCK
  8
0
  2
*X1
 70
1
 10
0
 20
0
 30
0
  0
LINE
  8
0
 62
7
  6
DASHED
 10
0.5
 20
11.00053570062023
 30
0
 11
0.5494642993797729
 21
11.05
 31
0
  0
LINE
  8
0
 62
7
  6
DASHED
 10
0.5615963337357357
 20
10.85
 30
0
 11
0.7400000000000011
 21
11.02840366626426
 31
0
  0
LINE
  8
0
 62
7
 10
0.5000000000000009
 20
10.89446968344225
 30
0
 11
0.655530316557754
 21
11.05
 31
0
  0
LINE
  8
0
 62
7
 10
0.6676623509137176
 20
10.85
 30
0
 11
0.7400000000000011
 21
10.92233764908628
 31
0
  0
ENDBLK
  8
0
  0
BLOCK
  8
0
  2
*X2
 70
1
 10
0
 20
0
 30
0
  0
LINE
  8
0
 62
7
  6
DASHED
 10
1.82
 20
11.04774349448445
 30
0
 11
1.822256505515557
 21
11.05
 31
0
  0
LINE
  8
0
 62
7
  6
DASHED
 10
1.83438853987152
 20
10.85
 30
0
 11
2.034388539871522
 21
11.05
 31
0
  0
LINE
  8
0
 62
7
  6
DASHED
 10
2.046520574227484
 20
10.85
 30
0
 11
2.12
 21
10.92347942577252
 31
0
  0
LINE
  8
0
 62
7
 10
1.82
 20
10.94167747730646
 30
0
 11
1.92832252269354
 21
11.05
 31
0
  0
LINE
  8
0
 62
7
 10
1.940454557049502
 20
10.85
 30
0
 11
2.120000000000001
 21
11.0295454429505
 31
0
  0
ENDBLK
  8
0
  0
BLOCK
  8
0
  2
*X3
 70
1
 10
0
 20
0
 30
0
  0
LINE
  8
0
 62
7
  6
DASHED
 10
1.820000000000001
 20
8.29002704785691
 30
0
 11
1.829972952143089
 21
8.299999999999997
 31
0
  0
LINE
  8
0
 62
7
  6
DASHED
 10
1.842104986499053
 20
8.099999999999996
 30
0
 11
2.042104986499053
 21
8.299999999999997
 31
0
  0
LINE
  8
0
 62
7
  6
DASHED
 10
2.054237020855017
 20
8.099999999999996
 30
0
 11
2.120000000000002
 21
8.165762979144981
 31
0
  0
LINE
  8
0
 62
7
 10
1.820000000000001
 20
8.183961030678926
 30
0
 11
1.936038969321071
 21
8.299999999999997
 31
0
  0
LINE
  8
0
 62
7
 10
1.948171003677037
 20
8.099999999999998
 30
0
 11
2.120000000000001
 21
8.271828996322963
 31
0
  0
ENDBLK
  8
0
  0
BLOCK
  8
0
  2
*X4
 70
1
 10
0
 20
0
 30
0
  0
LINE
  8
0
 62
7
 10
0.549464299379772
 20
11.05
 30
0
 11
0.6994642993797706
 21
11.2
 31
0
  0
LINE
  8
0
 62
7
 10
0.5000000000000009
 20
11.10660171779821
 30
0
 11
0.5933982822017896
 21
11.2
 31
0
  0
LINE
  8
0
 62
7
 10
0.655530316557754
 20
11.05
 30
0
 11
0.7400000000000002
 21
11.13446968344225
 31
0
  0
ENDBLK
  8
0
  0
BLOCK
  8
0
  2
*X5
 70
1
 10
0
 20
0
 30
0
  0
LINE
  8
0
 62
7
 10
0.5000000000000004
 20
10.78840366626426
 30
0
 11
0.5615963337357339
 21
10.85
 31
0
  0
LINE
  8
0
 62
7
 10
0.5000000000000004
 20
10.5762716319083
 30
0
 11
0.740000000000002
 21
10.8162716319083
 31
0
  0
LINE
  8
0
 62
7
 10
0.5000000000000004
 20
10.36413959755233
 30
0
 11
0.740000000000002
 21
10.60413959755233
 31
0
  0
LINE
  8
0
 62
7
 10
0.5000000000000004
 20
10.15200756319637
 30
0
 11
0.740000000000002
 21
10.39200756319637
 31
0
  0
LINE
  8
0
 62
7
 10
0.5000000000000004
 20
9.939875528840407
 30
0
 11
0.740000000000002
 21
10.17987552884041
 31
0
  0
LINE
  8
0
 62
7
 10
0.5000000000000004
 20
9.727743494484443
 30
0
 11
0.740000000000002
 21
9.967743494484443
 31
0
  0
LINE
  8
0
 62
7
 10
0.5000000000000004
 20
9.515611460128479
 30
0
 11
0.740000000000002
 21
9.755611460128479
 31
0
  0
LINE
  8
0
 62
7
 10
0.5000000000000004
 20
9.303479425772515
 30
0
 11
0.740000000000002
 21
9.543479425772516
 31
0
  0
LINE
  8
0
 62
7
 10
0.5000000000000004
 20
9.091347391416551
 30
0
 11
0.740000000000002
 21
9.331347391416552
 31
0
  0
LINE
  8
0
 62
7
 10
0.5000000000000004
 20
8.879215357060588
 30
0
 11
0.740000000000002
 21
9.119215357060588
 31
0
  0
LINE
  8
0
 62
7
 10
0.5000000000000004
 20
8.667083322704624
 30
0
 11
0.740000000000002
 21
8.907083322704624
 31
0
  0
LINE
  8
0
 62
7
 10
0.5000000000000004
 20
8.45495128834866
 30
0
 11
0.740000000000002
 21
8.69495128834866
 31
0
  0
LINE
  8
0
 62
7
 10
0.5571807460073019
 20
8.299999999999995
 30
0
 11
0.740000000000002
 21
8.482819253992696
 31
0
  0
LINE
  8
0
 62
7
 10
0.5000000000000018
 20
10.68233764908628
 30
0
 11
0.6676623509137176
 21
10.85
 31
0
  0
LINE
  8
0
 62
7
 10
0.5000000000000018
 20
10.47020561473032
 30
0
 11
0.7400000000000007
 21
10.71020561473031
 31
0
  0
LINE
  8
0
 62
7
 10
0.5000000000000018
 20
10.25807358037435
 30
0
 11
0.7400000000000007
 21
10.49807358037435
 31
0
  0
LINE
  8
0
 62
7
 10
0.5000000000000018
 20
10.04594154601839
 30
0
 11
0.7400000000000007
 21
10.28594154601839
 31
0
  0
LINE
  8
0
 62
7
 10
0.5000000000000018
 20
9.833809511662425
 30
0
 11
0.7400000000000007
 21
10.07380951166242
 31
0
  0
LINE
  8
0
 62
7
 10
0.5000000000000018
 20
9.621677477306461
 30
0
 11
0.7400000000000007
 21
9.861677477306458
 31
0
  0
LINE
  8
0
 62
7
 10
0.5000000000000018
 20
9.409545442950497
 30
0
 11
0.7400000000000007
 21
9.649545442950494
 31
0
  0
LINE
  8
0
 62
7
 10
0.5000000000000018
 20
9.197413408594533
 30
0
 11
0.7400000000000007
 21
9.43741340859453
 31
0
  0
LINE
  8
0
 62
7
 10
0.5000000000000018
 20
8.98528137423857
 30
0
 11
0.7400000000000007
 21
9.225281374238566
 31
0
  0
LINE
  8
0
 62
7
 10
0.5000000000000018
 20
8.773149339882606
 30
0
 11
0.7400000000000007
 21
9.013149339882602
 31
0
  0
LINE
  8
0
 62
7
 10
0.5000000000000018
 20
8.561017305526642
 30
0
 11
0.7400000000000007
 21
8.801017305526639
 31
0
  0
LINE
  8
0
 62
7
 10
0.5000000000000018
 20
8.348885271170678
 30
0
 11
0.7400000000000007
 21
8.588885271170675
 31
0
  0
LINE
  8
0
 62
7
 10
0.6632467631852861
 20
8.299999999999997
 30
0
 11
0.7400000000000007
 21
8.376753236814711
 31
0
  0
ENDBLK
  8
0
  0
BLOCK
  8
0
  2
*X6
 70
1
 10
0
 20
0
 30
0
  0
LINE
  8
0
 62
7
 10
0.5000000000000009
 20
8.03068721963673
 30
0
 11
0.5693127803632674
 21
8.099999999999998
 31
0
  0
LINE
  8
0
 62
7
 10
0.6314448147192322
 20
7.949999999999998
 30
0
 11
0.7400000000000015
 21
8.058555185280767
 31
0
  0
LINE
  8
0
 62
7
 10
0.5253787975412521
 20
7.949999999999999
 30
0
 11
0.6753787975412497
 21
8.099999999999998
 31
0
  0
LINE
  8
0
 62
7
 10
0.7375108318972163
 20
7.949999999999999
 30
0
 11
0.740000000000002
 21
7.952489168102785
 31
0
  0
ENDBLK
  8
0
  0
BLOCK
  8
0
  2
*X7
 70
1
 10
0
 20
0
 30
0
  0
LINE
  8
0
 62
7
  6
DASHED
 10
3.375000000000004
 20
10.90568721963673
 30
0
 11
3.519312780363279
 21
11.05
 31
0
  0
LINE
  8
0
 62
7
  6
DASHED
 10
3.531444814719242
 20
10.85
 30
0
 11
3.731444814719243
 21
11.05
 31
0
  0
LINE
  8
0
 62
7
  6
DASHED
 10
3.743576849075207
 20
10.85
 30
0
 11
3.943576849075207
 21
11.05
 31
0
  0
LINE
  8
0
 62
7
  6
DASHED
 10
3.955708883431171
 20
10.85
 30
0
 11
4.155708883431172
 21
11.05
 31
0
  0
LINE
  8
0
 62
7
  6
DASHED
 10
4.167840917787135
 20
10.85
 30
0
 11
4.367840917787135
 21
11.05
 31
0
  0
LINE
  8
0
 62
7
  6
DASHED
 10
4.379972952143099
 20
10.85
 30
0
 11
4.579972952143099
 21
11.05
 31
0
  0
LINE
  8
0
 62
7
  6
DASHED
 10
4.592104986499063
 20
10.85
 30
0
 11
4.792104986499063
 21
11.05
 31
0
  0
LINE
  8
0
 62
7
  6
DASHED
 10
4.804237020855027
 20
10.85
 30
0
 11
5.004237020855027
 21
11.05
 31
0
  0
LINE
  8
0
 62
7
  6
DASHED
 10
5.016369055210991
 20
10.85
 30
0
 11
5.216369055210991
 21
11.05
 31
0
  0
LINE
  8
0
 62
7
  6
DASHED
 10
5.228501089566954
 20
10.85
 30
0
 11
5.428501089566955
 21
11.05
 31
0
  0
LINE
  8
0
 62
7
  6
DASHED
 10
5.440633123922918
 20
10.85
 30
0
 11
5.640633123922918
 21
11.05
 31
0
  0
LINE
  8
0
 62
7
  6
DASHED
 10
5.652765158278882
 20
10.85
 30
0
 11
5.852765158278882
 21
11.05
 31
0
  0
LINE
  8
0
 62
7
  6
DASHED
 10
5.864897192634846
 20
10.85
 30
0
 11
6.064897192634846
 21
11.05
 31
0
  0
LINE
  8
0
 62
7
  6
DASHED
 10
6.07702922699081
 20
10.85
 30
0
 11
6.27702922699081
 21
11.05
 31
0
  0
LINE
  8
0
 62
7
  6
DASHED
 10
6.289161261346774
 20
10.85
 30
0
 11
6.489161261346774
 21
11.05
 31
0
  0
LINE
  8
0
 62
7
  6
DASHED
 10
6.501293295702737
 20
10.85
 30
0
 11
6.701293295702738
 21
11.05
 31
0
  0
LINE
  8
0
 62
7
  6
DASHED
 10
6.713425330058701
 20
10.85
 30
0
 11
6.913425330058701
 21
11.05
 31
0
  0
LINE
  8
0
 62
7
  6
DASHED
 10
6.925557364414665
 20
10.85
 30
0
 11
7.125557364414665
 21
11.05
 31
0
  0
LINE
  8
0
 62
7
  6
DASHED
 10
7.137689398770629
 20
10.85
 30
0
 11
7.337689398770629
 21
11.05
 31
0
  0
LINE
  8
0
 62
7
  6
DASHED
 10
7.349821433126593
 20
10.85
 30
0
 11
7.549821433126593
 21
11.05
 31
0
  0
LINE
  8
0
 62
7
  6
DASHED
 10
7.561953467482557
 20
10.85
 30
0
 11
7.600000000000003
 21
10.88804653251745
 31
0
  0
LINE
  8
0
 62
7
 10
3.375000000000004
 20
11.01175323681472
 30
0
 11
3.413246763185296
 21
11.05
 31
0
  0
LINE
  8
0
 62
7
 10
3.425378797541259
 20
10.85
 30
0
 11
3.62537879754126
 21
11.05
 31
0
  0
LINE
  8
0
 62
7
 10
3.637510831897223
 20
10.85
 30
0
 11
3.837510831897224
 21
11.05
 31
0
  0
LINE
  8
0
 62
7
 10
3.849642866253187
 20
10.85
 30
0
 11
4.049642866253189
 21
11.05
 31
0
  0
LINE
  8
0
 62
7
 10
4.061774900609151
 20
10.85
 30
0
 11
4.261774900609153
 21
11.05
 31
0
  0
LINE
  8
0
 62
7
 10
4.273906934965115
 20
10.85
 30
0
 11
4.473906934965116
 21
11.05
 31
0
  0
LINE
  8
0
 62
7
 10
4.486038969321079
 20
10.85
 30
0
 11
4.68603896932108
 21
11.05
 31
0
  0
LINE
  8
0
 62
7
 10
4.698171003677043
 20
10.85
 30
0
 11
4.898171003677044
 21
11.05
 31
0
  0
LINE
  8
0
 62
7
 10
4.910303038033007
 20
10.85
 30
0
 11
5.110303038033008
 21
11.05
 31
0
  0
LINE
  8
0
 62
7
 10
5.122435072388971
 20
10.85
 30
0
 11
5.322435072388972
 21
11.05
 31
0
  0
LINE
  8
0
 62
7
 10
5.334567106744935
 20
10.85
 30
0
 11
5.534567106744936
 21
11.05
 31
0
  0
LINE
  8
0
 62
7
 10
5.546699141100898
 20
10.85
 30
0
 11
5.746699141100899
 21
11.05
 31
0
  0
LINE
  8
0
 62
7
 10
5.758831175456862
 20
10.85
 30
0
 11
5.958831175456863
 21
11.05
 31
0
  0
LINE
  8
0
 62
7
 10
5.970963209812826
 20
10.85
 30
0
 11
6.170963209812827
 21
11.05
 31
0
  0
LINE
  8
0
 62
7
 10
6.18309524416879
 20
10.85
 30
0
 11
6.383095244168791
 21
11.05
 31
0
  0
LINE
  8
0
 62
7
 10
6.395227278524754
 20
10.85
 30
0
 11
6.595227278524755
 21
11.05
 31
0
  0
LINE
  8
0
 62
7
 10
6.607359312880718
 20
10.85
 30
0
 11
6.807359312880719
 21
11.05
 31
0
  0
LINE
  8
0
 62
7
 10
6.819491347236681
 20
10.85
 30
0
 11
7.019491347236682
 21
11.05
 31
0
  0
LINE
  8
0
 62
7
 10
7.031623381592645
 20
10.85
 30
0
 11
7.231623381592646
 21
11.05
 31
0
  0
LINE
  8
0
 62
7
 10
7.243755415948609
 20
10.85
 30
0
 11
7.44375541594861
 21
11.05
 31
0
  0
LINE
  8
0
 62
7
 10
7.455887450304573
 20
10.85
 30
0
 11
7.600000000000005
 21
10.99411254969543
 31
0
  0
ENDBLK
  8
0
  0
BLOCK
  8
0
  2
*X8
 70
1
 10
0
 20
0
 30
0
  0
LINE
  8
0
 62
7
  6
DASHED
 10
3.375000000000005
 20
8.147970773009201
 30
0
 11
3.527029226990809
 21
8.299999999999995
 31
0
  0
LINE
  8
0
 62
7
  6
DASHED
 10
3.539161261346774
 20
8.099999999999998
 30
0
 11
3.739161261346773
 21
8.299999999999995
 31
0
  0
LINE
  8
0
 62
7
  6
DASHED
 10
3.751293295702738
 20
8.099999999999998
 30
0
 11
3.951293295702737
 21
8.299999999999995
 31
0
  0
LINE
  8
0
 62
7
  6
DASHED
 10
3.963425330058703
 20
8.099999999999998
 30
0
 11
4.163425330058701
 21
8.299999999999995
 31
0
  0
LINE
  8
0
 62
7
  6
DASHED
 10
4.175557364414667
 20
8.099999999999998
 30
0
 11
4.375557364414665
 21
8.299999999999995
 31
0
  0
LINE
  8
0
 62
7
  6
DASHED
 10
4.387689398770631
 20
8.099999999999998
 30
0
 11
4.587689398770629
 21
8.299999999999995
 31
0
  0
LINE
  8
0
 62
7
  6
DASHED
 10
4.599821433126595
 20
8.099999999999998
 30
0
 11
4.799821433126593
 21
8.299999999999995
 31
0
  0
LINE
  8
0
 62
7
  6
DASHED
 10
4.811953467482558
 20
8.099999999999998
 30
0
 11
5.011953467482557
 21
8.299999999999995
 31
0
  0
LINE
  8
0
 62
7
  6
DASHED
 10
5.024085501838522
 20
8.099999999999998
 30
0
 11
5.224085501838521
 21
8.299999999999995
 31
0
  0
LINE
  8
0
 62
7
  6
DASHED
 10
5.236217536194486
 20
8.099999999999998
 30
0
 11
5.436217536194484
 21
8.299999999999995
 31
0
  0
LINE
  8
0
 62
7
  6
DASHED
 10
5.44834957055045
 20
8.099999999999998
 30
0
 11
5.648349570550448
 21
8.299999999999995
 31
0
  0
LINE
  8
0
 62
7
  6
DASHED
 10
5.660481604906414
 20
8.099999999999998
 30
0
 11
5.860481604906412
 21
8.299999999999995
 31
0
  0
LINE
  8
0
 62
7
  6
DASHED
 10
5.872613639262378
 20
8.099999999999998
 30
0
 11
6.072613639262376
 21
8.299999999999995
 31
0
  0
LINE
  8
0
 62
7
  6
DASHED
 10
6.084745673618341
 20
8.099999999999998
 30
0
 11
6.28474567361834
 21
8.299999999999995
 31
0
  0
LINE
  8
0
 62
7
  6
DASHED
 10
6.296877707974305
 20
8.099999999999998
 30
0
 11
6.496877707974304
 21
8.299999999999995
 31
0
  0
LINE
  8
0
 62
7
  6
DASHED
 10
6.509009742330269
 20
8.099999999999998
 30
0
 11
6.709009742330267
 21
8.299999999999995
 31
0
  0
LINE
  8
0
 62
7
  6
DASHED
 10
6.721141776686233
 20
8.099999999999998
 30
0
 11
6.921141776686231
 21
8.299999999999995
 31
0
  0
LINE
  8
0
 62
7
  6
DASHED
 10
6.933273811042197
 20
8.099999999999998
 30
0
 11
7.133273811042195
 21
8.299999999999995
 31
0
  0
LINE
  8
0
 62
7
  6
DASHED
 10
7.145405845398161
 20
8.099999999999998
 30
0
 11
7.345405845398159
 21
8.299999999999995
 31
0
  0
LINE
  8
0
 62
7
  6
DASHED
 10
7.357537879754124
 20
8.099999999999998
 30
0
 11
7.557537879754123
 21
8.299999999999995
 31
0
  0
LINE
  8
0
 62
7
  6
DASHED
 10
7.569669914110088
 20
8.099999999999998
 30
0
 11
7.600000000000005
 21
8.130330085889915
 31
0
  0
LINE
  8
0
 62
7
 10
3.375000000000005
 20
8.254036790187183
 30
0
 11
3.420963209812827
 21
8.299999999999997
 31
0
  0
LINE
  8
0
 62
7
 10
3.433095244168791
 20
8.099999999999998
 30
0
 11
3.633095244168791
 21
8.299999999999997
 31
0
  0
LINE
  8
0
 62
7
 10
3.645227278524755
 20
8.099999999999998
 30
0
 11
3.845227278524755
 21
8.299999999999997
 31
0
  0
LINE
  8
0
 62
7
 10
3.85735931288072
 20
8.099999999999998
 30
0
 11
4.057359312880719
 21
8.299999999999997
 31
0
  0
LINE
  8
0
 62
7
 10
4.069491347236684
 20
8.099999999999998
 30
0
 11
4.269491347236683
 21
8.299999999999997
 31
0
  0
LINE
  8
0
 62
7
 10
4.281623381592648
 20
8.099999999999998
 30
0
 11
4.481623381592647
 21
8.299999999999997
 31
0
  0
LINE
  8
0
 62
7
 10
4.493755415948612
 20
8.099999999999998
 30
0
 11
4.693755415948611
 21
8.299999999999997
 31
0
  0
LINE
  8
0
 62
7
 10
4.705887450304576
 20
8.099999999999998
 30
0
 11
4.905887450304575
 21
8.299999999999997
 31
0
  0
LINE
  8
0
 62
7
 10
4.918019484660539
 20
8.099999999999998
 30
0
 11
5.118019484660539
 21
8.299999999999997
 31
0
  0
LINE
  8
0
 62
7
 10
5.130151519016503
 20
8.099999999999998
 30
0
 11
5.330151519016503
 21
8.299999999999997
 31
0
  0
LINE
  8
0
 62
7
 10
5.342283553372467
 20
8.099999999999998
 30
0
 11
5.542283553372466
 21
8.299999999999997
 31
0
  0
LINE
  8
0
 62
7
 10
5.554415587728431
 20
8.099999999999998
 30
0
 11
5.75441558772843
 21
8.299999999999997
 31
0
  0
LINE
  8
0
 62
7
 10
5.766547622084395
 20
8.099999999999998
 30
0
 11
5.966547622084394
 21
8.299999999999997
 31
0
  0
LINE
  8
0
 62
7
 10
5.978679656440359
 20
8.099999999999998
 30
0
 11
6.178679656440358
 21
8.299999999999997
 31
0
  0
LINE
  8
0
 62
7
 10
6.190811690796322
 20
8.099999999999998
 30
0
 11
6.390811690796322
 21
8.299999999999997
 31
0
  0
LINE
  8
0
 62
7
 10
6.402943725152286
 20
8.099999999999998
 30
0
 11
6.602943725152286
 21
8.299999999999997
 31
0
  0
LINE
  8
0
 62
7
 10
6.61507575950825
 20
8.099999999999998
 30
0
 11
6.815075759508249
 21
8.299999999999997
 31
0
  0
LINE
  8
0
 62
7
 10
6.827207793864214
 20
8.099999999999998
 30
0
 11
7.027207793864213
 21
8.299999999999997
 31
0
  0
LINE
  8
0
 62
7
 10
7.039339828220178
 20
8.099999999999998
 30
0
 11
7.239339828220177
 21
8.299999999999997
 31
0
  0
LINE
  8
0
 62
7
 10
7.251471862576142
 20
8.099999999999998
 30
0
 11
7.451471862576141
 21
8.299999999999997
 31
0
  0
LINE
  8
0
 62
7
 10
7.463603896932105
 20
8.099999999999998
 30
0
 11
7.600000000000005
 21
8.236396103067896
 31
0
  0
ENDBLK
  8
0
  0
BLOCK
  8
0
  2
*X9
 70
1
 10
0
 20
0
 30
0
  0
LINE
  8
0
 62
7
 10
3.525000000000006
 20
11.05568721963673
 30
0
 11
3.66931278036327
 21
11.2
 31
0
  0
LINE
  8
0
 62
7
 10
3.525000000000006
 20
11.16175323681472
 30
0
 11
3.563246763185288
 21
11.2
 31
0
  0
LINE
  8
0
 62
7
 10
3.625378797541253
 20
11.05
 30
0
 11
3.700000000000005
 21
11.12462120245875
 31
0
  0
ENDBLK
  8
0
  0
BLOCK
  8
0
  2
*X10
 70
1
 10
0
 20
0
 30
0
  0
LINE
  8
0
 62
7
 10
3.525000000000006
 20
10.84355518528077
 30
0
 11
3.531444814719235
 21
10.85
 31
0
  0
LINE
  8
0
 62
7
 10
3.525000000000006
 20
10.6314231509248
 30
0
 11
3.700000000000005
 21
10.8064231509248
 31
0
  0
LINE
  8
0
 62
7
 10
3.525000000000006
 20
10.41929111656884
 30
0
 11
3.700000000000005
 21
10.59429111656884
 31
0
  0
LINE
  8
0
 62
7
 10
3.525000000000006
 20
10.20715908221288
 30
0
 11
3.700000000000005
 21
10.38215908221287
 31
0
  0
LINE
  8
0
 62
7
 10
3.525000000000006
 20
9.995027047856912
 30
0
 11
3.700000000000005
 21
10.17002704785691
 31
0
  0
LINE
  8
0
 62
7
 10
3.525000000000006
 20
9.782895013500948
 30
0
 11
3.700000000000005
 21
9.957895013500945
 31
0
  0
LINE
  8
0
 62
7
 10
3.525000000000006
 20
9.570762979144984
 30
0
 11
3.700000000000005
 21
9.745762979144981
 31
0
  0
LINE
  8
0
 62
7
 10
3.525000000000006
 20
9.35863094478902
 30
0
 11
3.700000000000005
 21
9.533630944789017
 31
0
  0
LINE
  8
0
 62
7
 10
3.525000000000006
 20
9.146498910433056
 30
0
 11
3.700000000000005
 21
9.321498910433053
 31
0
  0
LINE
  8
0
 62
7
 10
3.525000000000006
 20
8.934366876077092
 30
0
 11
3.700000000000005
 21
9.10936687607709
 31
0
  0
LINE
  8
0
 62
7
 10
3.525000000000006
 20
8.722234841721129
 30
0
 11
3.700000000000005
 21
8.897234841721126
 31
0
  0
LINE
  8
0
 62
7
 10
3.525000000000006
 20
8.510102807365165
 30
0
 11
3.700000000000005
 21
8.685102807365162
 31
0
  0
LINE
  8
0
 62
7
 10
3.527029226990802
 20
8.299999999999997
 30
0
 11
3.700000000000005
 21
8.472970773009198
 31
0
  0
LINE
  8
0
 62
7
 10
3.525000000000006
 20
10.73748916810279
 30
0
 11
3.637510831897218
 21
10.85
 31
0
  0
LINE
  8
0
 62
7
 10
3.525000000000006
 20
10.52535713374682
 30
0
 11
3.700000000000006
 21
10.70035713374682
 31
0
  0
LINE
  8
0
 62
7
 10
3.525000000000006
 20
10.31322509939086
 30
0
 11
3.700000000000006
 21
10.48822509939086
 31
0
  0
LINE
  8
0
 62
7
 10
3.525000000000006
 20
10.10109306503489
 30
0
 11
3.700000000000006
 21
10.27609306503489
 31
0
  0
LINE
  8
0
 62
7
 10
3.525000000000006
 20
9.88896103067893
 30
0
 11
3.700000000000006
 21
10.06396103067893
 31
0
  0
LINE
  8
0
 62
7
 10
3.525000000000006
 20
9.676828996322966
 30
0
 11
3.700000000000006
 21
9.851828996322965
 31
0
  0
LINE
  8
0
 62
7
 10
3.525000000000006
 20
9.464696961967002
 30
0
 11
3.700000000000006
 21
9.639696961967001
 31
0
  0
LINE
  8
0
 62
7
 10
3.525000000000006
 20
9.252564927611038
 30
0
 11
3.700000000000006
 21
9.427564927611037
 31
0
  0
LINE
  8
0
 62
7
 10
3.525000000000006
 20
9.040432893255074
 30
0
 11
3.700000000000006
 21
9.215432893255073
 31
0
  0
LINE
  8
0
 62
7
 10
3.525000000000006
 20
8.828300858899111
 30
0
 11
3.700000000000006
 21
9.003300858899109
 31
0
  0
LINE
  8
0
 62
7
 10
3.525000000000006
 20
8.616168824543147
 30
0
 11
3.700000000000006
 21
8.791168824543146
 31
0
  0
LINE
  8
0
 62
7
 10
3.525000000000006
 20
8.404036790187183
 30
0
 11
3.700000000000006
 21
8.579036790187182
 31
0
  0
LINE
  8
0
 62
7
 10
3.633095244168785
 20
8.299999999999997
 30
0
 11
3.700000000000006
 21
8.366904755831218
 31
0
  0
ENDBLK
  8
0
  0
BLOCK
  8
0
  2
*X11
 70
1
 10
0
 20
0
 30
0
  0
LINE
  8
0
 62
7
 10
3.525000000000005
 20
8.085838738653235
 30
0
 11
3.539161261346767
 21
8.099999999999998
 31
0
  0
LINE
  8
0
 62
7
 10
3.601293295702733
 20
7.949999999999999
 30
0
 11
3.700000000000005
 21
8.04870670429727
 31
0
  0
LINE
  8
0
 62
7
 10
3.525000000000005
 20
7.979772721475253
 30
0
 11
3.645227278524751
 21
8.1
 31
0
  0
ENDBLK
  8
0
  0
BLOCK
  8
0
  2
*X12
 70
1
 10
0
 20
0
 30
0
  0
LINE
  8
0
 62
7
 10
3.525000000000004
 20
4.585660171779824
 30
0
 11
3.609339828220187
 21
4.670000000000001
 31
0
  0
LINE
  8
0
 62
7
 10
3.525000000000004
 20
4.37352813742386
 30
0
 11
3.821471862576151
 21
4.670000000000001
 31
0
  0
LINE
  8
0
 62
7
 10
3.793603896932114
 20
4.43
 30
0
 11
4.033603896932116
 21
4.670000000000001
 31
0
  0
LINE
  8
0
 62
7
 10
3.525000000000004
 20
4.161396103067896
 30
0
 11
3.700000000000005
 21
4.336396103067897
 31
0
  0
LINE
  8
0
 62
7
 10
4.005735931288078
 20
4.43
 30
0
 11
4.245735931288079
 21
4.670000000000001
 31
0
  0
LINE
  8
0
 62
7
 10
3.525000000000004
 20
3.949264068711932
 30
0
 11
3.700000000000003
 21
4.124264068711931
 31
0
  0
LINE
  8
0
 62
7
 10
4.217867965644042
 20
4.43
 30
0
 11
4.457867965644043
 21
4.670000000000001
 31
0
  0
LINE
  8
0
 62
7
 10
3.525000000000004
 20
3.737132034355968
 30
0
 11
3.700000000000001
 21
3.912132034355964
 31
0
  0
LINE
  8
0
 62
7
 10
4.430000000000006
 20
4.43
 30
0
 11
4.670000000000007
 21
4.670000000000001
 31
0
  0
LINE
  8
0
 62
7
 10
3.525000000000004
 20
3.525000000000004
 30
0
 11
3.699999999999998
 21
3.699999999999998
 31
0
  0
LINE
  8
0
 62
7
 10
4.64213203435597
 20
4.43
 30
0
 11
4.882132034355971
 21
4.670000000000001
 31
0
  0
LINE
  8
0
 62
7
 10
3.525000000000004
 20
3.31286796564404
 30
0
 11
3.699999999999996
 21
3.487867965644032
 31
0
  0
LINE
  8
0
 62
7
 10
4.854264068711934
 20
4.43
 30
0
 11
5.094264068711935
 21
4.670000000000001
 31
0
  0
LINE
  8
0
 62
7
 10
3.67426406871193
 20
3.250000000000001
 30
0
 11
3.700000000000003
 21
3.275735931288074
 31
0
  0
LINE
  8
0
 62
7
 10
5.066396103067897
 20
4.43
 30
0
 11
5.306396103067899
 21
4.670000000000001
 31
0
  0
LINE
  8
0
 62
7
 10
5.278528137423861
 20
4.43
 30
0
 11
5.518528137423862
 21
4.670000000000001
 31
0
  0
LINE
  8
0
 62
7
 10
5.490660171779825
 20
4.43
 30
0
 11
5.730660171779826
 21
4.670000000000001
 31
0
  0
LINE
  8
0
 62
7
 10
5.702792206135789
 20
4.43
 30
0
 11
5.94279220613579
 21
4.670000000000001
 31
0
  0
LINE
  8
0
 62
7
 10
5.914924240491753
 20
4.43
 30
0
 11
6.154924240491754
 21
4.670000000000001
 31
0
  0
LINE
  8
0
 62
7
 10
6.127056274847717
 20
4.43
 30
0
 11
6.367056274847718
 21
4.670000000000001
 31
0
  0
LINE
  8
0
 62
7
 10
6.33918830920368
 20
4.43
 30
0
 11
6.579188309203682
 21
4.670000000000001
 31
0
  0
LINE
  8
0
 62
7
 10
6.551320343559644
 20
4.43
 30
0
 11
6.791320343559645
 21
4.670000000000001
 31
0
  0
LINE
  8
0
 62
7
 10
6.763452377915608
 20
4.43
 30
0
 11
7.003452377915609
 21
4.670000000000001
 31
0
  0
LINE
  8
0
 62
7
 10
6.975584412271572
 20
4.43
 30
0
 11
7.215584412271573
 21
4.670000000000001
 31
0
  0
LINE
  8
0
 62
7
 10
7.187716446627536
 20
4.43
 30
0
 11
7.427716446627537
 21
4.670000000000001
 31
0
  0
LINE
  8
0
 62
7
 10
7.3998484809835
 20
4.43
 30
0
 11
7.600000000000006
 21
4.630151519016506
 31
0
  0
ENDBLK
  8
0
  0
BLOCK
  8
0
  2
*X13
 70
1
 10
0
 20
0
 30
0
  0
LINE
  8
0
 62
7
 10
3.525000000000005
 20
5.009924240491754
 30
0
 11
3.615075759508249
 21
5.099999999999998
 31
0
  0
LINE
  8
0
 62
7
 10
3.525000000000005
 20
4.79779220613579
 30
0
 11
3.700000000000005
 21
4.97279220613579
 31
0
  0
LINE
  8
0
 62
7
 10
3.649339828220186
 20
4.709999999999999
 30
0
 11
3.889339828220185
 21
4.949999999999998
 31
0
  0
LINE
  8
0
 62
7
 10
3.86147186257615
 20
4.709999999999999
 30
0
 11
4.101471862576149
 21
4.949999999999998
 31
0
  0
LINE
  8
0
 62
7
 10
4.073603896932115
 20
4.709999999999999
 30
0
 11
4.313603896932113
 21
4.949999999999998
 31
0
  0
LINE
  8
0
 62
7
 10
4.285735931288079
 20
4.709999999999999
 30
0
 11
4.525735931288077
 21
4.949999999999998
 31
0
  0
LINE
  8
0
 62
7
 10
4.497867965644042
 20
4.709999999999999
 30
0
 11
4.737867965644041
 21
4.949999999999998
 31
0
  0
LINE
  8
0
 62
7
 10
4.710000000000006
 20
4.709999999999999
 30
0
 11
4.950000000000005
 21
4.949999999999998
 31
0
  0
LINE
  8
0
 62
7
 10
4.92213203435597
 20
4.709999999999999
 30
0
 11
5.162132034355968
 21
4.949999999999998
 31
0
  0
LINE
  8
0
 62
7
 10
5.134264068711934
 20
4.709999999999999
 30
0
 11
5.374264068711932
 21
4.949999999999998
 31
0
  0
LINE
  8
0
 62
7
 10
5.346396103067898
 20
4.709999999999999
 30
0
 11
5.586396103067896
 21
4.949999999999998
 31
0
  0
LINE
  8
0
 62
7
 10
5.558528137423862
 20
4.709999999999999
 30
0
 11
5.79852813742386
 21
4.949999999999998
 31
0
  0
LINE
  8
0
 62
7
 10
5.770660171779825
 20
4.709999999999999
 30
0
 11
6.010660171779824
 21
4.949999999999998
 31
0
  0
LINE
  8
0
 62
7
 10
5.982792206135789
 20
4.709999999999999
 30
0
 11
6.222792206135788
 21
4.949999999999998
 31
0
  0
LINE
  8
0
 62
7
 10
6.194924240491753
 20
4.709999999999999
 30
0
 11
6.434924240491751
 21
4.949999999999998
 31
0
  0
LINE
  8
0
 62
7
 10
6.407056274847717
 20
4.709999999999999
 30
0
 11
6.647056274847715
 21
4.949999999999998
 31
0
  0
LINE
  8
0
 62
7
 10
6.619188309203681
 20
4.709999999999999
 30
0
 11
6.859188309203679
 21
4.949999999999998
 31
0
  0
LINE
  8
0
 62
7
 10
6.831320343559645
 20
4.709999999999999
 30
0
 11
7.071320343559643
 21
4.949999999999998
 31
0
  0
LINE
  8
0
 62
7
 10
7.043452377915608
 20
4.709999999999999
 30
0
 11
7.283452377915607
 21
4.949999999999998
 31
0
  0
LINE
  8
0
 62
7
 10
7.255584412271572
 20
4.709999999999999
 30
0
 11
7.495584412271571
 21
4.949999999999998
 31
0
  0
LINE
  8
0
 62
7
 10
7.467716446627536
 20
4.709999999999999
 30
0
 11
7.600000000000006
 21
4.84228355337247
 31
0
  0
ENDBLK
  8
0
  0
BLOCK
  8
0
  2
*D0
 70
1
 10
0
 20
0
 30
0
  0
LINE
  8
0
 62
7
 10
5.929467880724261
 20
11.4763926888491
 30
0
 11
7.460000000000006
 21
11.4763926888491
 31
0
  0
LINE
  8
0
 62
7
 10
3.700000000000005
 20
11.4763926888491
 30
0
 11
5.154467880724261
 21
11.4763926888491
 31
0
  0
LINE
  8
0
 62
7
 10
7.460000000000006
 20
11.05
 30
0
 11
7.460000000000006
 21
11.5263926888491
 31
0
  0
LINE
  8
0
 62
7
 10
3.700000000000005
 20
11.05
 30
0
 11
3.700000000000005
 21
11.5263926888491
 31
0
  0
LINE
  8
0
 62
7
 10
7.424644660940679
 20
11.44103734978977
 30
0
 11
7.495355339059333
 21
11.51174802790843
 31
0
  0
LINE
  8
0
 62
7
 10
3.735355339059332
 20
11.51174802790843
 30
0
 11
3.664644660940678
 21
11.44103734978977
 31
0
  0
TEXT
  8
0
 62
7
 10
5.404467880724261
 20
11.4313926888491
 30
0
 40
0.1
  1
3,76
 41
0.9
  0
ENDBLK
  8
0
  0
BLOCK
  8
0
  2
*D1
 70
1
 10
0
 20
0
 30
0
  0
LINE
  8
0
 62
7
 10
5.951919968339961
 20
5.31329463833983
 30
0
 11
7.460000000000006
 21
5.31329463833983
 31
0
  0
LINE
  8
0
 62
7
 10
3.700000000000005
 20
5.31329463833983
 30
0
 11
5.176919968339961
 21
5.31329463833983
 31
0
  0
LINE
  8
0
 62
7
 10
7.460000000000006
 20
4.430000000000001
 30
0
 11
7.460000000000006
 21
5.36329463833983
 31
0
  0
LINE
  8
0
 62
7
 10
3.700000000000005
 20
4.430000000000001
 30
0
 11
3.700000000000005
 21
5.36329463833983
 31
0
  0
LINE
  8
0
 62
7
 10
7.424644660940679
 20
5.277939299280503
 30
0
 11
7.495355339059333
 21
5.348649977399157
 31
0
  0
LINE
  8
0
 62
7
 10
3.735355339059332
 20
5.348649977399157
 30
0
 11
3.664644660940678
 21
5.277939299280503
 31
0
  0
TEXT
  8
0
 62
7
 10
5.426919968339961
 20
5.26829463833983
 30
0
 40
0.1
  1
3,76
 41
0.9
  0
ENDBLK
  8
0
  0
BLOCK
  8
0
  2
*D2
 70
1
 10
0
 20
0
 30
0
  0
LINE
  8
0
 62
7
 10
7.78796379746943
 20
4.25868230550704
 30
0
 11
7.78796379746943
 21
4.43
 31
0
  0
LINE
  8
0
 62
7
 10
7.78796379746943
 20
3.350000000000001
 30
0
 11
7.78796379746943
 21
3.51368230550704
 31
0
  0
LINE
  8
0
 62
7
 10
7.460000000000005
 20
4.43
 30
0
 11
7.837963797469429
 21
4.43
 31
0
  0
LINE
  8
0
 62
7
 10
7.460000000000005
 20
3.350000000000001
 30
0
 11
7.837963797469429
 21
3.350000000000001
 31
0
  0
LINE
  8
0
 62
7
 10
7.823319136528757
 20
4.394644660940672
 30
0
 11
7.752608458410102
 21
4.465355339059327
 31
0
  0
LINE
  8
0
 62
7
 10
7.752608458410102
 20
3.385355339059328
 30
0
 11
7.823319136528757
 21
3.314644660940673
 31
0
  0
TEXT
  8
0
 62
7
 10
7.83296379746943
 20
3.76368230550704
 30
0
 40
0.1
  1
1,08
 50
90
 41
0.9
  0
ENDBLK
  8
0
  0
BLOCK
  8
0
  2
*D3
 70
1
 10
0
 20
0
 30
0
  0
LINE
  8
0
 62
7
 10
3.195724724883771
 20
4.20018289951157
 30
0
 11
3.195724724883771
 21
4.430000000000001
 31
0
  0
LINE
  8
0
 62
7
 10
3.195724724883771
 20
3.250000000000001
 30
0
 11
3.195724724883771
 21
3.48518289951157
 31
0
  0
LINE
  8
0
 62
7
 10
3.700000000000006
 20
4.430000000000001
 30
0
 11
3.145724724883771
 21
4.430000000000001
 31
0
  0
LINE
  8
0
 62
7
 10
3.700000000000006
 20
3.250000000000001
 30
0
 11
3.145724724883771
 21
3.250000000000001
 31
0
  0
LINE
  8
0
 62
7
 10
3.231080063943098
 20
4.394644660940673
 30
0
 11
3.160369385824444
 21
4.465355339059328
 31
0
  0
LINE
  8
0
 62
7
 10
3.160369385824444
 20
3.285355339059328
 30
0
 11
3.231080063943098
 21
3.214644660940674
 31
0
  0
TEXT
  8
0
 62
7
 10
3.240724724883771
 20
3.73518289951157
 30
0
 40
0.1
  1
1,18
 50
90
 41
0.9
  0
ENDBLK
  8
0
  0
BLOCK
  8
0
  2
*D4
 70
1
 10
0
 20
0
 30
0
  0
LINE
  8
0
 62
7
 10
8.135184000337439
 20
10.32126007386384
 30
0
 11
8.135184000337439
 21
11.05
 31
0
  0
LINE
  8
0
 62
7
 10
8.135184000337439
 20
8.299999999999997
 30
0
 11
8.135184000337439
 21
9.24126007386384
 31
0
  0
LINE
  8
0
 62
7
 10
7.600000000000004
 20
11.05
 30
0
 11
8.18518400033744
 21
11.05
 31
0
  0
LINE
  8
0
 62
7
 10
7.600000000000004
 20
8.299999999999997
 30
0
 11
8.18518400033744
 21
8.299999999999997
 31
0
  0
LINE
  8
0
 62
7
 10
8.099828661278112
 20
8.335355339059324
 30
0
 11
8.170539339396766
 21
8.26464466094067
 31
0
  0
LINE
  8
0
 62
7
 10
8.170539339396766
 20
11.01464466094067
 30
0
 11
8.099828661278112
 21
11.08535533905933
 31
0
  0
TEXT
  8
0
 62
7
 10
8.10518400033744
 20
9.643760073863842
 30
0
 40
0.1
  1
2,75
 50
90
 41
0.9
  0
TEXT
  8
0
 62
7
 10
8.26518400033744
 20
9.441260073863841
 30
0
 40
0.1
  1
(260-280)
 50
90
 41
0.9
  0
ENDBLK
  8
0
  0
ENDSEC
  0
SECTION
  2
ENTITIES
  0
INSERT
  8
0
  2
*X0
 10
0
 20
0
 30
0
  0
INSERT
  8
0
  2
*X1
 10
0
 20
0
 30
0
  0
INSERT
  8
0
  2
*X2
 10
0
 20
0
 30
0
  0
INSERT
  8
0
  2
*X3
 10
0
 20
0
 30
0
  0
INSERT
  8
0
  2
*X4
 10
0
 20
0
 30
0
  0
INSERT
  8
0
  2
*X5
 10
0
 20
0
 30
0
  0
INSERT
  8
0
  2
*X6
 10
0
 20
0
 30
0
  0
INSERT
  8
0
  2
*X7
 10
0
 20
0
 30
0
  0
INSERT
  8
0
  2
*X8
 10
0
 20
0
 30
0
  0
INSERT
  8
0
  2
*X9
 10
0
 20
0
 30
0
  0
INSERT
  8
0
  2
*X10
 10
0
 20
0
 30
0
  0
INSERT
  8
0
  2
*X11
 10
0
 20
0
 30
0
  0
INSERT
  8
0
  2
*X12
 10
0
 20
0
 30
0
  0
INSERT
  8
0
  2
*X13
 10
0
 20
0
 30
0
  0
LINE
  8
0
 62
7
 10
4.773570792015533
 20
3.425000000000001
 30
0
 11
4.993683022844864
 21
3.425000000000001
 31
0
  0
LINE
  8
0
 62
7
 10
4.705000000000005
 20
3.383404998152006
 30
0
 11
4.773570792015533
 21
3.425000000000001
 31
0
  0
LINE
  8
0
 62
7
 10
4.705000000000005
 20
3.250000000000003
 30
0
 11
4.705000000000005
 21
3.383404998152006
 31
0
  0
LINE
  8
0
 62
7
 10
3.755000000000006
 20
3.250000000000003
 30
0
 11
4.705000000000005
 21
3.250000000000003
 31
0
  0
LINE
  8
0
 62
7
 10
3.755000000000006
 20
3.759001562347941
 30
0
 11
3.755000000000006
 21
3.250000000000003
 31
0
  0
LINE
  8
0
 62
7
 10
3.755000000000006
 20
3.664241322575231
 30
0
 11
4.670598646709225
 21
3.362537157608772
 31
0
  0
LINE
  8
0
 62
7
 10
4.670598646709225
 20
3.362537157608772
 30
0
 11
4.705000000000005
 21
3.383404998152006
 31
0
  0
LINE
  8
0
 62
7
 10
3.755000000000006
 20
4.285082676167751
 30
0
 11
3.755000000000006
 21
3.664241322575231
 31
0
  0
LINE
  8
0
 62
7
 10
3.755000000000006
 20
4.173182486756992
 30
0
 11
4.767646226951704
 21
3.425000000000001
 31
0
  0
LINE
  8
0
 62
7
 10
4.767646226951704
 20
3.425000000000001
 30
0
 11
4.773570792015533
 21
3.425000000000001
 31
0
  0
LINE
  8
0
 62
7
 10
4.314156145965415
 20
4.375
 30
0
 11
3.755000000000006
 21
4.375
 31
0
  0
LINE
  8
0
 62
7
 10
3.755000000000006
 20
4.375
 30
0
 11
3.755000000000006
 21
4.173182486756992
 31
0
  0
LINE
  8
0
 62
7
 10
4.203502185142415
 20
4.375
 30
0
 11
4.883029062021857
 21
3.425000000000001
 31
0
  0
LINE
  8
0
 62
7
 10
4.883029062021857
 20
3.425000000000001
 30
0
 11
5.102888102268434
 21
3.425000000000001
 31
0
  0
LINE
  8
0
 62
7
 10
4.721786342064266
 20
4.375
 30
0
 11
4.203502185142415
 21
4.375
 31
0
  0
LINE
  8
0
 62
7
 10
4.624814562360284
 20
4.375
 30
0
 11
5.005916322564456
 21
3.425000000000001
 31
0
  0
LINE
  8
0
 62
7
 10
5.005916322564456
 20
3.425000000000001
 30
0
 11
5.217719334571406
 21
3.425000000000001
 31
0
  0
LINE
  8
0
 62
7
 10
5.106353870132605
 20
4.375
 30
0
 11
4.624814562360284
 21
4.375
 31
0
  0
LINE
  8
0
 62
7
 10
5.015737584608186
 20
4.375
 30
0
 11
5.127103049046986
 21
3.425000000000001
 31
0
  0
LINE
  8
0
 62
7
 10
5.127103049046986
 20
3.425000000000001
 30
0
 11
5.419791500997145
 21
3.425000000000001
 31
0
  0
LINE
  8
0
 62
7
 10
5.419791500997145
 20
4.375
 30
0
 11
5.015737584608186
 21
4.375
 31
0
  0
LINE
  8
0
 62
7
 10
5.329791500997145
 20
4.375
 30
0
 11
5.329791500997145
 21
3.425000000000001
 31
0
  0
LINE
  8
0
 62
7
 10
5.329791500997145
 20
3.425000000000001
 30
0
 11
5.679791500997145
 21
3.425000000000001
 31
0
  0
LINE
  8
0
 62
7
 10
5.679791500997145
 20
4.375
 30
0
 11
5.329791500997145
 21
4.375
 31
0
  0
LINE
  8
0
 62
7
 10
5.589791500997145
 20
4.375
 30
0
 11
5.589791500997145
 21
3.425000000000001
 31
0
  0
LINE
  8
0
 62
7
 10
5.589791500997145
 20
3.425000000000001
 30
0
 11
5.939791500997146
 21
3.425000000000001
 31
0
  0
LINE
  8
0
 62
7
 10
5.939791500997146
 20
4.375
 30
0
 11
5.589791500997145
 21
4.375
 31
0
  0
LINE
  8
0
 62
7
 10
5.849791500997146
 20
4.375
 30
0
 11
5.849791500997146
 21
3.425000000000001
 31
0
  0
LINE
  8
0
 62
7
 10
5.849791500997146
 20
3.425000000000001
 30
0
 11
6.199791500997145
 21
3.425000000000001
 31
0
  0
LINE
  8
0
 62
7
 10
6.199791500997145
 20
4.375
 30
0
 11
5.849791500997146
 21
4.375
 31
0
  0
LINE
  8
0
 62
7
 10
6.109791500997146
 20
4.375
 30
0
 11
6.109791500997146
 21
3.425000000000001
 31
0
  0
LINE
  8
0
 62
7
 10
6.109791500997146
 20
3.425000000000001
 30
0
 11
6.459791500997145
 21
3.425000000000001
 31
0
  0
LINE
  8
0
 62
7
 10
6.459791500997145
 20
4.375
 30
0
 11
6.109791500997146
 21
4.375
 31
0
  0
LINE
  8
0
 62
7
 10
6.369791500997145
 20
4.375
 30
0
 11
6.369791500997145
 21
3.425000000000001
 31
0
  0
LINE
  8
0
 62
7
 10
6.369791500997145
 20
3.425000000000001
 30
0
 11
6.719791500997146
 21
3.425000000000001
 31
0
  0
LINE
  8
0
 62
7
 10
6.719791500997146
 20
4.375
 30
0
 11
6.369791500997145
 21
4.375
 31
0
  0
LINE
  8
0
 62
7
 10
6.629791500997145
 20
4.375
 30
0
 11
6.629791500997145
 21
3.425000000000001
 31
0
  0
LINE
  8
0
 62
7
 10
6.629791500997145
 20
3.425000000000001
 30
0
 11
6.979791500997145
 21
3.425000000000001
 31
0
  0
LINE
  8
0
 62
7
 10
6.979791500997145
 20
4.375
 30
0
 11
6.629791500997145
 21
4.375
 31
0
  0
LINE
  8
0
 62
7
 10
6.889791500997146
 20
4.375
 30
0
 11
6.889791500997146
 21
3.425000000000001
 31
0
  0
LINE
  8
0
 62
7
 10
6.889791500997146
 20
3.425000000000001
 30
0
 11
7.239791500997146
 21
3.425000000000001
 31
0
  0
LINE
  8
0
 62
7
 10
7.239791500997146
 20
4.375
 30
0
 11
6.889791500997146
 21
4.375
 31
0
  0
LINE
  8
0
 62
7
 10
7.149791500997146
 20
4.375
 30
0
 11
7.149791500997146
 21
3.425000000000001
 31
0
  0
LINE
  8
0
 62
7
 10
7.149791500997146
 20
3.425000000000001
 30
0
 11
7.420000000000005
 21
3.425000000000001
 31
0
  0
LINE
  8
0
 62
7
 10
7.420000000000005
 20
4.375
 30
0
 11
7.149791500997146
 21
4.375
 31
0
  0
LINE
  8
0
 62
7
 10
4.216105431816617
 20
3.250000000000003
 30
0
 11
4.216105431816617
 21
3.425000000016201
 31
0
  0
LINE
  8
0
 62
7
 10
7.410000000000005
 20
3.913894568183391
 30
0
 11
7.349000000000006
 21
3.808239468921691
 31
0
  0
LINE
  8
0
 62
7
 10
7.349000000000006
 20
3.808239468921691
 30
0
 11
7.349000000000006
 21
4.019549667445093
 31
0
  0
LINE
  8
0
 62
7
 10
7.349000000000006
 20
4.019549667445093
 30
0
 11
7.410000000000005
 21
3.913894568183391
 31
0
  0
LINE
  8
0
 62
7
 10
4.705000000009296
 20
3.913894568183391
 30
0
 11
7.410000000000005
 21
3.913894568183391
 31
0
  0
LINE
  8
0
 62
7
 10
3.754999970000015
 20
8.583333226666666
 30
0
 11
4.705000040000015
 21
8.583333226666666
 31
0
  0
LINE
  8
0
 62
7
 10
3.754999970000015
 20
8.518333226666666
 30
0
 11
3.754999970000015
 21
8.583333226666666
 31
0
  0
LINE
  8
0
 62
7
 10
4.705000040000015
 20
8.583333226666666
 30
0
 11
4.705000040000015
 21
8.518333226666666
 31
0
  0
LINE
  8
0
 62
7
 10
4.705000040000015
 20
8.518333226666666
 30
0
 11
3.754999970000015
 21
8.518333226666666
 31
0
  0
LINE
  8
0
 62
7
 10
3.755000000000014
 20
8.766666566666665
 30
0
 11
4.853487360000016
 21
8.766666566666665
 31
0
  0
LINE
  8
0
 62
7
 10
4.853487360000016
 20
8.701666566666665
 30
0
 11
3.755000000000014
 21
8.701666566666665
 31
0
  0
LINE
  8
0
 62
7
 10
3.755000000000014
 20
8.701666566666665
 30
0
 11
3.755000000000014
 21
8.766666566666665
 31
0
  0
LINE
  8
0
 62
7
 10
4.853487360000016
 20
8.766666566666665
 30
0
 11
4.853487360000016
 21
8.701666566666665
 31
0
  0
LINE
  8
0
 62
7
 10
4.993682900000015
 20
8.884999906666664
 30
0
 11
3.754999980000015
 21
8.884999906666664
 31
0
  0
LINE
  8
0
 62
7
 10
3.754999980000015
 20
8.949999906666665
 30
0
 11
4.993682900000015
 21
8.949999906666665
 31
0
  0
LINE
  8
0
 62
7
 10
3.754999980000015
 20
8.884999906666664
 30
0
 11
3.754999980000015
 21
8.949999906666665
 31
0
  0
LINE
  8
0
 62
7
 10
4.993682900000015
 20
8.949999906666665
 30
0
 11
4.993682900000015
 21
8.884999906666664
 31
0
  0
LINE
  8
0
 62
7
 10
5.102888070000017
 20
9.068333226666665
 30
0
 11
4.203502090000015
 21
9.068333226666665
 31
0
  0
LINE
  8
0
 62
7
 10
4.203502090000015
 20
9.133333226666666
 30
0
 11
5.102888070000017
 21
9.133333226666666
 31
0
  0
LINE
  8
0
 62
7
 10
4.203502090000015
 20
9.068333226666665
 30
0
 11
4.203502090000015
 21
9.133333226666666
 31
0
  0
LINE
  8
0
 62
7
 10
5.102888070000017
 20
9.133333226666666
 30
0
 11
5.102888070000017
 21
9.068333226666665
 31
0
  0
LINE
  8
0
 62
7
 10
5.217719460000016
 20
9.251666586666667
 30
0
 11
4.624814500000016
 21
9.251666586666667
 31
0
  0
LINE
  8
0
 62
7
 10
4.624814500000016
 20
9.316666586666667
 30
0
 11
5.217719460000016
 21
9.316666586666667
 31
0
  0
LINE
  8
0
 62
7
 10
4.624814500000016
 20
9.251666586666667
 30
0
 11
4.624814500000016
 21
9.316666586666667
 31
0
  0
LINE
  8
0
 62
7
 10
5.217719460000016
 20
9.316666586666667
 30
0
 11
5.217719460000016
 21
9.251666586666667
 31
0
  0
LINE
  8
0
 62
7
 10
5.015737500000015
 20
9.499999946666664
 30
0
 11
5.419791460000017
 21
9.499999946666664
 31
0
  0
LINE
  8
0
 62
7
 10
5.419791460000017
 20
9.434999946666663
 30
0
 11
5.015737500000015
 21
9.434999946666663
 31
0
  0
LINE
  8
0
 62
7
 10
5.015737500000015
 20
9.434999946666663
 30
0
 11
5.015737500000015
 21
9.499999946666664
 31
0
  0
LINE
  8
0
 62
7
 10
5.419791460000017
 20
9.499999946666664
 30
0
 11
5.419791460000017
 21
9.434999946666663
 31
0
  0
LINE
  8
0
 62
7
 10
5.329791460000017
 20
9.683333226666665
 30
0
 11
5.679791610000017
 21
9.683333226666665
 31
0
  0
LINE
  8
0
 62
7
 10
5.329791460000017
 20
9.618333226666664
 30
0
 11
5.329791460000017
 21
9.683333226666665
 31
0
  0
LINE
  8
0
 62
7
 10
5.679791610000017
 20
9.683333226666665
 30
0
 11
5.679791610000017
 21
9.618333226666664
 31
0
  0
LINE
  8
0
 62
7
 10
5.679791610000017
 20
9.618333226666664
 30
0
 11
5.329791460000017
 21
9.618333226666664
 31
0
  0
LINE
  8
0
 62
7
 10
5.589791610000017
 20
9.801666666666666
 30
0
 11
5.589791610000017
 21
9.866666666666665
 31
0
  0
LINE
  8
0
 62
7
 10
5.589791610000017
 20
9.866666666666665
 30
0
 11
5.939791610000016
 21
9.866666666666665
 31
0
  0
LINE
  8
0
 62
7
 10
5.939791610000016
 20
9.866666666666665
 30
0
 11
5.939791610000016
 21
9.801666666666666
 31
0
  0
LINE
  8
0
 62
7
 10
5.939791610000016
 20
9.801666666666666
 30
0
 11
5.589791610000017
 21
9.801666666666666
 31
0
  0
LINE
  8
0
 62
7
 10
5.849791610000016
 20
9.984999946666663
 30
0
 11
5.849791610000016
 21
10.04999994666666
 31
0
  0
LINE
  8
0
 62
7
 10
5.849791610000016
 20
10.04999994666666
 30
0
 11
6.199791760000015
 21
10.04999994666666
 31
0
  0
LINE
  8
0
 62
7
 10
6.199791760000015
 20
10.04999994666666
 30
0
 11
6.199791760000015
 21
9.984999946666663
 31
0
  0
LINE
  8
0
 62
7
 10
6.199791760000015
 20
9.984999946666663
 30
0
 11
5.849791610000016
 21
9.984999946666663
 31
0
  0
LINE
  8
0
 62
7
 10
6.109791460000016
 20
10.23333322666666
 30
0
 11
6.459791460000017
 21
10.23333322666666
 31
0
  0
LINE
  8
0
 62
7
 10
6.109791460000016
 20
10.16833322666666
 30
0
 11
6.109791460000016
 21
10.23333322666666
 31
0
  0
LINE
  8
0
 62
7
 10
6.459791460000017
 20
10.23333322666666
 30
0
 11
6.459791460000017
 21
10.16833322666666
 31
0
  0
LINE
  8
0
 62
7
 10
6.459791460000017
 20
10.16833322666666
 30
0
 11
6.109791460000016
 21
10.16833322666666
 31
0
  0
LINE
  8
0
 62
7
 10
6.369791460000016
 20
10.35166666666667
 30
0
 11
6.369791460000016
 21
10.41666666666667
 31
0
  0
LINE
  8
0
 62
7
 10
6.369791460000016
 20
10.41666666666667
 30
0
 11
6.719791460000017
 21
10.41666666666667
 31
0
  0
LINE
  8
0
 62
7
 10
6.719791460000017
 20
10.41666666666667
 30
0
 11
6.719791460000017
 21
10.35166666666667
 31
0
  0
LINE
  8
0
 62
7
 10
6.719791460000017
 20
10.35166666666667
 30
0
 11
6.369791460000016
 21
10.35166666666667
 31
0
  0
LINE
  8
0
 62
7
 10
6.629791150000014
 20
10.59999994666666
 30
0
 11
6.979791460000015
 21
10.59999994666666
 31
0
  0
LINE
  8
0
 62
7
 10
6.629791150000014
 20
10.53499994666666
 30
0
 11
6.629791150000014
 21
10.59999994666666
 31
0
  0
LINE
  8
0
 62
7
 10
6.979791460000015
 20
10.59999994666666
 30
0
 11
6.979791460000015
 21
10.53499994666666
 31
0
  0
LINE
  8
0
 62
7
 10
6.979791460000015
 20
10.53499994666666
 30
0
 11
6.629791150000014
 21
10.53499994666666
 31
0
  0
LINE
  8
0
 62
7
 10
6.889791460000017
 20
10.71833322666666
 30
0
 11
6.889791460000017
 21
10.78333322666666
 31
0
  0
LINE
  8
0
 62
7
 10
6.889791460000017
 20
10.78333322666666
 30
0
 11
7.239791460000017
 21
10.78333322666666
 31
0
  0
LINE
  8
0
 62
7
 10
7.239791460000017
 20
10.78333322666666
 30
0
 11
7.239791460000017
 21
10.71833322666666
 31
0
  0
LINE
  8
0
 62
7
 10
7.239791460000017
 20
10.71833322666666
 30
0
 11
6.889791460000017
 21
10.71833322666666
 31
0
  0
LINE
  8
0
 62
7
  6
DASHED
 10
7.149791460000016
 20
10.96666666666667
 30
0
 11
7.420000200000017
 21
10.96666666666667
 31
0
  0
LINE
  8
0
 62
7
  6
DASHED
 10
7.149791460000016
 20
10.90166666666667
 30
0
 11
7.149791460000016
 21
10.96666666666667
 31
0
  0
LINE
  8
0
 62
7
  6
DASHED
 10
7.420000200000017
 20
10.96666666666667
 30
0
 11
7.420000200000017
 21
10.90166666666667
 31
0
  0
LINE
  8
0
 62
7
  6
DASHED
 10
7.420000200000017
 20
10.90166666666667
 30
0
 11
7.149791460000016
 21
10.90166666666667
 31
0
  0
LINE
  8
0
 62
7
 10
1.410998990000001
 20
8.583333226666666
 30
0
 11
1.920000470000002
 21
8.583333226666666
 31
0
  0
LINE
  8
0
 62
7
 10
1.920000470000002
 20
8.518333226666666
 30
0
 11
1.410998990000001
 21
8.518333226666666
 31
0
  0
LINE
  8
0
 62
7
 10
1.920000470000002
 20
8.583333226666666
 30
0
 11
1.920000470000002
 21
8.518333226666666
 31
0
  0
LINE
  8
0
 62
7
 10
1.410998990000001
 20
8.518333226666666
 30
0
 11
1.410998990000001
 21
8.583333226666666
 31
0
  0
LINE
  8
0
 62
7
 10
1.807463260000002
 20
8.701666566666665
 30
0
 11
0.8849176800000015
 21
8.701666566666665
 31
0
  0
LINE
  8
0
 62
7
 10
0.8849176800000015
 20
8.766666566666665
 30
0
 11
1.807463260000002
 21
8.766666566666665
 31
0
  0
LINE
  8
0
 62
7
 10
1.807463260000002
 20
8.766666566666665
 30
0
 11
1.807463260000002
 21
8.701666566666665
 31
0
  0
LINE
  8
0
 62
7
 10
0.8849176800000015
 20
8.701666566666665
 30
0
 11
0.8849176800000015
 21
8.766666566666665
 31
0
  0
LINE
  8
0
 62
7
 10
0.7950004500000023
 20
8.949999906666665
 30
0
 11
1.745000720000003
 21
8.949999906666665
 31
0
  0
LINE
  8
0
 62
7
 10
1.745000720000003
 20
8.884999906666664
 30
0
 11
0.7950004500000023
 21
8.884999906666664
 31
0
  0
LINE
  8
0
 62
7
 10
1.745000720000003
 20
8.949999906666665
 30
0
 11
1.745000720000003
 21
8.884999906666664
 31
0
  0
LINE
  8
0
 62
7
 10
0.7950004500000023
 20
8.884999906666664
 30
0
 11
0.7950004500000023
 21
8.949999906666665
 31
0
  0
LINE
  8
0
 62
7
 10
0.7950003000000025
 20
9.133333226666666
 30
0
 11
1.745000340000001
 21
9.133333226666666
 31
0
  0
LINE
  8
0
 62
7
 10
1.745000340000001
 20
9.133333226666666
 30
0
 11
1.745000340000001
 21
9.068333226666665
 31
0
  0
LINE
  8
0
 62
7
 10
0.7950003000000025
 20
9.068333226666665
 30
0
 11
0.7950003000000025
 21
9.133333226666666
 31
0
  0
LINE
  8
0
 62
7
 10
1.745000340000001
 20
9.068333226666665
 30
0
 11
0.7950003000000025
 21
9.068333226666665
 31
0
  0
LINE
  8
0
 62
7
 10
0.795000610000002
 20
9.316666586666667
 30
0
 11
1.745000570000001
 21
9.316666586666667
 31
0
  0
LINE
  8
0
 62
7
 10
1.745000570000001
 20
9.316666586666667
 30
0
 11
1.745000570000001
 21
9.251666586666667
 31
0
  0
LINE
  8
0
 62
7
 10
0.795000610000002
 20
9.251666586666667
 30
0
 11
0.795000610000002
 21
9.316666586666667
 31
0
  0
LINE
  8
0
 62
7
 10
1.745000570000001
 20
9.251666586666667
 30
0
 11
0.795000610000002
 21
9.251666586666667
 31
0
  0
LINE
  8
0
 62
7
 10
0.7950003000000025
 20
9.499999946666668
 30
0
 11
1.745000720000003
 21
9.499999946666668
 31
0
  0
LINE
  8
0
 62
7
 10
1.745000720000003
 20
9.499999946666668
 30
0
 11
1.745000720000003
 21
9.434999946666668
 31
0
  0
LINE
  8
0
 62
7
 10
0.7950003000000025
 20
9.434999946666668
 30
0
 11
0.7950003000000025
 21
9.499999946666668
 31
0
  0
LINE
  8
0
 62
7
 10
1.745000720000003
 20
9.434999946666668
 30
0
 11
0.7950003000000025
 21
9.434999946666668
 31
0
  0
LINE
  8
0
 62
7
 10
0.7950004500000023
 20
9.683333226666667
 30
0
 11
1.74500068
 21
9.683333226666667
 31
0
  0
LINE
  8
0
 62
7
 10
1.74500068
 20
9.683333226666667
 30
0
 11
1.74500068
 21
9.618333226666666
 31
0
  0
LINE
  8
0
 62
7
 10
0.7950004500000023
 20
9.618333226666666
 30
0
 11
0.7950004500000023
 21
9.683333226666667
 31
0
  0
LINE
  8
0
 62
7
 10
1.74500068
 20
9.618333226666666
 30
0
 11
0.7950004500000023
 21
9.618333226666666
 31
0
  0
LINE
  8
0
 62
7
 10
0.7950004500000023
 20
9.866666666666667
 30
0
 11
1.745000610000002
 21
9.866666666666667
 31
0
  0
LINE
  8
0
 62
7
 10
1.745000610000002
 20
9.866666666666667
 30
0
 11
1.745000610000002
 21
9.801666666666668
 31
0
  0
LINE
  8
0
 62
7
 10
0.7950004500000023
 20
9.801666666666668
 30
0
 11
0.7950004500000023
 21
9.866666666666667
 31
0
  0
LINE
  8
0
 62
7
 10
1.745000610000002
 20
9.801666666666668
 30
0
 11
0.7950004500000023
 21
9.801666666666668
 31
0
  0
LINE
  8
0
 62
7
 10
0.795000610000002
 20
10.04999994666667
 30
0
 11
1.745000300000003
 21
10.04999994666667
 31
0
  0
LINE
  8
0
 62
7
 10
1.745000300000003
 20
10.04999994666667
 30
0
 11
1.745000300000003
 21
9.984999946666669
 31
0
  0
LINE
  8
0
 62
7
 10
0.795000610000002
 20
9.984999946666669
 30
0
 11
0.795000610000002
 21
10.04999994666667
 31
0
  0
LINE
  8
0
 62
7
 10
1.745000300000003
 20
9.984999946666669
 30
0
 11
0.795000610000002
 21
9.984999946666669
 31
0
  0
LINE
  8
0
 62
7
 10
0.7950001500000026
 20
10.23333322666667
 30
0
 11
1.745000840000002
 21
10.23333322666667
 31
0
  0
LINE
  8
0
 62
7
 10
1.745000840000002
 20
10.23333322666667
 30
0
 11
1.745000840000002
 21
10.16833322666667
 31
0
  0
LINE
  8
0
 62
7
 10
0.7950001500000026
 20
10.16833322666667
 30
0
 11
0.7950001500000026
 21
10.23333322666667
 31
0
  0
LINE
  8
0
 62
7
 10
1.745000840000002
 20
10.16833322666667
 30
0
 11
0.7950001500000026
 21
10.16833322666667
 31
0
  0
LINE
  8
0
 62
7
 10
0.7950004500000023
 20
10.41666666666667
 30
0
 11
1.7450024
 21
10.41666666666667
 31
0
  0
LINE
  8
0
 62
7
 10
1.7450024
 20
10.41666666666667
 30
0
 11
1.7450024
 21
10.35166666666667
 31
0
  0
LINE
  8
0
 62
7
 10
0.7950004500000023
 20
10.35166666666667
 30
0
 11
0.7950004500000023
 21
10.41666666666667
 31
0
  0
LINE
  8
0
 62
7
 10
1.7450024
 20
10.35166666666667
 30
0
 11
0.7950004500000023
 21
10.35166666666667
 31
0
  0
LINE
  8
0
 62
7
 10
0.7950003000000025
 20
10.59999994666666
 30
0
 11
1.745001940000003
 21
10.59999994666666
 31
0
  0
LINE
  8
0
 62
7
 10
1.745001940000003
 20
10.59999994666666
 30
0
 11
1.745001940000003
 21
10.53499994666666
 31
0
  0
LINE
  8
0
 62
7
 10
0.7950003000000025
 20
10.53499994666666
 30
0
 11
0.7950003000000025
 21
10.59999994666666
 31
0
  0
LINE
  8
0
 62
7
 10
1.745001940000003
 20
10.53499994666666
 30
0
 11
0.7950003000000025
 21
10.53499994666666
 31
0
  0
LINE
  8
0
 62
7
 10
0.7950004500000023
 20
10.78333322666667
 30
0
 11
1.744999840000002
 21
10.78333322666667
 31
0
  0
LINE
  8
0
 62
7
 10
1.744999840000002
 20
10.78333322666667
 30
0
 11
1.744999840000002
 21
10.71833322666667
 31
0
  0
LINE
  8
0
 62
7
 10
0.7950004500000023
 20
10.71833322666667
 30
0
 11
0.7950004500000023
 21
10.78333322666667
 31
0
  0
LINE
  8
0
 62
7
 10
1.744999840000002
 20
10.71833322666667
 30
0
 11
0.7950004500000023
 21
10.71833322666667
 31
0
  0
LINE
  8
0
 62
7
 10
0.7950000000000012
 20
10.96666666666667
 30
0
 11
1.745002250000002
 21
10.96666666666667
 31
0
  0
LINE
  8
0
 62
7
 10
1.745002250000002
 20
10.96666666666667
 30
0
 11
1.745002250000002
 21
10.90166666666667
 31
0
  0
LINE
  8
0
 62
7
 10
0.7950000000000012
 20
10.90166666666667
 30
0
 11
0.7950000000000012
 21
10.96666666666667
 31
0
  0
LINE
  8
0
 62
7
 10
1.745002250000002
 20
10.90166666666667
 30
0
 11
0.7950000000000012
 21
10.90166666666667
 31
0
  0
LINE
  8
0
 62
7
 10
0.7400000000000011
 20
11.15
 30
0
 11
0.7400000000000011
 21
11.05
 31
0
  0
LINE
  8
0
 62
7
 10
1.820000000000001
 20
11.15
 30
0
 11
0.7400000000000011
 21
11.15
 31
0
  0
LINE
  8
0
 62
7
 10
7.460000000000005
 20
10.85
 30
0
 11
7.600000000000005
 21
10.85
 31
0
  0
LINE
  8
0
 62
7
 10
7.460000000000005
 20
11.05
 30
0
 11
7.460000000000005
 21
10.85
 31
0
  0
LINE
  8
0
 62
7
 10
3.700000000000005
 20
11.15
 30
0
 11
3.700000000000005
 21
11.05
 31
0
  0
LINE
  8
0
 62
7
 10
7.600000000000005
 20
11.15
 30
0
 11
3.700000000000005
 21
11.15
 31
0
  0
LINE
  8
0
 62
7
 10
7.460000000000005
 20
8.299999999999997
 30
0
 11
7.600000000000005
 21
8.299999999999997
 31
0
  0
LINE
  8
0
 62
7
 10
3.700000000000005
 20
8.399999999999997
 30
0
 11
3.700000000000005
 21
8.299999999999997
 31
0
  0
LINE
  8
0
 62
7
 10
3.700000000000005
 20
8.399999999999997
 30
0
 11
7.600000000000005
 21
8.399999999999997
 31
0
  0
LINE
  8
0
 62
7
  6
DASHDOT
 10
7.410000000000005
 20
3.350000000000001
 30
0
 11
3.699999999999995
 21
3.350000000000001
 31
0
  0
LINE
  8
0
 62
7
 10
7.410000000000005
 20
4.430000000000001
 30
0
 11
7.460000000000005
 21
4.430000000000001
 31
0
  0
LINE
  8
0
 62
7
 10
7.410000000000005
 20
4.430000000000001
 30
0
 11
7.410000000000005
 21
3.350000000000001
 31
0
  0
LINE
  8
0
 62
7
  6
DASHDOT
 10
7.600000000000005
 20
4.430000000000001
 30
0
 11
7.600000000000005
 21
4.380000000000001
 31
0
  0
LINE
  8
0
 62
7
 10
7.460000000000005
 20
4.430000000000001
 30
0
 11
7.600000000000005
 21
4.430000000000001
 31
0
  0
LINE
  8
0
 62
7
 10
3.525000000000005
 20
4.71
 30
0
 11
7.600000000000005
 21
4.71
 31
0
  0
LINE
  8
0
 62
7
 10
3.525000000000005
 20
5.099999999999998
 30
0
 11
3.525000000000005
 21
4.71
 31
0
  0
LINE
  8
0
 62
7
 10
3.525000000000005
 20
4.670000000000001
 30
0
 11
7.600000000000005
 21
4.670000000000001
 31
0
  0
LINE
  8
0
 62
7
  6
DASHDOT
 10
7.600000000000005
 20
4.670000000000001
 30
0
 11
7.600000000000005
 21
4.430000000000001
 31
0
  0
LINE
  8
0
 62
7
  6
DASHDOT
 10
7.600000000000005
 20
4.71
 30
0
 11
7.600000000000005
 21
4.670000000000001
 31
0
  0
LINE
  8
0
 62
7
  6
DASHDOT
 10
3.700000000000005
 20
5.099999999999998
 30
0
 11
3.750000000000005
 21
5.099999999999998
 31
0
  0
LINE
  8
0
 62
7
  6
DASHDOT
 10
3.525000000000005
 20
5.099999999999998
 30
0
 11
3.700000000000005
 21
5.099999999999998
 31
0
  0
LINE
  8
0
 62
7
  6
DASHDOT
 10
7.600000000000005
 20
4.949999999999998
 30
0
 11
7.600000000000005
 21
4.71
 31
0
  0
LINE
  8
0
 62
7
  6
DASHDOT
 10
7.600000000000005
 20
4.999999999999997
 30
0
 11
7.600000000000005
 21
4.949999999999998
 31
0
  0
LINE
  8
0
 62
7
  6
DASHDOT
 10
3.475000000000005
 20
5.099999999999998
 30
0
 11
3.525000000000005
 21
5.099999999999998
 31
0
  0
LINE
  8
0
 62
7
 10
3.699999999999995
 20
3.350000000000001
 30
0
 11
3.700000000000005
 21
4.430000000000001
 31
0
  0
LINE
  8
0
 62
7
  6
DASHDOT
 10
7.460000000000005
 20
3.350000000000001
 30
0
 11
7.410000000000005
 21
3.350000000000001
 31
0
  0
LINE
  8
0
 62
7
  6
DASHDOT
 10
7.460000000000005
 20
4.430000000000001
 30
0
 11
7.460000000000005
 21
3.350000000000001
 31
0
  0
LINE
  8
0
 62
7
 10
3.700000000000005
 20
4.430000000000001
 30
0
 11
7.410000000000005
 21
4.430000000000001
 31
0
  0
LINE
  8
0
 62
7
 10
3.525000000000005
 20
4.670000000000001
 30
0
 11
3.525000000000005
 21
3.250000000000001
 31
0
  0
LINE
  8
0
 62
7
 10
3.525000000000005
 20
3.250000000000001
 30
0
 11
3.700000000000005
 21
3.250000000000001
 31
0
  0
LINE
  8
0
 62
7
 10
3.700000000000005
 20
3.250000000000001
 30
0
 11
3.699999999999995
 21
3.350000000000001
 31
0
  0
LINE
  8
0
 62
7
 10
3.700000000000005
 20
4.949999999999998
 30
0
 11
7.600000000000005
 21
4.949999999999998
 31
0
  0
LINE
  8
0
 62
7
 10
3.700000000000005
 20
5.099999999999998
 30
0
 11
3.700000000000005
 21
4.949999999999998
 31
0
  0
LINE
  8
0
 62
7
  6
DASHED
 10
0.7400000000000001
 20
8.099999999999998
 30
0
 11
1.820000000000001
 21
8.099999999999998
 31
0
  0
LINE
  8
0
 62
7
  6
DASHED
 10
0.7400000000000011
 20
8.299999999999997
 30
0
 11
1.820000000000001
 21
8.299999999999997
 31
0
  0
LINE
  8
0
 62
7
  6
DASHED
 10
0.7400000000000011
 20
10.85
 30
0
 11
1.820000000000001
 21
10.85
 31
0
  0
LINE
  8
0
 62
7
  6
DASHED
 10
0.7400000000000011
 20
11.05
 30
0
 11
1.820000000000001
 21
11.05
 31
0
  0
LINE
  8
0
 62
7
  6
DASHDOT
 10
2.120000000000001
 20
11.05
 30
0
 11
2.120000000000001
 21
10.85
 31
0
  0
LINE
  8
0
 62
7
  6
DASHDOT
 10
2.120000000000001
 20
10.85
 30
0
 11
2.120000000000001
 21
10.8
 31
0
  0
LINE
  8
0
 62
7
  6
DASHDOT
 10
0.5
 20
11.2
 30
0
 11
0.7400000000000001
 21
11.2
 31
0
  0
LINE
  8
0
 62
7
  6
DASHDOT
 10
0.7400000000000001
 20
11.2
 30
0
 11
0.790000000000001
 21
11.2
 31
0
  0
LINE
  8
0
 62
7
  6
DASHDOT
 10
0.7400000000000011
 20
7.949999999999998
 30
0
 11
0.790000000000001
 21
7.949999999999998
 31
0
  0
LINE
  8
0
 62
7
  6
DASHDOT
 10
0.5000000000000009
 20
7.949999999999998
 30
0
 11
0.7400000000000011
 21
7.949999999999998
 31
0
  0
LINE
  8
0
 62
7
  6
DASHDOT
 10
2.120000000000001
 20
8.099999999999998
 30
0
 11
2.120000000000001
 21
8.299999999999997
 31
0
  0
LINE
  8
0
 62
7
  6
DASHDOT
 10
2.120000000000001
 20
8.299999999999997
 30
0
 11
2.120000000000001
 21
8.399999999999997
 31
0
  0
LINE
  8
0
 62
7
  6
DASHDOT
 10
2.120000000000001
 20
11.15
 30
0
 11
2.120000000000001
 21
11.05
 31
0
  0
LINE
  8
0
 62
7
 10
1.820000000000001
 20
11.15
 30
0
 11
2.120000000000001
 21
11.15
 31
0
  0
LINE
  8
0
 62
7
  6
DASHDOT
 10
2.120000000000001
 20
8.399999999999997
 30
0
 11
2.12
 21
8.449999999999998
 31
0
  0
LINE
  8
0
 62
7
 10
1.820000000000001
 20
8.399999999999997
 30
0
 11
2.120000000000001
 21
8.399999999999997
 31
0
  0
LINE
  8
0
 62
7
  6
DASHDOT
 10
0.4500000000000009
 20
7.949999999999998
 30
0
 11
0.5000000000000009
 21
7.949999999999998
 31
0
  0
LINE
  8
0
 62
7
  6
DASHDOT
 10
2.120000000000001
 20
8.049999999999997
 30
0
 11
2.120000000000001
 21
8.099999999999998
 31
0
  0
LINE
  8
0
 62
7
  6
DASHDOT
 10
2.12
 20
11.2
 30
0
 11
2.120000000000001
 21
11.15
 31
0
  0
LINE
  8
0
 62
7
  6
DASHDOT
 10
0.4500000000000009
 20
11.2
 30
0
 11
0.5
 21
11.2
 31
0
  0
LINE
  8
0
 62
7
 10
1.820000000000001
 20
8.099999999999998
 30
0
 11
2.120000000000001
 21
8.099999999999998
 31
0
  0
LINE
  8
0
 62
7
 10
1.820000000000001
 20
8.299999999999997
 30
0
 11
1.820000000000001
 21
8.099999999999998
 31
0
  0
LINE
  8
0
 62
7
 10
1.820000000000001
 20
8.299999999999997
 30
0
 11
2.120000000000001
 21
8.299999999999997
 31
0
  0
LINE
  8
0
 62
7
 10
1.820000000000001
 20
11.05
 30
0
 11
2.120000000000001
 21
11.05
 31
0
  0
LINE
  8
0
 62
7
 10
1.820000000000001
 20
10.85
 30
0
 11
2.120000000000001
 21
10.85
 31
0
  0
LINE
  8
0
 62
7
 10
1.820000000000001
 20
11.05
 30
0
 11
1.820000000000001
 21
10.85
 31
0
  0
LINE
  8
0
 62
7
 10
0.7400000000000001
 20
8.099999999999998
 30
0
 11
0.7400000000000011
 21
7.949999999999998
 31
0
  0
LINE
  8
0
 62
7
 10
0.5
 20
8.099999999999998
 30
0
 11
0.5000000000000009
 21
8.299999999999997
 31
0
  0
LINE
  8
0
 62
7
 10
0.5
 20
8.099999999999998
 30
0
 11
0.7400000000000001
 21
8.099999999999998
 31
0
  0
LINE
  8
0
 62
7
 10
0.7400000000000011
 20
8.299999999999997
 30
0
 11
0.7400000000000001
 21
8.099999999999998
 31
0
  0
LINE
  8
0
 62
7
 10
0.5000000000000009
 20
8.299999999999997
 30
0
 11
0.5000000000000009
 21
10.85
 31
0
  0
LINE
  8
0
 62
7
 10
0.5000000000000009
 20
8.299999999999997
 30
0
 11
0.7400000000000011
 21
8.299999999999997
 31
0
  0
LINE
  8
0
 62
7
 10
0.7400000000000011
 20
10.85
 30
0
 11
0.7400000000000011
 21
8.299999999999997
 31
0
  0
LINE
  8
0
 62
7
 10
0.5000000000000009
 20
10.85
 30
0
 11
0.5000000000000009
 21
11.05
 31
0
  0
LINE
  8
0
 62
7
 10
0.5000000000000009
 20
10.85
 30
0
 11
0.7400000000000011
 21
10.85
 31
0
  0
LINE
  8
0
 62
7
 10
0.7400000000000011
 20
11.05
 30
0
 11
0.7400000000000011
 21
10.85
 31
0
  0
LINE
  8
0
 62
7
 10
0.5000000000000009
 20
11.05
 30
0
 11
0.5
 21
11.2
 31
0
  0
LINE
  8
0
 62
7
 10
0.5000000000000009
 20
11.05
 30
0
 11
0.7400000000000011
 21
11.05
 31
0
  0
LINE
  8
0
 62
7
 10
0.7400000000000001
 20
11.2
 30
0
 11
0.7400000000000011
 21
11.15
 31
0
  0
LINE
  8
0
 62
7
 10
0.5000000000000009
 20
7.949999999999998
 30
0
 11
0.5
 21
8.099999999999998
 31
0
  0
LINE
  8
0
 62
7
  6
DASHDOT
 10
3.475000000000005
 20
11.2
 30
0
 11
3.525000000000004
 21
11.2
 31
0
  0
LINE
  8
0
 62
7
  6
DASHDOT
 10
3.525000000000004
 20
11.2
 30
0
 11
3.700000000000005
 21
11.2
 31
0
  0
LINE
  8
0
 62
7
  6
DASHDOT
 10
3.375000000000005
 20
11.15
 30
0
 11
3.375000000000005
 21
11.05
 31
0
  0
LINE
  8
0
 62
7
  6
DASHDOT
 10
3.375000000000005
 20
11.05
 30
0
 11
3.375000000000005
 21
10.85
 31
0
  0
LINE
  8
0
 62
7
  6
DASHDOT
 10
7.600000000000005
 20
11.15
 30
0
 11
7.600000000000005
 21
11.05
 31
0
  0
LINE
  8
0
 62
7
  6
DASHDOT
 10
7.600000000000005
 20
11.05
 30
0
 11
7.600000000000005
 21
10.85
 31
0
  0
LINE
  8
0
 62
7
  6
DASHDOT
 10
7.600000000000005
 20
8.399999999999997
 30
0
 11
7.600000000000005
 21
8.299999999999997
 31
0
  0
LINE
  8
0
 62
7
  6
DASHDOT
 10
7.600000000000005
 20
8.299999999999997
 30
0
 11
7.600000000000005
 21
8.099999999999998
 31
0
  0
LINE
  8
0
 62
7
  6
DASHDOT
 10
3.475000000000005
 20
7.949999999999998
 30
0
 11
3.525000000000005
 21
7.949999999999998
 31
0
  0
LINE
  8
0
 62
7
  6
DASHDOT
 10
3.525000000000005
 20
7.949999999999998
 30
0
 11
3.700000000000005
 21
7.949999999999998
 31
0
  0
LINE
  8
0
 62
7
  6
DASHDOT
 10
3.375000000000005
 20
8.399999999999997
 30
0
 11
3.375000000000005
 21
8.299999999999997
 31
0
  0
LINE
  8
0
 62
7
  6
DASHDOT
 10
3.375000000000005
 20
8.299999999999997
 30
0
 11
3.375000000000005
 21
8.099999999999998
 31
0
  0
LINE
  8
0
 62
7
  6
DASHDOT
 10
3.375000000000004
 20
11.2
 30
0
 11
3.375000000000005
 21
11.15
 31
0
  0
LINE
  8
0
 62
7
 10
3.525000000000004
 20
11.2
 30
0
 11
3.525000000000005
 21
11.15
 31
0
  0
LINE
  8
0
 62
7
 10
3.375000000000005
 20
11.15
 30
0
 11
3.525000000000005
 21
11.15
 31
0
  0
LINE
  8
0
 62
7
 10
3.700000000000005
 20
11.2
 30
0
 11
3.700000000000005
 21
11.15
 31
0
  0
LINE
  8
0
 62
7
  6
DASHDOT
 10
7.600000000000005
 20
11.2
 30
0
 11
7.600000000000005
 21
11.15
 31
0
  0
LINE
  8
0
 62
7
  6
DASHDOT
 10
3.375000000000004
 20
8.449999999999998
 30
0
 11
3.375000000000005
 21
8.399999999999997
 31
0
  0
LINE
  8
0
 62
7
 10
3.525000000000005
 20
10.85
 30
0
 11
3.525000000000005
 21
8.399999999999997
 31
0
  0
LINE
  8
0
 62
7
 10
3.375000000000005
 20
8.399999999999997
 30
0
 11
3.525000000000005
 21
8.399999999999997
 31
0
  0
LINE
  8
0
 62
7
 10
3.700000000000005
 20
10.85
 30
0
 11
3.700000000000005
 21
8.399999999999997
 31
0
  0
LINE
  8
0
 62
7
  6
DASHDOT
 10
7.600000000000005
 20
8.449999999999998
 30
0
 11
7.600000000000005
 21
8.399999999999997
 31
0
  0
LINE
  8
0
 62
7
  6
DASHDOT
 10
3.700000000000005
 20
7.949999999999998
 30
0
 11
3.750000000000005
 21
7.949999999999998
 31
0
  0
LINE
  8
0
 62
7
  6
DASHDOT
 10
3.700000000000005
 20
11.2
 30
0
 11
3.750000000000005
 21
11.2
 31
0
  0
LINE
  8
0
 62
7
  6
DASHDOT
 10
3.375000000000005
 20
10.85
 30
0
 11
3.375000000000005
 21
10.8
 31
0
  0
LINE
  8
0
 62
7
  6
DASHDOT
 10
3.375000000000005
 20
8.099999999999998
 30
0
 11
3.375000000000005
 21
8.049999999999997
 31
0
  0
LINE
  8
0
 62
7
  6
DASHDOT
 10
7.600000000000005
 20
10.85
 30
0
 11
7.600000000000005
 21
10.8
 31
0
  0
LINE
  8
0
 62
7
  6
DASHDOT
 10
7.600000000000005
 20
8.099999999999998
 30
0
 11
7.600000000000005
 21
8.049999999999997
 31
0
  0
LINE
  8
0
 62
7
 10
3.375000000000005
 20
11.05
 30
0
 11
3.525000000000005
 21
11.05
 31
0
  0
LINE
  8
0
 62
7
 10
3.525000000000005
 20
11.15
 30
0
 11
3.525000000000005
 21
11.05
 31
0
  0
LINE
  8
0
 62
7
 10
3.375000000000005
 20
10.85
 30
0
 11
3.525000000000005
 21
10.85
 31
0
  0
LINE
  8
0
 62
7
 10
3.375000000000005
 20
8.299999999999997
 30
0
 11
3.525000000000005
 21
8.299999999999997
 31
0
  0
LINE
  8
0
 62
7
 10
3.525000000000005
 20
8.399999999999997
 30
0
 11
3.525000000000005
 21
8.299999999999997
 31
0
  0
LINE
  8
0
 62
7
 10
3.375000000000005
 20
8.099999999999998
 30
0
 11
3.525000000000004
 21
8.099999999999998
 31
0
  0
LINE
  8
0
 62
7
 10
3.525000000000004
 20
8.099999999999998
 30
0
 11
3.525000000000005
 21
7.949999999999998
 31
0
  0
LINE
  8
0
 62
7
 10
3.525000000000005
 20
11.05
 30
0
 11
3.700000000000005
 21
11.05
 31
0
  0
LINE
  8
0
 62
7
 10
3.525000000000005
 20
10.85
 30
0
 11
3.700000000000005
 21
10.85
 31
0
  0
LINE
  8
0
 62
7
 10
3.525000000000005
 20
8.299999999999997
 30
0
 11
3.700000000000005
 21
8.299999999999997
 31
0
  0
LINE
  8
0
 62
7
 10
3.525000000000004
 20
8.099999999999998
 30
0
 11
3.700000000000005
 21
8.099999999999998
 31
0
  0
LINE
  8
0
 62
7
 10
3.700000000000005
 20
8.099999999999998
 30
0
 11
3.700000000000005
 21
7.949999999999998
 31
0
  0
LINE
  8
0
 62
7
 10
3.700000000000005
 20
11.05
 30
0
 11
7.460000000000005
 21
11.05
 31
0
  0
LINE
  8
0
 62
7
 10
3.700000000000005
 20
10.85
 30
0
 11
7.460000000000005
 21
10.85
 31
0
  0
LINE
  8
0
 62
7
 10
3.700000000000005
 20
8.299999999999997
 30
0
 11
7.460000000000005
 21
8.299999999999997
 31
0
  0
LINE
  8
0
 62
7
 10
3.700000000000005
 20
8.099999999999998
 30
0
 11
7.600000000000005
 21
8.099999999999998
 31
0
  0
LINE
  8
0
 62
7
 10
7.460000000000005
 20
11.05
 30
0
 11
7.635000000000005
 21
11.05
 31
0
  0
LINE
  8
0
 62
7
 10
7.460000000000005
 20
11.05
 30
0
 11
7.600000000000005
 21
11.05
 31
0
  0
LINE
  8
0
 62
7
 10
4.838166340345202
 20
4.078720949298821
 30
0
 11
4.838166340345202
 21
4.198720949298822
 31
0
  0
LINE
  8
0
 62
7
 10
4.913766340345202
 20
4.198720949298822
 30
0
 11
4.859766340345201
 21
4.138720949298821
 31
0
  0
LINE
  8
0
 62
7
 10
4.859766340345201
 20
4.138720949298821
 30
0
 11
4.913766340345202
 21
4.078720949298821
 31
0
  0
LINE
  8
0
 62
7
 10
4.859766340345201
 20
4.138720949298821
 30
0
 11
4.838166340345202
 21
4.11472094929882
 31
0
  0
LINE
  8
0
 62
7
 10
5.021766340345201
 20
4.198720949298822
 30
0
 11
4.946166340345201
 21
4.198720949298822
 31
0
  0
LINE
  8
0
 62
7
 10
4.946166340345201
 20
4.198720949298822
 30
0
 11
4.946166340345201
 21
4.138720949298821
 31
0
  0
LINE
  8
0
 62
7
 10
4.946166340345201
 20
4.078720949298821
 30
0
 11
5.021766340345201
 21
4.078720949298821
 31
0
  0
LINE
  8
0
 62
7
 10
5.010966340345202
 20
4.138720949298821
 30
0
 11
4.946166340345201
 21
4.138720949298821
 31
0
  0
LINE
  8
0
 62
7
 10
4.946166340345201
 20
4.138720949298821
 30
0
 11
4.946166340345201
 21
4.078720949298821
 31
0
  0
LINE
  8
0
 62
7
 10
5.0541663403452
 20
4.078720949298821
 30
0
 11
5.0541663403452
 21
4.198720949298822
 31
0
  0
LINE
  8
0
 62
7
 10
5.0541663403452
 20
4.198720949298822
 30
0
 11
5.129766340345201
 21
4.078720949298821
 31
0
  0
LINE
  8
0
 62
7
 10
5.129766340345201
 20
4.078720949298821
 30
0
 11
5.129766340345201
 21
4.198720949298822
 31
0
  0
LINE
  8
0
 62
7
 10
5.162166340345202
 20
4.078720949298821
 30
0
 11
5.162166340345202
 21
4.198720949298822
 31
0
  0
LINE
  8
0
 62
7
 10
5.162166340345202
 20
4.198720949298822
 30
0
 11
5.237766340345201
 21
4.078720949298821
 31
0
  0
LINE
  8
0
 62
7
 10
5.237766340345201
 20
4.078720949298821
 30
0
 11
5.237766340345201
 21
4.198720949298822
 31
0
  0
LINE
  8
0
 62
7
 10
5.345766340345201
 20
4.162720949298821
 30
0
 11
5.3430663403452
 21
4.174720949298821
 31
0
  0
LINE
  8
0
 62
7
 10
5.3430663403452
 20
4.174720949298821
 30
0
 11
5.337666340345201
 21
4.183720949298822
 31
0
  0
LINE
  8
0
 62
7
 10
5.337666340345201
 20
4.183720949298822
 30
0
 11
5.332266340345201
 21
4.18972094929882
 31
0
  0
LINE
  8
0
 62
7
 10
5.332266340345201
 20
4.18972094929882
 30
0
 11
5.324166340345201
 21
4.19572094929882
 31
0
  0
LINE
  8
0
 62
7
 10
5.324166340345201
 20
4.19572094929882
 30
0
 11
5.3160663403452
 21
4.198720949298822
 31
0
  0
LINE
  8
0
 62
7
 10
5.3160663403452
 20
4.198720949298822
 30
0
 11
5.299866340345202
 21
4.198720949298822
 31
0
  0
LINE
  8
0
 62
7
 10
5.299866340345202
 20
4.198720949298822
 30
0
 11
5.291766340345202
 21
4.19572094929882
 31
0
  0
LINE
  8
0
 62
7
 10
5.291766340345202
 20
4.19572094929882
 30
0
 11
5.283666340345201
 21
4.18972094929882
 31
0
  0
LINE
  8
0
 62
7
 10
5.283666340345201
 20
4.18972094929882
 30
0
 11
5.278266340345201
 21
4.183720949298822
 31
0
  0
LINE
  8
0
 62
7
 10
5.278266340345201
 20
4.183720949298822
 30
0
 11
5.272866340345201
 21
4.174720949298821
 31
0
  0
LINE
  8
0
 62
7
 10
5.272866340345201
 20
4.174720949298821
 30
0
 11
5.270166340345201
 21
4.162720949298821
 31
0
  0
LINE
  8
0
 62
7
 10
5.270166340345201
 20
4.162720949298821
 30
0
 11
5.270166340345201
 21
4.11472094929882
 31
0
  0
LINE
  8
0
 62
7
 10
5.270166340345201
 20
4.11472094929882
 30
0
 11
5.272866340345201
 21
4.102720949298821
 31
0
  0
LINE
  8
0
 62
7
 10
5.272866340345201
 20
4.102720949298821
 30
0
 11
5.278266340345201
 21
4.093720949298822
 31
0
  0
LINE
  8
0
 62
7
 10
5.278266340345201
 20
4.093720949298822
 30
0
 11
5.283666340345201
 21
4.087720949298821
 31
0
  0
LINE
  8
0
 62
7
 10
5.283666340345201
 20
4.087720949298821
 30
0
 11
5.291766340345202
 21
4.081720949298822
 31
0
  0
LINE
  8
0
 62
7
 10
5.291766340345202
 20
4.081720949298822
 30
0
 11
5.299866340345202
 21
4.078720949298821
 31
0
  0
LINE
  8
0
 62
7
 10
5.299866340345202
 20
4.078720949298821
 30
0
 11
5.3160663403452
 21
4.078720949298821
 31
0
  0
LINE
  8
0
 62
7
 10
5.3160663403452
 20
4.078720949298821
 30
0
 11
5.324166340345201
 21
4.081720949298822
 31
0
  0
LINE
  8
0
 62
7
 10
5.324166340345201
 20
4.081720949298822
 30
0
 11
5.332266340345201
 21
4.087720949298821
 31
0
  0
LINE
  8
0
 62
7
 10
5.332266340345201
 20
4.087720949298821
 30
0
 11
5.337666340345201
 21
4.093720949298822
 31
0
  0
LINE
  8
0
 62
7
 10
5.337666340345201
 20
4.093720949298822
 30
0
 11
5.3430663403452
 21
4.102720949298821
 31
0
  0
LINE
  8
0
 62
7
 10
5.3430663403452
 20
4.102720949298821
 30
0
 11
5.345766340345201
 21
4.11472094929882
 31
0
  0
LINE
  8
0
 62
7
 10
5.345766340345201
 20
4.11472094929882
 30
0
 11
5.345766340345201
 21
4.138720949298821
 31
0
  0
LINE
  8
0
 62
7
 10
5.345766340345201
 20
4.138720949298821
 30
0
 11
5.313366340345201
 21
4.138720949298821
 31
0
  0
LINE
  8
0
 62
7
 10
5.424066340345201
 20
4.198720949298822
 30
0
 11
5.407866340345201
 21
4.198720949298822
 31
0
  0
LINE
  8
0
 62
7
 10
5.407866340345201
 20
4.198720949298822
 30
0
 11
5.399766340345201
 21
4.19572094929882
 31
0
  0
LINE
  8
0
 62
7
 10
5.399766340345201
 20
4.19572094929882
 30
0
 11
5.391666340345201
 21
4.18972094929882
 31
0
  0
LINE
  8
0
 62
7
 10
5.391666340345201
 20
4.18972094929882
 30
0
 11
5.386266340345202
 21
4.183720949298822
 31
0
  0
LINE
  8
0
 62
7
 10
5.386266340345202
 20
4.183720949298822
 30
0
 11
5.3808663403452
 21
4.174720949298821
 31
0
  0
LINE
  8
0
 62
7
 10
5.3808663403452
 20
4.174720949298821
 30
0
 11
5.3781663403452
 21
4.162720949298821
 31
0
  0
LINE
  8
0
 62
7
 10
5.3781663403452
 20
4.162720949298821
 30
0
 11
5.3781663403452
 21
4.11472094929882
 31
0
  0
LINE
  8
0
 62
7
 10
5.3781663403452
 20
4.11472094929882
 30
0
 11
5.3808663403452
 21
4.102720949298821
 31
0
  0
LINE
  8
0
 62
7
 10
5.3808663403452
 20
4.102720949298821
 30
0
 11
5.386266340345202
 21
4.093720949298822
 31
0
  0
LINE
  8
0
 62
7
 10
5.386266340345202
 20
4.093720949298822
 30
0
 11
5.391666340345201
 21
4.087720949298821
 31
0
  0
LINE
  8
0
 62
7
 10
5.391666340345201
 20
4.087720949298821
 30
0
 11
5.399766340345201
 21
4.081720949298822
 31
0
  0
LINE
  8
0
 62
7
 10
5.399766340345201
 20
4.081720949298822
 30
0
 11
5.407866340345201
 21
4.078720949298821
 31
0
  0
LINE
  8
0
 62
7
 10
5.407866340345201
 20
4.078720949298821
 30
0
 11
5.424066340345201
 21
4.078720949298821
 31
0
  0
LINE
  8
0
 62
7
 10
5.424066340345201
 20
4.078720949298821
 30
0
 11
5.432166340345201
 21
4.081720949298822
 31
0
  0
LINE
  8
0
 62
7
 10
5.432166340345201
 20
4.081720949298822
 30
0
 11
5.440266340345201
 21
4.087720949298821
 31
0
  0
LINE
  8
0
 62
7
 10
5.440266340345201
 20
4.087720949298821
 30
0
 11
5.445666340345201
 21
4.093720949298822
 31
0
  0
LINE
  8
0
 62
7
 10
5.445666340345201
 20
4.093720949298822
 30
0
 11
5.4510663403452
 21
4.102720949298821
 31
0
  0
LINE
  8
0
 62
7
 10
5.4510663403452
 20
4.102720949298821
 30
0
 11
5.453766340345201
 21
4.11472094929882
 31
0
  0
LINE
  8
0
 62
7
 10
5.453766340345201
 20
4.11472094929882
 30
0
 11
5.453766340345201
 21
4.162720949298821
 31
0
  0
LINE
  8
0
 62
7
 10
5.453766340345201
 20
4.162720949298821
 30
0
 11
5.4510663403452
 21
4.174720949298821
 31
0
  0
LINE
  8
0
 62
7
 10
5.4510663403452
 20
4.174720949298821
 30
0
 11
5.445666340345201
 21
4.183720949298822
 31
0
  0
LINE
  8
0
 62
7
 10
5.445666340345201
 20
4.183720949298822
 30
0
 11
5.440266340345201
 21
4.18972094929882
 31
0
  0
LINE
  8
0
 62
7
 10
5.440266340345201
 20
4.18972094929882
 30
0
 11
5.432166340345201
 21
4.19572094929882
 31
0
  0
LINE
  8
0
 62
7
 10
5.432166340345201
 20
4.19572094929882
 30
0
 11
5.424066340345201
 21
4.198720949298822
 31
0
  0
LINE
  8
0
 62
7
 10
5.4753663403452
 20
4.198720949298822
 30
0
 11
5.513166340345201
 21
4.198720949298822
 31
0
  0
LINE
  8
0
 62
7
 10
5.513166340345201
 20
4.198720949298822
 30
0
 11
5.513166340345201
 21
4.078720949298821
 31
0
  0
LINE
  8
0
 62
7
 10
5.513166340345201
 20
4.198720949298822
 30
0
 11
5.550966340345202
 21
4.198720949298822
 31
0
  0
LINE
  8
0
 62
7
 10
5.583366340345201
 20
4.198720949298822
 30
0
 11
5.621166340345201
 21
4.198720949298822
 31
0
  0
LINE
  8
0
 62
7
 10
5.621166340345201
 20
4.198720949298822
 30
0
 11
5.621166340345201
 21
4.078720949298821
 31
0
  0
LINE
  8
0
 62
7
 10
5.621166340345201
 20
4.198720949298822
 30
0
 11
5.658966340345201
 21
4.198720949298822
 31
0
  0
LINE
  8
0
 62
7
 10
5.777766340345202
 20
4.12072094929882
 30
0
 11
5.831766340345201
 21
4.12072094929882
 31
0
  0
LINE
  8
0
 62
7
 10
5.939766340345201
 20
4.198720949298822
 30
0
 11
5.977566340345201
 21
4.198720949298822
 31
0
  0
LINE
  8
0
 62
7
 10
5.977566340345201
 20
4.198720949298822
 30
0
 11
5.977566340345201
 21
4.078720949298821
 31
0
  0
LINE
  8
0
 62
7
 10
5.977566340345201
 20
4.198720949298822
 30
0
 11
6.0153663403452
 21
4.198720949298822
 31
0
  0
LINE
  8
0
 62
7
 10
6.047766340345201
 20
4.078720949298821
 30
0
 11
6.047766340345201
 21
4.198720949298822
 31
0
  0
LINE
  8
0
 62
7
 10
6.047766340345201
 20
4.198720949298822
 30
0
 11
6.099066340345201
 21
4.198720949298822
 31
0
  0
LINE
  8
0
 62
7
 10
6.099066340345201
 20
4.198720949298822
 30
0
 11
6.109866340345201
 21
4.19572094929882
 31
0
  0
LINE
  8
0
 62
7
 10
6.109866340345201
 20
4.19572094929882
 30
0
 11
6.117966340345201
 21
4.18972094929882
 31
0
  0
LINE
  8
0
 62
7
 10
6.117966340345201
 20
4.18972094929882
 30
0
 11
6.120666340345201
 21
4.183720949298822
 31
0
  0
LINE
  8
0
 62
7
 10
6.120666340345201
 20
4.183720949298822
 30
0
 11
6.1233663403452
 21
4.174720949298821
 31
0
  0
LINE
  8
0
 62
7
 10
6.1233663403452
 20
4.174720949298821
 30
0
 11
6.1233663403452
 21
4.162720949298821
 31
0
  0
LINE
  8
0
 62
7
 10
6.1233663403452
 20
4.162720949298821
 30
0
 11
6.120666340345201
 21
4.153720949298822
 31
0
  0
LINE
  8
0
 62
7
 10
6.120666340345201
 20
4.153720949298822
 30
0
 11
6.117966340345201
 21
4.147720949298821
 31
0
  0
LINE
  8
0
 62
7
 10
6.117966340345201
 20
4.147720949298821
 30
0
 11
6.109866340345201
 21
4.141720949298821
 31
0
  0
LINE
  8
0
 62
7
 10
6.109866340345201
 20
4.141720949298821
 30
0
 11
6.099066340345201
 21
4.138720949298821
 31
0
  0
LINE
  8
0
 62
7
 10
6.099066340345201
 20
4.138720949298821
 30
0
 11
6.0909663403452
 21
4.138720949298821
 31
0
  0
LINE
  8
0
 62
7
 10
6.0909663403452
 20
4.138720949298821
 30
0
 11
6.1233663403452
 21
4.078720949298821
 31
0
  0
LINE
  8
0
 62
7
 10
6.0909663403452
 20
4.138720949298821
 30
0
 11
6.047766340345201
 21
4.138720949298821
 31
0
  0
LINE
  8
0
 62
7
 10
6.220566340345201
 20
4.198720949298822
 30
0
 11
6.1449663403452
 21
4.198720949298822
 31
0
  0
LINE
  8
0
 62
7
 10
6.1449663403452
 20
4.198720949298822
 30
0
 11
6.1449663403452
 21
4.138720949298821
 31
0
  0
LINE
  8
0
 62
7
 10
6.1449663403452
 20
4.078720949298821
 30
0
 11
6.220566340345201
 21
4.078720949298821
 31
0
  0
LINE
  8
0
 62
7
 10
6.2097663403452
 20
4.138720949298821
 30
0
 11
6.1449663403452
 21
4.138720949298821
 31
0
  0
LINE
  8
0
 62
7
 10
6.1449663403452
 20
4.138720949298821
 30
0
 11
6.1449663403452
 21
4.078720949298821
 31
0
  0
LINE
  8
0
 62
7
 10
6.252966340345201
 20
4.078720949298821
 30
0
 11
6.252966340345201
 21
4.138720949298821
 31
0
  0
LINE
  8
0
 62
7
 10
6.252966340345201
 20
4.198720949298822
 30
0
 11
6.304266340345201
 21
4.198720949298822
 31
0
  0
LINE
  8
0
 62
7
 10
6.304266340345201
 20
4.198720949298822
 30
0
 11
6.315066340345201
 21
4.19572094929882
 31
0
  0
LINE
  8
0
 62
7
 10
6.315066340345201
 20
4.19572094929882
 30
0
 11
6.323166340345201
 21
4.18972094929882
 31
0
  0
LINE
  8
0
 62
7
 10
6.323166340345201
 20
4.18972094929882
 30
0
 11
6.3258663403452
 21
4.183720949298822
 31
0
  0
LINE
  8
0
 62
7
 10
6.3258663403452
 20
4.183720949298822
 30
0
 11
6.328566340345201
 21
4.174720949298821
 31
0
  0
LINE
  8
0
 62
7
 10
6.328566340345201
 20
4.174720949298821
 30
0
 11
6.328566340345201
 21
4.162720949298821
 31
0
  0
LINE
  8
0
 62
7
 10
6.328566340345201
 20
4.162720949298821
 30
0
 11
6.3258663403452
 21
4.153720949298822
 31
0
  0
LINE
  8
0
 62
7
 10
6.3258663403452
 20
4.153720949298822
 30
0
 11
6.323166340345201
 21
4.147720949298821
 31
0
  0
LINE
  8
0
 62
7
 10
6.323166340345201
 20
4.147720949298821
 30
0
 11
6.315066340345201
 21
4.141720949298821
 31
0
  0
LINE
  8
0
 62
7
 10
6.315066340345201
 20
4.141720949298821
 30
0
 11
6.304266340345201
 21
4.138720949298821
 31
0
  0
LINE
  8
0
 62
7
 10
6.304266340345201
 20
4.138720949298821
 30
0
 11
6.252966340345201
 21
4.138720949298821
 31
0
  0
LINE
  8
0
 62
7
 10
6.252966340345201
 20
4.138720949298821
 30
0
 11
6.252966340345201
 21
4.198720949298822
 31
0
  0
LINE
  8
0
 62
7
 10
6.350166340345201
 20
4.078720949298821
 30
0
 11
6.350166340345201
 21
4.138720949298821
 31
0
  0
LINE
  8
0
 62
7
 10
6.350166340345201
 20
4.198720949298822
 30
0
 11
6.401466340345201
 21
4.198720949298822
 31
0
  0
LINE
  8
0
 62
7
 10
6.401466340345201
 20
4.198720949298822
 30
0
 11
6.412266340345202
 21
4.19572094929882
 31
0
  0
LINE
  8
0
 62
7
 10
6.412266340345202
 20
4.19572094929882
 30
0
 11
6.4203663403452
 21
4.18972094929882
 31
0
  0
LINE
  8
0
 62
7
 10
6.4203663403452
 20
4.18972094929882
 30
0
 11
6.4230663403452
 21
4.183720949298822
 31
0
  0
LINE
  8
0
 62
7
 10
6.4230663403452
 20
4.183720949298822
 30
0
 11
6.425766340345202
 21
4.174720949298821
 31
0
  0
LINE
  8
0
 62
7
 10
6.425766340345202
 20
4.174720949298821
 30
0
 11
6.425766340345202
 21
4.162720949298821
 31
0
  0
LINE
  8
0
 62
7
 10
6.425766340345202
 20
4.162720949298821
 30
0
 11
6.4230663403452
 21
4.153720949298822
 31
0
  0
LINE
  8
0
 62
7
 10
6.4230663403452
 20
4.153720949298822
 30
0
 11
6.4203663403452
 21
4.147720949298821
 31
0
  0
LINE
  8
0
 62
7
 10
6.4203663403452
 20
4.147720949298821
 30
0
 11
6.412266340345202
 21
4.141720949298821
 31
0
  0
LINE
  8
0
 62
7
 10
6.412266340345202
 20
4.141720949298821
 30
0
 11
6.401466340345201
 21
4.138720949298821
 31
0
  0
LINE
  8
0
 62
7
 10
6.401466340345201
 20
4.138720949298821
 30
0
 11
6.350166340345201
 21
4.138720949298821
 31
0
  0
LINE
  8
0
 62
7
 10
6.350166340345201
 20
4.138720949298821
 30
0
 11
6.350166340345201
 21
4.198720949298822
 31
0
  0
LINE
  8
0
 62
7
 10
6.522966340345201
 20
4.198720949298822
 30
0
 11
6.447366340345202
 21
4.198720949298822
 31
0
  0
LINE
  8
0
 62
7
 10
6.447366340345202
 20
4.198720949298822
 30
0
 11
6.447366340345202
 21
4.138720949298821
 31
0
  0
LINE
  8
0
 62
7
 10
6.447366340345202
 20
4.078720949298821
 30
0
 11
6.522966340345201
 21
4.078720949298821
 31
0
  0
LINE
  8
0
 62
7
 10
6.512166340345202
 20
4.138720949298821
 30
0
 11
6.447366340345202
 21
4.138720949298821
 31
0
  0
LINE
  8
0
 62
7
 10
6.447366340345202
 20
4.138720949298821
 30
0
 11
6.447366340345202
 21
4.078720949298821
 31
0
  0
LINE
  8
0
 62
7
 10
4.375000000000006
 20
3.010000000000003
 30
0
 11
4.450600000000005
 21
3.010000000000003
 31
0
  0
LINE
  8
0
 62
7
 10
4.450600000000005
 20
3.010000000000003
 30
0
 11
4.375000000000006
 21
2.890000000000003
 31
0
  0
LINE
  8
0
 62
7
 10
4.375000000000006
 20
2.890000000000003
 30
0
 11
4.450600000000005
 21
2.890000000000003
 31
0
  0
LINE
  8
0
 62
7
 10
4.558600000000005
 20
3.010000000000003
 30
0
 11
4.558600000000005
 21
2.926000000000004
 31
0
  0
LINE
  8
0
 62
7
 10
4.558600000000005
 20
2.926000000000004
 30
0
 11
4.555900000000004
 21
2.914000000000003
 31
0
  0
LINE
  8
0
 62
7
 10
4.555900000000004
 20
2.914000000000003
 30
0
 11
4.550500000000006
 21
2.905000000000003
 31
0
  0
LINE
  8
0
 62
7
 10
4.550500000000006
 20
2.905000000000003
 30
0
 11
4.545100000000005
 21
2.899000000000004
 31
0
  0
LINE
  8
0
 62
7
 10
4.545100000000005
 20
2.899000000000004
 30
0
 11
4.537000000000005
 21
2.893000000000003
 31
0
  0
LINE
  8
0
 62
7
 10
4.537000000000005
 20
2.893000000000003
 30
0
 11
4.528900000000005
 21
2.890000000000003
 31
0
  0
LINE
  8
0
 62
7
 10
4.528900000000005
 20
2.890000000000003
 30
0
 11
4.512700000000004
 21
2.890000000000003
 31
0
  0
LINE
  8
0
 62
7
 10
4.512700000000004
 20
2.890000000000003
 30
0
 11
4.504600000000005
 21
2.893000000000003
 31
0
  0
LINE
  8
0
 62
7
 10
4.504600000000005
 20
2.893000000000003
 30
0
 11
4.496500000000005
 21
2.899000000000004
 31
0
  0
LINE
  8
0
 62
7
 10
4.496500000000005
 20
2.899000000000004
 30
0
 11
4.491100000000006
 21
2.905000000000003
 31
0
  0
LINE
  8
0
 62
7
 10
4.491100000000006
 20
2.905000000000003
 30
0
 11
4.485700000000004
 21
2.914000000000003
 31
0
  0
LINE
  8
0
 62
7
 10
4.485700000000004
 20
2.914000000000003
 30
0
 11
4.483000000000006
 21
2.926000000000004
 31
0
  0
LINE
  8
0
 62
7
 10
4.483000000000006
 20
2.926000000000004
 30
0
 11
4.483000000000006
 21
3.010000000000003
 31
0
  0
LINE
  8
0
 62
7
 10
4.591000000000005
 20
3.010000000000003
 30
0
 11
4.628800000000004
 21
2.890000000000003
 31
0
  0
LINE
  8
0
 62
7
 10
4.628800000000004
 20
2.890000000000003
 30
0
 11
4.666600000000005
 21
3.010000000000003
 31
0
  0
LINE
  8
0
 62
7
 10
4.699000000000004
 20
2.992000000000003
 30
0
 11
4.704400000000006
 21
3.001000000000003
 31
0
  0
LINE
  8
0
 62
7
 10
4.704400000000006
 20
3.001000000000003
 30
0
 11
4.712500000000006
 21
3.007000000000003
 31
0
  0
LINE
  8
0
 62
7
 10
4.712500000000006
 20
3.007000000000003
 30
0
 11
4.723300000000004
 21
3.010000000000003
 31
0
  0
LINE
  8
0
 62
7
 10
4.723300000000004
 20
3.010000000000003
 30
0
 11
4.739500000000006
 21
3.010000000000003
 31
0
  0
LINE
  8
0
 62
7
 10
4.739500000000006
 20
3.010000000000003
 30
0
 11
4.747600000000005
 21
3.007000000000003
 31
0
  0
LINE
  8
0
 62
7
 10
4.747600000000005
 20
3.007000000000003
 30
0
 11
4.755700000000004
 21
3.001000000000003
 31
0
  0
LINE
  8
0
 62
7
 10
4.755700000000004
 20
3.001000000000003
 30
0
 11
4.761100000000005
 21
2.992000000000003
 31
0
  0
LINE
  8
0
 62
7
 10
4.761100000000005
 20
2.992000000000003
 30
0
 11
4.763800000000005
 21
2.980000000000003
 31
0
  0
LINE
  8
0
 62
7
 10
4.763800000000005
 20
2.980000000000003
 30
0
 11
4.763800000000005
 21
2.971000000000004
 31
0
  0
LINE
  8
0
 62
7
 10
4.763800000000005
 20
2.971000000000004
 30
0
 11
4.761100000000005
 21
2.962000000000003
 31
0
  0
LINE
  8
0
 62
7
 10
4.761100000000005
 20
2.962000000000003
 30
0
 11
4.755700000000004
 21
2.956000000000003
 31
0
  0
LINE
  8
0
 62
7
 10
4.755700000000004
 20
2.956000000000003
 30
0
 11
4.742200000000005
 21
2.950000000000003
 31
0
  0
LINE
  8
0
 62
7
 10
4.723300000000004
 20
2.950000000000003
 30
0
 11
4.742200000000005
 21
2.950000000000003
 31
0
  0
LINE
  8
0
 62
7
 10
4.742200000000005
 20
2.950000000000003
 30
0
 11
4.755700000000004
 21
2.944000000000004
 31
0
  0
LINE
  8
0
 62
7
 10
4.755700000000004
 20
2.944000000000004
 30
0
 11
4.761100000000005
 21
2.938000000000003
 31
0
  0
LINE
  8
0
 62
7
 10
4.761100000000005
 20
2.938000000000003
 30
0
 11
4.763800000000005
 21
2.929000000000003
 31
0
  0
LINE
  8
0
 62
7
 10
4.763800000000005
 20
2.929000000000003
 30
0
 11
4.763800000000005
 21
2.920000000000003
 31
0
  0
LINE
  8
0
 62
7
 10
4.763800000000005
 20
2.920000000000003
 30
0
 11
4.761100000000005
 21
2.908000000000003
 31
0
  0
LINE
  8
0
 62
7
 10
4.761100000000005
 20
2.908000000000003
 30
0
 11
4.755700000000004
 21
2.899000000000004
 31
0
  0
LINE
  8
0
 62
7
 10
4.755700000000004
 20
2.899000000000004
 30
0
 11
4.747600000000005
 21
2.893000000000003
 31
0
  0
LINE
  8
0
 62
7
 10
4.747600000000005
 20
2.893000000000003
 30
0
 11
4.739500000000006
 21
2.890000000000003
 31
0
  0
LINE
  8
0
 62
7
 10
4.739500000000006
 20
2.890000000000003
 30
0
 11
4.723300000000004
 21
2.890000000000003
 31
0
  0
LINE
  8
0
 62
7
 10
4.723300000000004
 20
2.890000000000003
 30
0
 11
4.712500000000006
 21
2.893000000000003
 31
0
  0
LINE
  8
0
 62
7
 10
4.712500000000006
 20
2.893000000000003
 30
0
 11
4.704400000000006
 21
2.899000000000004
 31
0
  0
LINE
  8
0
 62
7
 10
4.704400000000006
 20
2.899000000000004
 30
0
 11
4.699000000000004
 21
2.908000000000003
 31
0
  0
LINE
  8
0
 62
7
 10
4.796200000000005
 20
2.998000000000003
 30
0
 11
4.796200000000005
 21
3.010000000000003
 31
0
  0
LINE
  8
0
 62
7
 10
4.796200000000005
 20
3.010000000000003
 30
0
 11
4.861000000000005
 21
3.010000000000003
 31
0
  0
LINE
  8
0
 62
7
 10
4.861000000000005
 20
3.010000000000003
 30
0
 11
4.807000000000006
 21
2.890000000000003
 31
0
  0
LINE
  8
0
 62
7
 10
4.893400000000003
 20
2.938000000000003
 30
0
 11
4.896100000000004
 21
2.950000000000003
 31
0
  0
LINE
  8
0
 62
7
 10
4.896100000000004
 20
2.950000000000003
 30
0
 11
4.901500000000005
 21
2.959000000000003
 31
0
  0
LINE
  8
0
 62
7
 10
4.901500000000005
 20
2.959000000000003
 30
0
 11
4.909600000000005
 21
2.965000000000003
 31
0
  0
LINE
  8
0
 62
7
 10
4.909600000000005
 20
2.965000000000003
 30
0
 11
4.917700000000004
 21
2.968000000000003
 31
0
  0
LINE
  8
0
 62
7
 10
4.917700000000004
 20
2.968000000000003
 30
0
 11
4.933900000000005
 21
2.968000000000003
 31
0
  0
LINE
  8
0
 62
7
 10
4.933900000000005
 20
2.968000000000003
 30
0
 11
4.942000000000006
 21
2.965000000000003
 31
0
  0
LINE
  8
0
 62
7
 10
4.942000000000006
 20
2.965000000000003
 30
0
 11
4.950100000000004
 21
2.959000000000003
 31
0
  0
LINE
  8
0
 62
7
 10
4.950100000000004
 20
2.959000000000003
 30
0
 11
4.955500000000006
 21
2.950000000000003
 31
0
  0
LINE
  8
0
 62
7
 10
4.955500000000006
 20
2.950000000000003
 30
0
 11
4.958200000000005
 21
2.938000000000003
 31
0
  0
LINE
  8
0
 62
7
 10
4.958200000000005
 20
2.938000000000003
 30
0
 11
4.958200000000005
 21
2.920000000000003
 31
0
  0
LINE
  8
0
 62
7
 10
4.958200000000005
 20
2.920000000000003
 30
0
 11
4.955500000000006
 21
2.908000000000003
 31
0
  0
LINE
  8
0
 62
7
 10
4.955500000000006
 20
2.908000000000003
 30
0
 11
4.950100000000004
 21
2.899000000000004
 31
0
  0
LINE
  8
0
 62
7
 10
4.950100000000004
 20
2.899000000000004
 30
0
 11
4.942000000000006
 21
2.893000000000003
 31
0
  0
LINE
  8
0
 62
7
 10
4.942000000000006
 20
2.893000000000003
 30
0
 11
4.933900000000005
 21
2.890000000000003
 31
0
  0
LINE
  8
0
 62
7
 10
4.933900000000005
 20
2.890000000000003
 30
0
 11
4.917700000000004
 21
2.890000000000003
 31
0
  0
LINE
  8
0
 62
7
 10
4.917700000000004
 20
2.890000000000003
 30
0
 11
4.909600000000005
 21
2.893000000000003
 31
0
  0
LINE
  8
0
 62
7
 10
4.909600000000005
 20
2.893000000000003
 30
0
 11
4.901500000000005
 21
2.899000000000004
 31
0
  0
LINE
  8
0
 62
7
 10
4.901500000000005
 20
2.899000000000004
 30
0
 11
4.896100000000004
 21
2.908000000000003
 31
0
  0
LINE
  8
0
 62
7
 10
4.896100000000004
 20
2.908000000000003
 30
0
 11
4.893400000000003
 21
2.920000000000003
 31
0
  0
LINE
  8
0
 62
7
 10
4.893400000000003
 20
2.920000000000003
 30
0
 11
4.893400000000003
 21
2.938000000000003
 31
0
  0
LINE
  8
0
 62
7
 10
4.893400000000003
 20
2.980000000000003
 30
0
 11
4.896100000000004
 21
2.992000000000003
 31
0
  0
LINE
  8
0
 62
7
 10
4.896100000000004
 20
2.992000000000003
 30
0
 11
4.901500000000005
 21
3.001000000000003
 31
0
  0
LINE
  8
0
 62
7
 10
4.901500000000005
 20
3.001000000000003
 30
0
 11
4.909600000000005
 21
3.007000000000003
 31
0
  0
LINE
  8
0
 62
7
 10
4.909600000000005
 20
3.007000000000003
 30
0
 11
4.917700000000004
 21
3.010000000000003
 31
0
  0
LINE
  8
0
 62
7
 10
4.917700000000004
 20
3.010000000000003
 30
0
 11
4.933900000000005
 21
3.010000000000003
 31
0
  0
LINE
  8
0
 62
7
 10
4.933900000000005
 20
3.010000000000003
 30
0
 11
4.942000000000006
 21
3.007000000000003
 31
0
  0
LINE
  8
0
 62
7
 10
4.942000000000006
 20
3.007000000000003
 30
0
 11
4.950100000000004
 21
3.001000000000003
 31
0
  0
LINE
  8
0
 62
7
 10
4.950100000000004
 20
3.001000000000003
 30
0
 11
4.955500000000006
 21
2.992000000000003
 31
0
  0
LINE
  8
0
 62
7
 10
4.893400000000003
 20
2.938000000000003
 30
0
 11
4.893400000000003
 21
2.980000000000003
 31
0
  0
LINE
  8
0
 62
7
 10
4.990600000000005
 20
2.890000000000003
 30
0
 11
4.990600000000005
 21
3.010000000000003
 31
0
  0
LINE
  8
0
 62
7
 10
4.990600000000005
 20
3.010000000000003
 30
0
 11
5.041900000000005
 21
3.010000000000003
 31
0
  0
LINE
  8
0
 62
7
 10
5.041900000000005
 20
3.010000000000003
 30
0
 11
5.052700000000007
 21
3.007000000000003
 31
0
  0
LINE
  8
0
 62
7
 10
5.052700000000007
 20
3.007000000000003
 30
0
 11
5.060800000000005
 21
3.001000000000003
 31
0
  0
LINE
  8
0
 62
7
 10
5.060800000000005
 20
3.001000000000003
 30
0
 11
5.063500000000005
 21
2.995000000000003
 31
0
  0
LINE
  8
0
 62
7
 10
5.063500000000005
 20
2.995000000000003
 30
0
 11
5.066200000000006
 21
2.986000000000003
 31
0
  0
LINE
  8
0
 62
7
 10
5.066200000000006
 20
2.986000000000003
 30
0
 11
5.066200000000006
 21
2.974000000000004
 31
0
  0
LINE
  8
0
 62
7
 10
5.066200000000006
 20
2.974000000000004
 30
0
 11
5.063500000000005
 21
2.965000000000003
 31
0
  0
LINE
  8
0
 62
7
 10
5.063500000000005
 20
2.965000000000003
 30
0
 11
5.060800000000005
 21
2.959000000000003
 31
0
  0
LINE
  8
0
 62
7
 10
5.060800000000005
 20
2.959000000000003
 30
0
 11
5.052700000000007
 21
2.953000000000003
 31
0
  0
LINE
  8
0
 62
7
 10
5.052700000000007
 20
2.953000000000003
 30
0
 11
5.041900000000005
 21
2.950000000000003
 31
0
  0
LINE
  8
0
 62
7
 10
5.041900000000005
 20
2.950000000000003
 30
0
 11
5.033800000000006
 21
2.950000000000003
 31
0
  0
LINE
  8
0
 62
7
 10
5.033800000000006
 20
2.950000000000003
 30
0
 11
5.066200000000006
 21
2.890000000000003
 31
0
  0
LINE
  8
0
 62
7
 10
5.033800000000006
 20
2.950000000000003
 30
0
 11
4.990600000000005
 21
2.950000000000003
 31
0
  0
LINE
  8
0
 62
7
 10
5.087800000000005
 20
2.938000000000003
 30
0
 11
5.090500000000006
 21
2.950000000000003
 31
0
  0
LINE
  8
0
 62
7
 10
5.090500000000006
 20
2.950000000000003
 30
0
 11
5.095900000000006
 21
2.959000000000003
 31
0
  0
LINE
  8
0
 62
7
 10
5.095900000000006
 20
2.959000000000003
 30
0
 11
5.104000000000005
 21
2.965000000000003
 31
0
  0
LINE
  8
0
 62
7
 10
5.104000000000005
 20
2.965000000000003
 30
0
 11
5.112100000000005
 21
2.968000000000003
 31
0
  0
LINE
  8
0
 62
7
 10
5.112100000000005
 20
2.968000000000003
 30
0
 11
5.128300000000006
 21
2.968000000000003
 31
0
  0
LINE
  8
0
 62
7
 10
5.128300000000006
 20
2.968000000000003
 30
0
 11
5.136400000000005
 21
2.965000000000003
 31
0
  0
LINE
  8
0
 62
7
 10
5.136400000000005
 20
2.965000000000003
 30
0
 11
5.144500000000006
 21
2.959000000000003
 31
0
  0
LINE
  8
0
 62
7
 10
5.144500000000006
 20
2.959000000000003
 30
0
 11
5.149900000000006
 21
2.950000000000003
 31
0
  0
LINE
  8
0
 62
7
 10
5.149900000000006
 20
2.950000000000003
 30
0
 11
5.152600000000007
 21
2.938000000000003
 31
0
  0
LINE
  8
0
 62
7
 10
5.152600000000007
 20
2.938000000000003
 30
0
 11
5.152600000000007
 21
2.920000000000003
 31
0
  0
LINE
  8
0
 62
7
 10
5.152600000000007
 20
2.920000000000003
 30
0
 11
5.149900000000006
 21
2.908000000000003
 31
0
  0
LINE
  8
0
 62
7
 10
5.149900000000006
 20
2.908000000000003
 30
0
 11
5.144500000000006
 21
2.899000000000004
 31
0
  0
LINE
  8
0
 62
7
 10
5.144500000000006
 20
2.899000000000004
 30
0
 11
5.136400000000005
 21
2.893000000000003
 31
0
  0
LINE
  8
0
 62
7
 10
5.136400000000005
 20
2.893000000000003
 30
0
 11
5.128300000000006
 21
2.890000000000003
 31
0
  0
LINE
  8
0
 62
7
 10
5.128300000000006
 20
2.890000000000003
 30
0
 11
5.112100000000005
 21
2.890000000000003
 31
0
  0
LINE
  8
0
 62
7
 10
5.112100000000005
 20
2.890000000000003
 30
0
 11
5.104000000000005
 21
2.893000000000003
 31
0
  0
LINE
  8
0
 62
7
 10
5.104000000000005
 20
2.893000000000003
 30
0
 11
5.095900000000006
 21
2.899000000000004
 31
0
  0
LINE
  8
0
 62
7
 10
5.095900000000006
 20
2.899000000000004
 30
0
 11
5.090500000000006
 21
2.908000000000003
 31
0
  0
LINE
  8
0
 62
7
 10
5.090500000000006
 20
2.908000000000003
 30
0
 11
5.087800000000005
 21
2.920000000000003
 31
0
  0
LINE
  8
0
 62
7
 10
5.087800000000005
 20
2.920000000000003
 30
0
 11
5.087800000000005
 21
2.938000000000003
 31
0
  0
LINE
  8
0
 62
7
 10
5.087800000000005
 20
2.980000000000003
 30
0
 11
5.090500000000006
 21
2.992000000000003
 31
0
  0
LINE
  8
0
 62
7
 10
5.090500000000006
 20
2.992000000000003
 30
0
 11
5.095900000000006
 21
3.001000000000003
 31
0
  0
LINE
  8
0
 62
7
 10
5.095900000000006
 20
3.001000000000003
 30
0
 11
5.104000000000005
 21
3.007000000000003
 31
0
  0
LINE
  8
0
 62
7
 10
5.104000000000005
 20
3.007000000000003
 30
0
 11
5.112100000000005
 21
3.010000000000003
 31
0
  0
LINE
  8
0
 62
7
 10
5.112100000000005
 20
3.010000000000003
 30
0
 11
5.128300000000006
 21
3.010000000000003
 31
0
  0
LINE
  8
0
 62
7
 10
5.128300000000006
 20
3.010000000000003
 30
0
 11
5.136400000000005
 21
3.007000000000003
 31
0
  0
LINE
  8
0
 62
7
 10
5.136400000000005
 20
3.007000000000003
 30
0
 11
5.144500000000006
 21
3.001000000000003
 31
0
  0
LINE
  8
0
 62
7
 10
5.144500000000006
 20
3.001000000000003
 30
0
 11
5.149900000000006
 21
2.992000000000003
 31
0
  0
LINE
  8
0
 62
7
 10
5.087800000000005
 20
2.938000000000003
 30
0
 11
5.087800000000005
 21
2.980000000000003
 31
0
  0
LINE
  8
0
 62
7
 10
6.875000000000004
 20
2.890000000000003
 30
0
 11
6.875000000000004
 21
2.990000000000003
 31
0
  0
LINE
  8
0
 62
7
 10
6.875000000000004
 20
2.990000000000003
 30
0
 11
6.938000000000006
 21
2.890000000000003
 31
0
  0
LINE
  8
0
 62
7
 10
6.938000000000006
 20
2.890000000000003
 30
0
 11
6.938000000000006
 21
2.990000000000003
 31
0
  0
LINE
  8
0
 62
7
 10
7.019000000000005
 20
2.890000000000003
 30
0
 11
6.965000000000005
 21
2.890000000000003
 31
0
  0
LINE
  8
0
 62
7
 10
6.965000000000005
 20
2.890000000000003
 30
0
 11
6.965000000000005
 21
2.990000000000003
 31
0
  0
LINE
  8
0
 62
7
 10
7.046000000000006
 20
2.940000000000003
 30
0
 11
7.082000000000005
 21
2.940000000000003
 31
0
  0
LINE
  8
0
 62
7
 10
7.082000000000005
 20
2.940000000000003
 30
0
 11
7.086500000000005
 21
2.940000000000003
 31
0
  0
LINE
  8
0
 62
7
 10
7.086500000000005
 20
2.940000000000003
 30
0
 11
7.095500000000006
 21
2.935000000000003
 31
0
  0
LINE
  8
0
 62
7
 10
7.095500000000006
 20
2.935000000000003
 30
0
 11
7.100000000000005
 21
2.930000000000003
 31
0
  0
LINE
  8
0
 62
7
 10
7.100000000000005
 20
2.930000000000003
 30
0
 11
7.104500000000006
 21
2.920000000000003
 31
0
  0
LINE
  8
0
 62
7
 10
7.104500000000006
 20
2.920000000000003
 30
0
 11
7.104500000000006
 21
2.910000000000003
 31
0
  0
LINE
  8
0
 62
7
 10
7.104500000000006
 20
2.910000000000003
 30
0
 11
7.100000000000005
 21
2.900000000000003
 31
0
  0
LINE
  8
0
 62
7
 10
7.100000000000005
 20
2.900000000000003
 30
0
 11
7.095500000000006
 21
2.895000000000003
 31
0
  0
LINE
  8
0
 62
7
 10
7.095500000000006
 20
2.895000000000003
 30
0
 11
7.086500000000005
 21
2.890000000000003
 31
0
  0
LINE
  8
0
 62
7
 10
7.086500000000005
 20
2.890000000000003
 30
0
 11
7.046000000000006
 21
2.890000000000003
 31
0
  0
LINE
  8
0
 62
7
 10
7.046000000000006
 20
2.890000000000003
 30
0
 11
7.046000000000006
 21
2.940000000000003
 31
0
  0
LINE
  8
0
 62
7
 10
7.046000000000006
 20
2.990000000000003
 30
0
 11
7.079750000000004
 21
2.990000000000003
 31
0
  0
LINE
  8
0
 62
7
 10
7.079750000000004
 20
2.990000000000003
 30
0
 11
7.091000000000006
 21
2.987500000000003
 31
0
  0
LINE
  8
0
 62
7
 10
7.091000000000006
 20
2.987500000000003
 30
0
 11
7.097750000000007
 21
2.980000000000003
 31
0
  0
LINE
  8
0
 62
7
 10
7.097750000000007
 20
2.980000000000003
 30
0
 11
7.100000000000005
 21
2.970000000000003
 31
0
  0
LINE
  8
0
 62
7
 10
7.100000000000005
 20
2.970000000000003
 30
0
 11
7.100000000000005
 21
2.960000000000003
 31
0
  0
LINE
  8
0
 62
7
 10
7.100000000000005
 20
2.960000000000003
 30
0
 11
7.095500000000006
 21
2.950000000000003
 31
0
  0
LINE
  8
0
 62
7
 10
7.095500000000006
 20
2.950000000000003
 30
0
 11
7.088750000000005
 21
2.942500000000003
 31
0
  0
LINE
  8
0
 62
7
 10
7.088750000000005
 20
2.942500000000003
 30
0
 11
7.082000000000005
 21
2.940000000000003
 31
0
  0
LINE
  8
0
 62
7
 10
7.046000000000006
 20
2.940000000000003
 30
0
 11
7.046000000000006
 21
2.990000000000003
 31
0
  0
LINE
  8
0
 62
7
 10
7.246250000000005
 20
2.942500000000003
 30
0
 11
7.239500000000006
 21
2.952500000000003
 31
0
  0
LINE
  8
0
 62
7
 10
7.239500000000006
 20
2.952500000000003
 30
0
 11
7.232750000000006
 21
2.957500000000003
 31
0
  0
LINE
  8
0
 62
7
 10
7.232750000000006
 20
2.957500000000003
 30
0
 11
7.226000000000005
 21
2.960000000000003
 31
0
  0
LINE
  8
0
 62
7
 10
7.226000000000005
 20
2.960000000000003
 30
0
 11
7.217000000000006
 21
2.960000000000003
 31
0
  0
LINE
  8
0
 62
7
 10
7.217000000000006
 20
2.960000000000003
 30
0
 11
7.210250000000006
 21
2.957500000000003
 31
0
  0
LINE
  8
0
 62
7
 10
7.210250000000006
 20
2.957500000000003
 30
0
 11
7.203500000000005
 21
2.952500000000003
 31
0
  0
LINE
  8
0
 62
7
 10
7.203500000000005
 20
2.952500000000003
 30
0
 11
7.196750000000006
 21
2.942500000000003
 31
0
  0
LINE
  8
0
 62
7
 10
7.196750000000006
 20
2.942500000000003
 30
0
 11
7.194500000000005
 21
2.935000000000003
 31
0
  0
LINE
  8
0
 62
7
 10
7.194500000000005
 20
2.935000000000003
 30
0
 11
7.194500000000005
 21
2.915000000000003
 31
0
  0
LINE
  8
0
 62
7
 10
7.194500000000005
 20
2.915000000000003
 30
0
 11
7.196750000000006
 21
2.907500000000003
 31
0
  0
LINE
  8
0
 62
7
 10
7.196750000000006
 20
2.907500000000003
 30
0
 11
7.203500000000005
 21
2.897500000000003
 31
0
  0
LINE
  8
0
 62
7
 10
7.203500000000005
 20
2.897500000000003
 30
0
 11
7.210250000000006
 21
2.892500000000003
 31
0
  0
LINE
  8
0
 62
7
 10
7.210250000000006
 20
2.892500000000003
 30
0
 11
7.217000000000006
 21
2.890000000000003
 31
0
  0
LINE
  8
0
 62
7
 10
7.217000000000006
 20
2.890000000000003
 30
0
 11
7.226000000000005
 21
2.890000000000003
 31
0
  0
LINE
  8
0
 62
7
 10
7.226000000000005
 20
2.890000000000003
 30
0
 11
7.232750000000006
 21
2.892500000000003
 31
0
  0
LINE
  8
0
 62
7
 10
7.232750000000006
 20
2.892500000000003
 30
0
 11
7.239500000000006
 21
2.897500000000003
 31
0
  0
LINE
  8
0
 62
7
 10
7.239500000000006
 20
2.897500000000003
 30
0
 11
7.246250000000005
 21
2.907500000000003
 31
0
  0
LINE
  8
0
 62
7
 10
7.318250000000006
 20
2.935000000000003
 30
0
 11
7.316000000000006
 21
2.942500000000003
 31
0
  0
LINE
  8
0
 62
7
 10
7.316000000000006
 20
2.942500000000003
 30
0
 11
7.309250000000006
 21
2.952500000000003
 31
0
  0
LINE
  8
0
 62
7
 10
7.309250000000006
 20
2.952500000000003
 30
0
 11
7.302500000000006
 21
2.957500000000003
 31
0
  0
LINE
  8
0
 62
7
 10
7.302500000000006
 20
2.957500000000003
 30
0
 11
7.295750000000005
 21
2.960000000000003
 31
0
  0
LINE
  8
0
 62
7
 10
7.295750000000005
 20
2.960000000000003
 30
0
 11
7.286750000000005
 21
2.960000000000003
 31
0
  0
LINE
  8
0
 62
7
 10
7.286750000000005
 20
2.960000000000003
 30
0
 11
7.280000000000006
 21
2.957500000000003
 31
0
  0
LINE
  8
0
 62
7
 10
7.280000000000006
 20
2.957500000000003
 30
0
 11
7.273250000000006
 21
2.952500000000003
 31
0
  0
LINE
  8
0
 62
7
 10
7.273250000000006
 20
2.952500000000003
 30
0
 11
7.266500000000007
 21
2.942500000000003
 31
0
  0
LINE
  8
0
 62
7
 10
7.266500000000007
 20
2.942500000000003
 30
0
 11
7.264250000000006
 21
2.935000000000003
 31
0
  0
LINE
  8
0
 62
7
 10
7.264250000000006
 20
2.935000000000003
 30
0
 11
7.264250000000006
 21
2.915000000000003
 31
0
  0
LINE
  8
0
 62
7
 10
7.264250000000006
 20
2.915000000000003
 30
0
 11
7.266500000000007
 21
2.907500000000003
 31
0
  0
LINE
  8
0
 62
7
 10
7.266500000000007
 20
2.907500000000003
 30
0
 11
7.273250000000006
 21
2.897500000000003
 31
0
  0
LINE
  8
0
 62
7
 10
7.273250000000006
 20
2.897500000000003
 30
0
 11
7.280000000000006
 21
2.892500000000003
 31
0
  0
LINE
  8
0
 62
7
 10
7.280000000000006
 20
2.892500000000003
 30
0
 11
7.286750000000005
 21
2.890000000000003
 31
0
  0
LINE
  8
0
 62
7
 10
7.286750000000005
 20
2.890000000000003
 30
0
 11
7.295750000000005
 21
2.890000000000003
 31
0
  0
LINE
  8
0
 62
7
 10
7.295750000000005
 20
2.890000000000003
 30
0
 11
7.302500000000006
 21
2.892500000000003
 31
0
  0
LINE
  8
0
 62
7
 10
7.302500000000006
 20
2.892500000000003
 30
0
 11
7.309250000000006
 21
2.897500000000003
 31
0
  0
LINE
  8
0
 62
7
 10
7.309250000000006
 20
2.897500000000003
 30
0
 11
7.316000000000006
 21
2.907500000000003
 31
0
  0
LINE
  8
0
 62
7
 10
7.316000000000006
 20
2.907500000000003
 30
0
 11
7.318250000000006
 21
2.915000000000003
 31
0
  0
LINE
  8
0
 62
7
 10
7.318250000000006
 20
2.960000000000003
 30
0
 11
7.318250000000006
 21
2.935000000000003
 31
0
  0
LINE
  8
0
 62
7
 10
7.318250000000006
 20
2.892500000000003
 30
0
 11
7.320500000000006
 21
2.890000000000003
 31
0
  0
LINE
  8
0
 62
7
 10
7.320500000000006
 20
2.890000000000003
 30
0
 11
7.322750000000006
 21
2.890000000000003
 31
0
  0
LINE
  8
0
 62
7
 10
7.318250000000006
 20
2.915000000000003
 30
0
 11
7.318250000000006
 21
2.892500000000003
 31
0
  0
LINE
  8
0
 62
7
 10
7.318250000000006
 20
2.935000000000003
 30
0
 11
7.318250000000006
 21
2.915000000000003
 31
0
  0
LINE
  8
0
 62
7
 10
7.340750000000006
 20
2.890000000000003
 30
0
 11
7.340750000000006
 21
2.892500000000003
 31
0
  0
LINE
  8
0
 62
7
 10
7.340750000000006
 20
2.892500000000003
 30
0
 11
7.343000000000005
 21
2.892500000000003
 31
0
  0
LINE
  8
0
 62
7
 10
7.343000000000005
 20
2.892500000000003
 30
0
 11
7.343000000000005
 21
2.890000000000003
 31
0
  0
LINE
  8
0
 62
7
 10
7.343000000000005
 20
2.890000000000003
 30
0
 11
7.340750000000006
 21
2.890000000000003
 31
0
  0
LINE
  8
0
 62
7
 10
7.466750000000006
 20
2.990000000000003
 30
0
 11
7.475750000000005
 21
2.990000000000003
 31
0
  0
LINE
  8
0
 62
7
 10
7.475750000000005
 20
2.990000000000003
 30
0
 11
7.482500000000005
 21
2.987500000000003
 31
0
  0
LINE
  8
0
 62
7
 10
7.482500000000005
 20
2.987500000000003
 30
0
 11
7.487000000000006
 21
2.982500000000003
 31
0
  0
LINE
  8
0
 62
7
 10
7.487000000000006
 20
2.982500000000003
 30
0
 11
7.491500000000006
 21
2.975000000000003
 31
0
  0
LINE
  8
0
 62
7
 10
7.491500000000006
 20
2.975000000000003
 30
0
 11
7.491500000000006
 21
2.965000000000003
 31
0
  0
LINE
  8
0
 62
7
 10
7.491500000000006
 20
2.965000000000003
 30
0
 11
7.489250000000006
 21
2.960000000000003
 31
0
  0
LINE
  8
0
 62
7
 10
7.489250000000006
 20
2.960000000000003
 30
0
 11
7.482500000000005
 21
2.952500000000003
 31
0
  0
LINE
  8
0
 62
7
 10
7.482500000000005
 20
2.952500000000003
 30
0
 11
7.475750000000005
 21
2.950000000000003
 31
0
  0
LINE
  8
0
 62
7
 10
7.475750000000005
 20
2.950000000000003
 30
0
 11
7.466750000000006
 21
2.950000000000003
 31
0
  0
LINE
  8
0
 62
7
 10
7.466750000000006
 20
2.950000000000003
 30
0
 11
7.460000000000005
 21
2.952500000000003
 31
0
  0
LINE
  8
0
 62
7
 10
7.460000000000005
 20
2.952500000000003
 30
0
 11
7.453250000000006
 21
2.960000000000003
 31
0
  0
LINE
  8
0
 62
7
 10
7.453250000000006
 20
2.960000000000003
 30
0
 11
7.451000000000005
 21
2.965000000000003
 31
0
  0
LINE
  8
0
 62
7
 10
7.451000000000005
 20
2.965000000000003
 30
0
 11
7.451000000000005
 21
2.975000000000003
 31
0
  0
LINE
  8
0
 62
7
 10
7.451000000000005
 20
2.975000000000003
 30
0
 11
7.455500000000005
 21
2.982500000000003
 31
0
  0
LINE
  8
0
 62
7
 10
7.455500000000005
 20
2.982500000000003
 30
0
 11
7.460000000000005
 21
2.987500000000003
 31
0
  0
LINE
  8
0
 62
7
 10
7.460000000000005
 20
2.987500000000003
 30
0
 11
7.466750000000006
 21
2.990000000000003
 31
0
  0
LINE
  8
0
 62
7
 10
7.466750000000006
 20
2.950000000000003
 30
0
 11
7.455500000000005
 21
2.945000000000003
 31
0
  0
LINE
  8
0
 62
7
 10
7.455500000000005
 20
2.945000000000003
 30
0
 11
7.448750000000006
 21
2.937500000000003
 31
0
  0
LINE
  8
0
 62
7
 10
7.448750000000006
 20
2.937500000000003
 30
0
 11
7.444250000000006
 21
2.927500000000003
 31
0
  0
LINE
  8
0
 62
7
 10
7.444250000000006
 20
2.927500000000003
 30
0
 11
7.444250000000006
 21
2.912500000000003
 31
0
  0
LINE
  8
0
 62
7
 10
7.444250000000006
 20
2.912500000000003
 30
0
 11
7.448750000000006
 21
2.902500000000003
 31
0
  0
LINE
  8
0
 62
7
 10
7.448750000000006
 20
2.902500000000003
 30
0
 11
7.455500000000005
 21
2.895000000000003
 31
0
  0
LINE
  8
0
 62
7
 10
7.455500000000005
 20
2.895000000000003
 30
0
 11
7.464500000000005
 21
2.890000000000003
 31
0
  0
LINE
  8
0
 62
7
 10
7.464500000000005
 20
2.890000000000003
 30
0
 11
7.478000000000006
 21
2.890000000000003
 31
0
  0
LINE
  8
0
 62
7
 10
7.478000000000006
 20
2.890000000000003
 30
0
 11
7.487000000000006
 21
2.895000000000003
 31
0
  0
LINE
  8
0
 62
7
 10
7.487000000000006
 20
2.895000000000003
 30
0
 11
7.493750000000005
 21
2.902500000000003
 31
0
  0
LINE
  8
0
 62
7
 10
7.493750000000005
 20
2.902500000000003
 30
0
 11
7.498250000000006
 21
2.912500000000003
 31
0
  0
LINE
  8
0
 62
7
 10
7.498250000000006
 20
2.912500000000003
 30
0
 11
7.498250000000006
 21
2.927500000000003
 31
0
  0
LINE
  8
0
 62
7
 10
7.498250000000006
 20
2.927500000000003
 30
0
 11
7.493750000000005
 21
2.937500000000003
 31
0
  0
LINE
  8
0
 62
7
 10
7.493750000000005
 20
2.937500000000003
 30
0
 11
7.487000000000006
 21
2.945000000000003
 31
0
  0
LINE
  8
0
 62
7
 10
7.487000000000006
 20
2.945000000000003
 30
0
 11
7.475750000000005
 21
2.950000000000003
 31
0
  0
LINE
  8
0
 62
7
 10
7.588250000000006
 20
2.950000000000003
 30
0
 11
7.586000000000005
 21
2.940000000000003
 31
0
  0
LINE
  8
0
 62
7
 10
7.586000000000005
 20
2.940000000000003
 30
0
 11
7.581500000000005
 21
2.932500000000003
 31
0
  0
LINE
  8
0
 62
7
 10
7.581500000000005
 20
2.932500000000003
 30
0
 11
7.574750000000005
 21
2.927500000000003
 31
0
  0
LINE
  8
0
 62
7
 10
7.574750000000005
 20
2.927500000000003
 30
0
 11
7.568000000000005
 21
2.925000000000003
 31
0
  0
LINE
  8
0
 62
7
 10
7.568000000000005
 20
2.925000000000003
 30
0
 11
7.554500000000006
 21
2.925000000000003
 31
0
  0
LINE
  8
0
 62
7
 10
7.554500000000006
 20
2.925000000000003
 30
0
 11
7.547750000000007
 21
2.927500000000003
 31
0
  0
LINE
  8
0
 62
7
 10
7.547750000000007
 20
2.927500000000003
 30
0
 11
7.541000000000006
 21
2.932500000000003
 31
0
  0
LINE
  8
0
 62
7
 10
7.541000000000006
 20
2.932500000000003
 30
0
 11
7.536500000000006
 21
2.940000000000003
 31
0
  0
LINE
  8
0
 62
7
 10
7.536500000000006
 20
2.940000000000003
 30
0
 11
7.534250000000006
 21
2.950000000000003
 31
0
  0
LINE
  8
0
 62
7
 10
7.534250000000006
 20
2.950000000000003
 30
0
 11
7.534250000000006
 21
2.965000000000003
 31
0
  0
LINE
  8
0
 62
7
 10
7.534250000000006
 20
2.965000000000003
 30
0
 11
7.536500000000006
 21
2.975000000000003
 31
0
  0
LINE
  8
0
 62
7
 10
7.536500000000006
 20
2.975000000000003
 30
0
 11
7.541000000000006
 21
2.982500000000003
 31
0
  0
LINE
  8
0
 62
7
 10
7.541000000000006
 20
2.982500000000003
 30
0
 11
7.547750000000007
 21
2.987500000000003
 31
0
  0
LINE
  8
0
 62
7
 10
7.547750000000007
 20
2.987500000000003
 30
0
 11
7.554500000000006
 21
2.990000000000003
 31
0
  0
LINE
  8
0
 62
7
 10
7.554500000000006
 20
2.990000000000003
 30
0
 11
7.568000000000005
 21
2.990000000000003
 31
0
  0
LINE
  8
0
 62
7
 10
7.568000000000005
 20
2.990000000000003
 30
0
 11
7.574750000000005
 21
2.987500000000003
 31
0
  0
LINE
  8
0
 62
7
 10
7.574750000000005
 20
2.987500000000003
 30
0
 11
7.581500000000005
 21
2.982500000000003
 31
0
  0
LINE
  8
0
 62
7
 10
7.581500000000005
 20
2.982500000000003
 30
0
 11
7.586000000000005
 21
2.975000000000003
 31
0
  0
LINE
  8
0
 62
7
 10
7.586000000000005
 20
2.975000000000003
 30
0
 11
7.588250000000006
 21
2.965000000000003
 31
0
  0
LINE
  8
0
 62
7
 10
7.588250000000006
 20
2.965000000000003
 30
0
 11
7.588250000000006
 21
2.950000000000003
 31
0
  0
LINE
  8
0
 62
7
 10
7.588250000000006
 20
2.915000000000003
 30
0
 11
7.586000000000005
 21
2.905000000000003
 31
0
  0
LINE
  8
0
 62
7
 10
7.586000000000005
 20
2.905000000000003
 30
0
 11
7.581500000000005
 21
2.897500000000003
 31
0
  0
LINE
  8
0
 62
7
 10
7.581500000000005
 20
2.897500000000003
 30
0
 11
7.574750000000005
 21
2.892500000000003
 31
0
  0
LINE
  8
0
 62
7
 10
7.574750000000005
 20
2.892500000000003
 30
0
 11
7.568000000000005
 21
2.890000000000003
 31
0
  0
LINE
  8
0
 62
7
 10
7.568000000000005
 20
2.890000000000003
 30
0
 11
7.554500000000006
 21
2.890000000000003
 31
0
  0
LINE
  8
0
 62
7
 10
7.554500000000006
 20
2.890000000000003
 30
0
 11
7.547750000000007
 21
2.892500000000003
 31
0
  0
LINE
  8
0
 62
7
 10
7.547750000000007
 20
2.892500000000003
 30
0
 11
7.541000000000006
 21
2.897500000000003
 31
0
  0
LINE
  8
0
 62
7
 10
7.541000000000006
 20
2.897500000000003
 30
0
 11
7.536500000000006
 21
2.905000000000003
 31
0
  0
LINE
  8
0
 62
7
 10
7.588250000000006
 20
2.950000000000003
 30
0
 11
7.588250000000006
 21
2.915000000000003
 31
0
  0
LINE
  8
0
 62
7
 10
7.739000000000006
 20
2.942500000000003
 30
0
 11
7.732250000000005
 21
2.952500000000003
 31
0
  0
LINE
  8
0
 62
7
 10
7.732250000000005
 20
2.952500000000003
 30
0
 11
7.725500000000006
 21
2.957500000000003
 31
0
  0
LINE
  8
0
 62
7
 10
7.725500000000006
 20
2.957500000000003
 30
0
 11
7.718750000000004
 21
2.960000000000003
 31
0
  0
LINE
  8
0
 62
7
 10
7.718750000000004
 20
2.960000000000003
 30
0
 11
7.709750000000006
 21
2.960000000000003
 31
0
  0
LINE
  8
0
 62
7
 10
7.709750000000006
 20
2.960000000000003
 30
0
 11
7.703000000000007
 21
2.957500000000003
 31
0
  0
LINE
  8
0
 62
7
 10
7.703000000000007
 20
2.957500000000003
 30
0
 11
7.696250000000005
 21
2.952500000000003
 31
0
  0
LINE
  8
0
 62
7
 10
7.696250000000005
 20
2.952500000000003
 30
0
 11
7.689500000000006
 21
2.942500000000003
 31
0
  0
LINE
  8
0
 62
7
 10
7.689500000000006
 20
2.942500000000003
 30
0
 11
7.687250000000005
 21
2.935000000000003
 31
0
  0
LINE
  8
0
 62
7
 10
7.687250000000005
 20
2.935000000000003
 30
0
 11
7.687250000000005
 21
2.915000000000003
 31
0
  0
LINE
  8
0
 62
7
 10
7.687250000000005
 20
2.915000000000003
 30
0
 11
7.689500000000006
 21
2.907500000000003
 31
0
  0
LINE
  8
0
 62
7
 10
7.689500000000006
 20
2.907500000000003
 30
0
 11
7.696250000000005
 21
2.897500000000003
 31
0
  0
LINE
  8
0
 62
7
 10
7.696250000000005
 20
2.897500000000003
 30
0
 11
7.703000000000007
 21
2.892500000000003
 31
0
  0
LINE
  8
0
 62
7
 10
7.703000000000007
 20
2.892500000000003
 30
0
 11
7.709750000000006
 21
2.890000000000003
 31
0
  0
LINE
  8
0
 62
7
 10
7.709750000000006
 20
2.890000000000003
 30
0
 11
7.718750000000004
 21
2.890000000000003
 31
0
  0
LINE
  8
0
 62
7
 10
7.718750000000004
 20
2.890000000000003
 30
0
 11
7.725500000000006
 21
2.892500000000003
 31
0
  0
LINE
  8
0
 62
7
 10
7.725500000000006
 20
2.892500000000003
 30
0
 11
7.732250000000005
 21
2.897500000000003
 31
0
  0
LINE
  8
0
 62
7
 10
7.732250000000005
 20
2.897500000000003
 30
0
 11
7.739000000000006
 21
2.907500000000003
 31
0
  0
LINE
  8
0
 62
7
 10
7.797500000000006
 20
2.935000000000003
 30
0
 11
7.797500000000006
 21
2.890000000000003
 31
0
  0
LINE
  8
0
 62
7
 10
7.757000000000005
 20
2.960000000000003
 30
0
 11
7.757000000000005
 21
2.935000000000003
 31
0
  0
LINE
  8
0
 62
7
 10
7.757000000000005
 20
2.890000000000003
 30
0
 11
7.757000000000005
 21
2.935000000000003
 31
0
  0
LINE
  8
0
 62
7
 10
7.757000000000005
 20
2.935000000000003
 30
0
 11
7.759250000000006
 21
2.947500000000003
 31
0
  0
LINE
  8
0
 62
7
 10
7.759250000000006
 20
2.947500000000003
 30
0
 11
7.761500000000005
 21
2.952500000000003
 31
0
  0
LINE
  8
0
 62
7
 10
7.761500000000005
 20
2.952500000000003
 30
0
 11
7.766000000000005
 21
2.957500000000003
 31
0
  0
LINE
  8
0
 62
7
 10
7.766000000000005
 20
2.957500000000003
 30
0
 11
7.772750000000006
 21
2.960000000000003
 31
0
  0
LINE
  8
0
 62
7
 10
7.772750000000006
 20
2.960000000000003
 30
0
 11
7.781750000000006
 21
2.960000000000003
 31
0
  0
LINE
  8
0
 62
7
 10
7.781750000000006
 20
2.960000000000003
 30
0
 11
7.788500000000005
 21
2.957500000000003
 31
0
  0
LINE
  8
0
 62
7
 10
7.788500000000005
 20
2.957500000000003
 30
0
 11
7.793000000000005
 21
2.952500000000003
 31
0
  0
LINE
  8
0
 62
7
 10
7.793000000000005
 20
2.952500000000003
 30
0
 11
7.795250000000006
 21
2.947500000000003
 31
0
  0
LINE
  8
0
 62
7
 10
7.795250000000006
 20
2.947500000000003
 30
0
 11
7.797500000000006
 21
2.935000000000003
 31
0
  0
LINE
  8
0
 62
7
 10
7.797500000000006
 20
2.935000000000003
 30
0
 11
7.799750000000005
 21
2.947500000000003
 31
0
  0
LINE
  8
0
 62
7
 10
7.799750000000005
 20
2.947500000000003
 30
0
 11
7.802000000000006
 21
2.952500000000003
 31
0
  0
LINE
  8
0
 62
7
 10
7.802000000000006
 20
2.952500000000003
 30
0
 11
7.806500000000006
 21
2.957500000000003
 31
0
  0
LINE
  8
0
 62
7
 10
7.806500000000006
 20
2.957500000000003
 30
0
 11
7.813250000000005
 21
2.960000000000003
 31
0
  0
LINE
  8
0
 62
7
 10
7.813250000000005
 20
2.960000000000003
 30
0
 11
7.822250000000006
 21
2.960000000000003
 31
0
  0
LINE
  8
0
 62
7
 10
7.822250000000006
 20
2.960000000000003
 30
0
 11
7.829000000000007
 21
2.957500000000003
 31
0
  0
LINE
  8
0
 62
7
 10
7.833500000000005
 20
2.952500000000003
 30
0
 11
7.829000000000007
 21
2.957500000000003
 31
0
  0
LINE
  8
0
 62
7
 10
7.829000000000007
 20
2.957500000000003
 30
0
 11
7.833500000000005
 21
2.952500000000003
 31
0
  0
LINE
  8
0
 62
7
 10
7.833500000000005
 20
2.952500000000003
 30
0
 11
7.835750000000006
 21
2.947500000000003
 31
0
  0
LINE
  8
0
 62
7
 10
7.835750000000006
 20
2.947500000000003
 30
0
 11
7.838000000000005
 21
2.935000000000003
 31
0
  0
LINE
  8
0
 62
7
 10
7.838000000000005
 20
2.935000000000003
 30
0
 11
7.838000000000005
 21
2.890000000000003
 31
0
  0
ARC
  8
0
 62
7
 10
4.704104610378895
 20
3.425895389621161
 30
0
 40
0.4880000000000017
 50
89.89487279584652
 51
180.1051272011665
  0
CIRCLE
  8
0
 62
7
 10
4.216105431816617
 20
3.250000000000003
 30
0
 40
0.0600000000000005
  0
DIMENSION
  8
0
  6
CONTINUOUS
 62
7
  2
*D0
  3
DMST_1
 10
3.700000000000005
 20
11.4763926888491
 30
0
 11
5.541967880724261
 21
11.4763926888491
 31
0
 12
0
 22
0
 32
0
 70
0
 13
7.460000000000005
 23
11.05
 33
0
 14
3.700000000000005
 24
11.05
 34
0
 53
0
  0
DIMENSION
  8
0
  6
CONTINUOUS
 62
7
  2
*D1
  3
DMST_1
 10
3.700000000000005
 20
5.31329463833983
 30
0
 11
5.564419968339961
 21
5.31329463833983
 31
0
 12
0
 22
0
 32
0
 70
0
 13
7.460000000000005
 23
4.430000000000001
 33
0
 14
3.700000000000005
 24
4.430000000000001
 34
0
 53
0
  0
DIMENSION
  8
0
  6
CONTINUOUS
 62
7
  2
*D2
  3
DMST_1
 10
7.78796379746943
 20
3.350000000000001
 30
0
 11
7.78796379746943
 21
3.88618230550704
 31
0
 12
0
 22
0
 32
0
 70
0
 13
7.460000000000005
 23
4.430000000000001
 33
0
 14
7.460000000000005
 24
3.350000000000001
 34
0
 50
90
 53
0
  0
DIMENSION
  8
0
  6
CONTINUOUS
 62
7
  2
*D3
  3
DMST_1
 10
3.195724724883771
 20
4.430000000000001
 30
0
 11
3.195724724883771
 21
3.84268289951157
 31
0
 12
0
 22
0
 32
0
 70
0
 13
3.700000000000005
 23
3.250000000000001
 33
0
 14
3.700000000000005
 24
4.430000000000001
 34
0
 50
90
 53
0
  0
INSERT
  8
0
  2
*D4
 10
0
 20
0
 30
0
  0
ENDSEC
  0
EOF
